osu file format v14

[General]
AudioFilename: audio.mp3
AudioLeadIn: 0
PreviewTime: 30660
Countdown: 0
SampleSet: Soft
StackLeniency: 0.7
Mode: 0
LetterboxInBreaks: 0
WidescreenStoryboard: 0

[Editor]
DistanceSpacing: 1.3
BeatDivisor: 4
GridSize: 32
TimelineZoom: 1.5

[Metadata]
Title:MUKANJYO
TitleUnicode:MUKANJYO
Artist:Survive Said The Prophet
ArtistUnicode:Survive Said The Prophet
Creator:Hantrik
Version:INSENSIBLE
Source:ヴィンランド・サガ
Tags:vinland saga anime op opening male vocalist j-rock jrock japanese rock bossandy akitoshi corinn -laura- smoke
BeatmapID:2147636
BeatmapSetID:1026970

[Difficulty]
HPDrainRate:6
CircleSize:4
OverallDifficulty:9
ApproachRate:9.2
SliderMultiplier:1.72
SliderTickRate:1

[Events]
//Background and Video events
0,0,"BG.jpg",0,0
//Break Periods
2,51150,52906
2,74089,80064
2,126939,133137
//Storyboard Layer 0 (Background)
//Storyboard Layer 1 (Fail)
//Storyboard Layer 2 (Pass)
//Storyboard Layer 3 (Foreground)
//Storyboard Layer 4 (Overlay)
//Storyboard Sound Samples

[TimingPoints]
424,315.789473684211,4,2,1,35,1,0
424,-121.951219512195,4,2,1,35,0,0
10529,-108.695652173913,4,2,1,55,0,0
29476,-108.695652173913,4,2,1,35,0,0
30739,-81.9672131147541,4,2,1,75,0,1
50950,-81.9672131147541,4,2,1,40,0,0
53476,-121.951219512195,4,2,1,40,0,0
83792,-81.967213114754,4,2,1,75,0,1
102739,-81.967213114754,4,2,1,60,0,0
104002,-121.951219512195,4,2,1,60,0,0
123897,-454.545454545452,4,2,1,60,0,0
124134,-312.499999999999,4,2,1,5,0,0
124213,-238.095238095238,4,2,1,70,0,0
126739,-312.499999999999,4,2,1,35,0,0
134318,-75.7575757575758,4,2,1,80,0,1
154529,-192.307692307692,4,2,1,65,0,0
155318,-192.307692307692,4,2,1,65,0,0
155476,-138.888888888889,4,2,1,65,0,0
173476,-108.695652173913,4,2,1,70,0,0
174739,-108.695652173913,4,2,1,80,0,0
175055,-108.695652173913,4,2,1,78,0,0
175371,-108.695652173913,4,2,1,74,0,0
175687,-108.695652173913,4,2,1,72,0,0
176002,-108.695652173913,4,2,1,70,0,0
176318,-108.695652173913,4,2,1,68,0,0
176634,-108.695652173913,4,2,1,66,0,0
176950,-108.695652173913,4,2,1,64,0,0
177266,-108.695652173913,4,2,1,62,0,0
177581,-108.695652173913,4,2,1,60,0,0
177897,-108.695652173913,4,2,1,58,0,0
178213,-108.695652173913,4,2,1,56,0,0
178529,-108.695652173913,4,2,1,54,0,0
178845,-108.695652173913,4,2,1,52,0,0
179160,-108.695652173913,4,2,1,50,0,0
179476,-108.695652173913,4,2,1,48,0,0
179792,-108.695652173913,4,2,1,46,0,0
180108,-108.695652173913,4,2,1,44,0,0
180424,-108.695652173913,4,2,1,42,0,0
180739,-108.695652173913,4,2,1,40,0,0
181055,-108.695652173913,4,2,1,38,0,0
181371,-108.695652173913,4,2,1,36,0,0
181687,-108.695652173913,4,2,1,34,0,0
182002,-108.695652173913,4,2,1,32,0,0
182318,-108.695652173913,4,2,1,30,0,0
182634,-108.695652173913,4,2,1,28,0,0
182950,-108.695652173913,4,2,1,26,0,0
183266,-108.695652173913,4,2,1,24,0,0
183581,-108.695652173913,4,2,1,22,0,0
183897,-108.695652173913,4,2,1,20,0,0
184213,-108.695652173913,4,2,1,18,0,0
184371,-108.695652173913,4,2,1,16,0,0

[Colours]
Combo1 : 224,147,120
Combo2 : 136,136,136
Combo3 : 228,228,228
Combo4 : 255,108,108
Combo5 : 255,187,187
Combo6 : 240,200,183
SliderBorder : 222,247,255

[HitObjects]
36,71,424,6,0,P|50:113|56:150,1,70.5200010760498,2|2,0:0|0:0,0:0:0:0:
146,49,739,1,2,0:0:0:0:
146,49,897,1,2,0:0:0:0:
207,127,1055,2,0,P|241:145|279:150,1,70.5200010760498,2|2,0:0|0:0,0:0:0:0:
342,85,1371,2,0,P|376:67|414:62,1,70.5200010760498,2|2,0:0|0:0,0:0:0:0:
496,123,1687,5,2,0:0:0:0:
496,123,1845,1,2,0:0:0:0:
441,202,2002,1,2,0:0:0:0:
441,202,2160,1,2,0:0:0:0:
489,283,2318,2,0,L|504:359,2,70.5200010760498,2|2|2,0:0|0:0|0:0,0:0:0:0:
347,268,2950,70,0,B|256:270|314:215|211:223,1,141.0400021521,2|2,0:0|0:0,0:0:0:0:
62,259,3424,1,2,0:0:0:0:
62,259,3581,2,0,P|56:210|45:169,1,70.5200010760498,2|2,0:0|0:0,0:0:0:0:
174,108,3897,2,0,P|166:142|163:177,1,70.5200010760498,2|2,0:0|0:0,0:0:0:0:
52,78,4213,1,2,0:0:0:0:
52,78,4371,1,2,0:0:0:0:
154,7,4529,2,0,P|206:6|235:29,1,70.5200010760498,2|2,0:0|0:0,0:0:0:0:
273,104,4845,1,2,0:0:0:0:
273,104,5002,1,2,0:0:0:0:
371,54,5160,2,0,L|385:134,1,70.5200010760498,2|2,0:0|0:0,0:0:0:0:
351,232,5476,6,0,P|305:263|220:235,1,141.0400021521,2|0,0:0|0:0,0:0:0:0:
2,145,5950,2,0,P|48:114|133:142,1,141.0400021521,2|0,0:0|0:0,0:0:0:0:
149,220,6424,1,2,0:0:0:0:
149,220,6581,1,2,0:0:0:0:
237,138,6739,2,0,P|272:122|314:119,1,70.5200010760498,0|2,0:0|0:0,0:0:0:0:
395,170,7055,2,0,P|430:186|472:189,1,70.5200010760498,2|2,0:0|0:0,0:0:0:0:
451,284,7371,2,0,L|444:364,1,70.5200010760498,2|2,0:0|0:0,0:0:0:0:
306,227,7687,2,0,L|313:307,1,70.5200010760498,2|2,0:0|0:0,0:0:0:0:
260,384,8002,70,0,B|162:378|227:332|117:331,1,141.0400021521,2|0,0:0|0:0,0:0:0:0:
149,176,8476,2,0,P|192:128|285:150,1,141.0400021521,2|0,0:0|0:0,0:0:0:0:
447,203,8950,1,2,0:0:0:0:
447,203,9108,2,0,L|461:58,1,141.0400021521,2|2,0:0|0:0,0:0:0:0:
377,11,9581,1,2,0:0:0:0:
377,11,9739,2,0,B|318:52|318:52|250:34,1,141.0400021521,2|2,0:0|0:0,0:0:0:0:
156,147,10213,2,0,L|239:137,1,70.5200010760498,2|2,0:0|0:0,0:0:0:0:
51,50,10529,69,8,0:0:0:0:
48,85,10608,1,8,0:0:0:0:
46,120,10687,1,10,0:0:0:0:
44,155,10766,1,8,0:0:0:0:
42,190,10845,2,0,P|55:235|60:283,1,79.1199973439942,10|2,0:0|0:0,0:0:0:0:
246,149,11160,2,0,P|233:194|228:242,1,79.1199973439942,2|2,1:2|0:0,0:0:0:0:
165,40,11476,2,0,P|211:21|270:25,1,79.1199973439942,2|2,1:2|0:0,0:0:0:0:
416,35,11792,69,2,1:2:0:0:
416,35,11950,1,2,0:0:0:0:
325,126,12108,2,0,P|335:165|338:224,1,79.1199973439942,2|2,1:2|0:0,0:0:0:0:
488,276,12424,2,0,P|491:236|501:198,1,79.1199973439942,2|0,1:2|0:0,0:0:0:0:
322,297,12739,2,0,P|278:287|238:298,1,79.1199973439942,2|0,1:2|0:0,0:0:0:0:
130,334,13055,5,8,0:0:0:0:
92,345,13134,1,8,0:0:0:0:
54,337,13213,1,8,0:0:0:0:
24,312,13292,1,8,0:0:0:0:
9,276,13371,2,0,L|16:178,1,79.1199973439942,10|2,0:0|0:0,0:0:0:0:
166,132,13687,2,0,L|173:230,1,79.1199973439942,2|2,1:2|0:0,0:0:0:0:
34,85,14002,1,2,1:2:0:0:
34,85,14160,1,2,0:0:0:0:
220,27,14318,70,0,P|270:51|316:54,1,79.1199973439942,2|2,1:2|0:0,0:0:0:0:
76,11,14634,1,2,1:2:0:0:
244,129,14792,2,0,P|294:104|340:101,1,79.1199973439942,2|2,0:0|1:2,0:0:0:0:
444,144,15108,1,2,0:0:0:0:
266,219,15266,1,2,1:2:0:0:
419,312,15424,1,2,3:2:0:0:
419,312,15502,1,0,3:0:0:0:
419,312,15581,5,10,0:0:0:0:
380,321,15660,1,8,0:0:0:0:
342,330,15739,1,8,0:0:0:0:
303,339,15818,1,8,0:0:0:0:
265,348,15897,1,10,0:0:0:0:
322,135,16055,2,0,P|347:174|361:216,1,79.1199973439942,2|0,0:0|1:0,0:0:0:0:
213,75,16371,1,0,0:0:0:0:
424,164,16529,2,0,P|398:203|384:245,1,79.1199973439942,2|0,1:2|0:0,0:0:0:0:
186,206,16845,70,0,P|137:186|90:191,1,79.1199973439942,0|0,1:0|0:0,0:0:0:0:
150,373,17160,2,0,P|202:369|242:345,1,79.1199973439942,0|0,1:0|0:0,0:0:0:0:
314,257,17476,1,0,1:0:0:0:
314,257,17634,1,0,0:0:0:0:
139,133,17792,2,0,P|90:152|43:147,1,79.1199973439942,0|0,1:0|0:0,0:0:0:0:
220,5,18108,5,10,0:0:0:0:
228,43,18187,1,8,0:0:0:0:
238,81,18266,1,8,0:0:0:0:
248,120,18345,1,8,0:0:0:0:
257,158,18424,2,0,P|305:138|352:143,1,79.1199973439942,10|2,0:0|0:0,0:0:0:0:
270,331,18739,2,0,P|217:327|177:303,1,79.1199973439942,0|0,1:0|0:0,0:0:0:0:
374,214,19055,1,2,1:2:0:0:
374,214,19213,1,0,0:0:0:0:
479,295,19371,70,0,L|506:384,1,79.1199973439942,0|0,1:0|0:0,0:0:0:0:
345,202,19687,2,0,L|367:126,1,79.1199973439942,0|0,1:0|0:0,0:0:0:0:
299,330,20002,1,0,1:0:0:0:
299,330,20160,1,0,0:0:0:0:
205,186,20318,2,0,P|154:168|112:172,1,79.1199973439942,2|0,1:2|0:0,0:0:0:0:
0,315,20634,5,10,0:0:0:0:
34,296,20713,1,8,0:0:0:0:
73,288,20792,1,8,0:0:0:0:
112,292,20871,1,8,0:0:0:0:
148,309,20950,2,0,P|199:327|241:323,1,79.1199973439942,0|2,1:0|0:0,0:0:0:0:
68,384,21266,1,0,1:0:0:0:
221,243,21424,1,8,0:0:0:0:
256,224,21502,1,8,0:0:0:0:
294,213,21581,1,10,0:0:0:0:
333,210,21660,1,8,0:0:0:0:
372,215,21739,1,8,0:0:0:0:
410,228,21818,1,8,0:0:0:0:
444,248,21897,70,0,L|454:343,1,79.1199973439942,0|0,1:0|0:0,0:0:0:0:
307,188,22213,2,0,L|315:109,1,79.1199973439942,0|2,1:0|0:0,0:0:0:0:
403,23,22529,1,0,1:0:0:0:
403,23,22687,1,0,0:0:0:0:
437,149,22845,2,0,P|476:146|512:131,1,79.1199973439942,2|0,1:2|0:0,0:0:0:0:
293,83,23160,5,10,0:0:0:0:
253,78,23239,1,8,0:0:0:0:
214,73,23318,1,8,0:0:0:0:
175,69,23397,1,8,0:0:0:0:
135,64,23476,2,0,L|139:167,1,79.1199973439942,0|2,1:0|0:0,0:0:0:0:
280,0,23792,1,0,1:0:0:0:
187,246,23950,1,8,0:0:0:0:
149,257,24029,1,8,0:0:0:0:
108,255,24108,1,2,1:2:0:0:
73,241,24187,1,8,0:0:0:0:
44,215,24266,1,8,0:0:0:0:
25,180,24345,1,8,0:0:0:0:
19,142,24424,70,0,P|68:121|127:127,1,79.1199973439942,0|0,1:0|0:0,0:0:0:0:
81,282,24739,2,0,P|27:280|-23:249,1,79.1199973439942,2|0,1:2|0:0,0:0:0:0:
216,222,25055,2,0,L|208:314,1,79.1199973439942,2|0,1:2|0:0,0:0:0:0:
122,120,25371,2,0,L|115:41,1,79.1199973439942,2|0,1:2|0:0,0:0:0:0:
328,69,25687,5,2,1:2:0:0:
327,108,25766,1,8,0:0:0:0:
326,148,25845,1,8,0:0:0:0:
325,187,25924,1,8,0:0:0:0:
324,226,26002,2,0,P|375:208|432:219,1,79.1199973439942,0|2,1:0|0:0,0:0:0:0:
237,352,26318,1,0,1:0:0:0:
181,187,26476,1,8,0:0:0:0:
153,159,26555,1,8,0:0:0:0:
115,147,26634,1,2,1:2:0:0:
76,153,26713,1,8,0:0:0:0:
45,177,26791,1,8,0:0:0:0:
28,212,26871,1,8,0:0:0:0:
26,248,26950,70,0,L|36:342,1,79.1199973439942,0|0,1:0|0:0,0:0:0:0:
208,207,27266,2,0,L|218:128,1,79.1199973439942,2|0,1:2|0:0,0:0:0:0:
113,50,27581,1,0,1:0:0:0:
113,50,27739,1,0,0:0:0:0:
308,7,27897,2,0,P|271:25|220:25,1,79.1199973439942,2|0,1:2|0:0,0:0:0:0:
391,129,28213,5,8,0:0:0:0:
386,168,28292,1,8,0:0:0:0:
382,207,28371,1,8,0:0:0:0:
378,246,28450,1,8,0:0:0:0:
374,286,28529,2,0,P|424:292|472:277,1,79.1199973439942,2|0,1:2|0:0,0:0:0:0:
482,171,28845,1,0,1:0:0:0:
263,338,29002,1,8,0:0:0:0:
259,298,29081,1,8,0:0:0:0:
255,259,29160,1,2,1:2:0:0:
251,219,29239,1,8,0:0:0:0:
246,183,29318,1,10,0:0:0:0:
244,141,29397,1,8,0:0:0:0:
240,101,29476,69,2,1:2:0:0:
264,121,30739,53,14,0:0:0:0:
491,43,30897,1,0,1:0:0:0:
275,3,31055,1,0,1:0:0:0:
427,170,31213,2,0,B|475:267|396:253|451:378,1,209.839991354859,8|0,0:0|1:0,0:0:0:0:
179,212,31687,2,0,P|130:195|78:189,1,104.919995677429,10|2,0:0|1:2,0:0:0:0:
338,112,32002,5,10,0:0:0:0:
239,316,32160,1,0,1:0:0:0:
186,81,32318,1,2,1:2:0:0:
342,252,32476,2,0,P|394:246|443:229,1,104.919995677429,10|0,0:0|1:0,0:0:0:0:
144,292,32792,1,2,1:2:0:0:
322,124,32950,2,0,P|374:129|423:146,1,104.919995677429,10|0,0:0|1:0,0:0:0:0:
107,384,33266,70,0,P|99:291|75:165,1,209.839991354859,8|0,0:0|1:0,0:0:0:0:
288,12,33739,2,0,P|353:2|383:132,1,209.839991354859,8|0,0:0|1:0,0:0:0:0:
56,161,34213,1,10,0:0:0:0:
276,244,34371,1,2,1:2:0:0:
157,33,34529,6,0,P|103:8|50:-1,1,104.919995677429,10|0,0:0|1:0,0:0:0:0:
30,269,34845,1,0,1:0:0:0:
248,126,35002,2,0,P|299:115|346:92,1,104.919995677429,10|0,0:0|1:0,0:0:0:0:
65,112,35318,1,0,1:0:0:0:
146,343,35476,1,10,0:0:0:0:
88,96,35634,1,0,1:0:0:0:
88,96,35713,1,0,1:0:0:0:
88,96,35792,69,8,0:0:0:0:
306,226,35950,1,0,1:0:0:0:
42,287,36108,2,0,P|20:330|5:399,1,104.919995677429,2|8,1:2|0:0,0:0:0:0:
90,127,36424,2,0,P|45:145|-10:189,1,104.919995677429,2|0,1:2|1:0,0:0:0:0:
205,18,36739,2,0,P|158:3|88:1,1,104.919995677429,10|0,0:0|1:0,0:0:0:0:
260,217,37055,6,0,B|382:196|304:107|448:95,1,209.839991354859,8|2,0:0|1:2,0:0:0:0:
284,41,37529,1,8,0:0:0:0:
477,189,37687,2,0,P|496:234|515:303,1,104.919995677429,2|0,1:2|1:0,0:0:0:0:
292,384,38002,2,0,P|311:339|330:270,1,104.919995677429,10|0,0:0|1:0,0:0:0:0:
153,100,38318,70,0,P|98:83|48:201,1,209.839991354859,10|2,0:0|1:2,0:0:0:0:
186,348,38792,1,8,0:0:0:0:
292,180,38950,2,0,P|347:148|413:146,1,104.919995677429,2|0,1:2|1:0,0:0:0:0:
116,165,39266,2,0,L|85:29,1,104.919995677429,10|0,0:0|1:0,0:0:0:0:
34,348,39581,5,0,1:0:0:0:
229,262,39739,2,0,L|279:39,1,209.839991354859,10|0,0:0|1:0,0:0:0:0:
305,44,40134,1,0,1:0:0:0:
305,44,40213,1,10,0:0:0:0:
490,278,40371,1,0,1:0:0:0:
448,278,40450,1,0,1:0:0:0:
407,269,40529,1,10,0:0:0:0:
378,239,40608,1,8,0:0:0:0:
353,206,40687,1,0,1:0:0:0:
314,191,40766,1,0,1:0:0:0:
272,188,40845,69,10,0:0:0:0:
69,346,41002,1,0,1:0:0:0:
323,302,41160,1,0,1:0:0:0:
158,156,41318,2,0,B|134:192|124:223|124:223|163:282|179:350,1,209.839991354859,8|0,0:0|1:0,0:0:0:0:
246,71,41792,2,0,P|189:43|127:39,1,104.919995677429,10|0,0:0|1:0,0:0:0:0:
340,282,42108,6,0,P|391:273|437:249,1,104.919995677429,10|0,0:0|1:0,0:0:0:0:
359,42,42424,1,2,1:2:0:0:
207,232,42581,2,0,P|155:223|109:199,1,104.919995677429,10|0,0:0|1:2,0:0:0:0:
194,4,42897,1,2,1:2:0:0:
384,170,43055,2,0,P|407:235|415:287,1,104.919995677429,10|0,0:0|1:0,0:0:0:0:
487,60,43371,69,8,0:0:0:0:
223,152,43529,1,0,1:0:0:0:
335,0,43687,1,0,1:0:0:0:
490,180,43845,2,0,P|468:246|453:391,1,209.839991354859,8|0,0:0|1:0,0:0:0:0:
333,181,44318,1,10,0:0:0:0:
172,308,44476,1,2,1:2:0:0:
202,109,44634,6,0,P|259:77|314:77,1,104.919995677429,10|0,0:0|1:0,0:0:0:0:
264,359,44950,1,0,1:2:0:0:
114,173,45108,2,0,P|57:141|2:141,1,104.919995677429,10|0,0:0|1:0,0:0:0:0:
114,384,45424,1,0,1:0:0:0:
296,212,45581,1,10,0:0:0:0:
90,365,45739,1,0,1:0:0:0:
90,365,45818,1,0,1:0:0:0:
90,365,45897,69,8,0:0:0:0:
342,300,46055,1,0,1:0:0:0:
99,264,46213,2,0,P|55:274|-3:297,1,104.919995677429,2|8,1:2|0:0,0:0:0:0:
316,190,46529,2,0,P|366:198|427:224,1,104.919995677429,2|0,1:2|1:0,0:0:0:0:
101,108,46845,2,0,P|60:114|-8:138,1,104.919995677429,10|0,0:0|1:0,0:0:0:0:
235,322,47160,6,0,P|236:218|243:94,1,209.839991354859,8|2,0:0|1:2,0:0:0:0:
355,0,47634,1,8,0:0:0:0:
415,207,47792,2,0,P|464:191|512:168,1,104.919995677429,2|0,1:2|1:0,0:0:0:0:
219,78,48108,2,0,P|171:55|121:39,1,104.919995677429,10|0,0:0|1:0,0:0:0:0:
445,95,48424,69,8,0:0:0:0:
244,222,48581,1,0,1:0:0:0:
370,39,48739,2,0,P|417:16|467:1,1,104.919995677429,2|8,1:2|0:0,0:0:0:0:
375,248,49055,2,0,P|422:272|472:286,1,104.919995677429,2|0,1:2|1:0,0:0:0:0:
166,141,49371,1,10,0:0:0:0:
313,331,49529,1,2,1:2:0:0:
358,87,49687,1,2,1:2:0:0:
172,245,49845,6,0,B|57:242|120:309|-11:350,1,209.839991354859,8|2,0:0|1:2,0:0:0:0:
220,379,50318,2,0,L|207:324,3,52.4599978387147,8|8|8|8,0:0|0:0|0:0|0:0,0:0:0:0:
291,165,50634,1,10,0:0:0:0:
322,124,50713,1,8,0:0:0:0:
374,121,50792,1,8,0:0:0:0:
410,156,50871,1,8,0:0:0:0:
409,207,50950,1,2,0:0:0:0:
231,330,53476,38,0,P|278:298|341:284,1,105.780001614075,0|0,1:0|1:0,0:0:0:0:
358,284,53792,1,2,0:0:0:0:
260,186,53950,1,2,1:2:0:0:
260,186,54029,1,0,1:0:0:0:
260,186,54108,2,0,L|117:155,1,141.0400021521,10|0,0:0|0:0,0:0:0:0:
255,83,54581,1,2,0:0:0:0:
155,199,54739,6,0,P|140:256|135:295,1,70.5200010760498,2|2,0:0|0:0,0:0:0:0:
51,108,55055,1,2,0:0:0:0:
237,261,55213,1,2,1:2:0:0:
272,261,55292,1,0,1:0:0:0:
305,250,55371,1,10,0:0:0:0:
332,228,55450,1,0,1:0:0:0:
350,198,55529,2,0,P|382:170|405:162,1,35.2600005380249,2|0,0:0|1:0,0:0:0:0:
240,99,55687,2,0,P|201:82|158:83,1,70.5200010760498,2|0,0:0|1:0,0:0:0:0:
342,3,56002,69,2,1:2:0:0:
260,186,56213,1,0,1:0:0:0:
491,97,56476,1,0,1:0:0:0:
491,97,56555,1,0,1:0:0:0:
491,97,56634,2,0,P|510:151|515:192,1,70.5200010760498,10|0,0:0|0:0,0:0:0:0:
341,268,56950,2,0,P|349:233|362:201,1,70.5200010760498,2|0,0:0|0:0,0:0:0:0:
485,184,57266,5,2,0:0:0:0:
337,124,57424,1,2,0:0:0:0:
441,270,57581,1,2,0:0:0:0:
271,209,57739,1,2,1:2:0:0:
236,200,57818,1,0,1:0:0:0:
201,199,57897,2,0,P|159:210|143:219,2,35.2600005380249,10|0|2,0:0|1:0|0:0,0:0:0:0:
128,311,58134,1,0,1:0:0:0:
128,311,58213,1,2,0:0:0:0:
58,150,58371,1,8,0:0:0:0:
58,150,58450,1,8,0:0:0:0:
58,150,58529,70,0,P|91:127|135:119,1,70.5200010760498,14|0,0:0|0:0,0:0:0:0:
325,124,58845,1,0,0:0:0:0:
218,12,59002,1,2,1:2:0:0:
218,12,59081,1,0,1:0:0:0:
218,12,59160,2,0,L|203:110,1,70.5200010760498,8|0,0:0|0:0,0:0:0:0:
363,118,59476,2,0,L|352:48,1,70.5200010760498,2|0,0:0|0:0,0:0:0:0:
293,209,59792,6,0,P|343:219|381:206,1,70.5200010760498,0|0,0:0|0:0,0:0:0:0:
152,232,60108,1,0,0:0:0:0:
357,247,60266,1,0,1:0:0:0:
391,249,60345,1,0,1:0:0:0:
422,266,60424,2,0,P|440:270|461:279,2,35.2600005380249,8|0|0,0:0|1:0|0:0,0:0:0:0:
352,334,60660,1,0,1:0:0:0:
352,334,60739,1,0,0:0:0:0:
454,191,60897,1,0,1:0:0:0:
279,194,61055,70,0,L|185:219,1,94.0266681013998,2|0,1:2|1:0,0:0:0:0:
120,320,61371,1,0,0:0:0:0:
86,161,61529,1,2,1:2:0:0:
86,161,61608,1,0,1:0:0:0:
86,161,61687,2,0,L|18:146,1,70.5200010760498,8|0,0:0|0:0,0:0:0:0:
177,52,62002,2,0,L|245:37,1,70.5200010760498,2|0,0:0|0:0,0:0:0:0:
56,29,62318,5,2,1:2:0:0:
179,151,62476,1,0,0:0:0:0:
179,151,62555,2,0,L|222:163,1,35.2600005380249,0|0,1:0|1:0,0:0:0:0:
239,180,62713,1,8,0:0:0:0:
176,287,62871,1,0,0:0:0:0:
176,287,62950,1,8,0:0:0:0:
176,287,63029,1,0,1:0:0:0:
310,352,63187,1,0,1:0:0:0:
310,352,63266,2,0,P|301:299|302:257,1,88.1500013450623,2|8,0:0|0:0,0:0:0:0:
423,162,63581,70,0,P|438:199|445:244,1,70.5200010760498,0|2,1:0|0:0,0:0:0:0:
435,264,63818,1,0,1:0:0:0:
435,264,63897,1,2,0:0:0:0:
492,88,64055,1,2,1:2:0:0:
492,88,64134,1,0,1:0:0:0:
492,88,64213,2,0,P|499:53|512:21,1,70.5200010760498,10|2,0:0|0:0,0:0:0:0:
286,144,64529,1,2,0:0:0:0:
387,64,64687,1,2,0:0:0:0:
272,20,64845,6,0,P|229:5|180:15,1,70.5200010760498,2|2,0:0|0:0,0:0:0:0:
52,87,65160,1,2,0:0:0:0:
196,112,65318,1,2,1:2:0:0:
202,145,65397,1,0,1:0:0:0:
210,181,65476,2,0,L|203:227,2,35.2600005380249,10|0|2,0:0|1:0|0:0,0:0:0:0:
305,122,65713,1,0,1:0:0:0:
305,122,65792,1,2,0:0:0:0:
115,214,65950,1,2,0:0:0:0:
256,300,66108,70,0,P|299:313|342:311,1,70.5200010760498,0|2,1:0|0:0,0:0:0:0:
362,297,66318,1,0,1:0:0:0:
362,297,66424,1,2,0:0:0:0:
252,123,66581,1,0,1:0:0:0:
252,123,66660,1,0,1:0:0:0:
252,123,66739,2,0,P|207:125|167:142,1,70.5200010760498,10|2,0:0|0:0,0:0:0:0:
268,230,67055,1,2,0:0:0:0:
370,83,67213,1,2,0:0:0:0:
123,86,67371,6,0,P|141:135|156:202,2,105.780001614075,2|0|2,1:2|1:0|1:2,0:0:0:0:
334,147,68002,2,0,P|345:101|362:58,1,94.0266681013998,10|8,0:0|0:0,0:0:0:0:
198,21,68476,1,8,0:0:0:0:
198,21,68555,1,8,0:0:0:0:
198,21,68634,69,2,1:2:0:0:
444,63,68871,1,0,1:0:0:0:
239,170,69108,1,2,1:2:0:0:
239,170,69187,1,0,1:0:0:0:
239,170,69266,2,0,P|257:216|263:252,1,70.5200010760498,8|0,0:0|0:0,0:0:0:0:
454,87,69581,2,0,P|436:133|430:169,1,70.5200010760498,2|0,0:0|0:0,0:0:0:0:
364,264,69897,6,0,P|406:282|444:274,1,70.5200010760498,2|0,0:0|0:0,0:0:0:0:
506,225,70213,1,0,0:0:0:0:
356,350,70371,1,0,1:0:0:0:
325,365,70450,1,0,1:0:0:0:
290,371,70529,2,0,L|227:359,2,35.2600005380249,8|0|0,0:0|1:0|0:0,0:0:0:0:
306,214,70766,1,0,1:0:0:0:
306,214,70845,1,0,0:0:0:0:
165,311,71002,1,0,1:0:0:0:
120,164,71160,70,0,P|83:185|24:184,1,70.5200010760498,2|0,1:2|0:0,0:0:0:0:
30,195,71371,1,0,1:0:0:0:
30,195,71476,1,0,0:0:0:0:
234,209,71634,1,2,1:2:0:0:
234,209,71713,1,0,1:0:0:0:
234,209,71792,2,0,P|270:230|329:229,1,70.5200010760498,8|0,0:0|0:0,0:0:0:0:
337,236,72029,1,8,0:0:0:0:
337,236,72108,2,0,P|357:279|364:315,1,70.5200010760498,2|0,0:0|0:0,0:0:0:0:
504,146,72424,6,0,P|475:207|465:258,2,105.780001614075,2|0|0,1:2|1:0|1:0,0:0:0:0:
367,46,73055,1,0,3:0:0:0:
367,46,73134,1,0,3:0:0:0:
367,46,73213,1,0,1:0:0:0:
367,46,73292,1,0,1:0:0:0:
367,46,73371,2,0,P|345:37|330:27,1,35.2600005380249,10|8,0:0|0:0,0:0:0:0:
178,19,73529,2,0,P|156:27|141:37,1,35.2600005380249,10|8,0:0|0:0,0:0:0:0:
67,168,73687,69,2,1:2:0:0:
256,192,80634,12,0,83160,0:0:0:0:
216,200,83792,21,14,0:0:0:0:
446,66,83950,1,0,1:0:0:0:
389,302,84108,1,0,1:0:0:0:
280,70,84266,2,0,P|216:30|109:111,1,209.839991354859,8|0,0:0|1:0,0:0:0:0:
23,281,84739,2,0,P|14:229|-6:166,1,104.919995677429,10|2,0:0|1:2,0:0:0:0:
340,281,85055,5,10,0:0:0:0:
96,380,85213,1,0,1:0:0:0:
197,151,85371,1,2,1:2:0:0:
316,366,85529,2,0,P|376:385|438:378,1,104.919995677429,10|0,0:0|1:0,0:0:0:0:
77,281,85845,1,2,1:2:0:0:
320,167,86002,2,0,P|380:147|442:154,1,104.919995677429,10|0,0:0|1:0,0:0:0:0:
177,359,86318,70,0,P|161:259|137:147,1,209.839991354859,8|0,0:0|1:0,0:0:0:0:
273,12,86792,2,0,B|395:-9|326:92|469:121,1,209.839991354859,8|0,0:0|1:0,0:0:0:0:
64,115,87266,1,10,0:0:0:0:
295,201,87424,1,2,1:2:0:0:
149,22,87581,6,0,P|92:1|33:2,1,104.919995677429,10|0,0:0|1:0,0:0:0:0:
100,274,87897,1,0,1:0:0:0:
258,95,88055,2,0,P|315:74|374:75,1,104.919995677429,10|0,0:0|1:0,0:0:0:0:
260,279,88371,1,0,1:0:0:0:
33,182,88529,1,10,0:0:0:0:
281,258,88687,1,0,1:0:0:0:
281,258,88766,1,0,1:0:0:0:
281,258,88845,1,8,0:0:0:0:
32,355,89002,1,0,1:0:0:0:
169,150,89160,70,0,P|218:117|285:115,1,104.919995677429,2|8,1:2|0:0,0:0:0:0:
277,343,89476,2,0,P|293:286|343:241,1,104.919995677429,2|0,1:2|1:0,0:0:0:0:
512,335,89792,2,0,P|488:281|497:214,1,104.919995677429,10|0,0:0|1:0,0:0:0:0:
477,98,90108,6,0,B|346:93|438:6|280:12,1,209.839991354859,8|2,0:0|1:2,0:0:0:0:
506,0,90581,1,8,0:0:0:0:
300,116,90739,2,0,P|281:161|270:221,1,104.919995677429,2|0,1:2|1:0,0:0:0:0:
463,365,91055,2,0,P|444:320|433:260,1,104.919995677429,10|0,0:0|1:0,0:0:0:0:
173,221,91371,70,0,B|50:218|123:286|-4:338,1,209.839991354859,10|2,0:0|1:2,0:0:0:0:
274,299,91845,1,8,0:0:0:0:
118,122,92002,2,0,P|63:97|8:93,1,104.919995677429,2|0,1:2|1:0,0:0:0:0:
339,112,92318,2,0,L|314:-14,1,104.919995677429,10|0,0:0|1:0,0:0:0:0:
247,305,92634,1,0,1:0:0:0:
439,244,92792,6,0,L|481:27,1,209.839991354859,10|0,0:0|1:0,0:0:0:0:
493,3,93187,1,0,1:0:0:0:
445,0,93266,1,2,3:2:0:0:
402,15,93345,1,0,3:0:0:0:
372,52,93424,1,0,3:0:0:0:
336,82,93502,1,0,3:0:0:0:
290,91,93581,2,0,L|277:36,3,52.4599978387147,10|8|0|0,0:0|0:0|1:0|1:0,0:0:0:0:
92,201,93897,69,10,0:0:0:0:
325,222,94055,1,0,1:0:0:0:
163,73,94213,1,0,1:0:0:0:
284,305,94371,2,0,B|313:336|341:353|341:353|407:328|477:328,1,209.839991354859,8|0,0:0|1:0,0:0:0:0:
198,244,94845,2,0,P|179:298|176:357,1,104.919995677429,10|0,0:0|1:0,0:0:0:0:
382,72,95160,6,0,P|438:44|503:39,1,104.919995677429,10|0,0:0|1:0,0:0:0:0:
346,237,95476,1,2,1:2:0:0:
236,38,95634,2,0,P|179:10|114:5,1,104.919995677429,10|0,0:0|1:2,0:0:0:0:
219,263,95950,1,2,1:2:0:0:
415,157,96108,2,0,P|461:180|512:190,1,104.919995677429,10|0,0:0|1:0,0:0:0:0:
207,163,96424,69,8,0:0:0:0:
367,329,96581,1,0,1:0:0:0:
337,89,96739,1,0,1:0:0:0:
145,319,96897,2,0,P|80:310|46:174,1,209.839991354859,8|0,0:0|1:0,0:0:0:0:
243,10,97371,1,10,0:0:0:0:
35,99,97529,1,2,1:2:0:0:
245,189,97687,6,0,P|296:211|364:215,1,104.919995677429,10|0,0:0|1:0,0:0:0:0:
219,28,98002,1,0,1:2:0:0:
121,238,98160,2,0,P|70:260|2:264,1,104.919995677429,10|0,0:0|1:0,0:0:0:0:
96,19,98476,1,0,1:0:0:0:
215,272,98634,1,10,0:0:0:0:
243,10,98792,1,0,1:0:0:0:
243,10,98871,1,0,1:0:0:0:
243,10,98950,69,8,0:0:0:0:
47,124,99108,1,0,1:0:0:0:
304,166,99266,2,0,P|370:163|429:137,1,104.919995677429,2|8,1:2|0:0,0:0:0:0:
194,292,99581,2,0,P|246:332|308:350,1,104.919995677429,2|0,1:2|1:0,0:0:0:0:
31,246,99897,2,0,P|45:310|81:364,1,104.919995677429,10|0,0:0|1:0,0:0:0:0:
175,73,100213,6,0,P|230:8|348:36,1,209.839991354859,8|2,0:0|1:2,0:0:0:0:
398,246,100687,1,8,0:0:0:0:
512,103,100845,2,0,L|492:-5,1,104.919995677429,2|0,1:2|1:0,0:0:0:0:
267,109,101160,2,0,L|247:212,1,104.919995677429,10|0,0:0|1:0,0:0:0:0:
118,379,101476,69,8,0:0:0:0:
363,319,101634,1,0,1:0:0:0:
147,197,101792,2,0,P|91:171|40:178,1,104.919995677429,2|8,1:2|0:0,0:0:0:0:
250,361,102108,1,2,3:2:0:0:
294,344,102187,1,0,3:0:0:0:
322,308,102266,1,8,0:0:0:0:
339,264,102345,1,8,0:0:0:0:
377,238,102424,2,0,L|365:172,1,52.4599978387147,10|8,0:0|0:0,0:0:0:0:
449,117,102581,2,0,L|458:65,1,52.4599978387147,2|0,1:2|1:0,0:0:0:0:
343,2,102739,5,2,1:2:0:0:
343,2,104002,22,0,B|374:41|374:41|351:209,1,211.560003228149,2|2,1:2|1:2,0:0:0:0:
154,167,104950,1,2,1:2:0:0:
158,201,105029,1,0,1:0:0:0:
163,236,105108,1,2,1:2:0:0:
167,271,105187,1,0,1:0:0:0:
172,306,105266,1,10,0:0:0:0:
142,57,106371,69,0,1:0:0:0:
142,57,106450,1,0,1:0:0:0:
142,57,106529,2,0,L|-9:45,1,141.0400021521,6|2,1:2|0:0,0:0:0:0:
250,145,107002,1,2,1:2:0:0:
96,186,107476,1,2,1:2:0:0:
89,220,107555,1,0,1:0:0:0:
83,255,107634,1,2,1:2:0:0:
77,290,107713,1,0,1:0:0:0:
70,324,107792,5,10,0:0:0:0:
191,207,107950,1,2,1:2:0:0:
4,228,108108,1,2,0:0:0:0:
179,306,108266,2,0,P|200:352|208:377,1,70.5200010760498,10|2,0:0|0:0,0:0:0:0:
308,194,108581,1,2,1:2:0:0:
166,104,108897,1,0,1:0:0:0:
333,222,109055,70,0,P|312:268|304:293,1,70.5200010760498,6|2,1:2|0:0,0:0:0:0:
461,193,109371,2,0,P|440:147|432:122,1,70.5200010760498,2|0,0:0|1:0,0:0:0:0:
308,91,109687,1,2,0:0:0:0:
308,91,109845,1,2,0:0:0:0:
406,14,110002,1,2,1:2:0:0:
439,3,110081,1,0,1:0:0:0:
473,9,110160,1,2,1:2:0:0:
499,32,110239,1,0,1:0:0:0:
511,65,110318,6,0,B|533:154|489:124|509:218,1,141.0400021521,10|0,0:0|0:0,0:0:0:0:
492,354,110950,1,0,0:0:0:0:
231,335,111424,1,2,1:2:0:0:
231,335,111502,1,0,1:0:0:0:
231,335,111581,70,0,P|226:263|211:166,1,141.0400021521,4|0,1:2|0:0,0:0:0:0:
139,89,112055,1,0,1:0:0:0:
330,47,112529,1,2,1:2:0:0:
319,69,112608,1,0,1:0:0:0:
311,92,112687,1,2,1:2:0:0:
306,116,112766,1,0,1:0:0:0:
304,145,112845,6,0,P|320:202|326:237,1,70.5200010760498,10|0,0:0|0:0,0:0:0:0:
189,151,113160,1,2,1:2:0:0:
386,107,113318,1,0,1:0:0:0:
148,46,113476,1,8,0:0:0:0:
362,25,113634,1,0,1:0:0:0:
176,19,113792,1,0,3:0:0:0:
47,148,114108,70,0,P|71:211|86:288,1,141.0400021521,14|2,0:0|0:0,0:0:0:0:
72,384,114581,1,2,1:2:0:0:
160,191,115055,1,2,1:2:0:0:
191,175,115134,1,0,1:0:0:0:
225,168,115213,1,2,1:2:0:0:
260,172,115292,1,0,1:0:0:0:
293,185,115371,1,10,0:0:0:0:
220,284,116476,5,0,1:0:0:0:
220,284,116555,1,0,1:0:0:0:
220,284,116634,2,0,P|233:214|258:148,1,141.0400021521,6|0,1:2|0:0,0:0:0:0:
347,76,117108,1,2,1:2:0:0:
185,27,117581,1,2,1:2:0:0:
151,17,117660,1,0,1:0:0:0:
116,21,117739,1,2,1:2:0:0:
86,38,117818,1,0,1:0:0:0:
64,66,117897,69,10,0:0:0:0:
277,15,118055,1,2,1:2:0:0:
112,150,118213,1,2,0:0:0:0:
314,131,118371,2,0,L|410:149,1,70.5200010760498,10|0,0:0|0:0,0:0:0:0:
228,197,118687,1,0,1:0:0:0:
457,69,118845,1,8,0:0:0:0:
464,110,118924,1,8,0:0:0:0:
472,152,119002,1,8,0:0:0:0:
480,193,119081,1,8,0:0:0:0:
487,235,119160,6,0,P|420:245|373:317,1,141.0400021521,2|2,1:2|0:0,0:0:0:0:
365,384,119634,1,2,1:2:0:0:
157,251,120108,1,2,1:2:0:0:
168,272,120187,1,0,1:0:0:0:
178,295,120266,1,2,1:2:0:0:
186,318,120345,1,0,1:0:0:0:
191,340,120424,70,0,L|201:185,1,141.0400021521,10|0,0:0|0:0,0:0:0:0:
267,76,121055,1,2,0:0:0:0:
26,38,121529,1,0,1:0:0:0:
26,38,121608,1,0,1:0:0:0:
26,38,121687,6,0,L|35:178,1,141.0400021521,4|2,1:2|0:0,0:0:0:0:
101,280,122160,1,2,1:2:0:0:
101,280,122318,1,0,0:0:0:0:
228,173,122634,1,0,1:0:0:0:
262,165,122713,1,0,1:0:0:0:
296,170,122792,1,0,1:0:0:0:
327,186,122871,1,0,1:0:0:0:
350,213,122950,69,10,0:0:0:0:
472,89,123108,2,0,L|484:-4,1,70.5200010760498,2|0,1:2|0:0,0:0:0:0:
473,216,123424,1,0,1:0:0:0:
344,76,123581,2,0,L|332:-26,1,70.5200010760498,10|2,0:0|1:2,0:0:0:0:
267,183,123897,6,0,L|263:213,1,28.3800008660889
255,232,124213,38,0,B|141:170|116:323|0:355|-131:211|7:94|145:107|95:250|144:321|226:333,1,577.919982363282,6|0,1:2|0:0,0:0:0:0:
455,100,134318,85,14,0:0:0:0:
376,345,134476,1,0,1:0:0:0:
289,115,134634,2,0,L|282:2,1,113.519999653564,8|0,0:0|0:0,0:0:0:0:
104,289,134950,1,8,0:0:0:0:
400,188,135108,1,0,1:0:0:0:
83,144,135266,1,10,0:0:0:0:
313,282,135424,1,2,1:2:0:0:
313,282,135502,1,0,1:0:0:0:
313,282,135581,6,0,P|377:268|438:262,1,113.519999653564,10|0,0:0|1:0,0:0:0:0:
95,303,135897,1,10,0:0:0:0:
307,147,136055,2,0,P|362:111|417:85,1,113.519999653564,2|8,1:2|0:0,0:0:0:0:
7,223,136371,1,2,1:2:0:0:
7,223,136450,1,0,1:0:0:0:
7,223,136529,1,10,0:0:0:0:
186,42,136687,1,0,1:0:0:0:
174,273,136845,70,0,P|194:336|204:401,1,113.519999653564,8|0,0:0|0:0,0:0:0:0:
449,261,137160,2,0,P|459:205|477:151,1,113.519999653564,8|0,0:0|0:0,0:0:0:0:
151,275,137476,2,0,P|171:338|181:403,1,113.519999653564,8|0,0:0|1:0,0:0:0:0:
379,166,137792,1,10,0:0:0:0:
118,98,137950,1,2,1:2:0:0:
118,98,138029,1,0,1:0:0:0:
118,98,138108,6,0,P|56:77|-13:71,1,113.519999653564,10|0,0:0|1:0,0:0:0:0:
320,52,138424,1,8,0:0:0:0:
92,217,138581,1,2,1:2:0:0:
92,217,138660,1,0,1:0:0:0:
92,217,138739,1,8,0:0:0:0:
290,345,138897,1,0,1:0:0:0:
283,311,138976,1,0,1:0:0:0:
277,278,139055,1,10,0:0:0:0:
270,244,139134,1,8,0:0:0:0:
264,211,139213,1,0,1:0:0:0:
257,177,139292,1,0,1:0:0:0:
251,144,139371,69,8,0:0:0:0:
132,344,139529,1,0,1:0:0:0:
374,201,139687,2,0,P|439:175|509:162,1,113.519999653564,10|0,0:0|0:0,0:0:0:0:
178,36,140002,2,0,P|113:10|43:-3,1,113.519999653564,10|0,0:0|1:0,0:0:0:0:
112,223,140318,1,10,0:0:0:0:
380,70,140476,1,0,1:0:0:0:
380,70,140555,1,0,1:0:0:0:
380,70,140634,5,8,0:0:0:0:
353,348,140792,1,0,1:0:0:0:
124,147,140950,2,0,P|143:197|156:268,1,113.519999653564,10|0,0:0|1:0,0:0:0:0:
402,167,141266,2,0,P|412:111|432:58,1,113.519999653564,10|0,0:0|1:0,0:0:0:0:
461,31,141502,1,0,1:0:0:0:
461,31,141581,2,0,P|397:9|339:16,1,113.519999653564,10|0,0:0|1:0,0:0:0:0:
110,138,141897,70,0,P|46:160|-12:153,1,113.519999653564,10|0,0:0|0:0,0:0:0:0:
353,30,142213,2,0,P|409:28|461:48,1,113.519999653564,10|0,0:0|0:0,0:0:0:0:
140,11,142529,1,10,0:0:0:0:
229,283,142687,1,0,1:0:0:0:
274,47,142845,1,10,0:0:0:0:
112,292,143002,1,0,1:0:0:0:
112,292,143081,1,0,1:0:0:0:
112,292,143160,5,8,0:0:0:0:
374,153,143318,1,2,1:2:0:0:
87,110,143476,1,8,0:0:0:0:
334,251,143634,1,0,1:0:0:0:
383,254,143713,1,0,1:0:0:0:
429,233,143792,1,10,0:0:0:0:
458,192,143871,1,8,0:0:0:0:
462,142,143950,1,0,1:0:0:0:
441,96,144029,1,0,1:0:0:0:
400,67,144108,1,10,0:0:0:0:
204,180,144266,1,0,1:0:0:0:
204,180,144345,1,0,1:0:0:0:
204,180,144424,69,10,0:0:0:0:
349,380,144581,1,0,1:0:0:0:
355,138,144739,2,0,L|382:-5,1,113.519999653564,8|0,0:0|0:0,0:0:0:0:
75,318,145055,1,8,0:0:0:0:
350,235,145213,1,0,1:0:0:0:
24,164,145371,1,10,0:0:0:0:
264,317,145529,1,0,1:0:0:0:
264,317,145608,1,0,1:0:0:0:
264,317,145687,6,0,P|326:333|382:324,1,113.519999653564,10|0,0:0|1:0,0:0:0:0:
250,83,146002,1,10,0:0:0:0:
110,284,146160,2,0,P|53:289|0:274,1,113.519999653564,2|8,1:2|0:0,0:0:0:0:
115,44,146476,1,2,1:2:0:0:
115,44,146555,1,0,1:0:0:0:
115,44,146634,1,10,0:0:0:0:
234,250,146792,1,0,1:0:0:0:
369,25,146950,70,0,P|423:4|503:2,1,113.519999653564,8|0,0:0|0:0,0:0:0:0:
217,267,147266,2,0,P|160:262|107:241,1,113.519999653564,8|0,0:0|0:0,0:0:0:0:
385,38,147581,2,0,P|439:17|519:15,1,113.519999653564,8|0,0:0|1:0,0:0:0:0:
369,338,147897,1,10,0:0:0:0:
244,110,148055,1,2,1:2:0:0:
244,110,148134,1,0,1:0:0:0:
244,110,148213,6,0,P|189:130|109:132,1,113.519999653564,10|0,0:0|1:0,0:0:0:0:
419,183,148529,1,8,0:0:0:0:
188,328,148687,1,2,1:2:0:0:
188,328,148766,1,0,1:0:0:0:
188,328,148845,1,8,0:0:0:0:
348,115,149002,1,0,1:0:0:0:
388,93,149081,1,0,1:0:0:0:
432,91,149160,1,10,0:0:0:0:
472,111,149239,1,8,0:0:0:0:
499,147,149318,1,0,1:0:0:0:
507,192,149397,1,0,1:0:0:0:
494,235,149476,69,8,0:0:0:0:
212,183,149634,1,0,1:0:0:0:
386,332,149792,2,0,P|451:347|507:336,1,113.519999653564,10|0,0:0|0:0,0:0:0:0:
268,105,150108,2,0,P|203:90|147:101,1,113.519999653564,10|0,0:0|1:0,0:0:0:0:
337,384,150424,2,0,P|402:369|458:380,1,113.519999653564,10|0,0:0|1:0,0:0:0:0:
490,379,150660,1,0,1:0:0:0:
490,379,150739,6,0,L|498:252,1,113.519999653564,8|0,0:0|1:0,0:0:0:0:
200,164,151055,2,0,L|207:277,1,113.519999653564,10|0,0:0|1:0,0:0:0:0:
406,95,151371,1,10,0:0:0:0:
61,172,151529,1,0,1:0:0:0:
61,172,151608,1,0,1:0:0:0:
61,172,151687,1,10,0:0:0:0:
369,191,151845,1,0,1:0:0:0:
127,44,152002,70,0,P|63:23|9:27,1,113.519999653564,8|0,0:0|1:0,0:0:0:0:
285,229,152318,1,10,0:0:0:0:
285,229,152397,1,8,0:0:0:0:
285,229,152476,1,0,1:0:0:0:
7,292,152634,1,2,1:2:0:0:
190,142,152792,1,8,0:0:0:0:
228,109,152871,1,8,0:0:0:0:
278,97,152950,1,10,0:0:0:0:
327,109,153029,1,8,0:0:0:0:
367,141,153108,1,2,1:2:0:0:
121,356,153266,6,0,P|57:377|3:373,1,113.519999653564,10|8,0:0|0:0,0:0:0:0:
259,233,153581,1,0,1:0:0:0:
59,134,153739,2,0,P|76:169|89:209,3,56.7599998267822,2|0|0|0,3:2|3:0|3:0|3:0,0:0:0:0:
106,204,154055,1,8,0:0:0:0:
110,170,154134,1,8,0:0:0:0:
114,136,154213,1,10,0:0:0:0:
118,102,154292,1,8,0:0:0:0:
122,68,154371,1,8,0:0:0:0:
126,35,154450,1,8,0:0:0:0:
131,1,154529,22,0,B|260:-18|199:72|336:68,1,223.599998635254,6|0,1:2|0:0,0:0:0:0:
420,147,155476,1,2,1:2:0:0:
412,167,155555,1,0,1:0:0:0:
406,188,155634,1,2,1:2:0:0:
399,208,155713,1,0,1:0:0:0:
392,228,155792,70,0,L|420:368,1,123.840003023438,14|2,0:0|0:0,0:0:0:0:
222,198,156266,2,0,B|174:162|174:162|44:194,1,185.760004535156,2|2,1:2|0:0,0:0:0:0:
296,325,156897,1,0,1:0:0:0:
296,325,156976,1,0,1:0:0:0:
296,325,157055,6,0,L|308:187,1,123.840003023438,4|0,1:2|0:0,0:0:0:0:
271,105,157529,1,0,1:0:0:0:
389,12,158002,1,0,1:0:0:0:
425,9,158081,1,0,1:0:0:0:
459,25,158160,1,0,1:0:0:0:
481,54,158239,1,0,1:0:0:0:
486,90,158318,70,0,P|462:144|459:171,1,61.9200015117188,8|0,0:0|0:0,0:0:0:0:
298,23,158634,1,0,1:0:0:0:
358,173,158792,2,0,P|382:227|385:254,1,61.9200015117188,8|0,0:0|0:0,0:0:0:0:
405,91,159108,1,0,1:0:0:0:
405,91,159266,1,2,0:0:0:0:
260,227,159424,1,10,0:0:0:0:
260,227,159502,1,8,0:0:0:0:
260,227,159581,6,0,B|183:204|235:178|150:157,1,123.840003023438,2|0,1:2|0:0,0:0:0:0:
7,191,160055,2,0,P|27:235|42:323,1,123.840003023438,2|0,1:2|0:0,0:0:0:0:
127,377,160529,1,2,1:2:0:0:
163,380,160608,1,0,1:0:0:0:
197,364,160687,1,0,1:0:0:0:
219,335,160766,1,0,1:0:0:0:
224,299,160845,70,0,P|200:245|197:218,1,61.9200015117188,8|0,0:0|0:0,0:0:0:0:
235,132,161160,2,0,P|295:102|365:117,2,123.840003023438,2|2|2,0:0|0:0|0:0,0:0:0:0:
410,182,161950,1,0,1:0:0:0:
410,182,162029,1,0,1:0:0:0:
410,182,162108,6,0,L|433:312,1,123.840003023438,0|2,1:0|0:0,0:0:0:0:
486,108,162581,1,0,1:0:0:0:
313,254,163055,1,2,1:2:0:0:
287,270,163134,1,0,1:0:0:0:
256,277,163213,1,0,1:0:0:0:
226,272,163292,1,0,1:0:0:0:
199,257,163371,69,10,0:0:0:0:
123,236,163476,1,8,0:0:0:0:
67,291,163581,1,8,0:0:0:0:
84,367,163686,1,2,1:2:0:0:
38,188,164002,5,10,0:0:0:0:
114,209,164107,1,8,0:0:0:0:
170,154,164212,1,8,0:0:0:0:
153,78,164317,1,2,1:2:0:0:
142,62,164634,70,0,B|219:54|172:14|261:1,1,123.840003023438,4|0,1:2|0:0,0:0:0:0:
431,86,165266,1,2,0:0:0:0:
242,229,165581,1,2,1:2:0:0:
267,212,165660,1,0,1:0:0:0:
298,208,165739,1,0,1:0:0:0:
327,217,165818,1,0,1:0:0:0:
350,238,165897,6,0,L|375:368,1,123.840003023438,8|0,0:0|0:0,0:0:0:0:
172,299,166371,1,0,1:0:0:0:
283,120,167002,1,0,1:0:0:0:
283,120,167081,1,0,1:0:0:0:
283,120,167160,70,0,P|237:105|146:113,1,123.840003023438,0|0,1:0|0:0,0:0:0:0:
347,18,167634,1,0,1:0:0:0:
429,196,168108,1,2,1:2:0:0:
431,217,168187,1,0,1:0:0:0:
434,239,168266,1,2,1:2:0:0:
437,260,168345,1,0,1:0:0:0:
439,281,168424,6,0,B|405:315|405:315|321:296,1,123.840003023438,14|2,0:0|0:0,0:0:0:0:
194,253,168897,1,10,0:0:0:0:
79,384,169055,1,0,1:0:0:0:
85,336,169160,1,8,0:0:0:0:
84,288,169265,1,8,0:0:0:0:
61,245,169371,1,10,0:0:0:0:
37,205,169476,1,8,0:0:0:0:
32,158,169581,1,8,0:0:0:0:
36,110,169687,70,0,P|81:74|154:74,1,123.840003023438,0|2,1:0|0:0,0:0:0:0:
32,2,170160,1,0,1:0:0:0:
114,149,170634,1,2,1:2:0:0:
116,170,170713,1,0,1:0:0:0:
119,192,170792,1,0,1:0:0:0:
121,213,170871,1,0,1:0:0:0:
124,234,170950,6,0,B|200:239|170:200|257:198,1,123.840003023438,8|2,0:0|0:0,0:0:0:0:
380,241,171424,1,0,1:0:0:0:
340,75,172055,1,0,1:0:0:0:
340,75,172134,1,0,1:0:0:0:
340,75,172213,70,0,P|304:46|215:30,1,123.840003023438,4|2,1:2|0:0,0:0:0:0:
123,79,172687,1,0,1:0:0:0:
123,79,172766,1,0,1:0:0:0:
123,79,172845,1,10,0:0:0:0:
262,137,173002,1,0,3:0:0:0:
81,180,173160,1,2,3:2:0:0:
241,102,173318,1,0,1:0:0:0:
308,284,173476,5,10,0:0:0:0:
240,322,173581,1,8,0:0:0:0:
170,286,173686,1,8,0:0:0:0:
167,208,173791,1,2,1:2:0:0:
404,80,174108,69,8,0:0:0:0:
421,129,174213,1,8,0:0:0:0:
426,181,174318,1,0,3:0:0:0:
405,229,174424,1,2,3:2:0:0:
395,280,174529,1,0,3:0:0:0:
406,331,174634,1,0,3:0:0:0:
425,381,174739,37,6,1:2:0:0:
256,192,174818,12,0,184371,0:0:0:0:
