osu file format v14

[General]
AudioFilename: audio.mp3
AudioLeadIn: 0
PreviewTime: 30660
Countdown: 0
SampleSet: Soft
StackLeniency: 0.7
Mode: 0
LetterboxInBreaks: 0
WidescreenStoryboard: 0

[Editor]
Bookmarks: 73769,83874,126821,134400,176716
DistanceSpacing: 1
BeatDivisor: 4
GridSize: 32
TimelineZoom: 1.6

[Metadata]
Title:MUKANJYO
TitleUnicode:MUKANJYO
Artist:Survive Said The Prophet
ArtistUnicode:Survive Said The Prophet
Creator:Hantrik
Version:AKITOSHI'S INSANE
Source:ヴィンランド・サガ
Tags:vinland saga anime op opening male vocalist j-rock jrock japanese rock bossandy akitoshi corinn -laura- smoke
BeatmapID:2159022
BeatmapSetID:1026970

[Difficulty]
HPDrainRate:5.2
CircleSize:3.8
OverallDifficulty:7.6
ApproachRate:9
SliderMultiplier:1.5
SliderTickRate:1

[Events]
//Background and Video events
0,0,"BG.jpg",0,0
//Break Periods
2,74002,82529
2,127055,133687
//Storyboard Layer 0 (Background)
//Storyboard Layer 1 (Fail)
//Storyboard Layer 2 (Pass)
//Storyboard Layer 3 (Foreground)
//Storyboard Layer 4 (Overlay)
//Storyboard Sound Samples

[TimingPoints]
424,315.789473684211,4,2,1,35,1,0
424,-142.857142857143,4,2,1,35,0,0
10529,-111.111111111111,4,2,1,55,0,0
29476,-111.111111111111,4,2,1,35,0,0
30739,-90.9090909090909,4,2,1,75,0,1
50950,-90.9090909090909,4,2,1,40,0,0
53476,-111.111111111111,4,2,1,40,0,0
83792,-90.9090909090909,4,2,1,75,0,1
102739,-153.846153846154,4,2,1,60,0,0
104002,-76.9230769230769,4,2,1,60,0,0
124134,-76.9230769230769,4,2,1,5,0,0
124213,-76.9230769230769,4,2,1,70,0,0
126739,-312.499999999999,4,2,1,35,0,0
134318,-86.9565217391304,4,2,1,80,0,1
154529,-111.111111111111,4,2,1,65,0,0
155318,-111.111111111111,4,2,1,65,0,0
155476,-111.111111111111,4,2,1,65,0,0
173476,-111.111111111111,4,2,1,70,0,0
174739,-200,4,2,1,80,0,0
174897,-200,4,2,1,80,0,0
175055,-108.695652173913,4,2,1,78,0,0
175371,-108.695652173913,4,2,1,74,0,0
175687,-108.695652173913,4,2,1,72,0,0
176002,-108.695652173913,4,2,1,70,0,0
176318,-108.695652173913,4,2,1,68,0,0
176634,-200,4,2,1,35,0,0
176950,-108.695652173913,4,2,1,64,0,0
177266,-108.695652173913,4,2,1,62,0,0
177581,-108.695652173913,4,2,1,60,0,0
177897,-108.695652173913,4,2,1,58,0,0
178213,-108.695652173913,4,2,1,56,0,0
178529,-108.695652173913,4,2,1,54,0,0
178845,-108.695652173913,4,2,1,52,0,0
179160,-108.695652173913,4,2,1,50,0,0
179476,-108.695652173913,4,2,1,48,0,0
179792,-108.695652173913,4,2,1,46,0,0
180108,-108.695652173913,4,2,1,44,0,0
180424,-108.695652173913,4,2,1,42,0,0
180739,-108.695652173913,4,2,1,40,0,0
181055,-108.695652173913,4,2,1,38,0,0
181371,-108.695652173913,4,2,1,36,0,0
181687,-108.695652173913,4,2,1,34,0,0
182002,-108.695652173913,4,2,1,32,0,0
182318,-108.695652173913,4,2,1,30,0,0
182634,-108.695652173913,4,2,1,28,0,0
182950,-108.695652173913,4,2,1,26,0,0
183266,-108.695652173913,4,2,1,24,0,0
183581,-108.695652173913,4,2,1,22,0,0
183897,-108.695652173913,4,2,1,20,0,0
184213,-108.695652173913,4,2,1,18,0,0
184371,-200,4,2,1,16,0,0

[Colours]
Combo1 : 224,147,120
Combo2 : 136,136,136
Combo3 : 228,228,228
Combo4 : 255,108,108
Combo5 : 255,187,187
Combo6 : 240,200,183
SliderBorder : 222,247,255

[HitObjects]
88,177,424,6,0,P|98:210|98:228,1,52.4999983978272,2|2,0:0|0:0,0:0:0:0:
67,311,739,1,2,0:0:0:0:
67,311,897,1,2,0:0:0:0:
147,349,1055,2,0,P|198:340|268:330,1,104.999996795654,2|2,0:0|0:0,0:0:0:0:
250,332,1687,6,0,P|254:300|261:271,1,52.4999983978272,2|2,0:0|0:0,0:0:0:0:
342,248,2002,2,0,P|347:273|350:299,1,52.4999983978272,2|2,0:0|0:0,0:0:0:0:
418,359,2318,1,2,0:0:0:0:
418,359,2476,1,2,0:0:0:0:
492,309,2634,2,0,P|498:276|496:249,1,52.4999983978272,2|2,0:0|0:0,0:0:0:0:
437,189,2950,70,0,P|444:133|450:73,1,104.999996795654,2|2,0:0|0:0,0:0:0:0:
283,16,3581,2,0,P|288:68|294:120,1,104.999996795654,2|2,0:0|0:0,0:0:0:0:
234,187,4055,1,2,0:0:0:0:
234,187,4213,6,0,P|200:183|175:180,1,52.4999983978272,2|2,0:0|0:0,0:0:0:0:
138,102,4529,2,0,P|164:98|190:95,1,52.4999983978272,2|2,0:0|0:0,0:0:0:0:
82,29,4845,1,2,0:0:0:0:
82,29,5002,1,2,0:0:0:0:
18,93,5160,2,0,P|8:123|7:143,1,52.4999983978272,2|2,0:0|0:0,0:0:0:0:
15,232,5476,70,0,B|77:220|77:220|118:238,1,104.999996795654,2|0,0:0|0:0,0:0:0:0:
199,266,5950,2,0,P|219:209|215:163,1,104.999996795654,2|0,0:0|0:0,0:0:0:0:
301,138,6424,2,0,P|325:184|365:216,1,104.999996795654,2|0,0:0|0:0,0:0:0:0:
449,248,6897,2,0,P|443:300|434:368,1,104.999996795654,2|2,0:0|0:0,0:0:0:0:
349,375,7371,1,2,0:0:0:0:
349,375,7529,1,2,0:0:0:0:
267,337,7687,2,0,P|238:342|213:346,1,52.4999983978272,2|2,0:0|0:0,0:0:0:0:
126,356,8002,6,0,P|105:306|125:255,1,104.999996795654,2|0,0:0|0:0,0:0:0:0:
205,231,8476,2,0,P|226:181|206:130,1,104.999996795654,2|0,0:0|0:0,0:0:0:0:
165,57,8950,2,0,P|215:49|284:40,1,104.999996795654,2|0,0:0|0:0,0:0:0:0:
354,13,9424,2,0,P|404:21|473:30,1,104.999996795654,2|2,0:0|0:0,0:0:0:0:
499,107,9897,1,2,0:0:0:0:
499,107,10055,1,2,0:0:0:0:
420,147,10213,2,0,P|415:173|419:202,1,52.4999983978272,2|2,0:0|0:0,0:0:0:0:
456,308,10529,53,8,0:0:0:0:
456,308,10608,1,8,0:0:0:0:
456,308,10687,1,10,0:0:0:0:
456,308,10766,1,8,0:0:0:0:
456,308,10845,1,10,0:0:0:0:
263,246,11160,70,0,P|229:250|195:255,1,67.4999979400635,2|2,1:2|0:0,0:0:0:0:
97,280,11476,1,2,1:2:0:0:
158,360,11634,2,0,P|198:366|231:360,1,67.4999979400635,2|2,0:0|1:2,0:0:0:0:
321,330,11950,1,2,0:0:0:0:
263,246,12108,2,0,P|259:212|265:179,1,67.4999979400635,2|2,1:2|0:0,0:0:0:0:
307,86,12424,1,2,1:2:0:0:
362,170,12581,1,0,0:0:0:0:
413,82,12739,2,0,P|410:48|405:8,1,67.4999979400635,2|0,1:2|0:0,0:0:0:0:
508,158,13055,5,8,0:0:0:0:
508,158,13134,1,8,0:0:0:0:
508,158,13213,1,8,0:0:0:0:
508,158,13292,1,8,0:0:0:0:
508,158,13371,1,10,0:0:0:0:
329,254,13687,70,0,P|285:246|255:246,1,67.4999979400635,2|2,1:2|0:0,0:0:0:0:
161,256,14002,1,2,1:2:0:0:
99,175,14160,2,0,P|102:143|106:106,1,67.4999979400635,2|2,0:0|1:2,0:0:0:0:
162,23,14476,1,2,0:0:0:0:
229,98,14634,2,0,P|262:94|296:91,1,67.4999979400635,2|2,1:2|0:0,0:0:0:0:
397,82,14950,1,2,1:2:0:0:
344,168,15108,1,2,0:0:0:0:
445,159,15266,1,2,1:2:0:0:
400,250,15424,2,0,L|405:293,1,33.7499989700318,2|0,3:2|3:0,0:0:0:0:
424,380,15581,5,10,0:0:0:0:
424,380,15660,1,8,0:0:0:0:
424,380,15739,1,8,0:0:0:0:
424,380,15818,1,8,0:0:0:0:
424,380,15897,1,10,0:0:0:0:
230,319,16213,70,0,P|195:329|157:326,1,67.4999979400635,0|0,1:0|0:0,0:0:0:0:
65,300,16529,1,2,1:2:0:0:
128,221,16687,2,0,P|123:187|117:148,1,67.4999979400635,0|0,0:0|1:0,0:0:0:0:
170,67,17002,1,0,0:0:0:0:
259,113,17160,2,0,P|253:146|248:179,1,67.4999979400635,0|0,1:0|0:0,0:0:0:0:
307,263,17476,1,0,1:0:0:0:
356,174,17634,1,0,0:0:0:0:
423,249,17792,2,0,P|464:254|497:247,1,67.4999979400635,0|0,1:0|0:0,0:0:0:0:
458,131,18108,5,10,0:0:0:0:
458,131,18187,1,8,0:0:0:0:
458,131,18266,1,8,0:0:0:0:
458,131,18345,1,8,0:0:0:0:
458,131,18424,1,10,0:0:0:0:
307,263,18739,70,0,P|303:298|299:332,1,67.4999979400635,0|0,1:0|0:0,0:0:0:0:
213,384,19055,1,2,1:2:0:0:
167,293,19213,2,0,P|134:301|90:299,1,67.4999979400635,0|0,0:0|1:0,0:0:0:0:
3,270,19529,1,0,0:0:0:0:
56,184,19687,2,0,P|52:149|48:115,1,67.4999979400635,0|0,1:0|0:0,0:0:0:0:
140,38,20002,2,0,P|136:73|132:107,1,67.4999979400635,0|0,1:0|0:0,0:0:0:0:
225,184,20318,2,0,P|221:149|217:115,1,67.4999979400635,2|0,1:2|0:0,0:0:0:0:
290,46,20634,5,10,0:0:0:0:
290,46,20713,1,8,0:0:0:0:
290,46,20792,1,8,0:0:0:0:
290,46,20871,1,8,0:0:0:0:
290,46,20950,2,0,P|323:41|361:48,1,67.4999979400635,0|2,1:0|0:0,0:0:0:0:
447,91,21266,1,0,1:0:0:0:
360,142,21424,1,8,0:0:0:0:
464,202,21581,1,10,0:0:0:0:
464,202,21660,1,8,0:0:0:0:
464,202,21739,1,8,0:0:0:0:
464,202,21818,1,8,0:0:0:0:
464,202,21897,70,0,P|460:236|455:280,1,67.4999979400635,0|0,1:0|0:0,0:0:0:0:
364,314,22213,2,0,P|288:284|230:297,1,134.999995880127,0|0,1:0|1:0,0:0:0:0:
237,293,22845,2,0,P|241:327|246:371,1,67.4999979400635,2|0,1:2|0:0,0:0:0:0:
153,251,23160,5,10,0:0:0:0:
153,251,23239,1,8,0:0:0:0:
153,251,23318,1,8,0:0:0:0:
153,251,23397,1,8,0:0:0:0:
153,251,23476,2,0,P|156:217|160:183,1,67.4999979400635,0|2,1:0|0:0,0:0:0:0:
216,98,23792,1,0,1:0:0:0:
272,182,23950,1,8,0:0:0:0:
349,117,24108,1,2,1:2:0:0:
349,117,24187,1,8,0:0:0:0:
349,117,24266,1,8,0:0:0:0:
349,117,24345,1,8,0:0:0:0:
349,117,24424,70,0,P|388:120|416:133,1,67.4999979400635,0|0,1:0|0:0,0:0:0:0:
475,211,24739,2,0,P|469:245|466:278,1,67.4999979400635,2|0,1:2|0:0,0:0:0:0:
374,322,25055,2,0,P|370:288|365:255,1,67.4999979400635,2|0,1:2|0:0,0:0:0:0:
272,212,25371,2,0,P|266:245|263:278,1,67.4999979400635,2|0,1:2|0:0,0:0:0:0:
199,358,25687,5,2,1:2:0:0:
199,358,25766,1,8,0:0:0:0:
199,358,25845,1,8,0:0:0:0:
199,358,25924,1,8,0:0:0:0:
199,358,26002,2,0,P|153:361|122:350,1,67.4999979400635,0|2,1:0|0:0,0:0:0:0:
45,301,26318,1,0,1:0:0:0:
129,244,26476,2,0,L|125:200,1,33.7499989700318,8|8,0:0|0:0,0:0:0:0:
116,127,26634,1,2,1:2:0:0:
116,127,26713,1,0,0:0:0:0:
116,127,26792,1,8,0:0:0:0:
116,127,26871,1,8,0:0:0:0:
116,127,26950,69,0,1:0:0:0:
285,238,27266,2,0,P|326:233|355:220,1,67.4999979400635,2|0,1:2|0:0,0:0:0:0:
409,141,27581,2,0,P|377:128|344:125,1,67.4999979400635,0|0,1:0|0:0,0:0:0:0:
242,130,27897,2,0,P|229:98|226:65,1,67.4999979400635,2|0,1:2|0:0,0:0:0:0:
132,26,28213,5,8,0:0:0:0:
132,26,28292,1,8,0:0:0:0:
132,26,28371,1,8,0:0:0:0:
132,26,28450,1,8,0:0:0:0:
132,26,28529,2,0,P|95:32|64:35,1,67.4999979400635,2|0,1:2|0:0,0:0:0:0:
13,123,28845,1,0,1:0:0:0:
97,177,29002,2,0,L|92:229,1,33.7499989700318,8|8,0:0|0:0,0:0:0:0:
95,305,29160,1,2,1:2:0:0:
95,305,29239,1,8,0:0:0:0:
95,305,29318,1,10,0:0:0:0:
95,305,29397,1,8,0:0:0:0:
95,305,29476,69,2,1:2:0:0:
95,305,30739,54,0,B|107:344|107:344|96:384,1,82.5000025177003,14|0,0:0|1:0,0:0:0:0:
2,257,31055,1,0,1:0:0:0:
104,186,31213,2,0,B|198:177|172:235|273:216,1,165.000005035401,8|0,0:0|1:0,0:0:0:0:
362,144,31687,1,10,0:0:0:0:
256,125,31845,1,2,1:2:0:0:
359,241,32002,6,0,P|353:285|347:332,1,82.5000025177003,10|0,0:0|1:0,0:0:0:0:
236,379,32318,1,2,1:2:0:0:
156,284,32476,2,0,P|112:290|65:296,1,82.5000025177003,10|0,0:0|1:0,0:0:0:0:
148,384,32792,1,2,1:2:0:0:
255,274,32950,2,0,P|258:226|246:187,1,82.5000025177003,10|0,0:0|1:0,0:0:0:0:
217,72,33266,70,0,B|307:92|307:92|345:80|360:41,1,165.000005035401,8|0,0:0|1:0,0:0:0:0:
482,46,33739,2,0,P|440:94|452:193,1,165.000005035401,8|0,0:0|1:0,0:0:0:0:
365,281,34213,2,0,P|332:247|243:245,1,123.75000377655,10|0,0:0|0:0,0:0:0:0:
231,256,34529,6,0,P|237:299|242:345,1,82.5000025177003,10|0,0:0|1:0,0:0:0:0:
110,264,34845,1,0,1:0:0:0:
138,144,35002,2,0,P|219:138|303:98,1,165.000005035401,10|0,0:0|1:0,0:0:0:0:
385,18,35476,1,10,0:0:0:0:
486,89,35634,1,0,1:0:0:0:
486,89,35713,1,0,1:0:0:0:
486,89,35792,70,0,P|493:133|499:177,1,82.5000025177003,8|0,0:0|1:0,0:0:0:0:
511,294,36108,1,2,1:2:0:0:
390,264,36266,2,0,P|377:223|383:176,1,82.5000025177003,8|2,0:0|1:2,0:0:0:0:
503,199,36581,1,0,1:0:0:0:
396,356,36739,2,0,P|353:346|316:318,1,82.5000025177003,10|0,0:0|1:0,0:0:0:0:
188,256,37055,6,0,P|110:269|22:287,1,165.000005035401,8|2,0:0|1:2,0:0:0:0:
140,148,37529,2,0,P|199:155|241:165,1,82.5000025177003,8|2,0:0|1:2,0:0:0:0:
341,177,37845,1,0,1:0:0:0:
436,98,38002,2,0,P|442:53|430:12,1,82.5000025177003,10|0,0:0|1:0,0:0:0:0:
283,6,38318,70,0,P|289:50|294:96,1,82.5000025177003,10|0,0:0|1:0,0:0:0:0:
189,157,38634,1,2,1:2:0:0:
99,70,38792,2,0,P|34:79|2:99,1,82.5000025177003,8|2,0:0|1:2,0:0:0:0:
162,171,39108,1,0,1:0:0:0:
290,54,39266,6,0,B|389:81|389:81|420:68|434:36,1,165.000005035401,10|0,0:0|1:0,0:0:0:0:
485,177,39739,2,0,P|479:217|473:265,1,82.5000025177003,10|0,0:0|0:0,0:0:0:0:
349,341,40055,69,0,1:0:0:0:
349,341,40134,1,0,1:0:0:0:
349,341,40213,2,0,L|341:277,1,41.2500012588501,10|0,0:0|0:0,0:0:0:0:
254,255,40371,1,0,1:0:0:0:
254,255,40450,1,0,1:0:0:0:
254,255,40529,2,0,L|248:295,1,41.2500012588501,10|8,0:0|0:0,0:0:0:0:
165,351,40687,2,0,L|159:310,1,41.2500012588501,0|0,1:0|1:0,0:0:0:0:
148,210,40845,6,0,B|92:195|46:226|46:226|15:198|29:149,1,165.000005035401,10|0,0:0|1:0,0:0:0:0:
89,68,41318,2,0,P|128:71|176:77,1,82.5000025177003,8|0,0:0|1:0,0:0:0:0:
294,96,41634,1,0,1:0:0:0:
242,215,41792,2,0,P|238:257|251:302,1,82.5000025177003,10|0,0:0|1:0,0:0:0:0:
410,263,42108,70,0,P|368:257|325:251,1,82.5000025177003,10|0,0:0|1:0,0:0:0:0:
424,365,42424,1,2,1:2:0:0:
509,244,42581,2,0,P|511:200|495:152,1,82.5000025177003,10|0,0:0|1:2,0:0:0:0:
430,60,42897,1,2,1:2:0:0:
337,142,43055,2,0,P|295:136|252:130,1,82.5000025177003,10|0,0:0|1:0,0:0:0:0:
162,213,43371,6,0,B|192:265|192:265|158:373,1,165.000005035401,8|0,0:0|1:0,0:0:0:0:
45,245,43845,2,0,P|41:204|34:142,1,82.5000025177003,8|0,0:0|1:0,0:0:0:0:
90,51,44160,1,0,1:0:0:0:
177,190,44318,1,10,0:0:0:0:
231,79,44476,1,2,1:2:0:0:
334,207,44634,70,0,B|383:215|433:225|433:225|449:197|495:173,1,165.000005035401,10|0,0:0|1:2,0:0:0:0:
500,321,45108,2,0,P|457:327|410:335,1,82.5000025177003,10|0,0:0|1:0,0:0:0:0:
295,352,45424,1,0,1:0:0:0:
360,238,45581,1,10,0:0:0:0:
230,262,45739,1,0,1:0:0:0:
230,262,45818,1,0,1:0:0:0:
230,262,45897,6,0,P|163:253|126:229,1,82.5000025177003,8|0,0:0|1:0,0:0:0:0:
80,143,46213,1,2,1:2:0:0:
177,65,46371,2,0,P|182:106|187:147,1,82.5000025177003,8|2,0:0|1:2,0:0:0:0:
255,252,46687,1,0,1:0:0:0:
332,155,46845,2,0,P|394:148|459:186,1,123.75000377655,10|0,0:0|1:0,0:0:0:0:
465,202,47160,70,0,P|459:242|454:283,1,82.5000025177003,8|0,0:0|1:0,0:0:0:0:
349,350,47476,1,2,1:2:0:0:
244,283,47634,2,0,P|203:274|163:282,1,82.5000025177003,8|2,0:0|1:2,0:0:0:0:
254,379,47950,1,0,1:0:0:0:
342,237,48108,2,0,P|336:196|331:155,1,82.5000025177003,10|0,0:0|1:0,0:0:0:0:
213,50,48424,6,0,B|102:31|102:31|51:81,1,165.000005035401,8|2,0:0|1:2,0:0:0:0:
11,179,48897,2,0,P|3:221|15:275,1,82.5000025177003,8|2,0:0|1:2,0:0:0:0:
88,355,49213,1,0,1:0:0:0:
118,209,49371,1,10,0:0:0:0:
202,299,49529,1,2,1:2:0:0:
251,185,49687,69,2,1:2:0:0:
202,299,49845,2,0,P|243:318|296:312,1,82.5000025177003,8|0,0:0|0:0,0:0:0:0:
391,264,50160,1,2,1:2:0:0:
391,264,50239,1,0,1:0:0:0:
391,264,50318,2,0,L|395:222,1,41.2500012588501,8|8,0:0|0:0,0:0:0:0:
476,164,50476,1,8,0:0:0:0:
476,164,50555,1,8,0:0:0:0:
476,164,50634,2,0,L|480:206,1,41.2500012588501,10|8,0:0|0:0,0:0:0:0:
509,287,50792,2,0,L|505:329,1,41.2500012588501,8|8,0:0|0:0,0:0:0:0:
256,192,50950,12,0,53002,0:0:0:0:
381,149,53476,70,0,L|308:158,1,67.4999979400635,0|2,1:0|0:0,0:0:0:0:
280,162,53713,2,0,P|303:213|291:265,1,101.249996910095,0|2,1:0|1:2,0:0:0:0:
284,288,54029,1,0,1:0:0:0:
284,288,54108,2,0,P|240:259|139:276,1,134.999995880127,10|0,0:0|0:0,0:0:0:0:
71,312,54581,1,2,0:0:0:0:
8,232,54739,70,0,P|12:199|17:156,1,67.4999979400635,2|2,0:0|0:0,0:0:0:0:
75,82,55055,1,2,0:0:0:0:
170,146,55213,2,0,B|176:188,1,33.7499989700318,2|0,1:2|1:0,0:0:0:0:
180,216,55371,1,10,0:0:0:0:
180,216,55450,2,0,P|213:212|271:205,1,67.4999979400635,0|0,1:0|1:0,0:0:0:0:
278,193,55687,2,0,P|311:197|369:204,1,67.4999979400635,2|0,0:0|1:0,0:0:0:0:
445,216,56002,6,0,B|457:260|457:260|441:313,1,89.999997253418,2|0,1:2|1:0,0:0:0:0:
415,374,56318,1,2,0:0:0:0:
322,333,56476,1,0,1:0:0:0:
322,333,56555,1,0,1:0:0:0:
322,333,56634,2,0,P|251:324|183:316,1,134.999995880127,10|2,0:0|0:0,0:0:0:0:
107,253,57108,1,0,0:0:0:0:
178,181,57266,70,0,P|188:151|187:110,1,67.4999979400635,2|2,0:0|0:0,0:0:0:0:
129,33,57581,1,2,0:0:0:0:
29,26,57739,2,0,L|23:73,1,33.7499989700318,2|0,1:2|1:0,0:0:0:0:
16,92,57897,1,10,0:0:0:0:
16,92,57976,2,0,P|19:128|24:173,1,67.4999979400635,0|0,1:0|1:0,0:0:0:0:
25,193,58213,1,2,0:0:0:0:
131,230,58371,1,8,0:0:0:0:
131,230,58450,1,8,0:0:0:0:
131,230,58529,6,0,P|173:220|213:232,1,67.4999979400635,14|0,0:0|0:0,0:0:0:0:
226,239,58766,2,0,P|233:293|238:347,1,101.249996910095,0|2,1:0|1:2,0:0:0:0:
248,374,59081,1,0,1:0:0:0:
248,374,59160,2,0,P|281:377|313:369,1,67.4999979400635,8|0,0:0|0:0,0:0:0:0:
373,285,59476,70,0,P|440:295|511:304,2,134.999995880127,2|0|0,0:0|0:0|0:0,0:0:0:0:
271,275,60266,2,0,L|267:236,1,33.7499989700318,0|0,1:0|1:0,0:0:0:0:
294,219,60424,1,8,0:0:0:0:
294,219,60502,2,0,P|286:181|299:134,1,67.4999979400635,0|0,1:0|1:0,0:0:0:0:
267,127,60739,2,0,P|275:89|262:42,1,67.4999979400635,0|0,0:0|1:0,0:0:0:0:
176,22,61055,6,0,P|133:38|107:38,1,67.4999979400635,2|0,1:2|0:0,0:0:0:0:
78,24,61266,2,0,P|72:78|68:154,1,112.499996566773,0|2,1:0|1:2,0:0:0:0:
51,165,61608,1,0,1:0:0:0:
51,165,61687,2,0,P|55:209|60:256,1,67.4999979400635,8|0,0:0|0:0,0:0:0:0:
145,268,62002,2,0,P|188:256|233:262,1,67.4999979400635,2|0,0:0|0:0,0:0:0:0:
309,289,62318,69,0,1:0:0:0:
399,239,62476,1,0,0:0:0:0:
399,239,62555,2,0,P|407:193|394:151,1,67.4999979400635,0|8,1:0|0:0,0:0:0:0:
389,141,62792,1,0,1:0:0:0:
305,89,62950,1,8,0:0:0:0:
305,89,63029,2,0,L|298:175,1,67.4999979400635,0|0,1:0|1:0,0:0:0:0:
297,190,63266,1,2,0:0:0:0:
212,256,63463,1,8,0:0:0:0:
132,203,63581,6,0,B|88:233|88:233|23:224,2,101.249996910095,0|0|2,1:0|1:0|1:2,0:0:0:0:
158,181,64134,1,0,1:0:0:0:
158,181,64213,2,0,P|163:147|155:116,1,67.4999979400635,10|2,0:0|0:0,0:0:0:0:
214,41,64529,1,2,0:0:0:0:
266,119,64687,1,2,0:0:0:0:
352,80,64845,70,0,P|356:46|360:11,1,67.4999979400635,2|2,0:0|0:0,0:0:0:0:
460,92,65160,1,2,0:0:0:0:
377,150,65318,2,0,L|371:193,1,33.7499989700318,2|0,1:2|1:0,0:0:0:0:
390,212,65476,1,10,0:0:0:0:
390,212,65555,2,0,P|393:245|397:279,1,67.4999979400635,0|0,1:0|1:0,0:0:0:0:
422,301,65792,2,0,P|418:334|414:368,1,67.4999979400635,2|2,0:0|0:0,0:0:0:0:
296,371,66108,6,0,L|285:284,1,67.4999979400635,0|2,1:0|0:0,0:0:0:0:
255,284,66318,2,0,P|201:278|150:312,1,112.499996566773,0|0,1:0|1:0,0:0:0:0:
121,328,66660,1,0,1:0:0:0:
121,328,66739,2,0,P|114:254|108:189,1,134.999995880127,10|2,0:0|0:0,0:0:0:0:
115,104,67213,1,2,0:0:0:0:
206,135,67371,70,0,B|257:143|257:143|303:121,2,101.249996910095,2|0|2,1:2|1:0|1:2,0:0:0:0:
115,104,68002,2,0,P|79:94|15:114,1,89.999997253418,10|8,0:0|0:0,0:0:0:0:
0,187,68318,2,0,P|2:217|6:258,1,67.4999979400635,2|8,0:0|0:0,0:0:0:0:
50,343,68634,6,0,P|83:345|115:335,1,67.4999979400635,2|0,1:2|0:0,0:0:0:0:
146,320,68871,2,0,P|195:325|256:333,1,101.249996910095,0|2,1:0|1:2,0:0:0:0:
282,341,69187,1,0,1:0:0:0:
282,341,69266,2,0,P|290:306|287:273,1,67.4999979400635,8|0,0:0|0:0,0:0:0:0:
247,181,69581,70,0,P|178:203|117:166,2,134.999995880127,2|2|0,0:0|0:0|0:0,0:0:0:0:
304,96,70371,2,0,L|345:93,1,33.7499989700318,0|0,1:0|1:0,0:0:0:0:
369,81,70529,1,8,0:0:0:0:
369,81,70608,2,0,P|403:84|445:88,1,67.4999979400635,0|0,1:0|1:0,0:0:0:0:
469,94,70845,2,0,P|478:136|469:174,1,67.4999979400635,0|0,0:0|1:0,0:0:0:0:
406,234,71160,6,0,P|411:266|418:318,1,67.4999979400635,2|0,1:2|0:0,0:0:0:0:
422,334,71371,2,0,P|372:318|311:337,1,112.499996566773,0|2,1:0|1:2,0:0:0:0:
294,352,71713,1,0,1:0:0:0:
294,352,71792,2,0,P|256:348|189:343,2,101.249996910095,8|8|0,0:0|0:0|0:0,0:0:0:0:
248,247,72424,70,0,P|209:241|171:249,1,67.4999979400635,2|0,1:2|0:0,0:0:0:0:
150,258,72660,2,0,P|154:224|148:191,1,67.4999979400635,0|0,1:0|0:0,0:0:0:0:
130,162,72897,1,0,1:0:0:0:
215,108,73055,2,0,L|248:111,3,33.7499989700318,0|0|0|0,3:0|3:0|1:0|1:0,0:0:0:0:
273,129,73371,1,10,0:0:0:0:
304,126,73450,1,8,0:0:0:0:
333,121,73529,1,10,0:0:0:0:
364,118,73608,1,8,0:0:0:0:
394,113,73687,5,2,1:2:0:0:
251,174,83792,6,0,B|237:212|237:212|249:252,1,82.5000025177003,14|0,0:0|1:0,0:0:0:0:
350,179,84108,1,0,1:0:0:0:
281,75,84266,2,0,B|221:67|221:67|190:39|190:39|117:30,1,165.000005035401,8|0,0:0|1:0,0:0:0:0:
13,128,84739,1,10,0:0:0:0:
136,126,84897,1,2,1:2:0:0:
69,229,85055,6,0,P|59:268|74:319,1,82.5000025177003,10|0,0:0|1:0,0:0:0:0:
168,382,85371,1,2,1:2:0:0:
242,282,85529,2,0,P|198:276|151:270,1,82.5000025177003,10|0,0:0|1:0,0:0:0:0:
298,179,85845,1,2,1:2:0:0:
367,280,86002,2,0,P|372:324|377:374,1,82.5000025177003,10|0,0:0|1:0,0:0:0:0:
495,246,86318,70,0,B|501:185|501:185|481:151|481:151|494:72,1,165.000005035401,8|0,0:0|1:0,0:0:0:0:
388,18,86792,2,0,B|294:11|324:63|226:52,1,165.000005035401,8|0,0:0|1:0,0:0:0:0:
159,155,87266,2,0,P|219:157|265:197,1,123.75000377655,10|0,0:0|0:0,0:0:0:0:
282,226,87581,6,0,P|322:221|379:215,1,82.5000025177003,10|0,0:0|1:0,0:0:0:0:
487,201,87897,1,0,1:0:0:0:
449,318,88055,2,0,B|361:305|379:361|292:352,1,165.000005035401,10|0,0:0|1:0,0:0:0:0:
179,298,88529,1,10,0:0:0:0:
282,226,88687,1,0,1:0:0:0:
282,226,88766,1,0,1:0:0:0:
282,226,88845,70,0,P|279:182|274:140,1,82.5000025177003,8|0,0:0|1:0,0:0:0:0:
196,46,89160,1,2,1:2:0:0:
116,141,89318,2,0,P|75:154|28:148,1,82.5000025177003,8|2,0:0|1:2,0:0:0:0:
172,30,89634,1,0,1:0:0:0:
192,185,89792,2,0,P|187:225|184:267,1,82.5000025177003,10|0,0:0|1:0,0:0:0:0:
305,322,90108,6,0,B|400:313|375:370|475:357,1,165.000005035401,8|2,0:0|1:2,0:0:0:0:
498,230,90581,2,0,P|457:234|416:239,1,82.5000025177003,8|2,0:0|1:2,0:0:0:0:
315,166,90897,1,0,1:0:0:0:
409,87,91055,2,0,P|415:42|403:1,1,82.5000025177003,10|0,0:0|1:0,0:0:0:0:
241,65,91371,70,0,P|285:59|331:54,1,82.5000025177003,10|0,0:0|1:0,0:0:0:0:
155,6,91687,1,2,1:2:0:0:
76,101,91845,2,0,P|64:140|75:186,1,82.5000025177003,8|2,0:0|1:2,0:0:0:0:
135,287,92160,1,0,1:0:0:0:
195,179,92318,6,0,B|288:155|288:155|315:182|364:190,1,165.000005035401,10|0,0:0|1:0,0:0:0:0:
455,248,92792,2,0,P|464:292|452:345,1,82.5000025177003,10|0,0:0|0:0,0:0:0:0:
338,370,93108,69,0,1:0:0:0:
338,370,93187,1,0,1:0:0:0:
338,370,93266,2,0,L|274:362,1,41.2500012588501,2|0,3:2|3:0,0:0:0:0:
252,275,93424,1,0,3:0:0:0:
252,275,93502,1,0,3:0:0:0:
252,275,93581,2,0,L|292:269,1,41.2500012588501,10|8,0:0|0:0,0:0:0:0:
348,186,93739,2,0,L|307:180,1,41.2500012588501,0|0,1:0|1:0,0:0:0:0:
209,162,93897,6,0,B|125:189|125:189|76:174|85:123,1,165.000005035401,10|0,0:0|1:0,0:0:0:0:
242,59,94371,2,0,P|283:64|329:71,1,82.5000025177003,8|0,0:0|1:0,0:0:0:0:
427,139,94687,1,0,1:0:0:0:
327,212,94845,2,0,P|332:258|336:299,1,82.5000025177003,10|0,0:0|1:0,0:0:0:0:
206,383,95160,70,0,P|211:336|215:296,1,82.5000025177003,10|0,0:0|1:0,0:0:0:0:
234,177,95476,1,2,1:2:0:0:
127,239,95634,2,0,P|83:241|35:225,1,82.5000025177003,10|0,0:0|1:2,0:0:0:0:
4,113,95950,1,2,1:2:0:0:
108,46,96108,2,0,P|113:86|119:127,1,82.5000025177003,10|0,0:0|1:0,0:0:0:0:
234,177,96424,6,0,B|296:163|296:163|325:137|325:137|386:125,1,165.000005035401,8|0,0:0|1:0,0:0:0:0:
479,208,96897,2,0,P|490:250|483:291,1,82.5000025177003,8|0,0:0|1:0,0:0:0:0:
396,375,97213,1,0,1:0:0:0:
377,219,97371,1,10,0:0:0:0:
285,302,97529,1,2,1:2:0:0:
205,186,97687,70,0,B|149:172|106:204|106:204|65:202|44:152,1,165.000005035401,10|0,0:0|1:2,0:0:0:0:
130,74,98160,2,0,P|170:66|222:59,1,82.5000025177003,10|0,0:0|1:0,0:0:0:0:
334,38,98476,1,0,1:0:0:0:
309,158,98634,1,10,0:0:0:0:
430,133,98792,1,0,1:0:0:0:
430,133,98871,1,0,1:0:0:0:
430,133,98950,6,0,P|473:134|524:156,1,82.5000025177003,8|0,0:0|1:0,0:0:0:0:
388,251,99266,1,2,1:2:0:0:
284,171,99424,2,0,P|241:172|190:194,1,82.5000025177003,8|2,0:0|1:2,0:0:0:0:
112,269,99739,1,0,1:0:0:0:
190,365,99897,2,0,P|245:357|321:347,1,123.75000377655,10|0,0:0|0:0,0:0:0:0:
341,331,100213,70,0,P|381:333|427:336,1,82.5000025177003,8|0,0:0|1:0,0:0:0:0:
501,238,100529,1,2,1:2:0:0:
391,179,100687,2,0,P|350:188|310:180,1,82.5000025177003,8|2,0:0|1:2,0:0:0:0:
211,104,101002,1,0,1:0:0:0:
122,191,101160,2,0,P|126:231|132:272,1,82.5000025177003,10|0,0:0|1:0,0:0:0:0:
245,358,101476,6,0,B|305:346|305:346|334:321|334:321|404:308,1,165.000005035401,8|2,0:0|1:2,0:0:0:0:
487,200,101950,1,8,0:0:0:0:
366,127,102108,69,2,3:2:0:0:
345,130,102187,1,0,3:0:0:0:
325,134,102266,1,8,0:0:0:0:
305,137,102345,1,8,0:0:0:0:
278,157,102424,5,10,0:0:0:0:
245,151,102502,1,8,0:0:0:0:
212,146,102581,1,2,1:2:0:0:
180,141,102660,1,0,1:0:0:0:
146,137,102739,70,0,B|85:180|83:256|134:304|134:304|175:295|194:267|188:230,1,292.499986610413,2|0,1:2|0:0,0:0:0:0:
189,234,104002,38,0,B|244:220|244:220|272:190|272:190|336:177|336:177|310:206,1,194.999991073609,2|2,1:2|0:0,0:0:0:0:
439,104,104476,2,0,B|384:90|384:90|356:60|356:60|292:47|292:47|318:76,1,194.999991073609,2|2,1:2|0:0,0:0:0:0:
441,206,104950,1,2,1:2:0:0:
441,206,105029,1,0,1:0:0:0:
441,206,105108,1,2,1:2:0:0:
441,206,105187,1,0,1:0:0:0:
441,206,105266,1,10,0:0:0:0:
441,206,105897,69,0,0:0:0:0:
240,319,106371,1,0,1:0:0:0:
240,319,106450,1,0,1:0:0:0:
240,319,106529,6,0,B|177:349|177:349|105:309|105:309|146:287,1,194.999991073609,6|2,1:2|0:0,0:0:0:0:
240,167,107002,2,0,B|177:137|177:137|105:177|105:177|146:198,1,194.999991073609,2|0,1:2|0:0,0:0:0:0:
328,260,107476,1,2,1:2:0:0:
328,260,107555,1,0,1:0:0:0:
328,260,107634,1,2,1:2:0:0:
328,260,107713,1,0,1:0:0:0:
328,260,107792,1,8,0:0:0:0:
431,187,107950,70,0,B|442:140|442:140|415:89,1,97.4999955368044,2|2,1:2|0:0,0:0:0:0:
263,121,108266,2,0,B|298:154|298:154|355:156,1,97.4999955368044,10|2,0:0|0:0,0:0:0:0:
405,11,108581,2,0,B|358:24|358:24|328:73,1,97.4999955368044,0|2,1:0|0:0,0:0:0:0:
286,185,108897,1,0,1:0:0:0:
195,58,109055,6,0,B|166:103|166:103|192:198|192:198|153:168,1,194.999991073609,6|0,1:2|0:0,0:0:0:0:
23,72,109529,2,0,B|52:117|52:117|26:212|26:212|65:182,1,194.999991073609,0|2,1:0|0:0,0:0:0:0:
106,26,110002,1,2,1:2:0:0:
106,26,110081,1,0,1:0:0:0:
106,26,110160,1,2,1:2:0:0:
106,26,110239,1,0,1:0:0:0:
106,26,110318,1,10,0:0:0:0:
106,26,110950,69,2,0:0:0:0:
250,227,111424,1,2,1:2:0:0:
250,227,111502,1,0,1:0:0:0:
250,227,111581,6,0,B|299:215|299:215|343:235|343:235|390:220|390:220|416:181,1,194.999991073609,4|0,1:2|0:0,0:0:0:0:
291,332,112055,2,0,B|242:320|242:320|198:340|198:340|151:325|151:325|125:286,1,194.999991073609,0|2,1:0|0:0,0:0:0:0:
77,167,112529,1,2,1:2:0:0:
77,167,112608,1,0,1:0:0:0:
77,167,112687,1,2,1:2:0:0:
77,167,112766,1,0,1:0:0:0:
77,167,112845,1,10,0:0:0:0:
195,123,113002,70,0,B|219:169|219:169|206:218,2,97.4999955368044,0|2|0,0:0|1:2|1:0,0:0:0:0:
301,7,113476,1,8,0:0:0:0:
327,160,113634,1,0,1:0:0:0:
181,104,113792,1,0,3:0:0:0:
452,71,114108,6,0,B|475:114|475:114|451:166|451:166|474:219|474:219|492:184,1,194.999991073609,14|2,0:0|0:0,0:0:0:0:
327,160,114581,2,0,B|304:203|304:203|328:255|328:255|305:308|305:308|287:273,1,194.999991073609,0|2,1:0|0:0,0:0:0:0:
438,332,115055,1,2,1:2:0:0:
438,332,115134,1,0,1:0:0:0:
438,332,115213,1,2,1:2:0:0:
438,332,115292,1,0,1:0:0:0:
438,332,115371,1,10,0:0:0:0:
438,332,116002,69,2,0:0:0:0:
250,188,116476,1,0,1:0:0:0:
250,188,116555,1,0,1:0:0:0:
250,188,116634,6,0,B|195:174|195:174|154:194|154:194|99:179|99:179|122:218,1,194.999991073609,6|0,1:2|0:0,0:0:0:0:
250,65,117108,2,0,B|195:79|195:79|154:59|154:59|99:74|99:74|122:35,1,194.999991073609,2|2,1:2|0:0,0:0:0:0:
339,142,117581,1,2,1:2:0:0:
339,142,117660,1,0,1:0:0:0:
339,142,117739,1,2,1:2:0:0:
339,142,117818,1,0,1:0:0:0:
339,142,117897,1,10,0:0:0:0:
236,216,118055,70,0,B|234:254|234:254|243:273|243:273|240:326,1,97.4999955368044,2|0,1:2|0:0,0:0:0:0:
85,373,118371,2,0,B|82:334|82:334|91:315|91:315|89:277,1,97.4999955368044,10|0,0:0|0:0,0:0:0:0:
80,150,118687,1,0,1:0:0:0:
178,70,118845,1,8,0:0:0:0:
210,91,118924,1,8,0:0:0:0:
247,99,119002,1,8,0:0:0:0:
286,92,119081,1,8,0:0:0:0:
318,72,119160,6,0,B|338:120|338:120|322:164|322:164|345:202|345:202|335:264,1,194.999991073609,2|2,1:2|0:0,0:0:0:0:
453,372,119634,2,0,B|444:320|444:320|467:282|467:282|451:238|451:238|470:190,1,194.999991073609,2|2,1:2|0:0,0:0:0:0:
445,65,120108,1,2,1:2:0:0:
445,65,120187,1,0,1:0:0:0:
445,65,120266,1,2,1:2:0:0:
445,65,120345,1,0,1:0:0:0:
445,65,120424,1,10,0:0:0:0:
445,65,121055,69,0,0:0:0:0:
252,200,121529,1,0,1:0:0:0:
252,200,121608,1,0,1:0:0:0:
252,200,121687,6,0,B|202:193|202:193|163:209|163:209|108:204|108:204|72:160,1,194.999991073609,4|2,1:2|0:0,0:0:0:0:
151,316,122160,2,0,B|201:309|201:309|240:325|240:325|295:320|295:320|331:276,1,194.999991073609,2|0,1:2|0:0,0:0:0:0:
403,182,122634,1,0,1:0:0:0:
403,182,122713,1,0,1:0:0:0:
403,182,122792,1,0,1:0:0:0:
403,182,122871,1,0,1:0:0:0:
403,182,122950,1,10,0:0:0:0:
485,278,123108,70,0,B|501:329|501:329|485:380,1,97.4999955368044,2|0,1:2|0:0,0:0:0:0:
336,262,123424,1,2,1:2:0:0:
493,187,123581,1,10,0:0:0:0:
399,335,123739,1,2,1:2:0:0:
301,177,123897,2,0,L|317:60,1,97.4999955368044,2|0,0:0|0:0,0:0:0:0:
166,223,124213,53,6,1:2:0:0:
256,192,124292,12,0,126739,0:0:0:0:
190,119,134318,86,0,P|176:160|191:218,1,86.2500016450882,14|0,0:0|1:0,0:0:0:0:
332,244,134634,2,0,P|303:211|245:195,1,86.2500016450882,8|0,0:0|0:0,0:0:0:0:
153,305,134950,2,0,P|195:296|238:254,1,86.2500016450882,8|0,0:0|1:0,0:0:0:0:
281,114,135266,1,10,0:0:0:0:
417,205,135424,1,2,1:2:0:0:
417,205,135502,1,0,1:0:0:0:
417,205,135581,6,0,P|459:200|502:195,1,86.2500016450882,10|0,0:0|1:0,0:0:0:0:
304,105,135897,1,10,0:0:0:0:
221,226,136055,2,0,P|212:269|225:319,1,86.2500016450882,2|8,1:2|0:0,0:0:0:0:
98,174,136371,1,2,1:2:0:0:
98,174,136450,1,0,1:0:0:0:
98,174,136529,2,0,P|106:132|97:90,1,86.2500016450882,10|0,0:0|1:0,0:0:0:0:
218,5,136845,70,0,P|259:9|307:14,1,86.2500016450882,8|0,0:0|0:0,0:0:0:0:
408,116,137160,2,0,P|365:120|322:124,1,86.2500016450882,8|0,0:0|0:0,0:0:0:0:
221,226,137476,2,0,P|262:230|310:235,1,86.2500016450882,8|0,0:0|1:0,0:0:0:0:
160,328,137792,1,10,0:0:0:0:
63,217,137950,1,2,1:2:0:0:
63,217,138029,1,0,1:0:0:0:
63,217,138108,6,0,B|28:117|28:117|67:122|101:101,1,172.500003290176,10|8,0:0|0:0,0:0:0:0:
220,34,138581,1,2,1:2:0:0:
220,34,138660,1,0,1:0:0:0:
220,34,138739,1,8,0:0:0:0:
278,168,138897,2,0,L|272:224,1,43.1250008225441,0|0,1:0|1:0,0:0:0:0:
263,297,139055,1,10,0:0:0:0:
297,301,139134,1,8,0:0:0:0:
331,306,139213,1,0,1:0:0:0:
365,311,139292,1,0,1:0:0:0:
399,315,139371,70,0,P|428:260|406:187,1,129.375002467632,8|0,0:0|0:0,0:0:0:0:
394,167,139687,2,0,P|438:162|495:156,1,86.2500016450882,10|0,0:0|0:0,0:0:0:0:
381,48,140002,2,0,P|338:43|295:38,1,86.2500016450882,10|0,0:0|1:0,0:0:0:0:
166,22,140318,1,10,0:0:0:0:
218,140,140476,1,0,1:0:0:0:
218,140,140555,1,0,1:0:0:0:
218,140,140634,6,0,P|229:185|217:235,1,86.2500016450882,8|0,0:0|1:0,0:0:0:0:
92,235,140950,2,0,P|81:190|93:140,1,86.2500016450882,10|0,0:0|1:0,0:0:0:0:
137,31,141266,1,10,0:0:0:0:
263,56,141424,1,0,1:0:0:0:
263,56,141502,1,0,1:0:0:0:
263,56,141581,2,0,P|305:49|355:44,1,86.2500016450882,10|0,0:0|1:0,0:0:0:0:
457,115,141897,70,0,P|467:157|455:203,1,86.2500016450882,10|0,0:0|0:0,0:0:0:0:
301,215,142213,2,0,P|332:185|378:172,1,86.2500016450882,10|0,0:0|0:0,0:0:0:0:
465,298,142529,2,0,P|423:285|389:252,1,86.2500016450882,10|0,0:0|1:0,0:0:0:0:
254,137,142845,1,10,0:0:0:0:
212,285,143002,1,0,1:0:0:0:
212,285,143081,1,0,1:0:0:0:
212,285,143160,1,8,0:0:0:0:
89,189,143318,6,0,P|45:195|-8:205,1,86.2500016450882,2|8,1:2|0:0,0:0:0:0:
131,84,143634,1,0,1:0:0:0:
131,84,143713,1,0,1:0:0:0:
131,84,143792,2,0,L|137:36,1,43.1250008225441,10|8,0:0|0:0,0:0:0:0:
229,18,143950,1,0,1:0:0:0:
229,18,144029,1,0,1:0:0:0:
229,18,144108,2,0,L|243:127,1,86.2500016450882,10|0,0:0|1:0,0:0:0:0:
380,171,144424,70,0,P|422:157|485:160,1,86.2500016450882,10|0,0:0|1:0,0:0:0:0:
342,252,144739,2,0,P|375:281|404:337,1,86.2500016450882,8|0,0:0|0:0,0:0:0:0:
253,254,145055,2,0,P|244:297|210:350,1,86.2500016450882,8|0,0:0|1:0,0:0:0:0:
124,250,145371,1,10,0:0:0:0:
198,144,145529,1,0,1:0:0:0:
198,144,145608,1,0,1:0:0:0:
198,144,145687,6,0,P|243:147|297:152,1,86.2500016450882,10|0,0:0|1:0,0:0:0:0:
375,58,146002,1,10,0:0:0:0:
477,136,146160,2,0,P|493:182|487:234,1,86.2500016450882,2|8,1:2|0:0,0:0:0:0:
365,296,146476,1,2,1:2:0:0:
365,296,146555,1,0,1:0:0:0:
365,296,146634,2,0,P|364:253|379:213,1,86.2500016450882,10|0,0:0|1:0,0:0:0:0:
261,123,146950,70,0,P|218:119|175:116,1,86.2500016450882,8|0,0:0|0:0,0:0:0:0:
111,249,147266,2,0,P|153:245|196:242,1,86.2500016450882,8|0,0:0|0:0,0:0:0:0:
46,176,147581,1,8,0:0:0:0:
86,336,147739,1,0,1:0:0:0:
164,144,147897,1,10,0:0:0:0:
276,318,148055,1,2,1:2:0:0:
276,318,148134,1,0,1:0:0:0:
276,318,148213,6,0,B|336:306|336:306|365:281|365:281|444:267,1,172.500003290176,10|8,0:0|0:0,0:0:0:0:
494,131,148687,2,0,P|451:128|409:116,1,86.2500016450882,2|8,1:2|0:0,0:0:0:0:
246,57,149002,1,0,1:0:0:0:
246,57,149081,1,0,1:0:0:0:
246,57,149160,2,0,P|287:45|330:41,1,86.2500016450882,10|0,0:0|1:0,0:0:0:0:
365,45,149397,1,0,1:0:0:0:
365,45,149476,70,2,P|354:109|345:185,1,129.375002467632,8|0,0:0|0:0,0:0:0:0:
330,204,149792,2,0,P|336:248|339:298,1,86.2500016450882,10|0,0:0|0:0,0:0:0:0:
218,376,150108,2,0,P|221:333|226:290,1,86.2500016450882,10|0,0:0|1:0,0:0:0:0:
238,142,150424,1,10,0:0:0:0:
105,201,150581,1,0,1:0:0:0:
105,201,150660,1,0,1:0:0:0:
105,201,150739,6,0,P|52:206|12:192,1,86.2500016450882,8|0,0:0|1:0,0:0:0:0:
129,61,151055,2,0,P|170:50|213:56,1,86.2500016450882,10|0,0:0|1:0,0:0:0:0:
348,114,151371,1,10,0:0:0:0:
260,232,151529,1,0,1:0:0:0:
260,232,151608,1,0,1:0:0:0:
260,232,151687,2,0,P|267:278|273:336,1,86.2500016450882,10|0,0:0|1:0,0:0:0:0:
406,373,152002,69,8,0:0:0:0:
363,232,152160,1,0,1:0:0:0:
277,351,152318,2,0,P|231:363|185:357,1,86.2500016450882,10|0,0:0|1:0,0:0:0:0:
56,301,152634,1,2,1:2:0:0:
174,214,152792,1,8,0:0:0:0:
174,214,152871,1,8,0:0:0:0:
174,214,152950,2,0,P|170:169|166:109,1,86.2500016450882,10|2,0:0|1:2,0:0:0:0:
278,30,153266,6,0,P|332:45|373:39,1,86.2500016450882,10|8,0:0|0:0,0:0:0:0:
497,96,153581,1,0,1:0:0:0:
396,202,153739,1,2,3:2:0:0:
396,202,153818,1,0,3:0:0:0:
396,202,153897,2,0,L|404:262,1,43.1250008225441,0|0,3:0|3:0,0:0:0:0:
302,289,154055,2,0,L|307:246,1,43.1250008225441,8|8,0:0|0:0,0:0:0:0:
239,177,154213,1,10,0:0:0:0:
210,203,154292,1,8,0:0:0:0:
173,215,154371,1,8,0:0:0:0:
135,213,154450,1,8,0:0:0:0:
100,196,154529,6,0,B|72:25|72:25|110:75|170:76,1,269.999991760254,6|0,1:2|0:0,0:0:0:0:
353,54,155476,1,2,1:2:0:0:
353,54,155555,1,0,1:0:0:0:
353,54,155634,1,2,1:2:0:0:
353,54,155713,1,0,1:0:0:0:
353,54,155792,6,0,P|391:113|386:187,1,134.999995880127,14|2,0:0|0:0,0:0:0:0:
265,146,156266,2,0,P|335:142|396:183,1,134.999995880127,2|2,1:2|0:0,0:0:0:0:
444,259,156739,1,2,0:0:0:0:
384,341,156897,1,0,1:0:0:0:
384,341,156976,1,0,1:0:0:0:
384,341,157055,70,0,P|311:329|244:320,1,134.999995880127,4|0,1:2|0:0,0:0:0:0:
186,241,157529,2,0,P|252:231|319:220,1,134.999995880127,0|0,1:0|0:0,0:0:0:0:
412,166,158002,1,0,1:0:0:0:
412,166,158081,1,0,1:0:0:0:
412,166,158160,1,0,1:0:0:0:
412,166,158239,1,0,1:0:0:0:
412,166,158318,6,0,P|415:126|405:95,1,67.4999979400635,8|0,0:0|0:0,0:0:0:0:
349,14,158634,1,0,1:0:0:0:
278,87,158792,2,0,P|212:99|141:66,1,134.999995880127,8|0,0:0|1:0,0:0:0:0:
72,8,159266,1,2,0:0:0:0:
14,91,159424,1,10,0:0:0:0:
14,91,159502,1,8,0:0:0:0:
14,91,159581,70,0,B|44:130|44:130|21:236,1,134.999995880127,2|0,1:2|0:0,0:0:0:0:
95,287,160055,2,0,B|146:280|146:280|172:264|172:264|232:256,1,134.999995880127,2|0,1:2|0:0,0:0:0:0:
333,258,160529,1,2,1:2:0:0:
333,258,160608,1,0,1:0:0:0:
333,258,160687,1,0,1:0:0:0:
333,258,160766,1,0,1:0:0:0:
333,258,160845,1,8,0:0:0:0:
333,258,161476,5,2,0:0:0:0:
459,125,161950,1,0,1:0:0:0:
459,125,162029,1,0,1:0:0:0:
459,125,162108,70,0,B|478:77|461:32|461:32|425:14,1,134.999995880127,0|2,1:0|0:0,0:0:0:0:
317,14,162581,2,0,B|281:31|281:31|264:76|283:124,1,134.999995880127,0|0,1:0|0:0,0:0:0:0:
333,220,163055,1,2,1:2:0:0:
333,220,163134,1,0,1:0:0:0:
333,220,163213,1,0,1:0:0:0:
333,220,163292,1,0,1:0:0:0:
333,220,163371,6,0,L|399:212,2,44.999998626709,10|8|8,0:0|0:0|0:0,0:0:0:0:
267,269,163687,2,0,P|232:265|187:259,1,67.4999979400635,2|0,1:2|0:0,0:0:0:0:
94,306,164002,2,0,L|102:372,2,44.999998626709,10|8|8,0:0|0:0|0:0,0:0:0:0:
45,240,164318,2,0,P|49:205|55:160,1,67.4999979400635,2|0,1:2|0:0,0:0:0:0:
111,72,164634,70,0,B|266:31|215:144|374:98,1,269.999991760254,4|2,1:2|0:0,0:0:0:0:
474,272,165581,1,2,1:2:0:0:
474,272,165660,1,0,1:0:0:0:
474,272,165739,1,0,1:0:0:0:
474,272,165818,1,0,1:0:0:0:
474,272,165897,6,0,B|389:291|389:291|343:263,1,134.999995880127,8|0,0:0|0:0,0:0:0:0:
270,200,166371,2,0,P|321:304|267:381,1,202.499993820191,0|0,1:0|0:0,0:0:0:0:
181,378,167002,1,0,1:0:0:0:
181,378,167081,1,0,1:0:0:0:
181,378,167160,70,0,P|189:310|196:240,1,134.999995880127,0|0,1:0|0:0,0:0:0:0:
101,204,167634,2,0,P|93:136|86:69,1,134.999995880127,0|0,1:0|0:0,0:0:0:0:
177,24,168108,1,2,1:2:0:0:
177,24,168187,1,0,1:0:0:0:
177,24,168266,1,2,1:2:0:0:
177,24,168345,1,0,1:0:0:0:
177,24,168424,6,0,B|255:51|255:51|274:43|288:6,1,134.999995880127,14|2,0:0|0:0,0:0:0:0:
382,41,168897,1,10,0:0:0:0:
323,124,169055,1,0,1:0:0:0:
323,124,169160,2,0,P|321:164|326:177,1,44.999998626709,8|8,0:0|0:0,0:0:0:0:
261,230,169371,1,8,0:0:0:0:
261,230,169476,2,0,P|294:251|307:253,1,44.999998626709,8|8,0:0|0:0,0:0:0:0:
383,235,169687,70,0,B|412:316|412:316|379:366,1,134.999995880127,0|2,1:0|0:0,0:0:0:0:
259,352,170160,2,0,B|232:311|232:311|261:230,1,134.999995880127,0|0,1:0|0:0,0:0:0:0:
191,137,170634,1,2,1:2:0:0:
191,137,170713,1,0,1:0:0:0:
191,137,170792,1,0,1:0:0:0:
191,137,170871,1,0,1:0:0:0:
191,137,170950,6,0,B|145:130|145:130|118:109|118:109|59:101,1,134.999995880127,8|2,0:0|0:0,0:0:0:0:
11,189,171424,2,0,P|41:228|50:318,1,134.999995880127,0|0,1:0|0:0,0:0:0:0:
136,366,171897,1,2,0:0:0:0:
219,308,172055,1,0,1:0:0:0:
219,308,172134,1,0,1:0:0:0:
219,308,172213,70,0,P|286:315|363:324,1,134.999995880127,4|2,1:2|0:0,0:0:0:0:
443,275,172687,1,0,1:0:0:0:
443,275,172766,1,0,1:0:0:0:
443,275,172845,1,10,0:0:0:0:
359,218,173002,2,0,P|352:171|359:149,1,67.4999979400635,0|2,3:0|3:2,0:0:0:0:
418,70,173318,1,0,1:0:0:0:
320,33,173476,5,10,0:0:0:0:
320,33,173581,2,0,L|265:40,1,44.999998626709,8|8,0:0|0:0,0:0:0:0:
187,49,173792,2,0,P|179:89|190:127,1,67.4999979400635,0|2,1:0|0:0,0:0:0:0:
149,243,174108,69,8,0:0:0:0:
149,243,174213,2,0,L|95:237,1,44.999998626709,8|0,0:0|3:0,0:0:0:0:
173,328,174424,1,2,3:2:0:0:
173,328,174529,2,0,L|227:322,1,44.999998626709,0|0,3:0|3:0,0:0:0:0:
314,311,174739,38,0,B|337:252|297:202|297:202|281:208|263:209|263:209|217:136|273:62|273:62|294:98|323:109|323:109|352:86|397:92,1,450,6|0,1:2|0:0,0:0:0:0:
256,192,176713,12,0,184371,0:0:0:0:
