osu file format v14

[General]
AudioFilename: audio.mp3
AudioLeadIn: 0
PreviewTime: 46368
Countdown: 0
SampleSet: Drum
StackLeniency: 0.7
Mode: 3
LetterboxInBreaks: 0
SpecialStyle: 0
WidescreenStoryboard: 0

[Editor]
DistanceSpacing: 1
BeatDivisor: 4
GridSize: 32
TimelineZoom: 2.800004

[Metadata]
Title:Gohan da yo! Dadadadan!! (TV Size)
TitleUnicode:ごはんだヨッ!ダダダダン!!(TV Size)
Artist:SurachansA
ArtistUnicode:スラちゃんず△
Creator:Virtue-
Version:Insane
Source:転生賢者の異世界ライフ ~第二の職業を得て、世界最強になりました~
Tags:crisper dudehacker drum-hitnormal savageeeee Tensei Kenja no Isekai Life: Dai-2 no Shokugyou wo Ete, Sekai Saikyou ni Narimashita Hikaru Tono とおの ひかる Mai Kanno かんの まい Haruna Mikawa みかわ はるな Erisa Kuon くおん えりさ Nichika Ohmori おおもり にちか Miharu Hanai はない みはる PCCG-02166 Yugo Ichikawa 市川侑吾 Kensuke Hamabe 浜部健佑 HAMA-kgn anime japanese j-pop jpop female vocals ending ed theme
BeatmapID:3701715
BeatmapSetID:1805088

[Difficulty]
HPDrainRate:8
CircleSize:4
OverallDifficulty:8
ApproachRate:5
SliderMultiplier:1.4
SliderTickRate:1

[Events]
//Background and Video events
Video,-98,"slime.mp4"
0,0,"wallbgslime.jpg",0,0
//Break Periods
//Storyboard Layer 0 (Background)
//Storyboard Layer 1 (Fail)
//Storyboard Layer 2 (Pass)
//Storyboard Layer 3 (Foreground)
//Storyboard Layer 4 (Overlay)
//Storyboard Sound Samples
Sample,10472,0,"HHOpen.wav",70
Sample,11472,0,"HHOpen.wav",70
Sample,12806,0,"HHOpen.wav",70
Sample,85783,0,"drum-hitclap.wav",0
Sample,86117,0,"drum-hitclap.wav",0

[TimingPoints]
473,333.333333333333,4,3,1,50,1,0
1972,-33.3333333333333,4,3,1,50,0,0
1993,-333.333333333333,4,3,1,50,0,0
2077,-100,4,3,1,50,0,0
2139,-33.3333333333333,4,3,1,50,0,0
2160,-333.333333333333,4,3,1,50,0,0
2243,-100,4,3,1,50,0,0
2306,-33.3333333333333,4,3,1,50,0,0
2327,-333.333333333333,4,3,1,50,0,0
2410,-100,4,3,1,50,0,0
2472,-20,4,3,1,50,0,0
2493,-100,4,3,1,50,0,0
2861,-20,4,3,1,50,0,0
2889,-1000,4,3,1,50,0,0
3014,-500,4,3,1,50,0,0
3024,-322.58064516129,4,3,1,50,0,0
3034,-238.095238095238,4,3,1,50,0,0
3045,-188.679245283019,4,3,1,50,0,0
3055,-156.25,4,3,1,50,0,0
3066,-133.333333333333,4,3,1,50,0,0
3076,-116.279069767442,4,3,1,50,0,0
3086,-103.092783505155,4,3,1,50,0,0
3097,-92.5925925925926,4,3,1,50,0,0
3107,-84.0336134453782,4,3,1,50,0,0
3118,-76.9230769230769,4,3,1,50,0,0
3139,-100,4,3,1,50,0,0
13806,-101.010101010101,4,3,1,50,0,0
13876,-102.040816326531,4,3,1,50,0,0
13946,-103.092783505155,4,3,1,50,0,0
14016,-104.166666666667,4,3,1,50,0,0
14086,-105.263157894737,4,3,1,50,0,0
14156,-106.382978723404,4,3,1,50,0,0
14226,-107.52688172043,4,3,1,50,0,0
14297,-108.695652173913,4,3,1,50,0,0
14367,-109.89010989011,4,3,1,50,0,0
14437,-111.111111111111,4,3,1,50,0,0
14507,-112.359550561798,4,3,1,50,0,0
14577,-113.636363636364,4,3,1,50,0,0
14647,-114.942528735632,4,3,1,50,0,0
14718,-116.279069767442,4,3,1,50,0,0
14788,-117.647058823529,4,3,1,50,0,0
14858,-119.047619047619,4,3,1,50,0,0
14928,-120.481927710843,4,3,1,50,0,0
14998,-121.951219512195,4,3,1,50,0,0
15068,-123.456790123457,4,3,1,50,0,0
15139,-125,4,3,1,50,0,0
19806,-123.456790123457,4,3,1,50,0,0
19841,-121.951219512195,4,3,1,50,0,0
19876,-120.481927710843,4,3,1,50,0,0
19911,-119.047619047619,4,3,1,50,0,0
19946,-117.647058823529,4,3,1,50,0,0
19981,-116.279069767442,4,3,1,50,0,0
20016,-114.942528735632,4,3,1,50,0,0
20051,-113.636363636364,4,3,1,50,0,0
20086,-112.359550561798,4,3,1,50,0,0
20121,-111.111111111111,4,3,1,50,0,0
20156,-109.89010989011,4,3,1,50,0,0
20191,-108.695652173913,4,3,1,50,0,0
20226,-107.52688172043,4,3,1,50,0,0
20261,-106.382978723404,4,3,1,50,0,0
20296,-105.263157894737,4,3,1,50,0,0
20331,-104.166666666667,4,3,1,50,0,0
20366,-103.092783505155,4,3,1,50,0,0
20401,-102.040816326531,4,3,1,50,0,0
20436,-101.010101010101,4,3,1,50,0,0
20472,-100,4,3,1,50,0,0
30806,-200,4,3,1,50,0,0
31056,-66.6666666666667,4,3,1,50,0,0
31139,-133.333333333333,4,3,1,50,0,0
36472,-131.578947368421,4,3,1,50,0,0
36517,-129.87012987013,4,3,1,50,0,0
36562,-128.205128205128,4,3,1,50,0,0
36608,-126.582278481013,4,3,1,50,0,0
36653,-125,4,3,1,50,0,0
36698,-123.456790123457,4,3,1,50,0,0
36744,-121.951219512195,4,3,1,50,0,0
36789,-120.481927710843,4,3,1,50,0,0
36834,-119.047619047619,4,3,1,50,0,0
36880,-117.647058823529,4,3,1,50,0,0
36925,-116.279069767442,4,3,1,50,0,0
36970,-114.942528735632,4,3,1,50,0,0
37016,-113.636363636364,4,3,1,50,0,0
37061,-112.359550561798,4,3,1,50,0,0
37106,-111.111111111111,4,3,1,50,0,0
37152,-109.89010989011,4,3,1,50,0,0
37197,-108.695652173913,4,3,1,50,0,0
37243,-107.52688172043,4,3,1,50,0,0
37288,-106.382978723404,4,3,1,50,0,0
37333,-105.263157894737,4,3,1,50,0,0
37379,-104.166666666667,4,3,1,50,0,0
37424,-103.092783505155,4,3,1,50,0,0
37469,-102.040816326531,4,3,1,50,0,0
37515,-101.010101010101,4,3,1,50,0,0
37560,-100,4,3,1,50,0,0
37605,-99.009900990099,4,3,1,50,0,0
37651,-98.0392156862745,4,3,1,50,0,0
37696,-97.0873786407767,4,3,1,50,0,0
37741,-96.1538461538461,4,3,1,50,0,0
37787,-95.2380952380952,4,3,1,50,0,0
37832,-94.3396226415094,4,3,1,50,0,0
37877,-93.4579439252336,4,3,1,50,0,0
37923,-92.5925925925926,4,3,1,50,0,0
37968,-91.743119266055,4,3,1,50,0,0
38014,-90.9090909090909,4,3,1,50,0,0
38035,333.333333333333,4,3,1,50,1,0
47868,-33.3333333333333,4,3,1,50,0,0
47889,-333.333333333333,4,3,1,50,0,0
47972,-100,4,3,1,50,0,0
48034,-33.3333333333333,4,3,1,50,0,0
48055,-333.333333333333,4,3,1,50,0,0
48139,-100,4,3,1,50,0,0
48201,-33.3333333333333,4,3,1,50,0,0
48222,-333.333333333333,4,3,1,50,0,0
48305,-100,4,3,1,50,0,0
48368,-10,4,3,1,50,0,0
48389,-1000,4,3,1,50,0,0
48534,-500,4,3,1,50,0,0
48548,-303.030303030303,4,3,1,50,0,0
48563,-217.391304347826,4,3,1,50,0,0
48577,-169.491525423729,4,3,1,50,0,0
48592,-138.888888888889,4,3,1,50,0,0
48607,-117.647058823529,4,3,1,50,0,0
48621,-102.040816326531,4,3,1,50,0,0
48636,-90.0900900900901,4,3,1,50,0,0
48650,-80.6451612903226,4,3,1,50,0,0
48665,-72.992700729927,4,3,1,50,0,0
48680,-66.6666666666667,4,3,1,50,0,0
48701,-58.8235294117647,4,3,1,50,0,0
48784,-125,4,3,1,50,0,0
48868,-200,4,3,1,50,0,0
48951,-100,4,3,1,50,0,0
49034,333.333333333333,4,3,1,50,1,0
55700,-66.6666666666667,4,3,1,50,0,0
55756,-200,4,3,1,50,0,0
55811,-66.6666666666667,4,3,1,50,0,0
55867,-200,4,3,1,50,0,0
55922,-66.6666666666667,4,3,1,50,0,0
55978,-200,4,3,1,50,0,0
56033,-66.6666666666667,4,3,1,50,0,0
56089,-200,4,3,1,50,0,0
56145,-66.6666666666667,4,3,1,50,0,0
56200,-200,4,3,1,50,0,0
56256,-66.6666666666667,4,3,1,50,0,0
56311,-200,4,3,1,50,0,0
56367,-10,4,3,1,50,0,0
56388,-1000,4,3,1,50,0,0
56533,-500,4,3,1,50,0,0
56547,-277.777777777778,4,3,1,50,0,0
56562,-192.307692307692,4,3,1,50,0,0
56576,-147.058823529412,4,3,1,50,0,0
56591,-119.047619047619,4,3,1,50,0,0
56606,-100,4,3,1,50,0,0
56620,-86.2068965517241,4,3,1,50,0,0
56635,-75.7575757575758,4,3,1,50,0,0
56649,-67.5675675675676,4,3,1,50,0,0
56664,-60.9756097560976,4,3,1,50,0,0
56679,-55.5555555555556,4,3,1,50,0,0
56700,-10,4,3,1,50,0,0
56721,-1000,4,3,1,50,0,0
56867,-500,4,3,1,50,0,0
56881,-277.777777777778,4,3,1,50,0,0
56896,-192.307692307692,4,3,1,50,0,0
56910,-147.058823529412,4,3,1,50,0,0
56925,-119.047619047619,4,3,1,50,0,0
56940,-100,4,3,1,50,0,0
56954,-86.2068965517241,4,3,1,50,0,0
56969,-75.7575757575758,4,3,1,50,0,0
56983,-67.5675675675676,4,3,1,50,0,0
56998,-60.9756097560976,4,3,1,50,0,0
57013,-55.5555555555556,4,3,1,50,0,0
57033,-66.6666666666667,4,3,1,50,0,0
57089,-200,4,3,1,50,0,0
57145,-66.6666666666667,4,3,1,50,0,0
57200,-200,4,3,1,50,0,0
57256,-66.6666666666667,4,3,1,50,0,0
57311,-200,4,3,1,50,0,0
57367,-66.6666666666667,4,3,1,50,0,0
57422,-200,4,3,1,50,0,0
57478,-66.6666666666667,4,3,1,50,0,0
57533,-200,4,3,1,50,0,0
57589,-66.6666666666667,4,3,1,50,0,0
57645,-200,4,3,1,50,0,0
57700,-10,4,3,1,50,0,0
57721,-1000,4,3,1,50,0,0
57867,-500,4,3,1,50,0,0
57881,-277.777777777778,4,3,1,50,0,0
57896,-192.307692307692,4,3,1,50,0,0
57910,-147.058823529412,4,3,1,50,0,0
57925,-119.047619047619,4,3,1,50,0,0
57940,-100,4,3,1,50,0,0
57954,-86.2068965517241,4,3,1,50,0,0
57969,-75.7575757575758,4,3,1,50,0,0
57983,-67.5675675675676,4,3,1,50,0,0
57998,-60.9756097560976,4,3,1,50,0,0
58013,-55.5555555555556,4,3,1,50,0,0
58033,-10,4,3,1,50,0,0
58054,-1000,4,3,1,50,0,0
58200,-500,4,3,1,50,0,0
58214,-277.777777777778,4,3,1,50,0,0
58229,-192.307692307692,4,3,1,50,0,0
58243,-147.058823529412,4,3,1,50,0,0
58258,-119.047619047619,4,3,1,50,0,0
58273,-100,4,3,1,50,0,0
58287,-86.2068965517241,4,3,1,50,0,0
58302,-75.7575757575758,4,3,1,50,0,0
58316,-67.5675675675676,4,3,1,50,0,0
58331,-60.9756097560976,4,3,1,50,0,0
58346,-55.5555555555556,4,3,1,50,0,0
58367,-58.8235294117647,4,3,1,50,0,0
58408,-333.333333333333,4,3,1,50,0,0
58450,-100,4,3,1,50,0,0
58700,-58.8235294117647,4,3,1,50,0,0
58742,-333.333333333333,4,3,1,50,0,0
58783,-100,4,3,1,50,0,0
59033,-58.8235294117647,4,3,1,50,0,0
59075,-333.333333333333,4,3,1,50,0,0
59117,-100,4,3,1,50,0,0
59367,-58.8235294117647,4,3,1,50,0,0
59408,-333.333333333333,4,3,1,50,0,0
59450,-100,4,3,1,50,0,0
66367,-33.3333333333333,4,3,1,50,0,0
66395,-333.333333333333,4,3,1,50,0,0
66506,-83.3333333333333,4,3,1,50,0,0
66589,-33.3333333333333,4,3,1,50,0,0
66617,-333.333333333333,4,3,1,50,0,0
66729,-83.3333333333333,4,3,1,50,0,0
66811,-33.3333333333333,4,3,1,50,0,0
66839,-333.333333333333,4,3,1,50,0,0
66951,-83.3333333333333,4,3,1,50,0,0
67033,-33.3333333333333,4,3,1,50,0,0
67061,-333.333333333333,4,3,1,50,0,0
67173,-83.3333333333333,4,3,1,50,0,0
67256,-33.3333333333333,4,3,1,50,0,0
67283,-333.333333333333,4,3,1,50,0,0
67395,-83.3333333333333,4,3,1,50,0,0
67478,-33.3333333333333,4,3,1,50,0,0
67506,-333.333333333333,4,3,1,50,0,0
67618,-83.3333333333333,4,3,1,50,0,0
67700,-33.3333333333333,4,3,1,50,0,0
67728,-333.333333333333,4,3,1,50,0,0
67840,-83.3333333333333,4,3,1,50,0,0
67922,-33.3333333333333,4,3,1,50,0,0
67950,-333.333333333333,4,3,1,50,0,0
68062,-83.3333333333333,4,3,1,50,0,0
68145,-33.3333333333333,4,3,1,50,0,0
68172,-333.333333333333,4,3,1,50,0,0
68284,-83.3333333333333,4,3,1,50,0,0
68367,-100,4,3,1,50,0,0
71700,-10,4,3,1,50,0,0
71721,-10000,4,3,1,50,0,0
72263,-50,4,3,1,50,0,0
72367,-10000,4,3,1,50,0,0
72929,-50,4,3,1,50,0,0
73033,-10,4,3,1,50,0,0
73054,-1000,4,3,1,50,0,0
73283,-66.6666666666667,4,3,1,50,0,0
73367,-10,4,3,1,50,0,0
73388,-1000,4,3,1,50,0,0
73617,-66.6666666666667,4,3,1,50,0,0
73700,-10,4,3,1,50,0,0
73721,-1000,4,3,1,50,0,0
73867,-500,4,3,1,50,0,0
73881,-277.777777777778,4,3,1,50,0,0
73896,-192.307692307692,4,3,1,50,0,0
73910,-147.058823529412,4,3,1,50,0,0
73925,-119.047619047619,4,3,1,50,0,0
73940,-100,4,3,1,50,0,0
73954,-86.2068965517241,4,3,1,50,0,0
73969,-75.7575757575758,4,3,1,50,0,0
73983,-67.5675675675676,4,3,1,50,0,0
73998,-60.9756097560976,4,3,1,50,0,0
74013,-55.5555555555556,4,3,1,50,0,0
74033,-100,4,3,1,50,0,0
87867,-33.3333333333333,4,3,1,50,0,0
87888,-333.333333333333,4,3,1,50,0,0
87972,-100,4,3,1,50,0,0
88034,-33.3333333333333,4,3,1,50,0,0
88055,-333.333333333333,4,3,1,50,0,0
88138,-100,4,3,1,50,0,0
88201,-33.3333333333333,4,3,1,50,0,0
88222,-333.333333333333,4,3,1,50,0,0
88305,-100,4,3,1,50,0,0

[HitObjects]
64,192,473,128,2,722:0:0:0:0:
192,192,473,128,4,722:0:0:0:0:
448,192,473,1,0,0:0:0:0:
192,192,806,128,0,1056:0:0:0:0:
320,192,806,128,0,1056:0:0:0:0:
320,192,1139,128,0,1556:0:0:0:0:
448,192,1139,128,0,1556:0:0:0:0:
64,192,1306,128,0,1556:0:0:0:0:
192,192,1306,128,0,1556:0:0:0:0:
64,192,1639,128,0,1806:0:0:0:0:
448,192,1639,128,0,1806:0:0:0:0:
64,192,1972,1,2,0:0:0:0:
320,192,1972,1,0,0:0:0:50:Tom2.wav
448,192,1972,1,0,0:0:0:0:
64,192,2139,1,2,0:0:0:0:
320,192,2139,1,0,0:0:0:50:Tom2.wav
448,192,2139,1,0,0:0:0:0:
64,192,2306,1,2,0:0:0:0:
320,192,2306,1,0,0:0:0:50:Tom2.wav
448,192,2306,1,0,0:0:0:0:
64,192,2472,1,2,0:0:0:0:
320,192,2472,1,0,0:0:0:50:Tom2.wav
448,192,2472,1,0,0:0:0:0:
64,192,2806,1,8,0:0:0:50:
192,192,2806,1,0,0:0:0:0:
320,192,2861,1,8,0:0:0:50:
448,192,2861,1,0,0:0:0:0:
64,192,3139,1,2,0:0:0:0:
192,192,3139,1,4,0:0:0:0:
448,192,3139,128,0,3806:0:0:0:0:
64,192,3472,1,8,0:0:0:0:
192,192,3472,1,0,0:0:0:70:HHOpen.wav
64,192,3639,1,2,0:0:0:0:
320,192,3639,1,0,0:0:0:0:
192,192,3722,1,0,0:0:0:0:
320,192,3806,1,0,0:0:0:70:HHOpen.wav
64,192,3972,1,2,0:0:0:0:
192,192,3972,1,0,0:0:0:0:
64,192,4139,1,8,0:0:0:0:
320,192,4139,1,0,0:0:0:70:HHOpen.wav
448,192,4139,1,0,0:0:0:0:
320,192,4389,1,8,0:0:0:0:
448,192,4389,1,0,0:0:0:0:
64,192,4472,1,2,0:0:0:0:
192,192,4472,1,0,0:0:0:70:HHOpen.wav
64,192,4806,1,8,0:0:0:0:
320,192,4806,1,0,0:0:0:70:HHOpen.wav
448,192,4806,1,0,0:0:0:0:
192,192,4972,128,2,5139:0:0:0:0:
448,192,4972,1,0,0:0:0:70:HHOpen.wav
64,192,5306,1,2,0:0:0:0:
192,192,5306,1,0,0:0:0:0:
64,192,5472,1,8,0:0:0:0:
320,192,5472,1,0,0:0:0:70:HHOpen.wav
448,192,5472,128,0,5639:0:0:0:0:
320,192,5722,1,8,0:0:0:0:
448,192,5722,1,0,0:0:0:0:
64,192,5806,1,2,0:0:0:0:
192,192,5806,1,4,0:0:0:0:
64,192,6139,1,8,0:0:0:0:
320,192,6139,1,0,0:0:0:70:HHOpen.wav
448,192,6139,1,0,0:0:0:0:
192,192,6306,1,2,0:0:0:0:
448,192,6306,1,0,0:0:0:0:
320,192,6472,1,0,0:0:0:70:HHOpen.wav
64,192,6639,1,2,0:0:0:0:
448,192,6639,1,0,0:0:0:0:
64,192,6806,1,8,0:0:0:0:
192,192,6806,1,0,0:0:0:70:HHOpen.wav
448,192,6806,1,0,0:0:0:0:
320,192,6972,1,0,0:0:0:0:
192,192,7056,1,8,0:0:0:0:
448,192,7056,1,0,0:0:0:0:
64,192,7139,128,2,7389:0:0:0:0:
320,192,7139,128,0,7222:0:0:0:70:HHOpen.wav
192,192,7306,128,0,7389:0:0:0:0:
320,192,7389,1,8,0:0:0:0:
64,192,7472,128,0,7556:0:0:0:70:HHOpen.wav
448,192,7472,128,0,7722:0:0:0:0:
192,192,7639,128,2,7722:0:0:0:0:
320,192,7639,1,0,0:0:0:70:HHOpen.wav
64,192,7806,128,0,8056:0:0:0:0:
320,192,7806,128,0,7889:0:0:0:0:
192,192,7889,1,8,0:0:0:0:
320,192,7972,1,2,0:0:0:0:
448,192,7972,128,0,8056:0:0:0:0:
64,192,8139,1,8,0:0:0:0:
192,192,8139,1,0,0:0:0:0:
320,192,8222,1,8,0:0:0:0:
448,192,8222,1,0,0:0:0:0:
64,192,8306,1,8,0:0:0:0:
192,192,8306,1,0,0:0:0:0:
320,192,8389,1,8,0:0:0:0:
64,192,8472,128,2,9139:0:0:0:0:
192,192,8472,1,4,0:0:0:0:
448,192,8472,1,0,0:0:0:0:
320,192,8806,1,2,0:0:0:0:
448,192,8806,1,0,0:0:0:70:HHOpen.wav
192,192,8972,1,0,0:0:0:0:
320,192,9139,1,2,0:0:0:0:
448,192,9139,1,0,0:0:0:70:HHOpen.wav
192,192,9306,1,0,0:0:0:0:
64,192,9472,1,2,0:0:0:0:
448,192,9472,1,0,0:0:0:70:HHOpen.wav
320,192,9639,1,0,0:0:0:0:
64,192,9806,128,2,9889:0:0:0:0:
192,192,9806,1,0,0:0:0:70:HHOpen.wav
448,192,9889,128,0,9972:0:0:0:0:
320,192,9972,128,0,10056:0:0:0:0:
192,192,10056,128,0,10139:0:0:0:0:
64,192,10139,1,2,0:0:0:0:
448,192,10139,128,0,10222:0:0:0:70:HHOpen.wav
320,192,10222,128,0,10306:0:0:0:0:
192,192,10306,128,0,10389:0:0:0:0:
320,192,10389,128,0,10472:0:0:0:0:
448,192,10389,1,0,0:0:0:0:
64,192,10472,128,2,10556:0:0:0:0:
192,192,10556,128,0,10639:0:0:0:0:
448,192,10639,128,0,10722:0:0:0:0:
320,192,10722,128,0,10806:0:0:0:0:
64,192,10806,1,2,0:0:0:0:
192,192,10806,128,0,10889:0:0:0:70:HHOpen.wav
448,192,10889,128,0,10972:0:0:0:0:
64,192,10972,128,0,11056:0:0:0:0:
192,192,11056,128,0,11139:0:0:0:0:
320,192,11139,128,2,11306:0:0:0:0:
448,192,11139,1,4,0:0:0:0:
64,192,11389,1,8,0:0:0:0:
192,192,11389,1,0,0:0:0:0:
320,192,11389,1,0,0:0:0:0:
64,192,11639,1,2,0:0:0:0:
448,192,11639,128,0,11722:0:0:0:0:
320,192,11722,128,0,11806:0:0:0:0:
192,192,11806,128,0,11889:0:0:0:70:HHOpen.wav
320,192,11889,128,0,11972:0:0:0:0:
64,192,11972,128,2,12056:0:0:0:0:
448,192,11972,1,0,0:0:0:0:
192,192,12056,128,0,12139:0:0:0:0:
64,192,12139,1,8,0:0:0:0:
320,192,12139,128,0,12306:0:0:0:70:HHOpen.wav
448,192,12139,1,0,0:0:0:0:
320,192,12389,1,8,0:0:0:0:
448,192,12389,1,0,0:0:0:0:
64,192,12472,1,2,0:0:0:0:
192,192,12472,128,0,12639:0:0:0:70:HHOpen.wav
192,192,12722,1,8,0:0:0:0:
320,192,12722,1,0,0:0:0:0:
448,192,12722,1,0,0:0:0:0:
64,192,12972,1,2,0:0:0:0:
448,192,12972,128,0,13056:0:0:0:70:HHOpen.wav
320,192,13056,128,0,13139:0:0:0:0:
192,192,13139,128,0,13222:0:0:0:0:
320,192,13222,128,0,13306:0:0:0:0:
64,192,13306,128,2,13389:0:0:0:0:
448,192,13306,1,0,0:0:0:0:
192,192,13389,128,0,13472:0:0:0:0:
320,192,13472,1,8,0:0:0:0:
448,192,13472,1,0,0:0:0:0:
64,192,13556,1,8,0:0:0:0:
192,192,13556,1,0,0:0:0:0:
320,192,13639,1,2,0:0:0:0:
192,192,13722,1,2,0:0:0:0:
320,192,13806,1,2,0:0:0:0:
448,192,13806,128,0,13889:0:0:0:0:
64,192,13889,128,0,13972:0:0:0:0:
192,192,13972,128,0,14056:0:0:0:0:
320,192,14056,128,0,14139:0:0:0:0:
192,192,14139,128,0,14222:0:0:0:0:
448,192,14222,128,0,14306:0:0:0:0:
320,192,14306,128,0,14389:0:0:0:0:
192,192,14389,128,0,14472:0:0:0:0:
320,192,14472,128,0,14556:0:0:0:0:
192,192,14556,128,0,14639:0:0:0:0:
64,192,14639,128,0,14722:0:0:0:0:
192,192,14722,128,0,14806:0:0:0:0:
320,192,14806,128,0,14889:0:0:0:0:
448,192,14889,128,0,14972:0:0:0:0:
320,192,14972,128,0,15056:0:0:0:0:
192,192,15056,128,0,15139:0:0:0:0:
64,192,15139,128,0,15389:0:0:0:0:
448,192,15139,128,0,15222:0:0:0:0:
320,192,15306,128,0,15389:0:0:0:0:
192,192,15472,128,0,15722:0:0:0:0:
448,192,15472,128,0,15556:0:0:0:0:
320,192,15639,128,0,15722:0:0:0:0:
64,192,15806,128,0,16056:0:0:0:0:
448,192,15806,128,0,15889:0:0:0:0:
320,192,15972,128,0,16056:0:0:0:0:
448,192,16139,128,0,16222:0:0:0:0:
320,192,16306,128,0,16389:0:0:0:0:
192,192,16472,128,0,16722:0:0:0:0:
448,192,16472,128,0,16556:0:0:0:0:
320,192,16639,128,0,16722:0:0:0:0:
64,192,16806,128,0,17056:0:0:0:0:
448,192,16806,128,0,16889:0:0:0:0:
320,192,16972,128,0,17056:0:0:0:0:
192,192,17139,128,0,17389:0:0:0:0:
448,192,17139,128,0,17222:0:0:0:0:
320,192,17306,128,0,17389:0:0:0:0:
448,192,17472,128,0,17556:0:0:0:0:
320,192,17639,128,0,17722:0:0:0:0:
192,192,17806,128,0,17889:0:0:0:0:
448,192,17806,128,0,18056:0:0:0:0:
64,192,17972,128,0,18056:0:0:0:0:
192,192,18139,128,0,18222:0:0:0:0:
448,192,18139,128,0,18389:0:0:0:0:
64,192,18306,128,0,18389:0:0:0:0:
192,192,18472,128,0,18556:0:0:0:0:
320,192,18472,128,0,18722:0:0:0:0:
64,192,18639,128,0,18722:0:0:0:0:
192,192,18806,128,0,18889:0:0:0:0:
320,192,18806,128,0,19056:0:0:0:0:
64,192,18972,128,0,19056:0:0:0:0:
192,192,19139,128,0,19222:0:0:0:0:
448,192,19139,128,0,19389:0:0:0:0:
64,192,19306,128,0,19389:0:0:0:0:
192,192,19472,128,0,19556:0:0:0:0:
320,192,19472,128,0,19722:0:0:0:0:
64,192,19639,128,0,19722:0:0:0:0:
192,192,19806,128,0,19889:0:0:0:0:
448,192,19806,128,0,20056:0:0:0:0:
64,192,19972,128,0,20056:0:0:0:0:
192,192,20139,128,0,20222:0:0:0:0:
320,192,20306,128,0,20389:0:0:0:0:
64,192,20472,128,2,20722:0:0:0:0:
448,192,20472,1,0,0:0:0:0:
192,192,20639,128,0,20722:0:0:0:0:
320,192,20639,128,0,20722:0:0:0:0:
192,192,20806,1,2,0:0:0:0:
448,192,20806,128,0,21056:0:0:0:0:
64,192,20972,128,0,21056:0:0:0:0:
320,192,20972,128,0,21056:0:0:0:0:
192,192,21139,128,2,21389:0:0:0:0:
320,192,21139,1,0,0:0:0:0:
64,192,21306,128,0,21389:0:0:0:0:
448,192,21306,128,0,21389:0:0:0:0:
64,192,21472,1,2,0:0:0:0:
320,192,21472,128,0,21556:0:0:0:0:
192,192,21639,128,0,21722:0:0:0:0:
448,192,21639,128,0,21722:0:0:0:0:
64,192,21806,128,2,22056:0:0:0:0:
192,192,21806,1,0,0:0:0:0:
320,192,21972,128,0,22056:0:0:0:0:
448,192,21972,128,0,22056:0:0:0:0:
192,192,22139,128,2,22389:0:0:0:0:
320,192,22139,1,0,0:0:0:0:
64,192,22306,128,0,22389:0:0:0:0:
448,192,22306,128,0,22389:0:0:0:0:
320,192,22472,128,2,22722:0:0:0:0:
448,192,22472,1,0,0:0:0:0:
64,192,22639,128,0,22722:0:0:0:0:
192,192,22639,128,0,22722:0:0:0:0:
64,192,22806,1,2,0:0:0:0:
448,192,22806,128,0,23056:0:0:0:0:
192,192,22972,128,0,23056:0:0:0:0:
320,192,22972,128,0,23056:0:0:0:0:
64,192,23139,128,2,24389:0:0:0:0:
448,192,23139,128,0,23389:0:0:0:0:
320,192,23306,128,0,23389:0:0:0:0:
192,192,23472,1,2,0:0:0:0:
448,192,23472,1,0,0:0:0:0:
192,192,23639,128,0,23806:0:0:0:0:
320,192,23806,1,2,0:0:0:0:
448,192,23806,1,0,0:0:0:0:
192,192,23972,128,0,24139:0:0:0:0:
320,192,24139,1,2,0:0:0:0:
448,192,24139,1,0,0:0:0:0:
192,192,24306,1,0,0:0:0:0:
64,192,24472,1,2,0:0:0:0:
448,192,24472,128,0,24806:0:0:0:0:
320,192,24639,1,0,0:0:0:0:
64,192,24806,1,2,0:0:0:0:
192,192,24806,1,0,0:0:0:0:
320,192,24972,128,0,25139:0:0:0:0:
64,192,25139,1,2,0:0:0:0:
448,192,25139,1,0,0:0:0:0:
320,192,25306,128,0,25472:0:0:0:0:
64,192,25472,1,2,0:0:0:0:
192,192,25472,1,0,0:0:0:0:
320,192,25556,1,0,0:0:0:70:Tom1.wav
448,192,25556,1,0,0:0:0:0:
64,192,25639,1,0,0:0:0:70:Tom2.wav
192,192,25639,1,0,0:0:0:0:
320,192,25722,1,0,0:0:0:70:Tom3.wav
64,192,25806,1,2,0:0:0:0:
192,192,25806,1,4,0:0:0:0:
448,192,25806,128,0,26056:0:0:0:0:
64,192,25972,1,8,0:0:0:0:
192,192,25972,1,0,0:0:0:0:
320,192,25972,1,0,0:0:0:0:
192,192,26139,1,2,0:0:0:0:
320,192,26139,128,0,26222:0:0:0:0:
64,192,26306,1,8,0:0:0:0:
192,192,26306,128,0,26389:0:0:0:0:
448,192,26306,1,0,0:0:0:0:
64,192,26472,1,2,0:0:0:0:
320,192,26472,128,0,26556:0:0:0:0:
192,192,26639,128,8,26722:0:0:0:0:
320,192,26639,1,0,0:0:0:0:
448,192,26639,1,0,0:0:0:0:
64,192,26806,128,2,26889:0:0:0:0:
448,192,26806,1,0,0:0:0:0:
192,192,26972,128,8,27056:0:0:0:0:
320,192,26972,1,0,0:0:0:0:
448,192,26972,1,0,0:0:0:0:
64,192,27139,1,2,0:0:0:0:
320,192,27139,128,4,27389:0:0:0:0:
64,192,27306,1,8,0:0:0:0:
192,192,27306,1,0,0:0:0:0:
448,192,27306,1,0,0:0:0:0:
192,192,27472,1,2,0:0:0:0:
448,192,27472,128,0,27722:0:0:0:0:
64,192,27639,1,8,0:0:0:0:
320,192,27639,1,0,0:0:0:0:
64,192,27806,1,2,0:0:0:0:
320,192,27806,128,4,28056:0:0:0:0:
64,192,27972,1,8,0:0:0:0:
192,192,27972,1,0,0:0:0:0:
448,192,27972,1,0,0:0:0:0:
192,192,28139,128,2,28389:0:0:0:0:
448,192,28139,1,0,0:0:0:0:
64,192,28306,1,8,0:0:0:0:
320,192,28306,1,0,0:0:0:0:
448,192,28306,1,0,0:0:0:0:
64,192,28472,128,2,28556:0:0:0:0:
192,192,28472,1,4,0:0:0:0:
320,192,28556,1,2,0:0:0:0:
64,192,28639,1,2,0:0:0:0:
192,192,28639,128,0,28722:0:0:0:0:
448,192,28639,1,0,0:0:0:0:
320,192,28722,128,2,28806:0:0:0:0:
64,192,28806,1,2,0:0:0:0:
448,192,28806,128,0,28889:0:0:0:0:
192,192,28889,1,2,0:0:0:0:
64,192,28972,1,8,0:0:0:0:
320,192,28972,128,2,29056:0:0:0:0:
448,192,28972,1,4,0:0:0:0:
64,192,29139,1,2,0:0:0:0:
448,192,29139,128,0,29222:0:0:0:0:
320,192,29222,128,2,29306:0:0:0:0:
64,192,29306,1,8,0:0:0:0:
192,192,29306,128,2,29389:0:0:0:0:
448,192,29306,1,4,0:0:0:0:
320,192,29389,1,2,0:0:0:0:
64,192,29472,1,2,0:0:0:0:
192,192,29472,128,0,29556:0:0:0:0:
320,192,29556,128,2,29639:0:0:0:0:
64,192,29639,1,2,0:0:0:0:
192,192,29639,1,8,0:0:0:0:
448,192,29639,128,4,29722:0:0:0:0:
320,192,29722,1,0,0:0:0:0:
64,192,29806,128,0,29889:0:0:0:50:Tom3.wav
448,192,29806,1,0,0:0:0:0:
192,192,29889,128,0,29972:0:0:0:50:Tom3.wav
64,192,29972,1,2,0:0:0:0:
320,192,29972,128,0,30056:0:0:0:0:
192,192,30056,1,2,0:0:0:0:
320,192,30139,128,0,30222:0:0:0:70:Tom2.wav
448,192,30139,1,0,0:0:0:0:
192,192,30222,128,0,30306:0:0:0:70:Tom2.wav
64,192,30306,128,2,30389:0:0:0:0:
448,192,30306,1,0,0:0:0:0:
320,192,30389,1,2,0:0:0:0:
192,192,30472,1,0,0:0:0:70:Tom1.wav
448,192,30472,128,0,30556:0:0:0:0:
64,192,30556,1,0,0:0:0:70:Tom1.wav
320,192,30556,128,0,30639:0:0:0:0:
192,192,30639,128,2,30722:0:0:0:0:
448,192,30639,1,0,0:0:0:0:
64,192,30722,1,2,0:0:0:0:
320,192,30806,128,0,31139:0:0:0:0:
64,192,31139,1,4,0:0:0:0:
448,192,31139,1,0,0:0:0:0:
64,192,31806,128,0,32306:0:0:0:0:
448,192,31806,128,0,32514:0:0:0:0:
192,192,32097,128,0,32306:0:0:0:0:
320,192,32306,128,0,32514:0:0:0:0:
192,192,32514,128,0,32847:0:0:0:0:
320,192,32847,128,0,33181:0:0:0:0:
192,192,33181,128,0,33514:0:0:0:0:
448,192,33181,128,0,33847:0:0:0:0:
64,192,33514,128,0,33847:0:0:0:0:
192,192,33847,128,0,34181:0:0:0:0:
320,192,34181,128,0,34514:0:0:0:0:
64,192,34514,128,0,35222:0:0:0:0:
448,192,34514,128,0,35222:0:0:0:0:
192,192,35222,128,0,37806:0:0:0:0:
64,192,38035,1,2,0:0:0:0:
192,192,38035,1,4,0:0:0:0:
448,192,38035,128,0,38118:0:0:0:0:
320,192,38118,128,0,38201:0:0:0:0:
192,192,38201,128,0,38451:0:0:0:0:
320,192,38368,1,2,0:0:0:0:
448,192,38368,128,0,38451:0:0:0:0:
64,192,38535,128,0,38618:0:0:0:0:
192,192,38618,128,0,38701:0:0:0:0:
320,192,38701,128,2,38785:0:0:0:0:
448,192,38701,1,0,0:0:0:0:
192,192,38868,128,0,38951:0:0:0:0:
64,192,39035,128,2,39201:0:0:0:0:
320,192,39035,1,0,0:0:0:0:
448,192,39201,1,0,0:0:0:0:
64,192,39368,1,2,0:0:0:0:
192,192,39368,128,0,39451:0:0:0:0:
320,192,39451,128,0,39535:0:0:0:0:
448,192,39535,128,0,39618:0:0:0:0:
64,192,39701,128,2,39785:0:0:0:0:
448,192,39701,1,0,0:0:0:0:
192,192,39785,128,0,39868:0:0:0:0:
320,192,39868,128,0,39951:0:0:0:0:
448,192,39951,128,0,40035:0:0:0:0:
64,192,40035,128,2,40118:0:0:0:0:
320,192,40035,1,0,0:0:0:0:
192,192,40201,128,0,40285:0:0:0:0:
64,192,40368,128,2,40618:0:0:0:0:
320,192,40368,128,0,40451:0:0:0:0:
448,192,40368,128,0,40451:0:0:0:0:
192,192,40535,128,0,40618:0:0:0:0:
320,192,40535,128,0,40618:0:0:0:0:
64,192,40701,128,2,40785:0:0:0:0:
448,192,40701,128,0,40951:0:0:0:0:
64,192,40868,128,0,40951:0:0:0:0:
320,192,40868,128,0,40951:0:0:0:0:
192,192,41035,128,2,41118:0:0:0:0:
448,192,41035,1,0,0:0:0:0:
320,192,41201,128,0,41285:0:0:0:0:
64,192,41368,1,2,0:0:0:0:
448,192,41368,128,0,41451:0:0:0:0:
64,192,41535,128,0,41784:0:0:0:0:
320,192,41701,128,2,41784:0:0:0:0:
448,192,41701,128,0,41784:0:0:0:0:
192,192,41868,128,0,41951:0:0:0:0:
320,192,41868,128,0,41951:0:0:0:0:
64,192,42034,128,2,42118:0:0:0:0:
448,192,42034,128,0,42284:0:0:0:0:
64,192,42201,128,2,42284:0:0:0:0:
320,192,42201,128,0,42284:0:0:0:0:
64,192,42368,128,2,42451:0:0:0:0:
192,192,42368,128,0,42451:0:0:0:0:
192,192,42534,128,2,42618:0:0:0:0:
448,192,42534,128,0,42618:0:0:0:0:
320,192,42701,128,2,42784:0:0:0:0:
448,192,42701,128,0,42784:0:0:0:0:
64,192,42784,1,2,0:0:0:0:
192,192,42868,128,2,42951:0:0:0:0:
320,192,42868,128,0,42951:0:0:0:0:
448,192,42951,1,2,0:0:0:0:
64,192,43034,128,2,43118:0:0:0:0:
192,192,43034,128,0,43118:0:0:0:0:
320,192,43118,1,2,0:0:0:0:
64,192,43201,128,2,43284:0:0:0:0:
448,192,43201,128,0,43284:0:0:0:0:
192,192,43284,1,2,0:0:0:0:
320,192,43368,1,0,0:0:0:0:
64,192,44034,128,0,45951:0:0:0:0:
192,192,44368,128,0,45618:0:0:0:0:
320,192,44701,128,0,45284:0:0:0:0:
448,192,45034,128,0,45951:0:0:0:0:
320,192,45368,128,0,45951:0:0:0:0:
192,192,45701,128,0,45951:0:0:0:0:
64,192,46034,128,0,46618:0:0:0:0:
192,192,46368,128,0,46618:0:0:0:0:
320,192,46368,128,0,46618:0:0:0:0:
448,192,46368,128,0,46618:0:0:0:0:
64,192,46701,128,0,46951:0:0:0:0:
448,192,46701,128,0,46951:0:0:0:0:
320,192,47034,128,0,47451:0:0:0:0:
448,192,47034,128,0,47451:0:0:0:0:
64,192,47201,128,0,47451:0:0:0:0:
192,192,47201,128,0,47451:0:0:0:0:
192,192,47534,128,0,47784:0:0:0:0:
320,192,47534,128,0,47784:0:0:0:0:
64,192,47868,1,2,0:0:0:0:
192,192,47868,1,0,0:0:0:50:Tom2.wav
448,192,47868,1,0,0:0:0:0:
64,192,48034,1,2,0:0:0:0:
192,192,48034,1,0,0:0:0:50:Tom2.wav
448,192,48034,1,0,0:0:0:0:
64,192,48201,1,2,0:0:0:0:
192,192,48201,1,0,0:0:0:50:Tom2.wav
448,192,48201,1,0,0:0:0:0:
64,192,48368,1,2,0:0:0:0:
192,192,48368,1,0,0:0:0:50:Tom2.wav
448,192,48368,1,0,0:0:0:0:
320,192,48701,128,0,48951:0:0:0:70:HHOpen.wav
448,192,48701,128,0,48951:0:0:0:0:
64,192,49034,128,2,49284:0:0:0:0:
320,192,49034,1,0,0:0:0:0:
448,192,49034,1,0,0:0:0:0:
192,192,49200,1,8,0:0:0:0:
448,192,49200,1,0,0:0:0:0:
320,192,49284,1,8,0:0:0:0:
64,192,49367,1,2,0:0:0:0:
192,192,49367,128,0,49617:0:0:0:0:
448,192,49367,1,0,0:0:0:0:
320,192,49534,1,8,0:0:0:0:
448,192,49534,1,0,0:0:0:0:
64,192,49617,1,8,0:0:0:0:
192,192,49700,1,2,0:0:0:0:
320,192,49700,128,0,49950:0:0:0:0:
448,192,49700,1,0,0:0:0:0:
64,192,49867,1,8,0:0:0:0:
448,192,49867,1,0,0:0:0:0:
192,192,49950,1,8,0:0:0:0:
64,192,50034,1,2,0:0:0:0:
320,192,50034,1,0,0:0:0:0:
448,192,50034,128,0,50284:0:0:0:0:
192,192,50117,1,0,0:0:0:70:Tom1.wav
320,192,50200,1,0,0:0:0:70:Tom2.wav
64,192,50284,1,0,0:0:0:70:Tom3.wav
192,192,50367,128,2,50617:0:0:0:0:
448,192,50367,1,4,0:0:0:0:
64,192,50534,1,8,0:0:0:0:
320,192,50534,1,0,0:0:0:0:
448,192,50534,1,0,0:0:0:0:
64,192,50700,1,2,0:0:0:0:
320,192,50700,128,0,50784:0:0:0:0:
192,192,50784,1,2,0:0:0:0:
64,192,50867,1,8,0:0:0:0:
320,192,50867,1,0,0:0:0:0:
448,192,50867,128,0,50950:0:0:0:0:
192,192,51034,1,2,0:0:0:0:
320,192,51034,128,0,51117:0:0:0:0:
64,192,51200,1,8,0:0:0:0:
192,192,51200,128,0,51284:0:0:0:0:
448,192,51200,1,0,0:0:0:0:
64,192,51367,1,2,0:0:0:0:
320,192,51367,128,0,51450:0:0:0:0:
448,192,51450,1,2,0:0:0:0:
64,192,51534,1,8,0:0:0:0:
192,192,51534,128,0,51617:0:0:0:0:
320,192,51534,1,0,0:0:0:0:
64,192,51700,128,2,52367:0:0:0:0:
448,192,51700,1,0,0:0:0:0:
192,192,51867,1,8,0:0:0:0:
320,192,51867,1,0,0:0:0:0:
448,192,51867,1,0,0:0:0:0:
192,192,52034,1,2,0:0:0:0:
320,192,52034,1,0,0:0:0:0:
448,192,52117,1,2,0:0:0:0:
192,192,52200,1,8,0:0:0:0:
320,192,52200,1,0,0:0:0:0:
320,192,52367,1,2,0:0:0:0:
448,192,52367,1,0,0:0:0:0:
64,192,52534,1,8,0:0:0:0:
192,192,52534,1,0,0:0:0:0:
448,192,52534,1,0,0:0:0:0:
64,192,52700,1,2,0:0:0:0:
448,192,52700,128,0,52950:0:0:0:0:
192,192,52783,1,2,0:0:0:0:
64,192,52867,1,8,0:0:0:0:
320,192,52867,1,0,0:0:0:0:
192,192,53033,1,2,0:0:0:0:
320,192,53033,128,0,53283:0:0:0:0:
448,192,53033,1,0,0:0:0:0:
64,192,53200,1,8,0:0:0:0:
192,192,53200,1,0,0:0:0:0:
448,192,53200,1,0,0:0:0:0:
64,192,53367,1,2,0:0:0:0:
192,192,53367,128,0,53450:0:0:0:0:
448,192,53450,1,2,0:0:0:0:
64,192,53533,1,8,0:0:0:0:
192,192,53533,1,0,0:0:0:0:
320,192,53533,128,0,53617:0:0:0:0:
192,192,53700,128,2,53783:0:0:0:0:
320,192,53700,1,0,0:0:0:0:
448,192,53700,1,0,0:0:0:0:
64,192,53867,128,8,53950:0:0:0:0:
320,192,53867,1,0,0:0:0:0:
448,192,53867,1,0,0:0:0:0:
192,192,54033,128,2,54117:0:0:0:0:
448,192,54033,1,0,0:0:0:0:
64,192,54117,1,2,0:0:0:0:
192,192,54200,1,8,0:0:0:0:
320,192,54200,128,0,54283:0:0:0:0:
448,192,54200,1,0,0:0:0:0:
64,192,54367,1,2,0:0:0:0:
320,192,54367,1,0,0:0:0:0:
448,192,54367,128,0,55033:0:0:0:0:
64,192,54533,128,8,54700:0:0:0:0:
192,192,54533,1,0,0:0:0:0:
320,192,54533,1,0,0:0:0:0:
192,192,54700,1,2,0:0:0:0:
320,192,54783,1,2,0:0:0:0:
64,192,54867,1,8,0:0:0:0:
192,192,54867,128,0,55033:0:0:0:0:
64,192,55033,1,2,0:0:0:0:
320,192,55033,1,0,0:0:0:0:
64,192,55200,1,8,0:0:0:0:
192,192,55200,1,0,0:0:0:0:
320,192,55200,128,0,55367:0:0:0:0:
64,192,55367,128,2,55700:0:0:0:0:
448,192,55367,1,0,0:0:0:0:
320,192,55450,1,2,0:0:0:0:
192,192,55533,1,8,0:0:0:0:
448,192,55533,1,0,0:0:0:0:
320,192,55700,1,2,0:0:0:0:
448,192,55700,1,0,0:0:0:0:
320,192,55811,1,8,0:0:0:0:
448,192,55811,1,0,0:0:0:0:
64,192,55922,1,8,0:0:0:0:
192,192,55922,1,0,0:0:0:0:
64,192,56033,1,2,0:0:0:0:
192,192,56033,1,0,0:0:0:0:
320,192,56145,1,8,0:0:0:0:
448,192,56145,1,0,0:0:0:0:
320,192,56256,1,8,0:0:0:0:
448,192,56256,1,0,0:0:0:0:
64,192,56367,1,2,0:0:0:0:
192,192,56367,1,0,0:0:0:0:
64,192,56700,1,2,0:0:0:0:
320,192,56700,1,4,0:0:0:0:
448,192,56700,1,0,0:0:0:0:
64,192,57033,1,2,0:0:0:0:
192,192,57033,1,0,0:0:0:0:
64,192,57145,1,8,0:0:0:0:
192,192,57145,1,0,0:0:0:0:
320,192,57256,1,8,0:0:0:0:
448,192,57256,1,0,0:0:0:0:
320,192,57367,1,2,0:0:0:0:
448,192,57367,1,0,0:0:0:0:
64,192,57478,1,8,0:0:0:0:
192,192,57478,1,0,0:0:0:0:
64,192,57589,1,8,0:0:0:0:
192,192,57589,1,0,0:0:0:0:
320,192,57700,1,2,0:0:0:0:
448,192,57700,1,0,0:0:0:0:
64,192,58033,1,2,0:0:0:0:
192,192,58033,1,4,0:0:0:0:
448,192,58033,1,0,0:0:0:0:
320,192,58367,128,2,58617:0:0:0:0:
448,192,58367,128,0,58617:0:0:0:70:HHOpen.wav
64,192,58533,128,0,58617:0:0:0:0:
192,192,58617,128,0,58700:0:0:0:0:
64,192,58700,128,2,58950:0:0:0:0:
448,192,58700,128,0,58950:0:0:0:70:HHOpen.wav
320,192,58867,128,0,58950:0:0:0:0:
192,192,58950,128,0,59033:0:0:0:0:
64,192,59033,128,2,59283:0:0:0:0:
320,192,59033,128,0,59117:0:0:0:70:HHOpen.wav
448,192,59033,128,0,59283:0:0:0:0:
192,192,59200,128,0,59283:0:0:0:0:
64,192,59367,128,2,59617:0:0:0:0:
192,192,59367,128,0,59617:0:0:0:70:HHOpen.wav
448,192,59367,128,0,59450:0:0:0:0:
320,192,59533,128,0,59617:0:0:0:0:
64,192,59700,1,8,0:0:0:0:
192,192,59700,1,0,0:0:0:0:
320,192,59756,1,8,0:0:0:0:
448,192,59756,1,0,0:0:0:0:
64,192,59867,1,2,0:0:0:0:
448,192,59867,1,0,0:0:0:0:
320,192,60033,1,8,0:0:0:0:
448,192,60033,1,0,0:0:0:0:
64,192,60089,1,8,0:0:0:0:
192,192,60089,1,0,0:0:0:0:
64,192,60200,1,2,0:0:0:0:
448,192,60200,1,0,0:0:0:0:
192,192,60367,1,8,0:0:0:0:
320,192,60367,1,0,0:0:0:70:HHOpen.wav
448,192,60367,128,0,60450:0:0:0:0:
64,192,60533,1,8,0:0:0:0:
192,192,60533,1,0,0:0:0:70:HHOpen.wav
320,192,60533,128,0,60617:0:0:0:0:
64,192,60700,1,8,0:0:0:0:
192,192,60700,128,0,60783:0:0:0:70:HHOpen.wav
448,192,60700,1,0,0:0:0:0:
64,192,60867,128,0,60950:0:0:0:0:
192,192,61033,1,4,0:0:0:0:
320,192,61033,1,2,0:0:0:0:
448,192,61033,128,0,61283:0:0:0:0:
64,192,61200,1,8,0:0:0:0:
320,192,61200,1,0,0:0:0:0:
192,192,61283,1,8,0:0:0:0:
64,192,61367,128,2,61450:0:0:0:0:
448,192,61367,1,0,0:0:0:0:
192,192,61533,128,8,61617:0:0:0:0:
448,192,61533,1,0,0:0:0:0:
64,192,61617,1,8,0:0:0:0:
320,192,61700,128,2,61783:0:0:0:0:
448,192,61700,1,0,0:0:0:0:
64,192,61867,1,8,0:0:0:0:
192,192,61867,128,0,61950:0:0:0:0:
448,192,61950,1,8,0:0:0:0:
64,192,62033,1,2,0:0:0:0:
320,192,62033,128,0,62117:0:0:0:0:
192,192,62200,1,8,0:0:0:0:
448,192,62200,128,0,62283:0:0:0:0:
320,192,62283,1,8,0:0:0:0:
64,192,62367,128,2,62950:0:0:0:0:
192,192,62367,1,4,0:0:0:0:
448,192,62367,1,0,0:0:0:0:
192,192,62533,1,8,0:0:0:0:
320,192,62533,1,0,0:0:0:0:
448,192,62617,1,8,0:0:0:0:
192,192,62700,1,2,0:0:0:0:
320,192,62700,1,0,0:0:0:0:
320,192,62867,1,8,0:0:0:0:
448,192,62867,1,0,0:0:0:0:
192,192,62950,1,8,0:0:0:0:
64,192,63033,1,2,0:0:0:0:
320,192,63033,1,4,0:0:0:0:
448,192,63033,1,0,0:0:0:0:
192,192,63200,1,8,0:0:0:0:
448,192,63200,1,0,0:0:0:0:
320,192,63283,1,8,0:0:0:0:
64,192,63367,1,2,0:0:0:0:
192,192,63367,128,0,63617:0:0:0:0:
320,192,63533,1,8,0:0:0:0:
448,192,63533,1,0,0:0:0:0:
64,192,63617,1,8,0:0:0:0:
192,192,63700,1,2,0:0:0:0:
320,192,63700,128,4,63950:0:0:0:0:
448,192,63700,1,0,0:0:0:0:
64,192,63867,1,8,0:0:0:0:
448,192,63867,1,0,0:0:0:0:
192,192,63950,1,8,0:0:0:0:
320,192,64033,1,2,0:0:0:0:
448,192,64033,128,0,64117:0:0:0:0:
64,192,64200,1,8,0:0:0:0:
320,192,64200,128,0,64283:0:0:0:0:
448,192,64283,1,8,0:0:0:0:
64,192,64367,1,2,0:0:0:0:
192,192,64367,128,4,64450:0:0:0:0:
320,192,64367,1,0,0:0:0:0:
64,192,64533,128,8,64617:0:0:0:0:
448,192,64533,1,0,0:0:0:0:
320,192,64617,1,8,0:0:0:0:
64,192,64700,1,2,0:0:0:0:
192,192,64700,128,0,64783:0:0:0:0:
320,192,64867,128,8,64950:0:0:0:0:
448,192,64867,1,0,0:0:0:0:
64,192,64950,1,8,0:0:0:0:
192,192,65033,1,2,0:0:0:0:
320,192,65033,1,4,0:0:0:0:
448,192,65033,128,0,65617:0:0:0:0:
64,192,65200,128,8,65283:0:0:0:0:
192,192,65200,1,0,0:0:0:0:
320,192,65283,1,8,0:0:0:0:
64,192,65367,1,2,0:0:0:0:
192,192,65367,128,4,65450:0:0:0:0:
192,192,65533,1,8,0:0:0:0:
320,192,65533,128,0,65617:0:0:0:0:
64,192,65617,1,8,0:0:0:0:
192,192,65700,128,2,65922:0:0:0:0:
320,192,65700,1,4,0:0:0:0:
64,192,65811,128,8,65922:0:0:0:0:
448,192,65811,1,0,0:0:0:0:
320,192,65922,1,0,0:0:0:50:Tom2.wav
64,192,66033,1,0,0:0:0:50:Tom3.wav
448,192,66033,128,0,66256:0:0:0:0:
192,192,66145,1,2,0:0:0:0:
320,192,66256,1,2,0:0:0:0:
64,192,66367,1,2,0:0:0:0:
192,192,66367,1,4,0:0:0:0:
448,192,66367,1,0,0:0:0:0:
64,192,66589,1,8,0:0:0:0:
192,192,66589,1,0,0:0:0:70:Tom1.wav
320,192,66589,1,0,0:0:0:0:
64,192,66811,1,8,0:0:0:0:
320,192,66811,1,0,0:0:0:70:Tom1.wav
448,192,66811,1,0,0:0:0:0:
192,192,67033,1,2,0:0:0:0:
320,192,67033,1,4,0:0:0:0:
448,192,67033,1,0,0:0:0:0:
64,192,67256,1,2,0:0:0:0:
192,192,67256,1,0,0:0:0:70:Tom2.wav
448,192,67256,1,0,0:0:0:0:
64,192,67478,1,2,0:0:0:0:
192,192,67478,1,0,0:0:0:70:Tom2.wav
320,192,67478,1,0,0:0:0:0:
64,192,67700,1,2,0:0:0:0:
320,192,67700,1,4,0:0:0:0:
448,192,67700,1,0,0:0:0:0:
192,192,67922,1,8,0:0:0:0:
320,192,67922,1,0,0:0:0:70:Tom1.wav
448,192,67922,1,0,0:0:0:0:
64,192,68145,1,8,0:0:0:0:
192,192,68145,1,0,0:0:0:70:Tom1.wav
448,192,68145,1,0,0:0:0:0:
64,192,68367,1,2,0:0:0:0:
192,192,68367,1,4,0:0:0:0:
320,192,68367,1,0,0:0:0:0:
320,192,68533,1,8,0:0:0:0:
448,192,68533,1,0,0:0:0:0:
64,192,68617,1,8,0:0:0:0:
192,192,68617,1,0,0:0:0:0:
320,192,68700,1,2,0:0:0:0:
448,192,68700,1,0,0:0:0:0:
64,192,68867,1,8,0:0:0:0:
192,192,68867,1,0,0:0:0:0:
320,192,68950,1,8,0:0:0:0:
64,192,69033,128,2,69117:0:0:0:0:
192,192,69033,1,4,0:0:0:0:
448,192,69033,1,0,0:0:0:0:
320,192,69117,128,0,69200:0:0:0:0:
64,192,69200,1,8,0:0:0:0:
192,192,69200,128,0,69283:0:0:0:0:
448,192,69200,1,0,0:0:0:0:
320,192,69283,128,0,69367:0:0:0:0:
64,192,69367,1,2,0:0:0:0:
448,192,69367,128,0,69450:0:0:0:0:
192,192,69450,128,0,69533:0:0:0:0:
64,192,69533,128,8,69617:0:0:0:0:
320,192,69533,1,0,0:0:0:0:
448,192,69533,1,0,0:0:0:0:
192,192,69617,128,0,69700:0:0:0:0:
320,192,69700,128,2,69783:0:0:0:0:
448,192,69700,1,0,0:0:0:0:
64,192,69867,1,8,0:0:0:0:
192,192,69867,128,0,69950:0:0:0:0:
320,192,69867,1,0,0:0:0:0:
64,192,70033,128,2,70117:0:0:0:0:
448,192,70033,1,0,0:0:0:0:
192,192,70117,1,2,0:0:0:0:
64,192,70200,1,8,0:0:0:0:
320,192,70200,128,0,70283:0:0:0:0:
448,192,70200,1,0,0:0:0:0:
192,192,70367,1,2,0:0:0:0:
448,192,70367,128,0,70950:0:0:0:0:
64,192,70533,128,8,70700:0:0:0:0:
320,192,70533,1,0,0:0:0:0:
192,192,70700,1,2,0:0:0:0:
320,192,70783,1,2,0:0:0:0:
64,192,70867,128,8,71033:0:0:0:0:
192,192,70867,1,0,0:0:0:0:
320,192,71033,1,2,0:0:0:0:
448,192,71033,1,0,0:0:0:0:
64,192,71200,128,8,71283:0:0:0:0:
192,192,71200,1,0,0:0:0:0:
448,192,71200,1,0,0:0:0:0:
64,192,71367,128,2,71617:0:0:0:0:
320,192,71367,1,0,0:0:0:0:
192,192,71450,1,2,0:0:0:0:
320,192,71533,1,8,0:0:0:0:
448,192,71533,1,0,0:0:0:0:
64,192,71700,1,2,0:0:0:0:
192,192,71700,1,4,0:0:0:0:
448,192,71700,1,0,0:0:0:0:
192,192,72367,1,2,0:0:0:0:
320,192,72367,1,4,0:0:0:0:
448,192,72367,1,0,0:0:0:0:
64,192,73033,1,4,0:0:0:0:
320,192,73033,1,2,0:0:0:0:
448,192,73033,1,8,0:0:0:0:
64,192,73367,1,4,0:0:0:0:
192,192,73367,1,2,0:0:0:0:
320,192,73367,1,8,0:0:0:0:
192,192,73700,1,2,0:0:0:0:
320,192,73700,1,4,0:0:0:0:
448,192,73700,1,8,0:0:0:0:
64,192,74033,1,0,0:0:0:50:Tom1.wav
192,192,74033,1,0,0:0:0:0:
320,192,74117,1,0,0:0:0:50:Tom1.wav
448,192,74117,1,0,0:0:0:0:
64,192,74200,1,0,0:0:0:50:Tom2.wav
192,192,74200,1,0,0:0:0:0:
320,192,74283,1,0,0:0:0:50:Tom3.wav
64,192,74367,1,2,0:0:0:0:
192,192,74367,1,4,0:0:0:0:
448,192,74367,1,0,0:0:0:0:
64,192,74533,1,8,0:0:0:0:
192,192,74533,1,0,0:0:0:0:
320,192,74533,1,0,0:0:0:0:
320,192,74700,1,2,0:0:0:0:
448,192,74700,1,0,0:0:0:0:
192,192,74783,1,2,0:0:0:0:
64,192,74867,1,8,0:0:0:0:
320,192,74867,1,0,0:0:0:0:
448,192,74867,1,0,0:0:0:0:
64,192,75033,1,2,0:0:0:0:
192,192,75033,1,0,0:0:0:0:
192,192,75200,1,8,0:0:0:0:
320,192,75200,1,0,0:0:0:0:
448,192,75200,1,0,0:0:0:0:
64,192,75367,128,2,75617:0:0:0:0:
448,192,75367,1,0,0:0:0:0:
192,192,75450,1,2,0:0:0:0:
320,192,75533,1,8,0:0:0:0:
448,192,75533,1,0,0:0:0:0:
64,192,75700,1,2,0:0:0:0:
192,192,75700,1,4,0:0:0:0:
320,192,75700,1,0,0:0:0:0:
64,192,75867,1,8,0:0:0:0:
192,192,75867,1,0,0:0:0:0:
448,192,75867,1,0,0:0:0:0:
320,192,76033,1,2,0:0:0:0:
448,192,76033,1,0,0:0:0:0:
192,192,76117,1,2,0:0:0:0:
64,192,76200,1,8,0:0:0:0:
320,192,76200,1,0,0:0:0:0:
448,192,76200,1,0,0:0:0:0:
64,192,76367,1,2,0:0:0:0:
192,192,76367,1,0,0:0:0:0:
192,192,76533,1,8,0:0:0:0:
448,192,76533,1,0,0:0:0:0:
320,192,76617,1,8,0:0:0:0:
64,192,76700,1,0,0:0:0:50:Tom2.wav
448,192,76700,1,0,0:0:0:0:
192,192,76783,1,0,0:0:0:50:Tom2.wav
320,192,76867,1,2,0:0:0:0:
448,192,76867,128,0,77033:0:0:0:0:
192,192,76950,1,2,0:0:0:0:
64,192,77033,1,2,0:0:0:0:
320,192,77033,1,4,0:0:0:0:
192,192,77117,1,2,0:0:0:0:
64,192,77200,1,2,0:0:0:0:
320,192,77200,1,0,0:0:0:0:
448,192,77200,1,0,0:0:0:0:
192,192,77283,1,2,0:0:0:0:
320,192,77367,1,2,0:0:0:0:
448,192,77367,1,0,0:0:0:0:
64,192,77450,1,2,0:0:0:0:
192,192,77533,1,2,0:0:0:0:
320,192,77533,1,0,0:0:0:0:
448,192,77533,1,0,0:0:0:0:
64,192,77617,1,2,0:0:0:0:
192,192,77700,1,2,0:0:0:0:
320,192,77700,1,0,0:0:0:0:
448,192,77783,1,2,0:0:0:0:
64,192,77867,1,2,0:0:0:0:
192,192,77867,1,0,0:0:0:0:
320,192,77867,1,0,0:0:0:0:
448,192,77950,1,2,0:0:0:0:
64,192,78033,1,8,0:0:0:0:
192,192,78033,1,0,0:0:0:0:
320,192,78117,1,8,0:0:0:0:
448,192,78117,1,0,0:0:0:0:
64,192,78200,1,8,0:0:0:0:
192,192,78200,1,0,0:0:0:0:
320,192,78283,1,8,0:0:0:0:
448,192,78283,1,0,0:0:0:0:
64,192,78478,128,0,78811:0:0:0:0:
192,192,78589,128,0,78811:0:0:0:0:
320,192,78811,128,0,79033:0:0:0:0:
448,192,79033,128,0,79256:0:0:0:0:
320,192,79256,128,0,79478:0:0:0:0:
192,192,79478,128,0,79700:0:0:0:0:
64,192,79700,128,2,80283:0:0:0:0:
320,192,79700,1,4,0:0:0:0:
448,192,79700,1,0,0:0:0:0:
64,192,80367,1,8,0:0:0:0:
192,192,80367,128,2,80450:0:0:0:0:
448,192,80367,1,0,0:0:0:0:
320,192,80450,128,0,80533:0:0:0:0:
64,192,80533,1,8,0:0:0:0:
448,192,80533,128,0,80617:0:0:0:0:
192,192,80617,128,8,80700:0:0:0:0:
320,192,80617,1,0,0:0:0:0:
64,192,80700,128,2,80783:0:0:0:0:
320,192,80783,128,8,80867:0:0:0:0:
448,192,80783,1,0,0:0:0:0:
64,192,80867,1,8,0:0:0:0:
192,192,80867,128,0,80950:0:0:0:0:
320,192,80950,128,8,81033:0:0:0:0:
64,192,81033,1,2,0:0:0:0:
448,192,81033,128,0,81617:0:0:0:0:
64,192,81200,1,8,0:0:0:0:
192,192,81200,1,0,0:0:0:0:
320,192,81200,1,0,0:0:0:0:
64,192,81367,128,2,81617:0:0:0:0:
192,192,81367,1,0,0:0:0:0:
320,192,81450,1,2,0:0:0:0:
192,192,81533,128,8,81617:0:0:0:0:
64,192,81700,1,2,0:0:0:0:
320,192,81700,128,0,81950:0:0:0:0:
64,192,81867,1,8,0:0:0:0:
192,192,81867,1,0,0:0:0:0:
448,192,81867,1,0,0:0:0:0:
64,192,82033,128,2,82283:0:0:0:0:
448,192,82033,128,0,82283:0:0:0:0:
192,192,82117,1,2,0:0:0:0:
320,192,82200,128,8,82283:0:0:0:0:
192,192,82367,128,2,82617:0:0:0:0:
320,192,82367,1,0,0:0:0:0:
448,192,82367,1,0,0:0:0:0:
64,192,82533,1,8,0:0:0:0:
320,192,82533,1,0,0:0:0:0:
448,192,82533,1,0,0:0:0:0:
320,192,82700,128,2,82783:0:0:0:0:
448,192,82700,128,0,82950:0:0:0:0:
64,192,82783,1,2,0:0:0:0:
192,192,82867,128,8,82950:0:0:0:0:
320,192,82867,128,0,82950:0:0:0:0:
64,192,83033,128,2,83283:0:0:0:0:
192,192,83033,1,0,0:0:0:0:
448,192,83033,1,0,0:0:0:0:
192,192,83200,1,8,0:0:0:0:
320,192,83200,1,0,0:0:0:0:
448,192,83200,1,0,0:0:0:0:
64,192,83367,128,2,83450:0:0:0:0:
448,192,83367,128,0,83617:0:0:0:0:
320,192,83450,1,2,0:0:0:0:
64,192,83533,128,8,83617:0:0:0:0:
192,192,83533,1,0,0:0:0:0:
64,192,83700,1,2,0:0:0:0:
320,192,83700,1,4,0:0:0:0:
448,192,83700,128,0,83783:0:0:0:0:
192,192,83783,128,0,83867:0:0:0:0:
64,192,83867,1,8,0:0:0:0:
320,192,83867,128,0,83950:0:0:0:0:
448,192,83867,1,0,0:0:0:0:
192,192,83950,128,0,84033:0:0:0:0:
64,192,84033,128,2,84117:0:0:0:0:
448,192,84033,128,0,84283:0:0:0:0:
320,192,84117,128,2,84200:0:0:0:0:
64,192,84200,128,8,84283:0:0:0:0:
192,192,84200,128,0,84283:0:0:0:0:
320,192,84283,128,0,84367:0:0:0:0:
192,192,84367,128,2,84533:0:0:0:0:
448,192,84367,1,0,0:0:0:0:
64,192,84533,1,8,0:0:0:0:
320,192,84533,1,0,0:0:0:0:
192,192,84617,1,8,0:0:0:0:
448,192,84617,1,0,0:0:0:0:
64,192,84700,128,0,84950:0:0:0:50:Tom2.wav
320,192,84700,1,0,0:0:0:0:
192,192,84783,1,0,0:0:0:50:Tom2.wav
448,192,84867,128,0,84950:0:0:0:50:Tom3.wav
320,192,84950,1,0,0:0:0:50:Tom3.wav
64,192,85033,1,2,0:0:0:0:
192,192,85033,1,4,0:0:0:0:
448,192,85033,1,0,0:0:0:0:
320,192,85117,1,0,0:0:0:0:
64,192,85200,1,2,0:0:0:0:
192,192,85283,1,0,0:0:0:0:
64,192,85367,1,2,0:0:0:0:
320,192,85367,1,0,0:0:0:0:
448,192,85367,1,0,0:0:0:0:
192,192,85450,1,0,0:0:0:0:
448,192,85533,1,2,0:0:0:0:
320,192,85617,1,0,0:0:0:0:
64,192,85700,128,8,85756:0:0:0:0:
192,192,85700,128,0,85756:0:0:0:0:
448,192,85756,128,0,85811:0:0:0:0:
320,192,85811,128,0,85867:0:0:0:0:
64,192,85867,128,2,85922:0:0:0:0:
192,192,85922,128,0,85978:0:0:0:0:
320,192,85978,128,0,86033:0:0:0:0:
448,192,86033,128,8,86089:0:0:0:0:
64,192,86089,128,0,86145:0:0:0:0:
192,192,86145,128,0,86200:0:0:0:0:
448,192,86200,128,2,86256:0:0:0:0:
320,192,86256,128,0,86311:0:0:0:0:
192,192,86311,128,0,86367:0:0:0:0:
64,192,86367,128,2,86617:0:0:0:0:
320,192,86367,1,4,0:0:0:0:
448,192,86367,128,0,86617:0:0:0:0:
64,192,86700,128,0,86950:0:0:0:0:
192,192,86700,128,0,86950:0:0:0:0:
320,192,87033,128,0,87450:0:0:0:0:
448,192,87033,128,0,87450:0:0:0:0:
64,192,87200,128,0,87450:0:0:0:0:
192,192,87200,128,0,87450:0:0:0:0:
320,192,87533,128,0,87783:0:0:0:0:
448,192,87533,128,0,87783:0:0:0:0:
64,192,87867,1,2,0:0:0:0:
192,192,87867,1,0,0:0:0:50:Tom2.wav
448,192,87867,1,0,0:0:0:0:
64,192,88033,1,2,0:0:0:0:
192,192,88033,1,0,0:0:0:50:Tom2.wav
448,192,88033,1,0,0:0:0:0:
64,192,88200,1,2,0:0:0:0:
192,192,88200,1,0,0:0:0:50:Tom2.wav
448,192,88200,1,0,0:0:0:0:
64,192,88367,1,2,0:0:0:0:
192,192,88367,1,0,0:0:0:50:Tom2.wav
448,192,88367,1,0,0:0:0:0:
