osu file format v14

[General]
AudioFilename: audio.mp3
AudioLeadIn: 0
PreviewTime: 49442
Countdown: 0
SampleSet: Soft
StackLeniency: 0.4
Mode: 0
LetterboxInBreaks: 0
WidescreenStoryboard: 1

[Editor]
DistanceSpacing: 1
BeatDivisor: 2
GridSize: 4
TimelineZoom: 1.6

[Metadata]
Title:Amazing Happy Man!!!!!
TitleUnicode:Amazing Happy Man!!!!!
Artist:Supreme Daydream
ArtistUnicode:Supreme Daydream
Creator:MoeAsuka
Version:Normal
Source:
Tags:諏訪ななか 高林大旗 suwananaka
BeatmapID:1157396
BeatmapSetID:538174

[Difficulty]
HPDrainRate:3
CircleSize:3
OverallDifficulty:4
ApproachRate:5
SliderMultiplier:0.999999999999999
SliderTickRate:1

[Events]
//Background and Video events
0,0,"4513.png",0,0
//Break Periods
2,96883,106173
//Storyboard Layer 0 (Background)
//Storyboard Layer 1 (Fail)
//Storyboard Layer 2 (Pass)
//Storyboard Layer 3 (Foreground)
//Storyboard Sound Samples

[TimingPoints]
477,344.827586206897,4,2,1,50,1,0
5994,-100.0,4,2,1,60,0,0
39097,-100.0,4,2,1,50,0,0
47373,-100.0,4,2,1,60,0,0
50132,-100.0,4,2,1,75,0,1
74959,-100.0,4,2,1,65,0,0
97028,-100.0,4,2,1,50,0,0
108063,-100.0,4,2,1,75,0,1
121856,-100.0,4,2,1,60,0,0
127373,-100.0,4,2,1,50,0,0
133235,-100.0,4,2,1,40,0,0
133580,-100.0,4,2,1,30,0,0
133925,-100.0,4,2,1,20,0,0

[Colours]
Combo1 : 255,128,0
Combo2 : 0,255,64
Combo3 : 255,0,255
Combo4 : 255,0,0

[HitObjects]
124,64,477,6,0,P|174:55|224:64,1,99.9999999999999,2|8,0:0|0:0,0:0:0:0:
288,138,1166,1,2,0:0:0:0:
408,227,1683,2,0,P|369:267|311:287,1,99.9999999999999,0|0,0:0|0:0,0:0:0:0:
190,225,2545,2,0,L|71:244,1,99.9999999999999,2|8,0:0|0:0,0:0:0:0:
24,316,3235,6,0,P|78:340|121:336,1,99.9999999999999,6|8,1:0|0:0,0:0:0:0:
217,329,3925,1,2,1:0:0:0:
366,316,4442,2,0,P|360:263|382:219,1,99.9999999999999,2|2,0:0|0:0,0:0:0:0:
434,82,5304,2,0,L|453:183,1,99.9999999999999,2|10,0:0|0:0,0:0:0:0:
360,139,5994,6,0,L|341:38,1,99.9999999999999,4|8,0:0|0:0,0:0:0:0:
242,25,6683,1,2,0:0:0:0:
112,100,7201,2,0,P|139:141|240:129,1,150,2|8,0:0|0:0,0:0:0:0:
277,118,7890,2,0,L|294:266,1,150,0|8,0:0|0:0,0:0:0:0:
197,292,8752,6,0,P|150:307|102:296,1,99.9999999999999,4|8,0:0|0:0,0:0:0:0:
59,205,9442,1,2,0:0:0:0:
152,88,9959,2,0,P|198:69|283:110,1,150,2|8,0:0|0:0,0:0:0:0:
299,157,10649,2,0,P|310:216|255:291,1,150,0|8,0:0|0:0,0:0:0:0:
174,239,11511,6,0,L|140:128,1,99.9999999999999,4|8,0:0|0:0,0:0:0:0:
58,92,12201,1,0,0:0:0:0:
56,241,12718,2,0,P|67:289|154:322,1,150,2|8,0:0|0:0,0:0:0:0:
204,324,13408,2,0,L|368:292,1,150,0|8,0:0|0:0,0:0:0:0:
399,207,14270,6,0,L|299:209,1,99.9999999999999,4|8,0:0|0:0,0:0:0:0:
252,120,14959,2,0,L|351:117,1,99.9999999999999,8|8,0:0|0:0,0:0:0:0:
480,39,15821,2,0,L|486:88,1,50,2|8,0:0|0:0,0:0:0:0:
426,169,16339,1,8,0:0:0:0:
428,268,16683,2,0,P|378:262|310:287,1,99.9999999999999,8|4,0:0|0:0,0:0:0:0:
252,211,17373,6,0,P|210:198|156:212,1,99.9999999999999,8|0,0:0|0:0,0:0:0:0:
71,263,18063,1,8,0:0:0:0:
138,336,18408,2,0,P|185:342|237:337,1,99.9999999999999,2|8,0:0|0:0,0:0:0:0:
307,266,19097,2,0,L|310:164,1,99.9999999999999,0|8,0:0|0:0,0:0:0:0:
385,97,19787,5,4,0:0:0:0:
297,48,20132,2,0,P|216:48|177:61,1,99.9999999999999,8|0,0:0|0:0,0:0:0:0:
114,107,20821,2,0,P|67:152|100:295,1,200,8|8,0:0|0:0,0:0:0:0:
173,314,21856,2,0,L|279:316,1,99.9999999999999,0|8,0:0|0:0,0:0:0:0:
351,254,22545,5,4,0:0:0:0:
450,241,22890,2,0,P|437:300|381:344,2,99.9999999999999,8|0|8,0:0|0:0|0:0,0:0:0:0:
351,254,23925,2,0,P|302:190|212:170,2,150,2|0|8,0:0|0:0|0:0,0:0:0:0:
252,269,25304,6,0,L|153:271,1,99.9999999999999,4|8,0:0|0:0,0:0:0:0:
108,180,25994,2,0,L|9:182,1,99.9999999999999,2|8,0:0|0:0,0:0:0:0:
37,86,26683,1,2,0:0:0:0:
185,107,27201,2,0,P|240:117|285:108,1,99.9999999999999,2|2,0:0|0:0,0:0:0:0:
418,44,28063,5,4,0:0:0:0:
418,144,28408,2,0,P|412:200|434:246,1,99.9999999999999,8|0,0:0|0:0,0:0:0:0:
363,313,29097,2,0,P|314:305|267:323,1,99.9999999999999,8|0,0:0|0:0,0:0:0:0:
179,275,29787,1,8,0:0:0:0:
100,212,30132,2,0,L|108:83,1,99.9999999999999,0|8,0:0|0:0,0:0:0:0:
199,75,30821,5,4,0:0:0:0:
185,175,31166,2,0,L|177:304,1,99.9999999999999,8|0,0:0|0:0,0:0:0:0:
270,316,31856,2,0,P|332:325|373:310,1,99.9999999999999,8|0,0:0|0:0,0:0:0:0:
412,224,32545,2,0,P|350:215|309:230,1,99.9999999999999,8|8,0:0|0:0,0:0:0:0:
228,176,33235,1,8,0:0:0:0:
278,89,33580,5,4,0:0:0:0:
186,48,33925,2,0,L|85:53,2,99.9999999999999,8|0|8,0:0|0:0|0:0,0:0:0:0:
278,89,34959,2,0,L|421:90,1,99.9999999999999,2|8,0:0|0:0,0:0:0:0:
329,177,35649,2,0,L|186:176,1,99.9999999999999,0|8,0:0|0:0,0:0:0:0:
164,253,36339,6,0,P|163:348|177:366,1,99.9999999999999,4|8,0:0|0:0,0:0:0:0:
263,351,37028,2,0,P|264:256|250:238,1,99.9999999999999,2|8,0:0|0:0,0:0:0:0:
229,161,37718,1,4,0:0:0:0:
140,115,38063,1,8,0:0:0:0:
217,51,38408,2,0,L|330:36,1,99.9999999999999,2|8,0:0|0:0,0:0:0:0:
404,85,39097,5,4,0:0:0:0:
434,180,39442,2,0,P|436:240|402:283,2,99.9999999999999,8|0|8,0:0|0:0|0:0,0:0:0:0:
344,135,40477,2,0,L|288:126,1,50,2|0,0:0|0:0,0:0:0:0:
240,211,40994,2,0,L|187:219,1,50,0|0,0:0|0:0,0:0:0:0:
131,299,41511,6,0,P|79:320|36:304,1,99.9999999999999,8|2,0:0|0:0,0:0:0:0:
83,216,42201,2,0,L|75:166,1,50,8|0,0:0|0:0,0:0:0:0:
159,112,42718,2,0,L|166:62,1,50,0|8,0:0|0:0,0:0:0:0:
265,57,43235,2,0,P|361:90|463:46,1,200,2|2,0:0|0:0,0:0:0:0:
448,257,44614,6,0,P|437:343|423:365,1,99.9999999999999,4|8,0:0|0:0,0:0:0:0:
353,290,45304,2,0,P|364:204|378:182,1,99.9999999999999,0|8,0:0|0:0,0:0:0:0:
328,102,45994,2,0,L|217:111,1,99.9999999999999,0|8,0:0|0:0,0:0:0:0:
191,202,46683,2,0,L|302:193,1,99.9999999999999,0|8,0:0|0:0,0:0:0:0:
246,283,47373,6,0,P|192:314|154:311,1,99.9999999999999,4|8,0:0|0:0,0:0:0:0:
101,230,48063,2,0,P|155:199|193:202,1,99.9999999999999,2|8,0:0|0:0,0:0:0:0:
290,193,48752,1,2,0:0:0:0:
370,134,49097,1,8,0:0:0:0:
290,73,49442,1,2,0:0:0:0:
274,274,50132,6,0,L|382:267,1,99.9999999999999,4|8,0:0|0:0,0:0:0:0:
440,192,50821,2,0,P|443:143|414:103,1,99.9999999999999,0|8,0:0|0:0,0:0:0:0:
319,72,51510,1,2,0:0:0:0:
238,132,51856,2,0,P|189:126|156:90,1,99.9999999999999,8|0,0:0|0:0,0:0:0:0:
75,31,52545,1,8,0:0:0:0:
63,130,52890,6,0,L|53:255,2,99.9999999999999,4|8|0,0:0|0:0|0:0,0:0:0:0:
156,90,53925,1,8,0:0:0:0:
192,183,54270,2,0,L|210:288,1,99.9999999999999,2|8,0:0|0:0,0:0:0:0:
299,324,54959,2,0,P|352:334|414:309,1,99.9999999999999,2|8,0:0|0:0,0:0:0:0:
447,235,55649,6,0,L|439:134,1,99.9999999999999,4|8,0:0|0:0,0:0:0:0:
348,93,56339,1,0,0:0:0:0:
273,159,56683,1,8,0:0:0:0:
198,92,57028,2,0,L|92:88,1,99.9999999999999,4|8,0:0|0:0,0:0:0:0:
50,176,57718,2,0,P|67:253|52:273,1,99.9999999999999,2|8,0:0|0:0,0:0:0:0:
6,351,58408,6,0,L|113:361,1,99.9999999999999,6|8,0:0|0:0,0:0:0:0:
192,311,59097,2,0,P|249:320|297:305,1,99.9999999999999,0|8,0:0|0:0,0:0:0:0:
328,217,59787,2,0,L|332:99,1,99.9999999999999,2|8,0:0|0:0,0:0:0:0:
399,43,60477,1,2,0:0:0:0:
486,90,60821,1,8,0:0:0:0:
431,173,61166,6,0,L|437:284,2,99.9999999999999,4|8|0,0:0|0:0|0:0,0:0:0:0:
340,129,62201,1,8,0:0:0:0:
245,161,62545,2,0,P|180:170|141:160,2,99.9999999999999,2|8|0,0:0|0:0|0:0,0:0:0:0:
268,63,63580,1,8,0:0:0:0:
170,42,63925,6,0,P|112:47|42:54,1,99.9999999999999,4|8,0:0|0:0,0:0:0:0:
22,139,64614,1,0,0:0:0:0:
63,230,64959,1,8,0:0:0:0:
49,329,65304,2,0,P|112:332|175:334,1,99.9999999999999,2|8,0:0|0:0,0:0:0:0:
198,324,65821,2,0,P|270:314|312:239,1,150,0|8,0:0|0:0,0:0:0:0:
399,206,66683,6,0,L|407:305,1,99.9999999999999,0|8,0:0|0:0,0:0:0:0:
502,337,67373,1,0,0:0:0:0:
494,237,67718,1,8,0:0:0:0:
463,141,68063,2,0,P|406:114|359:127,1,99.9999999999999,4|8,0:0|0:0,0:0:0:0:
290,179,68752,2,0,P|200:206|177:200,1,99.9999999999999,2|8,0:0|0:0,0:0:0:0:
101,175,69442,6,0,L|89:70,1,99.9999999999999,4|8,0:0|0:0,0:0:0:0:
177,26,70132,1,0,0:0:0:0:
248,95,70477,1,8,0:0:0:0:
320,26,70821,2,0,L|423:35,2,99.9999999999999,2|0|2,0:0|0:0|0:0,0:0:0:0:
248,95,71856,1,8,0:0:0:0:
182,170,72201,6,0,L|170:300,1,99.9999999999999,0|0,0:0|0:0,0:0:0:0:
209,303,72718,2,0,P|276:336|312:318,1,99.9999999999999,2|2,0:0|0:0,0:0:0:0:
386,287,73408,1,2,0:0:0:0:
256,192,73580,12,0,74959,0:0:0:0:
68,101,77718,6,0,L|184:97,1,99.9999999999999,4|8,0:0|0:0,0:0:0:0:
230,176,78408,2,0,L|346:172,1,99.9999999999999,0|0,0:0|0:0,0:0:0:0:
364,208,78925,2,0,P|425:227|474:328,2,150,2|8|2,0:0|0:0|0:0,0:0:0:0:
221,255,80477,6,0,P|262:281|309:271,1,99.9999999999999,4|8,0:0|0:0,0:0:0:0:
288,173,81166,2,0,P|246:146|199:156,1,99.9999999999999,2|8,0:0|0:0,0:0:0:0:
104,191,81856,2,0,L|103:67,1,99.9999999999999,2|8,0:0|0:0,0:0:0:0:
19,36,82545,2,0,L|20:160,1,99.9999999999999,2|8,0:0|0:0,0:0:0:0:
74,220,83235,6,0,L|19:227,2,50,4|0|8,0:0|0:0|0:0,0:0:0:0:
162,267,83925,2,0,P|222:267|253:244,1,99.9999999999999,2|8,0:0|0:0,0:0:0:0:
260,144,84614,1,0,0:0:0:0:
312,58,84959,2,0,L|423:74,1,99.9999999999999,8|2,0:0|0:0,0:0:0:0:
471,152,85649,1,10,0:0:0:0:
420,238,85994,6,0,P|401:290|358:313,1,99.9999999999999,6|8,0:0|0:0,0:0:0:0:
264,304,86683,2,0,L|205:299,2,50,2|0|8,0:0|0:0|0:0,0:0:0:0:
301,270,87201,2,0,P|312:213|301:163,1,99.9999999999999,0|0,0:0|0:0,0:0:0:0:
275,131,87718,2,0,L|255:80,2,50,8|0|2,0:0|0:0|0:0,0:0:0:0:
224,217,88408,2,0,L|155:220,1,50,10|2,0:0|0:0,0:0:0:0:
128,198,88752,6,0,P|96:133|67:108,1,99.9999999999999,6|8,0:0|0:0,0:0:0:0:
26,202,89442,1,2,0:0:0:0:
43,300,89787,2,0,L|42:361,2,50,8|2|2,0:0|0:0|0:0,0:0:0:0:
139,272,90477,1,8,0:0:0:0:
226,319,90821,2,0,L|297:332,2,50,2|0|8,0:0|0:0|0:0,0:0:0:0:
250,221,91511,6,0,L|301:213,2,50,4|0|8,0:0|0:0|0:0,0:0:0:0:
202,204,92028,2,0,P|157:161|140:67,1,150,0|8,0:0|0:0,0:0:0:0:
233,107,92890,2,0,L|348:101,1,99.9999999999999,2|8,0:0|0:0,0:0:0:0:
399,176,93580,2,0,L|277:202,1,99.9999999999999,0|8,0:0|0:0,0:0:0:0:
262,289,94270,5,4,0:0:0:0:
162,297,94614,2,0,L|102:314,1,50,8|2,0:0|0:0,0:0:0:0:
88,353,94959,2,0,L|28:370,1,50,0|2,0:0|0:0,0:0:0:0:
21,267,95477,1,2,0:0:0:0:
40,168,95821,1,8,0:0:0:0:
60,70,96166,2,0,L|131:76,1,50,2|8,0:0|0:0,0:0:0:0:
187,137,96683,1,8,0:0:0:0:
285,102,107373,5,2,0:0:0:0:
353,175,107718,1,8,0:0:0:0:
281,245,108063,6,0,L|173:238,1,99.9999999999999,4|0,0:0|0:0,0:0:0:0:
113,312,108752,1,0,0:0:0:0:
30,255,109097,1,8,0:0:0:0:
72,164,109442,2,0,L|202:132,1,99.9999999999999,2|8,0:0|0:0,0:0:0:0:
246,76,110132,2,0,L|138:26,1,99.9999999999999,0|8,0:0|0:0,0:0:0:0:
77,97,110821,6,0,L|67:222,2,99.9999999999999,4|0|0,0:0|0:0|0:0,0:0:0:0:
173,124,111856,1,8,0:0:0:0:
206,218,112201,2,0,P|267:227|324:205,1,99.9999999999999,2|8,0:0|0:0,0:0:0:0:
343,308,112890,2,0,P|394:305|465:322,1,99.9999999999999,0|8,0:0|0:0,0:0:0:0:
455,214,113580,6,0,L|447:113,1,99.9999999999999,6|8,0:0|0:0,0:0:0:0:
367,53,114270,1,0,0:0:0:0:
303,130,114614,1,8,0:0:0:0:
209,95,114959,2,0,L|103:91,1,99.9999999999999,2|8,0:0|0:0,0:0:0:0:
29,29,115649,2,0,P|17:105|23:131,1,99.9999999999999,2|8,0:0|0:0,0:0:0:0:
46,223,116339,6,0,L|153:233,1,99.9999999999999,4|8,0:0|0:0,0:0:0:0:
199,316,117028,2,0,P|256:325|304:310,1,99.9999999999999,0|8,0:0|0:0,0:0:0:0:
375,252,117718,2,0,L|379:134,1,99.9999999999999,0|8,0:0|0:0,0:0:0:0:
407,56,118408,1,2,0:0:0:0:
312,25,118752,1,8,0:0:0:0:
236,91,119097,6,0,P|172:111|115:90,1,99.9999999999999,4|0,0:0|0:0,0:0:0:0:
108,66,119614,2,0,L|79:170,1,99.9999999999999,2|2,0:0|0:0,0:0:0:0:
56,259,120304,1,2,0:0:0:0:
56,259,121856,6,0,L|178:244,1,99.9999999999999,6|8,0:0|0:0,0:0:0:0:
210,163,122545,1,2,0:0:0:0:
355,126,123063,2,0,P|424:140|449:214,1,150,2|8,0:0|0:0,0:0:0:0:
416,245,123752,2,0,L|253:247,1,150,2|8,0:0|0:0,0:0:0:0:
197,174,124614,6,0,L|189:71,1,99.9999999999999,6|8,0:0|0:0,0:0:0:0:
272,17,125304,1,2,0:0:0:0:
344,148,125821,2,0,B|266:189|266:146|185:177,1,150,2|8,0:0|0:0,0:0:0:0:
155,198,126511,2,0,P|135:259|193:324,1,150,2|10,0:0|0:0,0:0:0:0:
284,320,127373,6,0,L|393:315,1,99.9999999999999,6|8,2:0|0:0,0:0:0:0:
434,228,128063,1,2,0:0:0:0:
447,78,128580,2,0,P|370:48|295:71,1,150,2|8,0:0|0:0,0:0:0:0:
262,86,129270,2,0,P|202:123|124:108,1,150,2|8,0:0|0:0,0:0:0:0:
53,177,130132,5,6,0:0:0:0:
121,252,130477,1,8,0:0:0:0:
194,183,130821,1,8,0:0:0:0:
126,109,131166,1,8,0:0:0:0:
270,70,131683,6,0,L|279:150,1,50,2|8,0:0|0:0,0:0:0:0:
289,219,132201,2,0,L|361:225,1,50,2|0,0:0|0:0,0:0:0:0:
388,222,132545,2,0,L|458:206,1,50,8|2,0:0|0:0,0:0:0:0:
256,192,132890,12,4,134270,0:0:0:0:
