osu file format v14

[General]
AudioFilename: audio.mp3
AudioLeadIn: 0
PreviewTime: 49442
Countdown: 0
SampleSet: Soft
StackLeniency: 0.4
Mode: 0
LetterboxInBreaks: 0
WidescreenStoryboard: 1

[Editor]
DistanceSpacing: 1
BeatDivisor: 4
GridSize: 8
TimelineZoom: 2.2

[Metadata]
Title:Amazing Happy Man!!!!!
TitleUnicode:Amazing Happy Man!!!!!
Artist:Supreme Daydream
ArtistUnicode:Supreme Daydream
Creator:MoeAsuka
Version:Insane
Source:
Tags:諏訪ななか 高林大旗 suwananaka
BeatmapID:1301248
BeatmapSetID:538174

[Difficulty]
HPDrainRate:5.8
CircleSize:4
OverallDifficulty:7.6
ApproachRate:9
SliderMultiplier:1.6
SliderTickRate:1

[Events]
//Background and Video events
0,0,"4513.png",0,0
//Break Periods
2,97055,106256
//Storyboard Layer 0 (Background)
//Storyboard Layer 1 (Fail)
//Storyboard Layer 2 (Pass)
//Storyboard Layer 3 (Foreground)
//Storyboard Sound Samples

[TimingPoints]
477,344.827586206897,4,2,1,50,1,0
5994,-100.0,4,2,1,60,0,0
39097,-133.333333333333,4,2,1,50,0,0
47373,-100.0,4,2,1,60,0,0
50132,-80.0,4,2,1,75,0,1
74959,-100.0,4,2,1,65,0,0
97028,-100.0,4,2,1,50,0,0
108063,-80.0,4,2,1,75,0,1
121856,-100.0,4,2,1,60,0,0
127373,-100.0,4,2,1,50,0,0
133235,-100.0,4,2,1,40,0,0
133580,-100.0,4,2,1,30,0,0
133925,-100.0,4,2,1,20,0,0

[Colours]
Combo1 : 255,128,0
Combo2 : 0,255,64
Combo3 : 255,0,255
Combo4 : 255,0,0

[HitObjects]
154,95,477,6,0,L|145:184,1,80,2|0,0:0|0:0,0:0:0:0:
268,252,821,2,0,L|277:341,1,80,8|0,0:0|0:0,0:0:0:0:
276,331,1166,1,2,0:0:0:0:
362,185,1339,2,0,P|321:150|288:139,1,80,0|8,0:0|0:0,0:0:0:0:
120,249,1683,6,0,P|170:230|196:206,1,80,0|2,0:0|0:0,0:0:0:0:
107,138,2028,2,0,P|115:85|107:50,1,80,0|8,0:0|0:0,0:0:0:0:
9,175,2373,1,0,0:0:0:0:
110,59,2545,2,0,L|200:58,1,80,2|0,0:0|0:0,0:0:0:0:
312,114,2890,2,0,L|402:113,1,80,8|0,0:0|0:0,0:0:0:0:
468,301,3235,6,0,P|456:257|423:224,1,80,6|0,1:0|0:0,0:0:0:0:
364,265,3580,2,0,P|394:240|433:230,1,80,8|0,0:0|0:0,0:0:0:0:
433,230,3925,1,2,1:0:0:0:
359,346,4097,2,0,L|260:353,1,80,0|8,0:0|0:0,0:0:0:0:
112,301,4442,6,0,L|90:218,1,80,2|0,0:0|0:0,0:0:0:0:
212,108,4787,2,0,L|232:30,1,80,2|8,0:0|0:0,0:0:0:0:
289,188,5132,1,2,0:0:0:0:
289,188,5218,1,2,0:0:0:0:
289,188,5304,1,2,0:0:0:0:
371,40,5477,1,2,0:0:0:0:
371,40,5563,1,2,0:0:0:0:
371,40,5649,2,0,P|415:72|436:95,1,80,10|0,0:0|0:0,0:0:0:0:
462,264,5994,6,0,P|407:245|369:258,1,80,4|0,0:0|0:0,0:0:0:0:
302,346,6339,2,0,P|357:365|395:352,1,80,8|0,0:0|0:0,0:0:0:0:
376,360,6683,1,2,0:0:0:0:
267,221,6856,2,0,P|213:242|189:270,1,80,0|8,0:0|0:0,0:0:0:0:
368,167,7201,6,0,P|431:193|369:196,1,160,2|0,0:0|0:0,0:0:0:0:
247,82,7718,1,8,0:0:0:0:
113,201,7890,2,0,P|134:265|141:204,1,160,0|0,0:0|0:0,0:0:0:0:
368,167,8408,1,8,0:0:0:0:
156,222,8580,1,0,0:0:0:0:
215,53,8752,6,0,P|142:55|124:61,1,80,4|0,0:0|0:0,0:0:0:0:
259,138,9097,2,0,P|298:145|334:162,1,80,8|0,0:0|0:0,0:0:0:0:
334,162,9442,1,2,0:0:0:0:
297,304,9614,2,0,P|291:264|275:227,1,80,0|8,0:0|0:0,0:0:0:0:
96,156,9959,6,0,P|53:215|116:286,1,160,2|0,0:0|0:0,0:0:0:0:
181,136,10477,1,8,0:0:0:0:
213,316,10649,2,0,P|168:258|82:299,1,160,0|0,0:0|0:0,0:0:0:0:
183,342,11166,1,8,0:0:0:0:
318,227,11339,1,0,0:0:0:0:
318,227,11425,1,0,0:0:0:0:
318,227,11511,6,0,L|333:136,1,80,4|0,0:0|0:0,0:0:0:0:
440,45,11856,2,0,L|425:136,1,80,8|0,0:0|0:0,0:0:0:0:
426,123,12201,1,0,0:0:0:0:
268,38,12373,2,0,L|188:46,1,80,0|8,0:0|0:0,0:0:0:0:
321,187,12718,6,0,P|254:166|169:196,1,160,2|0,0:0|0:0,0:0:0:0:
307,229,13235,1,8,0:0:0:0:
137,121,13408,2,0,L|177:206,1,80,0|2,0:0|0:0,0:0:0:0:
30,234,13752,1,0,0:0:0:0:
137,121,13925,1,8,0:0:0:0:
179,270,14097,1,0,0:0:0:0:
70,162,14270,5,4,0:0:0:0:
70,162,14442,1,2,0:0:0:0:
196,40,14614,1,8,0:0:0:0:
196,40,14787,1,2,0:0:0:0:
250,244,14959,1,8,0:0:0:0:
250,244,15132,1,2,0:0:0:0:
331,61,15304,1,8,0:0:0:0:
331,61,15477,1,2,0:0:0:0:
265,328,15821,5,2,0:0:0:0:
265,328,15994,2,0,P|318:331|357:318,1,80,8|0,0:0|0:0,0:0:0:0:
339,163,16339,2,0,P|309:207|301:247,1,80,8|0,0:0|0:0,0:0:0:0:
449,301,16683,2,0,P|425:253|394:226,1,80,8|2,0:0|0:0,0:0:0:0:
302,232,17028,6,0,L|202:239,1,80,4|0,0:0|0:0,0:0:0:0:
267,134,17373,1,8,0:0:0:0:
191,306,17545,1,0,0:0:0:0:
76,178,17718,2,0,P|129:173|166:183,1,80,0|0,0:0|0:0,0:0:0:0:
266,311,18063,1,8,0:0:0:0:
395,197,18235,6,0,P|358:152|329:138,1,80,0|2,0:0|0:0,0:0:0:0:
222,237,18580,1,0,0:0:0:0:
137,114,18752,2,0,L|154:30,1,80,8|0,0:0|0:0,0:0:0:0:
122,193,19097,2,0,L|139:109,1,80,0|0,0:0|0:0,0:0:0:0:
106,271,19442,2,0,L|123:187,1,80,8|0,0:0|0:0,0:0:0:0:
76,32,19787,6,0,P|118:43|161:30,1,80,4|0,0:0|0:0,0:0:0:0:
314,92,20132,1,8,0:0:0:0:
137,114,20304,1,0,0:0:0:0:
202,256,20477,2,0,P|209:201|220:161,1,80,0|0,0:0|0:0,0:0:0:0:
347,74,20821,1,8,0:0:0:0:
370,252,20994,6,0,P|328:238|264:234,1,80,0|2,0:0|0:0,0:0:0:0:
128,307,21339,1,0,0:0:0:0:
309,334,21511,2,0,L|400:331,1,80,8|0,0:0|0:0,0:0:0:0:
229,336,21856,2,0,L|320:333,1,80,0|0,0:0|0:0,0:0:0:0:
149,338,22201,2,0,L|240:335,1,80,8|0,0:0|0:0,0:0:0:0:
412,252,22545,6,0,L|325:241,1,80,4|0,0:0|0:0,0:0:0:0:
192,209,22890,2,0,B|211:162|211:162|212:117,1,80,8|0,0:0|0:0,0:0:0:0:
143,18,23235,2,0,B|124:65|124:65|123:110,1,80,0|0,0:0|0:0,0:0:0:0:
299,140,23580,2,0,L|381:140,1,80,8|0,0:0|0:0,0:0:0:0:
512,75,23925,6,0,B|461:75|461:75|412:51|412:51|339:51,1,160,2|8,0:0|0:0,0:0:0:0:
247,34,24442,2,0,P|273:88|274:113,1,80,0|0,0:0|0:0,0:0:0:0:
184,192,24787,2,0,P|158:138|157:113,1,80,0|8,0:0|0:0,0:0:0:0:
289,211,25132,1,2,0:0:0:0:
289,211,25218,1,2,0:0:0:0:
289,211,25304,6,0,L|380:211,1,80,4|0,0:0|0:0,0:0:0:0:
235,290,25649,2,0,L|144:290,1,80,8|2,0:0|0:0,0:0:0:0:
116,278,25908,1,2,0:0:0:0:
80,260,25994,2,0,P|47:216|38:174,1,80,2|0,0:0|0:0,0:0:0:0:
108,76,26339,2,0,P|141:120|150:162,1,80,8|0,0:0|0:0,0:0:0:0:
195,349,26683,6,0,B|195:298|195:298|219:249|219:249|219:176,1,160,2|8,0:0|0:0,0:0:0:0:
319,36,27201,2,0,L|404:38,1,80,2|0,0:0|0:0,0:0:0:0:
242,119,27545,2,0,L|327:121,1,80,2|0,0:0|0:0,0:0:0:0:
470,196,27890,1,2,0:0:0:0:
470,196,27977,1,2,0:0:0:0:
470,196,28063,6,0,P|473:260|454:295,1,80,4|0,0:0|0:0,0:0:0:0:
287,292,28408,1,8,0:0:0:0:
399,233,28580,1,0,0:0:0:0:
309,122,28752,2,0,L|296:208,1,80,0|0,0:0|0:0,0:0:0:0:
229,84,29097,1,8,0:0:0:0:
396,109,29270,6,0,P|367:56|327:36,1,80,2|0,0:0|0:0,0:0:0:0:
164,122,29614,1,0,0:0:0:0:
352,45,29787,1,8,0:0:0:0:
252,186,29959,1,0,0:0:0:0:
216,35,30132,2,0,P|168:24|124:29,1,80,0|0,0:0|0:0,0:0:0:0:
60,175,30477,2,0,P|82:142|113:116,1,80,8|0,0:0|0:0,0:0:0:0:
147,288,30821,6,0,L|145:205,1,80,4|0,0:0|0:0,0:0:0:0:
257,311,31166,1,8,0:0:0:0:
145,208,31339,1,0,0:0:0:0:
12,329,31511,2,0,P|41:290|44:247,1,80,0|0,0:0|0:0,0:0:0:0:
75,120,31856,1,8,0:0:0:0:
216,103,32028,6,0,P|253:115|281:143,1,80,0|0,0:0|0:0,0:0:0:0:
180,218,32373,1,0,0:0:0:0:
273,341,32545,2,0,B|327:341|327:341|361:327,1,80,8|0,0:0|0:0,0:0:0:0:
482,271,32890,2,0,B|482:217|482:217|468:183,1,80,8|0,0:0|0:0,0:0:0:0:
359,102,33235,2,0,B|383:92|383:92|437:92,1,80,8|0,0:0|0:0,0:0:0:0:
374,238,33580,6,0,L|374:341,1,80,4|0,0:0|0:0,0:0:0:0:
247,220,33925,2,0,P|201:212|160:222,1,80,8|0,0:0|0:0,0:0:0:0:
51,328,34270,2,0,P|66:291|93:262,1,80,0|0,0:0|0:0,0:0:0:0:
247,220,34614,2,0,P|284:232|315:256,1,80,8|0,0:0|0:0,0:0:0:0:
186,337,34959,6,0,B|183:283|183:283|166:229|166:229|163:179,1,160,2|8,0:0|0:0,0:0:0:0:
237,98,35477,2,0,L|242:188,1,80,0|0,0:0|0:0,0:0:0:0:
89,263,35821,2,0,L|84:173,1,80,0|8,0:0|0:0,0:0:0:0:
237,98,36339,6,0,P|288:89|324:92,1,80,4|0,0:0|0:0,0:0:0:0:
382,197,36684,2,0,P|331:206|295:203,1,80,8|0,0:0|0:0,0:0:0:0:
237,98,37028,2,0,P|288:89|324:92,1,80,2|0,0:0|0:0,0:0:0:0:
382,197,37373,2,0,P|331:206|295:203,1,80,8|0,0:0|0:0,0:0:0:0:
94,179,37718,6,0,P|41:198|105:216,1,160,4|8,0:0|0:0,0:0:0:0:
189,63,38235,1,0,0:0:0:0:
94,179,38408,1,2,0:0:0:0:
94,179,38494,1,2,0:0:0:0:
94,179,38580,1,2,0:0:0:0:
277,173,38752,1,8,0:0:0:0:
114,264,38925,1,0,0:0:0:0:
255,294,39097,6,0,L|323:290,1,60.0000022888184,4|0,0:0|0:0,0:0:0:0:
427,210,39442,2,0,P|441:169|436:141,1,60.0000022888184,8|0,0:0|0:0,0:0:0:0:
318,63,39787,1,0,0:0:0:0:
356,164,39959,1,0,0:0:0:0:
245,224,40132,2,0,L|160:209,1,60.0000022888184,8|0,0:0|0:0,0:0:0:0:
208,73,40477,5,2,0:0:0:0:
114,122,40649,2,0,P|132:66|150:50,1,60.0000022888184,0|8,0:0|0:0,0:0:0:0:
110,206,40994,1,0,0:0:0:0:
204,157,41166,2,0,P|185:212|168:229,1,60.0000022888184,0|0,0:0|0:0,0:0:0:0:
94,300,41511,1,8,0:0:0:0:
192,346,41683,1,0,0:0:0:0:
266,266,41856,6,0,P|277:217|269:189,1,60.0000022888184,2|0,0:0|0:0,0:0:0:0:
167,217,42201,1,8,0:0:0:0:
224,116,42373,2,0,P|251:103|281:102,1,60.0000022888184,0|0,0:0|0:0,0:0:0:0:
275,208,42718,1,0,0:0:0:0:
386,174,42890,2,0,P|414:184|436:203,1,60.0000022888184,8|0,0:0|0:0,0:0:0:0:
500,333,43235,5,2,0:0:0:0:
367,282,43408,1,0,0:0:0:0:
477,178,43580,1,8,0:0:0:0:
419,346,43752,1,0,0:0:0:0:
362,198,43925,1,2,0:0:0:0:
247,290,44097,1,0,0:0:0:0:
386,174,44270,1,8,0:0:0:0:
314,58,44442,1,0,0:0:0:0:
314,58,44528,1,0,0:0:0:0:
314,58,44614,6,0,L|241:64,1,60.0000022888184,4|0,0:0|0:0,0:0:0:0:
135,152,44959,1,8,0:0:0:0:
199,244,45132,2,0,P|216:194|214:174,1,60.0000022888184,0|0,0:0|0:0,0:0:0:0:
309,299,45477,2,0,P|292:249|294:229,1,60.0000022888184,0|8,0:0|0:0,0:0:0:0:
359,122,45821,1,0,0:0:0:0:
215,187,45994,6,0,L|141:194,1,60.0000022888184,0|0,0:0|0:0,0:0:0:0:
35,279,46339,1,8,0:0:0:0:
121,169,46511,2,0,P|107:142|104:112,1,60.0000022888184,0|0,0:0|0:0,0:0:0:0:
10,114,46856,2,0,P|23:87|26:57,1,60.0000022888184,0|8,0:0|0:0,0:0:0:0:
38,191,47201,1,0,0:0:0:0:
142,267,47373,6,0,P|197:253|225:258,1,80,4|0,0:0|0:0,0:0:0:0:
311,365,47718,2,0,P|256:379|228:374,1,80,8|0,0:0|0:0,0:0:0:0:
142,267,48063,2,0,P|197:253|225:258,1,80,2|0,0:0|0:0,0:0:0:0:
311,365,48408,2,0,P|256:379|228:374,1,80,8|2,0:0|0:0,0:0:0:0:
68,330,48752,6,0,P|41:284|42:253,1,80,2|0,0:0|0:0,0:0:0:0:
99,110,49097,2,0,P|126:64|125:33,1,80,8|0,0:0|0:0,0:0:0:0:
196,165,49442,2,0,P|240:134|270:133,1,80,2|0,0:0|0:0,0:0:0:0:
202,257,49787,1,0,0:0:0:0:
398,169,49959,1,0,0:0:0:0:
311,342,50132,6,0,L|314:234,1,100,4|0,0:0|0:0,0:0:0:0:
407,331,50477,1,8,0:0:0:0:
265,126,50649,2,0,P|203:118|153:137,1,100,0|0,0:0|0:0,0:0:0:0:
25,219,50994,1,2,0:0:0:0:
151,285,51166,1,8,0:0:0:0:
93,162,51339,1,0,0:0:0:0:
61,309,51511,6,0,P|115:279|159:288,1,100,2|0,0:0|0:0,0:0:0:0:
336,315,51856,1,8,0:0:0:0:
228,211,52028,2,0,L|235:338,1,100,0|0,0:0|0:0,0:0:0:0:
303,163,52373,1,2,0:0:0:0:
135,232,52545,1,8,0:0:0:0:
322,239,52718,1,2,0:0:0:0:
155,149,52890,6,0,P|123:96|137:51,1,100,4|0,0:0|0:0,0:0:0:0:
344,97,53235,1,8,0:0:0:0:
214,86,53408,2,0,P|243:31|289:21,1,100,0|0,0:0|0:0,0:0:0:0:
261,223,53752,1,2,0:0:0:0:
344,97,53925,1,8,0:0:0:0:
428,196,54097,1,0,0:0:0:0:
261,223,54270,5,2,0:0:0:0:
432,274,54442,1,2,0:0:0:0:
285,353,54614,1,8,0:0:0:0:
346,207,54787,2,0,P|350:138|239:93,1,200,0|0,0:0|0:0,0:0:0:0:
96,172,55304,1,8,0:0:0:0:
85,193,55390,1,2,0:0:0:0:
65,209,55476,1,2,0:0:0:0:
41,215,55562,1,0,0:0:0:0:
17,209,55649,6,0,P|27:122|32:96,1,100,4|2,0:0|0:0,0:0:0:0:
190,43,55994,1,8,0:0:0:0:
96,172,56166,2,0,P|86:259|81:285,1,100,0|0,0:0|0:0,0:0:0:0:
220,169,56511,1,0,0:0:0:0:
83,271,56683,2,0,P|161:262|194:271,1,100,8|0,0:0|0:0,0:0:0:0:
59,347,57028,5,4,0:0:0:0:
217,275,57201,1,2,0:0:0:0:
59,347,57373,1,8,0:0:0:0:
239,352,57545,2,0,P|295:296|245:200,1,200,2|0,0:0|0:0,0:0:0:0:
46,239,58063,1,8,0:0:0:0:
218,187,58235,1,2,0:0:0:0:
390,241,58408,6,0,P|405:181|400:134,1,100,6|0,0:0|0:0,0:0:0:0:
227,79,58752,1,8,0:0:0:0:
359,55,58925,2,0,P|387:95|401:143,1,100,2|0,0:0|0:0,0:0:0:0:
292,232,59270,1,2,0:0:0:0:
162,179,59442,1,8,0:0:0:0:
49,266,59614,6,0,P|21:272|58:269,1,200,2|2,0:0|0:0,0:0:0:0:
96,101,60132,1,8,0:0:0:0:
230,62,60304,1,2,0:0:0:0:
346,140,60477,2,0,L|459:127,1,100,2|0,0:0|0:0,0:0:0:0:
289,234,60821,2,0,L|402:221,1,100,8|0,0:0|0:0,0:0:0:0:
241,319,61166,5,4,0:0:0:0:
126,229,61339,2,0,P|60:198|1:215,1,100,0|8,0:0|0:0,0:0:0:0:
6,362,61683,2,0,P|43:329|58:282,1,100,2|0,0:0|0:0,0:0:0:0:
134,124,62028,1,0,0:0:0:0:
163,305,62201,1,8,0:0:0:0:
227,173,62373,1,2,0:0:0:0:
58,282,62545,5,2,0:0:0:0:
238,272,62718,1,0,0:0:0:0:
95,203,62890,1,8,0:0:0:0:
174,64,63063,2,0,P|245:57|288:71,1,100,2|0,0:0|0:0,0:0:0:0:
447,117,63408,1,2,0:0:0:0:
278,197,63580,1,8,0:0:0:0:
447,117,63752,1,2,0:0:0:0:
355,286,63925,6,0,P|339:219|316:201,1,100,4|0,0:0|0:0,0:0:0:0:
269,351,64270,1,8,0:0:0:0:
298,157,64442,2,0,L|283:262,1,100,2|0,0:0|0:0,0:0:0:0:
211,132,64787,1,2,0:0:0:0:
381,212,64959,1,8,0:0:0:0:
201,213,65132,1,2,0:0:0:0:
249,39,65304,5,2,0:0:0:0:
314,137,65477,1,2,0:0:0:0:
146,64,65649,1,8,0:0:0:0:
19,184,65821,2,0,P|89:163|209:223,1,200,0|2,0:0|0:0,0:0:0:0:
318,339,66339,1,8,0:0:0:0:
341,348,66425,1,0,0:0:0:0:
365,351,66511,1,0,0:0:0:0:
390,347,66597,1,0,0:0:0:0:
413,336,66683,6,0,P|450:291|457:250,1,100,0|0,0:0|0:0,0:0:0:0:
304,158,67028,1,8,0:0:0:0:
403,72,67201,2,0,L|388:195,1,100,2|0,0:0|0:0,0:0:0:0:
320,57,67545,1,2,0:0:0:0:
469,182,67718,1,8,0:0:0:0:
283,256,67890,1,2,0:0:0:0:
209,146,68063,5,4,0:0:0:0:
149,286,68235,1,2,0:0:0:0:
121,138,68408,1,8,0:0:0:0:
243,291,68580,2,0,P|288:247|290:208,1,100,2|0,0:0|0:0,0:0:0:0:
180,70,68925,1,2,0:0:0:0:
283,188,69097,1,8,0:0:0:0:
359,80,69270,1,2,0:0:0:0:
196,159,69442,6,0,P|142:147|99:167,1,100,4|0,0:0|0:0,0:0:0:0:
18,250,69787,1,8,0:0:0:0:
120,314,69959,2,0,P|153:270|153:222,1,100,2|0,0:0|0:0,0:0:0:0:
44,85,70304,1,2,0:0:0:0:
154,227,70476,1,8,0:0:0:0:
223,95,70649,2,0,P|284:80|344:110,1,100,2|0,0:0|0:0,0:0:0:0:
424,147,70994,5,2,0:0:0:0:
437,265,71166,1,0,0:0:0:0:
353,352,71339,1,2,0:0:0:0:
235,254,71511,1,2,0:0:0:0:
354,244,71684,1,0,0:0:0:0:
424,147,71856,1,8,0:0:0:0:
230,149,72028,1,2,0:0:0:0:
337,45,72201,6,0,P|327:132|224:144,1,200,0|0,0:0|0:0,0:0:0:0:
10,200,72718,2,0,P|39:257|98:266,1,100,2|0,0:0|0:0,0:0:0:0:
204,147,73063,2,0,P|155:138|114:164,1,100,2|0,0:0|0:0,0:0:0:0:
152,341,73408,2,0,P|183:303|181:254,1,100,2|0,0:0|0:0,0:0:0:0:
10,200,73752,5,0,0:0:0:0:
204,147,73925,1,8,0:0:0:0:
152,341,74097,1,2,0:0:0:0:
152,341,74183,1,2,0:0:0:0:
152,341,74270,1,2,0:0:0:0:
332,330,74442,1,2,0:0:0:0:
346,328,74528,1,2,0:0:0:0:
361,327,74614,1,10,0:0:0:0:
376,326,74700,1,2,0:0:0:0:
391,325,74787,1,2,0:0:0:0:
406,324,74873,1,2,0:0:0:0:
417,324,74959,6,0,P|460:294|462:244,1,80,4|0,0:0|0:0,0:0:0:0:
427,114,75304,2,0,P|384:144|382:194,1,80,8|0,0:0|0:0,0:0:0:0:
488,193,75649,1,2,0:0:0:0:
383,242,75821,2,0,L|294:246,1,80,2|8,0:0|0:0,0:0:0:0:
214,129,76166,6,0,L|125:133,1,80,2|0,0:0|0:0,0:0:0:0:
281,181,76511,1,2,0:0:0:0:
164,52,76683,2,0,L|75:56,1,80,8|0,0:0|0:0,0:0:0:0:
35,183,77028,2,0,P|23:238|52:285,1,80,2|0,0:0|0:0,0:0:0:0:
176,325,77373,2,0,P|188:270|159:223,1,80,8|0,0:0|0:0,0:0:0:0:
0,353,77718,6,0,L|86:340,1,80,4|0,0:0|0:0,0:0:0:0:
119,166,78063,2,0,L|213:176,1,80,8|0,0:0|0:0,0:0:0:0:
394,204,78408,1,0,0:0:0:0:
289,335,78580,2,0,L|303:249,1,80,0|0,0:0|0:0,0:0:0:0:
312,80,78925,6,0,P|305:123|281:151,1,80,2|0,0:0|0:0,0:0:0:0:
136,82,79270,1,2,0:0:0:0:
168,240,79442,1,8,0:0:0:0:
53,147,79614,1,0,0:0:0:0:
261,175,79787,1,0,0:0:0:0:
75,261,79959,1,2,0:0:0:0:
75,261,80045,1,2,0:0:0:0:
75,261,80132,1,8,0:0:0:0:
179,151,80304,1,0,0:0:0:0:
231,346,80477,6,0,P|300:354|327:337,1,80,4|0,0:0|0:0,0:0:0:0:
381,241,80821,2,0,P|312:233|285:250,1,80,8|0,0:0|0:0,0:0:0:0:
398,348,81166,1,2,0:0:0:0:
398,348,81339,1,0,0:0:0:0:
490,268,81511,1,8,0:0:0:0:
483,131,81683,6,0,P|454:55|351:57,1,160,2|0,0:0|0:0,0:0:0:0:
230,153,82201,2,0,P|277:124|309:120,1,80,8|0,0:0|0:0,0:0:0:0:
412,235,82545,1,2,0:0:0:0:
412,235,82718,1,0,0:0:0:0:
230,153,82890,1,8,0:0:0:0:
230,153,83063,1,2,0:0:0:0:
181,260,83235,6,0,P|185:322|194:344,1,80,4|0,0:0|0:0,0:0:0:0:
313,281,83580,2,0,P|309:219|300:197,1,80,8|0,0:0|0:0,0:0:0:0:
222,68,83925,1,2,0:0:0:0:
222,68,84011,1,0,0:0:0:0:
222,68,84097,1,0,0:0:0:0:
63,145,84270,1,8,0:0:0:0:
230,153,84442,1,0,0:0:0:0:
153,253,84614,5,0,0:0:0:0:
128,78,84787,1,0,0:0:0:0:
56,245,84959,2,0,P|74:311|93:328,1,80,8|2,0:0|0:0,0:0:0:0:
283,323,85304,1,2,0:0:0:0:
151,346,85477,1,0,0:0:0:0:
311,316,85649,1,10,0:0:0:0:
322,313,85735,1,2,0:0:0:0:
334,310,85821,1,2,0:0:0:0:
346,308,85907,1,2,0:0:0:0:
358,306,85994,6,0,P|415:284|442:252,1,80,6|0,0:0|0:0,0:0:0:0:
450,111,86339,2,0,P|393:133|366:165,1,80,8|0,0:0|0:0,0:0:0:0:
510,184,86683,1,2,0:0:0:0:
443,29,86856,1,0,0:0:0:0:
291,99,87028,1,8,0:0:0:0:
380,179,87201,6,0,B|380:127|380:127|362:67|362:67|362:21,1,160,0|0,0:0|0:0,0:0:0:0:
300,178,87718,2,0,B|300:225|300:225|311:261,1,80,8|0,0:0|0:0,0:0:0:0:
457,168,88063,2,0,B|457:121|457:121|446:85,1,80,2|0,0:0|0:0,0:0:0:0:
246,79,88408,1,10,0:0:0:0:
380,179,88580,1,2,0:0:0:0:
219,227,88752,6,0,P|145:239|122:233,1,80,6|0,0:0|0:0,0:0:0:0:
77,123,89097,2,0,P|151:111|174:117,1,80,8|0,0:0|0:0,0:0:0:0:
302,30,89442,1,2,0:0:0:0:
222,150,89614,1,0,0:0:0:0:
141,21,89787,1,8,0:0:0:0:
141,21,89873,1,2,0:0:0:0:
141,21,89959,6,0,P|110:102|148:177,1,160,2|0,0:0|0:0,0:0:0:0:
328,201,90477,2,0,L|378:204,2,40,8|0|2,0:0|0:0|0:0,0:0:0:0:
189,253,90821,2,0,P|250:260|269:274,1,80,2|0,0:0|0:0,0:0:0:0:
182,346,91166,2,0,P|121:339|102:325,1,80,8|0,0:0|0:0,0:0:0:0:
167,159,91511,5,4,0:0:0:0:
260,346,91683,1,0,0:0:0:0:
100,237,91856,1,8,0:0:0:0:
284,157,92028,2,0,P|332:97|258:36,1,160,0|0,0:0|0:0,0:0:0:0:
266,182,92545,1,8,0:0:0:0:
277,180,92631,1,0,0:0:0:0:
289,181,92717,1,2,0:0:0:0:
301,183,92803,1,0,0:0:0:0:
313,187,92890,5,2,0:0:0:0:
330,197,92976,1,0,0:0:0:0:
344,211,93062,1,2,0:0:0:0:
355,227,93148,1,0,0:0:0:0:
363,245,93234,1,8,0:0:0:0:
367,265,93321,1,0,0:0:0:0:
366,285,93407,1,2,0:0:0:0:
439,180,93580,1,0,0:0:0:0:
275,270,93752,1,0,0:0:0:0:
352,77,93925,1,8,0:0:0:0:
352,89,94011,1,0,0:0:0:0:
352,101,94097,1,2,0:0:0:0:
352,113,94183,1,0,0:0:0:0:
352,125,94269,5,4,0:0:0:0:
441,274,94442,1,0,0:0:0:0:
283,189,94614,1,8,0:0:0:0:
283,189,94787,1,2,0:0:0:0:
440,311,94959,1,0,0:0:0:0:
234,317,95132,1,2,0:0:0:0:
234,317,95304,1,8,0:0:0:0:
85,207,95477,6,0,L|91:104,1,80,2|0,0:0|0:0,0:0:0:0:
157,252,95821,2,0,L|151:355,1,80,8|0,0:0|0:0,0:0:0:0:
170,161,96166,1,2,0:0:0:0:
313,89,96339,2,0,L|392:93,1,80,8|0,0:0|0:0,0:0:0:0:
265,246,96683,2,0,P|226:236|187:242,1,80,8|0,0:0|0:0,0:0:0:0:
430,337,106856,5,2,0:0:0:0:
302,281,107028,1,8,0:0:0:0:
493,249,107201,1,2,0:0:0:0:
455,113,107373,2,0,P|472:39|490:15,1,80,2|0,0:0|0:0,0:0:0:0:
380,156,107718,2,0,P|363:230|345:254,1,80,8|0,0:0|0:0,0:0:0:0:
169,259,108063,5,4,0:0:0:0:
292,173,108235,2,0,L|169:161,1,100,0|0,0:0|0:0,0:0:0:0:
58,53,108580,2,0,P|75:114|53:194,1,100,2|0,0:0|0:0,0:0:0:0:
198,164,108925,1,0,0:0:0:0:
143,272,109097,1,8,0:0:0:0:
251,328,109270,1,2,0:0:0:0:
306,218,109442,5,2,0:0:0:0:
198,164,109614,1,0,0:0:0:0:
292,35,109787,1,8,0:0:0:0:
306,218,109959,2,0,P|322:284|366:331,1,100,2|0,0:0|0:0,0:0:0:0:
474,350,110304,1,0,0:0:0:0:
459,210,110477,1,8,0:0:0:0:
341,134,110649,1,0,0:0:0:0:
340,309,110821,6,0,P|380:255|382:203,1,100,4|0,0:0|0:0,0:0:0:0:
292,73,111166,1,0,0:0:0:0:
192,230,111339,2,0,L|292:234,2,100,0|0|0,0:0|0:0|0:0,0:0:0:0:
107,316,111856,1,8,0:0:0:0:
295,325,112028,1,0,0:0:0:0:
188,150,112201,1,2,0:0:0:0:
202,322,112373,1,0,0:0:0:0:
271,168,112545,5,8,0:0:0:0:
84,196,112718,2,0,P|94:88|166:40,1,200,2|0,0:0|0:0,0:0:0:0:
325,40,113235,1,8,0:0:0:0:
337,40,113321,1,2,0:0:0:0:
350,40,113407,1,2,0:0:0:0:
362,40,113493,1,2,0:0:0:0:
375,40,113580,6,0,B|438:38|438:38|472:62,1,100,6|0,0:0|0:0,0:0:0:0:
297,167,113925,1,8,0:0:0:0:
414,119,114097,2,0,L|420:225,1,100,2|0,0:0|0:0,0:0:0:0:
263,267,114442,1,0,0:0:0:0:
427,316,114614,1,8,0:0:0:0:
263,267,114787,1,0,0:0:0:0:
191,136,114959,5,2,0:0:0:0:
197,316,115132,1,0,0:0:0:0:
265,178,115304,1,8,0:0:0:0:
111,271,115477,2,0,P|45:257|114:263,1,200,2|0,0:0|0:0,0:0:0:0:
268,344,115994,1,8,0:0:0:0:
215,180,116166,1,0,0:0:0:0:
405,175,116339,6,0,P|327:153|288:161,1,100,4|0,0:0|0:0,0:0:0:0:
187,257,116683,1,8,0:0:0:0:
314,344,116856,2,0,P|336:266|328:227,1,100,2|0,0:0|0:0,0:0:0:0:
188,168,117201,1,0,0:0:0:0:
333,248,117373,1,8,0:0:0:0:
310,83,117545,6,0,P|365:40|323:96,1,200,2|0,0:0|0:0,0:0:0:0:
144,90,118063,1,8,0:0:0:0:
306,169,118235,1,0,0:0:0:0:
125,202,118408,1,2,0:0:0:0:
231,88,118580,1,0,0:0:0:0:
265,265,118752,1,8,0:0:0:0:
125,202,118925,1,0,0:0:0:0:
181,349,119097,6,0,B|183:274|183:274|202:214|202:214|204:144,1,200,4|0,0:0|0:0,0:0:0:0:
393,116,119614,2,0,P|331:140|282:134,1,100,2|0,0:0|0:0,0:0:0:0:
158,56,119959,2,0,P|220:32|269:38,1,100,2|0,0:0|0:0,0:0:0:0:
393,116,120304,6,0,P|426:229|375:322,1,200,2|0,0:0|0:0,0:0:0:0:
180,259,120821,1,8,0:0:0:0:
300,209,120994,1,2,0:0:0:0:
127,166,121166,1,2,0:0:0:0:
223,33,121339,1,2,0:0:0:0:
221,47,121425,1,2,0:0:0:0:
220,62,121511,1,8,0:0:0:0:
218,77,121597,1,2,0:0:0:0:
217,92,121683,1,2,0:0:0:0:
215,107,121770,1,2,0:0:0:0:
214,123,121856,6,0,P|219:183|245:232,1,80,6|0,0:0|0:0,0:0:0:0:
379,240,122201,2,0,P|374:180|348:131,1,80,8|0,0:0|0:0,0:0:0:0:
225,201,122545,1,2,0:0:0:0:
322,54,122718,2,0,P|360:60|396:77,1,80,2|0,0:0|0:0,0:0:0:0:
277,136,123063,6,0,P|218:124|174:135,1,80,2|0,0:0|0:0,0:0:0:0:
145,271,123408,1,0,0:0:0:0:
277,136,123580,1,8,0:0:0:0:
379,240,123752,2,0,P|398:273|408:312,1,80,2|0,0:0|0:0,0:0:0:0:
252,249,124097,1,0,0:0:0:0:
369,128,124270,1,8,0:0:0:0:
460,215,124442,1,2,0:0:0:0:
272,174,124614,5,6,0:0:0:0:
385,315,124787,1,0,0:0:0:0:
209,307,124959,2,0,P|157:291|127:245,1,80,8|0,0:0|0:0,0:0:0:0:
102,109,125304,1,2,0:0:0:0:
277,136,125477,2,0,P|261:188|214:218,1,80,2|8,0:0|0:0,0:0:0:0:
66,263,125821,6,0,B|128:263|128:263|168:302|168:302|217:303,1,160,2|2,0:0|0:0,0:0:0:0:
192,132,126339,1,8,0:0:0:0:
295,49,126511,2,0,P|352:47|373:59,1,80,2|0,0:0|0:0,0:0:0:0:
281,201,126856,1,2,0:0:0:0:
295,49,127028,1,10,0:0:0:0:
143,117,127201,1,2,0:0:0:0:
143,117,127287,1,2,0:0:0:0:
143,117,127373,6,0,P|77:114|62:121,1,80,6|2,2:0|2:0,0:0:0:0:
133,244,127718,2,0,P|199:247|214:240,1,80,8|0,0:0|0:0,0:0:0:0:
330,168,128063,1,2,0:0:0:0:
240,61,128235,2,0,L|235:160,1,80,2|8,0:0|0:0,0:0:0:0:
159,306,128580,6,0,P|208:338|320:317,1,160,2|2,0:0|0:0,0:0:0:0:
382,173,129097,1,8,0:0:0:0:
239,263,129270,2,0,P|294:241|317:206,1,80,2|0,0:0|0:0,0:0:0:0:
235,72,129614,1,2,0:0:0:0:
409,96,129787,1,8,0:0:0:0:
409,96,129959,1,2,0:0:0:0:
202,150,130132,5,6,0:0:0:0:
202,150,130304,1,2,0:0:0:0:
403,263,130477,5,8,0:0:0:0:
403,263,130649,1,2,0:0:0:0:
139,304,130821,5,8,0:0:0:0:
139,304,130994,1,2,0:0:0:0:
403,359,131166,5,8,0:0:0:0:
403,359,131339,1,2,0:0:0:0:
202,85,131683,5,2,0:0:0:0:
367,135,131856,2,0,L|284:134,1,80,8|0,0:0|0:0,0:0:0:0:
102,66,132201,2,0,P|156:54|186:65,1,80,2|0,0:0|0:0,0:0:0:0:
50,229,132545,2,0,P|38:175|49:145,1,80,8|2,0:0|0:0,0:0:0:0:
256,192,132890,12,4,134270,0:0:0:0:
