osu file format v14

[General]
AudioFilename: audio.mp3
AudioLeadIn: 0
PreviewTime: 135385
Countdown: 0
SampleSet: Normal
StackLeniency: 0
Mode: 1
LetterboxInBreaks: 0
WidescreenStoryboard: 0

[Editor]
Bookmarks: 65663,74904,90264,136344,151704,167064,182424,197784,259225,266904,274584,282265,291864,305304,320665,336024,351385,382105
DistanceSpacing: 1
BeatDivisor: 8
GridSize: 32
TimelineZoom: 2.1

[Metadata]
Title:Sabbath
TitleUnicode:Sabbath
Artist:Supire
ArtistUnicode:Supire
Creator:Alchyr
Version:Gray
Source:
Tags:breakcore idm experimental industrial mutant electronic instrumental la zone mental rupture ep [LZN-010] spire featured artist fa mappers' guild mg monthly beatmapping contest mbc october 2023
BeatmapID:4409052
BeatmapSetID:2101659

[Difficulty]
HPDrainRate:3.3
CircleSize:2
OverallDifficulty:7.7
ApproachRate:0
SliderMultiplier:1.4
SliderTickRate:1

[Events]
//Background and Video events
0,0,"bg.jpg",0,0
//Break Periods
//Storyboard Layer 0 (Background)
//Storyboard Layer 1 (Fail)
//Storyboard Layer 2 (Pass)
//Storyboard Layer 3 (Foreground)
//Storyboard Layer 4 (Overlay)
//Storyboard Sound Samples

[TimingPoints]
25,480,4,1,0,15,1,8
25,-30.00300030003,4,1,0,15,0,0
1915,-113.646366638573,4,1,0,15,0,0
3823,-33.3333333333333,4,1,0,15,0,0
5721,-146.779926762207,4,1,0,15,0,0
7670,-25,4,1,0,15,0,0
9620,-189.573565240638,4,1,0,15,0,0
11540,-20,4,1,0,15,0,0
13460,-244.843674682223,4,1,0,15,0,0
15380,-36.7452413566482,4,1,0,15,0,0
17300,-316.227766016838,4,1,0,15,0,0
19220,-67.5106381179164,4,1,0,15,0,0
21140,-400,4,1,0,15,0,0
23060,-124.034734589208,4,1,0,15,0,0
24980,-500,4,1,0,15,0,0
26900,-227.884312954413,4,1,0,15,0,0
28820,-588.235294117647,4,1,0,15,0,0
30740,-555.555555555556,4,1,0,15,0,0
32660,-769.230769230769,4,1,0,15,0,0
34580,-854.700854700855,4,1,0,15,0,0
36445,-10.01001001001,4,1,0,50,0,0
36505,480,4,1,0,50,1,0
36505,-1000,4,1,0,50,0,0
36595,-88.2809818280712,4,1,0,10,0,0
37370,-90.1026519384073,4,1,0,10,0,0
38330,-93.8595378213747,4,1,0,10,0,0
38420,-94.2196778295289,4,1,0,10,0,0
39293,-97.9813121518128,4,1,0,10,0,0
39702,-99.8330796693378,4,1,0,10,0,0
40220,-101.719844094576,4,1,0,10,0,0
40340,-102.240576719821,4,1,0,10,0,0
41660,-108.147614087175,4,1,0,10,0,0
42260,-110.944292835668,4,1,0,10,0,0
43045,-115.128434861364,4,1,0,10,0,0
44180,-120.388954245994,4,1,0,10,0,0
45050,-124.92929129277,4,1,0,10,0,0
46100,-130.637637448479,4,1,0,10,0,0
46427,-132.789780440013,4,1,0,10,0,0
46884,-100,4,1,0,10,0,0
47083,-33.3333333333333,4,1,0,15,0,0
49909,-50,4,1,0,13,0,0
50730,-76.9230769230769,4,1,0,10,0,0
51260,-79.5853554497807,4,1,0,10,0,0
51710,-82.1648640227457,4,1,0,10,0,0
51860,-83.0431474249848,4,1,0,10,0,0
52712,-88.5135505892051,4,1,0,13,0,0
53692,-94.7464152600895,4,1,0,14,0,0
53780,-95.1502319801088,4,1,0,15,0,0
54625,-102.040816326531,4,1,0,15,0,0
55119,-104.928224739768,4,1,0,15,0,0
55627,-108.559750814176,4,1,0,15,0,0
55700,-109.022441063507,4,1,0,15,0,0
57104,-120.481927710843,4,1,0,15,0,0
57607,-55.5555555555556,4,1,0,15,0,0
59011,-71.4285714285714,4,1,0,15,0,0
59540,-77.4967381502711,4,1,0,15,0,0
59960,-82.8792479111075,4,1,0,15,0,0
60890,-96.1655762803515,4,1,0,15,0,0
61340,-103.339187722287,4,1,0,15,0,0
61460,-105.340930812317,4,1,0,15,0,0
61820,-111.581828918753,4,1,0,15,0,0
62300,-120.481927710843,4,1,0,15,0,0
62631,-200,4,1,0,15,0,0
62665,-200,4,1,0,15,0,0
62706,-200,4,1,0,16,0,0
62747,-200,4,1,0,17,0,0
62788,-200,4,1,0,18,0,0
62825,-52.6315789473684,4,1,0,19,0,0
62829,-52.6315789473684,4,1,0,19,0,0
62870,-52.6315789473684,4,1,0,20,0,0
62911,-52.6315789473684,4,1,0,21,0,0
62952,-52.6315789473684,4,1,0,22,0,0
62993,-52.6315789473684,4,1,0,23,0,0
63034,-52.6315789473684,4,1,0,24,0,0
63075,-52.6315789473684,4,1,0,25,0,0
63116,-52.6315789473684,4,1,0,26,0,0
63157,-52.6315789473684,4,1,0,27,0,0
63199,-52.6315789473684,4,1,0,28,0,0
63240,-52.6315789473684,4,1,0,29,0,0
63281,-52.6315789473684,4,1,0,30,0,0
63322,-52.6315789473684,4,1,0,31,0,0
63363,-52.6315789473684,4,1,0,32,0,0
63404,-52.6315789473684,4,1,0,33,0,0
63445,-52.6315789473684,4,1,0,34,0,0
63486,-52.6315789473684,4,1,0,35,0,0
63527,-52.6315789473684,4,1,0,36,0,0
63568,-52.6315789473684,4,1,0,37,0,0
63609,-52.6315789473684,4,1,0,38,0,0
63650,-52.6315789473684,4,1,0,39,0,0
63692,-52.6315789473684,4,1,0,40,0,0
63733,-52.6315789473684,4,1,0,41,0,0
63774,-52.6315789473684,4,1,0,42,0,0
63815,-52.6315789473684,4,1,0,43,0,0
63856,-52.6315789473684,4,1,0,44,0,0
63897,-52.6315789473684,4,1,0,45,0,0
63938,-52.6315789473684,4,1,0,46,0,0
63979,-52.6315789473684,4,1,0,47,0,0
64020,-52.6315789473684,4,1,0,48,0,0
64061,-52.6315789473684,4,1,0,49,0,0
64102,-52.6315789473684,4,1,0,50,0,0
64143,-52.6315789473684,4,1,0,51,0,0
64185,-52.6315789473684,4,1,0,52,0,0
64226,-52.6315789473684,4,1,0,53,0,0
64267,-52.6315789473684,4,1,0,54,0,0
64308,-52.6315789473684,4,1,0,55,0,0
64349,-52.6315789473684,4,1,0,56,0,0
64390,-52.6315789473684,4,1,0,57,0,0
64431,-52.6315789473684,4,1,0,58,0,0
64472,-52.6315789473684,4,1,0,59,0,0
64513,-52.6315789473684,4,1,0,60,0,0
64554,-52.6315789473684,4,1,0,61,0,0
64595,-52.6315789473684,4,1,0,62,0,0
64636,-52.6315789473684,4,1,0,63,0,0
64678,-52.6315789473684,4,1,0,64,0,0
64719,-52.6315789473684,4,1,0,65,0,0
64760,-52.6315789473684,4,1,0,66,0,0
64801,-52.6315789473684,4,1,0,67,0,0
64842,-52.6315789473684,4,1,0,68,0,0
64883,-52.6315789473684,4,1,0,69,0,0
64924,-52.6315789473684,4,1,0,70,0,0
64965,-52.6315789473684,4,1,0,71,0,0
65006,-52.6315789473684,4,1,0,72,0,0
65047,-52.6315789473684,4,1,0,73,0,0
65088,-52.6315789473684,4,1,0,74,0,0
65129,-52.6315789473684,4,1,0,75,0,0
65171,-52.6315789473684,4,1,0,76,0,0
65212,-52.6315789473684,4,1,0,77,0,0
65253,-52.6315789473684,4,1,0,78,0,0
65276,-50,4,1,0,79,0,0
65294,-50,4,1,0,79,0,0
65335,-50,4,1,0,80,0,0
65376,-50,4,1,0,81,0,0
65417,-50,4,1,0,82,0,0
65458,-50,4,1,0,83,0,0
65499,-50,4,1,0,84,0,0
65540,-50,4,1,0,85,0,0
65581,-50,4,1,0,86,0,0
65622,-50,4,1,0,87,0,0
65664,445.765230312036,4,1,0,88,1,8
65664,-50,4,1,0,88,0,0
65769,-99.1733843581877,4,1,0,88,0,0
66383,-96.0000880868523,4,1,0,88,0,0
66606,-93.00421137552,4,1,0,88,0,0
66829,-90.1713412143635,4,1,0,88,0,0
67052,-87.488584559491,4,1,0,88,0,0
67279,-84.9554887409088,4,1,0,88,0,0
67442,-83.1235074710135,4,1,0,88,0,0
67497,-82.5388601442277,4,1,0,88,0,0
67720,-80.2410152116673,4,1,0,88,0,0
67943,-78.0534540122303,4,1,0,88,0,0
68166,-75.9684686787205,4,1,0,88,0,0
68389,-73.9790532471787,4,1,0,88,0,0
68612,-72.078825537749,4,1,0,88,0,0
68835,-70.2619592415994,4,1,0,88,0,0
69008,1029.15951972556,4,1,0,88,1,8
69008,-29.6500620200653,4,1,0,88,0,0
69265,789.473684210526,4,1,0,88,1,0
69265,-37.8372242612282,4,1,0,88,0,0
69309,-36.8833895239174,4,1,0,88,0,0
69462,609.137055837563,4,1,0,88,1,8
69462,-43.8316460314965,4,1,0,88,0,0
69614,521.739130434783,4,1,0,88,1,8
69614,-48.2623420500093,4,1,0,88,0,0
69744,489.795918367347,4,1,0,88,1,8
69744,-49.1122006056383,4,1,0,88,0,0
69866,410.958904109589,4,1,0,88,1,8
69866,-56.3595614505223,4,1,0,88,0,0
69968,383.386581469649,4,1,0,88,1,8
69968,-58.6432576518716,4,1,0,88,0,0
70063,347.826086956522,4,1,0,88,1,8
70063,-62.9983684661238,4,1,0,88,0,0
70149,333.333333333333,4,1,0,88,1,8
70149,-64.3067035217015,4,1,0,88,0,0
70232,244.897959183673,4,1,0,88,1,8
70232,-85.8775976188327,4,1,0,88,0,0
70303,-84.6686145453446,4,1,0,88,0,0
70364,-83.5258147014355,4,1,0,88,0,0
70425,-82.4443367595392,4,1,0,88,0,0
70476,300,4,1,0,88,1,8
70476,-50,4,1,0,88,0,0
70626,189.873417721519,4,1,0,88,1,8
71005,300,4,1,0,88,1,8
71305,240,4,1,0,88,1,0
71305,-100,4,1,0,88,0,0
71360,-98.375486608195,4,1,0,88,0,0
71420,-96.7773636539916,4,1,0,88,0,0
71480,-95.2052024211967,4,1,0,88,0,0
71540,-93.6585811581694,4,1,0,88,0,0
71600,-92.1370849646804,4,1,0,88,0,0
71660,-90.6403056806105,4,1,0,88,0,0
71720,-89.167841776456,4,1,0,88,0,0
71780,-87.719298245614,4,1,0,88,0,0
72025,720.07200720072,4,1,0,88,1,0
72025,-20,4,1,0,88,0,0
72037,-100,4,1,0,20,0,0
72350,-100,4,1,0,21,0,0
72375,-100,4,1,0,22,0,0
72401,-100,4,1,0,23,0,0
72426,-100,4,1,0,24,0,0
72451,-100,4,1,0,25,0,0
72477,-100,4,1,0,26,0,0
72502,-100,4,1,0,27,0,0
72527,-100,4,1,0,28,0,0
72553,-100,4,1,0,29,0,0
72578,-100,4,1,0,30,0,0
72603,-100,4,1,0,31,0,0
72629,-100,4,1,0,32,0,0
72654,-100,4,1,0,33,0,0
72679,-100,4,1,0,34,0,0
72705,-100,4,1,0,35,0,0
72730,-100,4,1,0,36,0,0
72755,-100,4,1,0,37,0,0
72781,-100,4,1,0,38,0,0
72806,-100,4,1,0,39,0,0
72831,-100,4,1,0,40,0,0
72857,-100,4,1,0,41,0,0
72882,-100,4,1,0,42,0,0
72907,-100,4,1,0,43,0,0
72933,-100,4,1,0,44,0,0
72958,-100,4,1,0,45,0,0
72983,-100,4,1,0,46,0,0
73009,-100,4,1,0,47,0,0
73034,-100,4,1,0,48,0,0
73059,-100,4,1,0,49,0,0
73085,-100,4,1,0,50,0,0
73110,-100,4,1,0,51,0,0
73135,-100,4,1,0,52,0,0
73161,-100,4,1,0,53,0,0
73186,-100,4,1,0,54,0,0
73211,-100,4,1,0,55,0,0
73237,-100,4,1,0,56,0,0
73262,-100,4,1,0,57,0,0
73287,-100,4,1,0,58,0,0
73313,-100,4,1,0,59,0,0
73338,-100,4,1,0,60,0,0
73363,-100,4,1,0,61,0,0
73389,-100,4,1,0,62,0,0
73414,-100,4,1,0,63,0,0
73439,-100,4,1,0,64,0,0
73465,-100,4,1,0,65,0,0
73550,-120.560552341191,4,1,0,66,0,0
73730,-125.675561842449,4,1,0,67,0,0
73910,-131.007585298022,4,1,0,68,0,0
74090,-136.565829935455,4,1,0,69,0,0
74270,-142.359893616336,4,1,0,71,0,0
74450,-148.399781409691,4,1,0,71,0,0
74845,-148.399781409691,4,1,0,88,0,0
74905,240,4,1,0,88,1,0
74905,-100,4,1,0,88,0,0
76336,-76.9230769230769,4,1,0,88,0,0
76383,-50,4,1,0,88,0,0
76786,-100,4,1,0,88,0,0
76850,-100.244552325368,4,1,0,88,0,0
76940,-100.981803505701,4,1,0,88,0,0
77060,-101.973246392639,4,1,0,88,0,0
77120,-102.472612142816,4,1,0,88,0,0
77180,-102.974423300599,4,1,0,88,0,0
77300,-103.985429798539,4,1,0,88,0,0
77360,-104.494649265367,4,1,0,88,0,0
77420,-105.006362393719,4,1,0,88,0,0
77450,-105.263157894737,4,1,0,88,0,0
77660,-120.481927710843,4,1,0,88,0,0
77780,-100,4,1,0,88,0,0
77837,-120.481927710843,4,1,0,88,0,0
78718,-87.719298245614,4,1,0,88,0,0
78800,-88.3263208814275,4,1,0,88,0,0
78860,-88.9375441491173,4,1,0,88,0,0
78920,-89.5529971173,4,1,0,88,0,0
78980,-90.1727090557486,4,1,0,88,0,0
79010,-90.4841713409727,4,1,0,88,0,0
79070,-91.1103270591021,4,1,0,88,0,0
79100,-91.4250279366791,4,1,0,88,0,0
79160,-92.0576944370659,4,1,0,88,0,0
79220,-92.6947390263606,4,1,0,88,0,0
79340,-93.9820838678455,4,1,0,88,0,0
79380,-94.4151596569754,4,1,0,88,0,0
79420,-91.2723101747434,4,1,0,88,0,0
79460,-95.2873073587371,4,1,0,88,0,0
79520,-95.9467010569232,4,1,0,88,0,0
79580,-96.6106577977774,4,1,0,88,0,0
79640,-97.2792091578199,4,1,0,88,0,0
79700,-97.9523869320821,4,1,0,88,0,0
79760,-98.630223135619,4,1,0,88,0,0
79820,-99.3127500050316,4,1,0,88,0,0
79880,-100,4,1,0,88,0,0
79932,-95.2380952380952,4,1,0,88,0,0
80044,-90.9090909090909,4,1,0,88,0,0
80167,-87.719298245614,4,1,0,88,0,0
80210,-88.6823554342258,4,1,0,88,0,0
80240,-89.6559858851308,4,1,0,88,0,0
80300,-91.6354321773964,4,1,0,88,0,0
80360,-93.6585811581694,4,1,0,88,0,0
80420,-95.7263977058556,4,1,0,88,0,0
80460,-97.1302434982204,4,1,0,88,0,0
80500,-98.5546769555968,4,1,0,88,0,0
80540,-100,4,1,0,88,0,0
80649,-93.4579439252336,4,1,0,88,0,0
80706,-102.09190861825,4,1,0,88,0,0
80840,-104.227578053172,4,1,0,88,0,0
80900,-106.407923741059,4,1,0,88,0,0
80960,-108.6338802683,4,1,0,88,0,0
81020,-110.906401771972,4,1,0,88,0,0
81080,-113.226462348831,4,1,0,88,0,0
81140,-115.595056472846,4,1,0,88,0,0
81170,-116.797870064768,4,1,0,88,0,0
81200,-118.013199421473,4,1,0,88,0,0
81260,-120.481927710843,4,1,0,88,0,0
81332,-76.9230769230769,4,1,0,88,0,0
81608,-87.719298245614,4,1,0,88,0,0
82093,-151.515151515152,4,1,0,88,0,0
82127,-147.058823529412,4,1,0,88,0,0
82525,-100,4,1,0,88,0,0
83060,-100,4,1,0,88,0,0
83120,-100.160228258453,4,1,0,88,0,0
83180,-100.636603030713,4,1,0,88,0,0
83240,-101.415981406119,4,1,0,88,0,0
83300,-102.475789309752,4,1,0,88,0,0
83360,-103.783163114738,4,1,0,88,0,0
83420,-105.294050173874,4,1,0,88,0,0
83460,-106.387275107965,4,1,0,88,0,0
83500,-107.52688172043,4,1,0,88,0,0
83538,-93.4579439252336,4,1,0,88,0,0
83589,-90.9090909090909,4,1,0,88,0,0
83763,-76.9230769230769,4,1,0,88,0,0
84020,-92.0455403688485,4,1,0,88,0,0
84080,-96.2696244572596,4,1,0,88,0,0
84140,-100.687557007144,4,1,0,88,0,0
84200,-105.263157894737,4,1,0,88,0,0
84260,-110.140959523313,4,1,0,88,0,0
84380,-120.481927710843,4,1,0,88,0,0
84484,-100,4,1,0,88,0,0
85220,-95.2380952380952,4,1,0,88,0,0
85260,-96.799653029986,4,1,0,88,0,0
85300,-98.3868146806197,4,1,0,88,0,0
85340,-100,4,1,0,88,0,0
85449,-95.7263977058556,4,1,0,88,0,0
85520,-93.6585811581694,4,1,0,88,0,0
85580,-91.6354321773964,4,1,0,88,0,0
85640,-89.6559858851308,4,1,0,88,0,0
85700,-87.719298245614,4,1,0,88,0,0
85820,-90.9090909090909,4,1,0,88,0,0
85867,-89.4028720731637,4,1,0,88,0,0
86000,-92.5925925925926,4,1,0,88,0,0
86034,-91.1187582982073,4,1,0,88,0,0
86180,-93.4579439252336,4,1,0,88,0,0
86235,-92.8675770842417,4,1,0,88,0,0
86265,-92.573793628293,4,1,0,88,0,0
86295,-92.2809395464241,4,1,0,88,0,0
86420,-87.719298245614,4,1,0,88,0,0
86480,-88.506097171343,4,1,0,88,0,0
86540,-89.2999532961366,4,1,0,88,0,0
86600,-90.1009299195966,4,1,0,88,0,0
86660,-90.9090909090909,4,1,0,88,0,0
86720,-95.4619587959723,4,1,0,88,0,0
86780,-100.242841348803,4,1,0,88,0,0
86840,-105.263157894737,4,1,0,88,0,0
86900,-93.4579439252336,4,1,0,88,0,0
86940,-92.8828035510142,4,1,0,88,0,0
86980,-92.3112025918104,4,1,0,88,0,0
87020,-91.743119266055,4,1,0,88,0,0
87140,-91.743119266055,4,1,0,88,0,0
87180,-91.1854103343465,4,1,0,88,0,0
87220,-90.6344410876133,4,1,0,88,0,0
87260,-90.0900900900901,4,1,0,88,0,0
87365,-83.3333333333333,4,1,0,88,0,0
88324,-76.9230769230769,4,1,0,60,0,0
88458,-150.15015015015,4,1,0,20,0,0
89086,-150.15015015015,4,1,0,21,0,0
89108,-150.15015015015,4,1,0,22,0,0
89129,-150.15015015015,4,1,0,23,0,0
89151,-150.15015015015,4,1,0,24,0,0
89173,-150.15015015015,4,1,0,25,0,0
89194,-150.15015015015,4,1,0,26,0,0
89216,-150.15015015015,4,1,0,27,0,0
89237,-150.15015015015,4,1,0,28,0,0
89259,-150.15015015015,4,1,0,29,0,0
89281,-150.15015015015,4,1,0,30,0,0
89302,-120.481927710843,4,1,0,31,0,0
89324,-120.481927710843,4,1,0,32,0,0
89345,-120.481927710843,4,1,0,33,0,0
89367,-120.481927710843,4,1,0,34,0,0
89389,-120.481927710843,4,1,0,35,0,0
89410,-120.481927710843,4,1,0,36,0,0
89432,-120.481927710843,4,1,0,37,0,0
89453,-120.481927710843,4,1,0,38,0,0
89475,-120.481927710843,4,1,0,39,0,0
89497,-120.481927710843,4,1,0,40,0,0
89518,-120.481927710843,4,1,0,41,0,0
89540,-120.481927710843,4,1,0,42,0,0
89561,-120.481927710843,4,1,0,43,0,0
89583,-120.481927710843,4,1,0,44,0,0
89605,-120.481927710843,4,1,0,45,0,0
89626,-120.481927710843,4,1,0,46,0,0
89648,-120.481927710843,4,1,0,47,0,0
89669,-120.481927710843,4,1,0,48,0,0
89691,-120.481927710843,4,1,0,49,0,0
89713,-120.481927710843,4,1,0,50,0,0
89734,-120.481927710843,4,1,0,51,0,0
89756,-120.481927710843,4,1,0,52,0,0
89777,-120.481927710843,4,1,0,53,0,0
89799,-120.481927710843,4,1,0,54,0,0
89821,-120.481927710843,4,1,0,55,0,0
89842,-120.481927710843,4,1,0,56,0,0
89864,-120.481927710843,4,1,0,57,0,0
89885,-120.481927710843,4,1,0,58,0,0
89907,-120.481927710843,4,1,0,59,0,0
89929,-120.481927710843,4,1,0,60,0,0
89950,-120.481927710843,4,1,0,61,0,0
89972,-120.481927710843,4,1,0,62,0,0
89993,-120.481927710843,4,1,0,63,0,0
90015,-120.481927710843,4,1,0,64,0,0
90037,-120.481927710843,4,1,0,65,0,0
90058,-120.481927710843,4,1,0,66,0,0
90080,-120.481927710843,4,1,0,67,0,0
90101,-120.481927710843,4,1,0,68,0,0
90123,-120.481927710843,4,1,0,69,0,0
90145,-120.481927710843,4,1,0,70,0,0
90205,-93.4579439252336,4,1,0,88,0,0
90330,-100,4,1,0,88,0,0
90729,-87.719298245614,4,1,0,88,0,0
90815,-100,4,1,0,88,0,0
91090,-85.4700854700855,4,1,0,88,0,0
91179,-100,4,1,0,88,0,0
91449,-83.3333333333333,4,1,0,88,0,0
91523,-100,4,1,0,88,0,0
92177,-76.9230769230769,4,1,0,88,0,0
92211,-100,4,1,0,88,0,0
93132,-87.719298245614,4,1,0,88,0,0
93620,-84.6589795331867,4,1,0,88,0,0
93636,-83.9935411868013,4,1,0,88,0,0
93660,-83.3333333333334,4,1,0,88,0,0
93672,-66.6666666666667,4,1,0,88,0,0
94092,-93.4579439252336,4,1,0,88,0,0
94559,-90.9090909090909,4,1,0,88,0,0
94700,-93.4579439252336,4,1,0,88,0,0
94760,-92.3969554385907,4,1,0,88,0,0
94820,-91.3480119052337,4,1,0,88,0,0
94880,-90.3109765839055,4,1,0,88,0,0
94940,-89.2857142857143,4,1,0,88,0,0
94967,-88.495575221239,4,1,0,88,0,0
95047,-93.4579439252336,4,1,0,88,0,0
95080,-92.5925925925926,4,1,0,88,0,0
95164,-96.1538461538461,4,1,0,88,0,0
95196,-94.3396226415094,4,1,0,88,0,0
95293,-100,4,1,0,88,0,0
95320,-98.0392156862745,4,1,0,88,0,0
95423,-103.092783505155,4,1,0,88,0,0
95439,-101.010101010101,4,1,0,88,0,0
95531,-87.719298245614,4,1,0,88,0,0
95556,-83.3333333333333,4,1,0,88,0,0
95588,-66.6666666666667,4,1,0,88,0,0
96007,-87.719298245614,4,1,0,88,0,0
96050,-88.1995123878721,4,1,0,88,0,0
96080,-88.6823554342258,4,1,0,88,0,0
96260,-91.6354321773964,4,1,0,88,0,0
96320,-92.6414840206622,4,1,0,88,0,0
96380,-93.6585811581694,4,1,0,88,0,0
96440,-94.6868448545682,4,1,0,88,0,0
96500,-95.7263977058556,4,1,0,88,0,0
96560,-96.7773636539916,4,1,0,88,0,0
96620,-97.8398680016769,4,1,0,88,0,0
96680,-98.9140374272918,4,1,0,88,0,0
96728,-100,4,1,0,88,0,0
96780,-99.9467541396048,4,1,0,88,0,0
96820,-99.787759958609,4,1,0,88,0,0
96860,-99.525226420486,4,1,0,88,0,0
96980,-98.1588883593915,4,1,0,88,0,0
97010,-97.6949602658434,4,1,0,88,0,0
97100,-96.061013286255,4,1,0,88,0,0
97160,-94.8070931688306,4,1,0,88,0,0
97220,-93.4579439252337,4,1,0,88,0,0
97250,-92.7575306522997,4,1,0,88,0,0
97280,-92.0450676664586,4,1,0,88,0,0
97340,-90.5989678676392,4,1,0,88,0,0
97400,-89.1483038689158,4,1,0,88,0,0
97450,-87.719298245614,4,1,0,88,0,0
97885,-100,4,1,0,88,0,0
98420,-100,4,1,0,88,0,0
98480,-100.160228258453,4,1,0,88,0,0
98540,-100.636603030713,4,1,0,88,0,0
98600,-101.415981406119,4,1,0,88,0,0
98660,-102.475789309752,4,1,0,88,0,0
98720,-103.783163114738,4,1,0,88,0,0
98780,-105.294050173874,4,1,0,88,0,0
98820,-106.387275107965,4,1,0,88,0,0
98860,-107.52688172043,4,1,0,88,0,0
98898,-93.4579439252336,4,1,0,88,0,0
98949,-90.9090909090909,4,1,0,88,0,0
99013,-87.719298245614,4,1,0,88,0,0
99123,-76.9230769230769,4,1,0,88,0,0
99380,-92.0455403688485,4,1,0,88,0,0
99440,-96.2696244572596,4,1,0,88,0,0
99500,-100.687557007144,4,1,0,88,0,0
99564,-105.263157894737,4,1,0,88,0,0
99620,-110.140959523313,4,1,0,88,0,0
99740,-120.481927710843,4,1,0,88,0,0
99844,-100,4,1,0,88,0,0
100340,-93.4579439252336,4,1,0,88,0,0
100388,-94.0924116839685,4,1,0,88,0,0
100436,-94.731186720608,4,1,0,88,0,0
100532,-96.0217757911933,4,1,0,88,0,0
100628,-97.3299474574029,4,1,0,88,0,0
100724,-98.6559412592079,4,1,0,88,0,0
100820,-100,4,1,0,88,0,0
100916,-93.4591249104445,4,1,0,88,0,0
100964,-93.5536096126961,4,1,0,88,0,0
101012,-93.7993225276528,4,1,0,88,0,0
101060,-94.1963927903581,4,1,0,88,0,0
101108,-94.7449937333778,4,1,0,88,0,0
101204,-96.2973765273548,4,1,0,88,0,0
101300,-98.4562741635787,4,1,0,88,0,0
101380,-100.715260086838,4,1,0,88,0,0
101460,-103.384125838832,4,1,0,88,0,0
101540,-106.447373117989,4,1,0,88,0,0
101620,-109.878563628789,4,1,0,88,0,0
101700,-113.636363636364,4,1,0,88,0,0
101755,-87.719298245614,4,1,0,88,0,0
101827,-88.506097171343,4,1,0,88,0,0
101887,-89.2999532961366,4,1,0,88,0,0
101947,-90.1009299195966,4,1,0,88,0,0
102007,-90.9090909090909,4,1,0,88,0,0
102067,-95.4619587959723,4,1,0,88,0,0
102127,-100.242841348803,4,1,0,88,0,0
102187,-105.263157894737,4,1,0,88,0,0
102247,-93.4579439252336,4,1,0,88,0,0
102287,-92.8828035510142,4,1,0,88,0,0
102327,-92.3112025918104,4,1,0,88,0,0
102367,-91.743119266055,4,1,0,88,0,0
102487,-91.743119266055,4,1,0,88,0,0
102527,-91.1854103343465,4,1,0,88,0,0
102567,-90.6344410876133,4,1,0,88,0,0
102607,-90.0900900900901,4,1,0,88,0,0
102730,-87.719298245614,4,1,0,88,0,0
102860,-89.3257932790881,4,1,0,88,0,0
102920,-91.1753361304478,4,1,0,88,0,0
102980,-93.4579439252336,4,1,0,88,0,0
103080,-87.719298245614,4,1,0,88,0,0
103220,-89.3257932790881,4,1,0,88,0,0
103280,-91.1753361304478,4,1,0,88,0,0
103340,-93.4579439252336,4,1,0,88,0,0
103449,-87.719298245614,4,1,0,88,0,0
103520,-89.5919191831689,4,1,0,88,0,0
103580,-91.5045166053275,4,1,0,88,0,0
103640,-93.4579439252336,4,1,0,88,0,0
103691,-87.719298245614,4,1,0,88,0,0
103820,-85.4981960070962,4,1,0,88,0,0
103850,-84.9517641300736,4,1,0,88,0,0
103880,-84.4088245816634,4,1,0,88,0,0
103940,-83.3333333333334,4,1,0,88,0,0
104051,-95.6480153036824,4,1,0,88,0,0
104180,-91.5979081694816,4,1,0,88,0,0
104210,-90.6124668720431,4,1,0,88,0,0
104240,-89.6376272856054,4,1,0,88,0,0
104300,-87.719298245614,4,1,0,88,0,0
104414,-104.297037964122,4,1,0,88,0,0
104540,-101.412306005599,4,1,0,88,0,0
104570,-100.703677194827,4,1,0,88,0,0
104660,-110.49249784358,4,1,0,88,0,0
104780,-113.726715572791,4,1,0,88,0,0
104900,-117.055601849859,4,1,0,88,0,0
105020,-120.481927710843,4,1,0,88,0,0
105135,-83.3333333333333,4,1,0,88,0,0
105156,-80,4,1,0,88,0,0
105189,-55.5555555555556,4,1,0,88,0,0
105616,-100,4,1,0,88,0,0
106100,-100,4,1,0,88,0,0
106225,360.576923076923,4,1,0,88,1,8
106225,-68.7531401636916,4,1,0,88,0,0
106310,-70.4452896886394,4,1,0,88,0,0
106400,-72.463768115942,4,1,0,88,0,0
106490,-75.187969924812,4,1,0,88,0,0
106585,240,4,1,0,88,1,0
106585,-66.6666666666667,4,1,0,88,0,0
107056,-300.3003003003,4,1,0,88,0,0
107531,-93.4579439252336,4,1,0,88,0,0
108245,-100,4,1,0,88,0,0
108500,-87.719298245614,4,1,0,88,0,0
108548,-88.8762319670303,4,1,0,88,0,0
108596,-90.0484245386941,4,1,0,88,0,0
108692,-92.4385283786282,4,1,0,88,0,0
108788,-91.1049004127528,4,1,0,88,0,0
108836,-89.5720265930793,4,1,0,88,0,0
108884,-87.6501007976159,4,1,0,88,0,0
108932,-85.513383829436,4,1,0,88,0,0
108980,-83.3333333333333,4,1,0,88,0,0
109001,-66.6666666666667,4,1,0,88,0,0
109091,-100,4,1,0,88,0,0
109260,-99.8803713408002,4,1,0,88,0,0
109300,-99.525226420486,4,1,0,88,0,0
109340,-98.9455505807412,4,1,0,88,0,0
109400,-97.6949602658434,4,1,0,88,0,0
109460,-100,4,1,0,88,0,0
109520,-100.060026257501,4,1,0,88,0,0
109580,-100.239814960689,4,1,0,88,0,0
109640,-100.538486413872,4,1,0,88,0,0
109700,-100.954542997347,4,1,0,70,0,0
109796,-101.858727476276,4,1,0,70,0,0
109892,-103.044777413649,4,1,0,70,0,0
109988,-104.494153684707,4,1,0,70,0,0
110108,-103.709349556447,4,1,0,70,0,0
110228,-109.083979584821,4,1,0,70,0,0
110324,-111.111111111111,4,1,0,70,0,0
110410,-100,4,1,0,88,0,0
110480,-98.7011516874286,4,1,0,88,0,0
110540,-97.4191734442478,4,1,0,88,0,0
110600,-96.1538461538461,4,1,0,88,0,0
110655,-93.4579439252336,4,1,0,88,0,0
111140,-87.719298245614,4,1,0,88,0,0
111200,-88.6823554342258,4,1,0,88,0,0
111260,-89.6559858851308,4,1,0,88,0,0
111320,-90.6403056806105,4,1,0,88,0,0
111380,-91.6354321773964,4,1,0,88,0,0
111440,-92.6414840206622,4,1,0,88,0,0
111500,-93.6585811581694,4,1,0,88,0,0
111560,-94.6868448545682,4,1,0,88,0,0
111620,-95.7263977058556,4,1,0,88,0,0
111680,-96.7773636539916,4,1,0,88,0,0
111740,-97.8398680016769,4,1,0,88,0,0
111800,-98.9140374272918,4,1,0,88,0,0
111860,-100,4,1,0,88,0,0
111980,-98.1588883593915,4,1,0,88,0,0
112040,-96.061013286255,4,1,0,88,0,0
112100,-93.4579439252337,4,1,0,88,0,0
112160,-90.5989678676392,4,1,0,88,0,0
112220,-76.9230769230769,4,1,0,88,0,0
112319,-66.6666666666667,4,1,0,88,0,0
112568,-100,4,1,0,88,0,0
112640,-97.4672579404289,4,1,0,88,0,0
112700,-94.9986637042609,4,1,0,88,0,0
112760,-92.5925925925926,4,1,0,88,0,0
112808,-87.719298245614,4,1,0,88,0,0
112850,-87.3512867746524,4,1,0,88,0,0
112880,-86.9848192335383,4,1,0,88,0,0
112940,-86.2564900588412,4,1,0,88,0,0
113044,-84.818075680889,4,1,0,88,0,0
113090,-84.4622357982207,4,1,0,88,0,0
113120,-84.1078887815611,4,1,0,88,0,0
113291,-82.0128079691827,4,1,0,88,0,0
113340,-81.5543679022577,4,1,0,88,0,0
113380,-81.0984904508578,4,1,0,88,0,0
113420,-80.6451612903226,4,1,0,88,0,0
113540,-81.6171104072583,4,1,0,88,0,0
113600,-82.1074689672507,4,1,0,88,0,0
113660,-82.6007736192593,4,1,0,88,0,0
113700,-82.9312888415357,4,1,0,88,0,0
113740,-83.2631265733647,4,1,0,88,0,0
113780,-83.5962921065796,4,1,0,88,0,0
113840,-84.0985416620165,4,1,0,88,0,0
113900,-84.6038087510015,4,1,0,88,0,0
113960,-85.1121115029858,4,1,0,88,0,0
114020,-85.6234681563427,4,1,0,88,0,0
114080,-86.1378970590225,4,1,0,88,0,0
114140,-86.6554166692105,4,1,0,88,0,0
114200,-87.1760455559895,4,1,0,88,0,0
114260,-87.6998024000062,4,1,0,88,0,0
114300,-88.0507206591674,4,1,0,88,0,0
114340,-88.4030430677251,4,1,0,88,0,0
114380,-88.7567752441829,4,1,0,88,0,0
114440,-89.2900291695073,4,1,0,88,0,0
114500,-89.8264869037589,4,1,0,88,0,0
114560,-90.3661676955379,4,1,0,88,0,0
114620,-90.9090909090909,4,1,0,88,0,0
114737,-93.4579439252336,4,1,0,88,0,0
114752,-90.543167917847,4,1,0,88,0,0
114786,-76.9230769230769,4,1,0,88,0,0
115166,-100,4,1,0,88,0,0
115926,-87.719298245614,4,1,0,88,0,0
116120,-88.6506642909423,4,1,0,88,0,0
116180,-88.9633119987616,4,1,0,88,0,0
116240,-89.2770623332785,4,1,0,88,0,0
116300,-89.5919191831689,4,1,0,88,0,0
116360,-89.9078864508232,4,1,0,88,0,0
116420,-90.2249680523945,4,1,0,88,0,0
116540,-90.862489991005,4,1,0,88,0,0
116600,-91.1829382296015,4,1,0,88,0,0
116630,-91.3435859015461,4,1,0,88,0,0
116660,-91.5045166053275,4,1,0,88,0,0
116720,-91.8272291038812,4,1,0,88,0,0
116780,-92.1510797250171,4,1,0,88,0,0
116900,-92.802211404634,4,1,0,88,0,0
116940,-93.0202761062655,4,1,0,88,0,0
116980,-93.2388532117867,4,1,0,88,0,0
117020,-93.4579439252336,4,1,0,88,0,0
117134,-87.719298245614,4,1,0,88,0,0
117194,-88.506097171343,4,1,0,88,0,0
117254,-89.2999532961366,4,1,0,88,0,0
117314,-90.1009299195966,4,1,0,88,0,0
117374,-90.9090909090909,4,1,0,88,0,0
117434,-95.4619587959723,4,1,0,88,0,0
117494,-100.242841348803,4,1,0,88,0,0
117554,-105.263157894737,4,1,0,88,0,0
117614,-93.4579439252336,4,1,0,88,0,0
117654,-92.8828035510142,4,1,0,88,0,0
117694,-92.3112025918104,4,1,0,88,0,0
117734,-91.743119266055,4,1,0,88,0,0
117854,-91.743119266055,4,1,0,88,0,0
117894,-91.1854103343465,4,1,0,88,0,0
117934,-90.6344410876133,4,1,0,88,0,0
117974,-90.0900900900901,4,1,0,88,0,0
118090,-90.9829876664188,4,1,0,88,0,0
118220,-93.5817974046453,4,1,0,88,0,0
118300,-96.1365126777238,4,1,0,88,0,0
118400,-100,4,1,0,88,0,0
118557,-93.4579439252336,4,1,0,88,0,0
119060,-90.9090909090909,4,1,0,88,0,0
119120,-91.9725359401317,4,1,0,88,0,0
119180,-93.0484210398471,4,1,0,88,0,0
119240,-94.1368917308583,4,1,0,88,0,0
119300,-95.2380952380952,4,1,0,88,0,0
119420,-87.719298245614,4,1,0,88,0,0
119480,-89.1200490949614,4,1,0,88,0,0
119540,-90.543167917847,4,1,0,88,0,0
119600,-91.9890118985912,4,1,0,88,0,0
119660,-93.4579439252336,4,1,0,88,0,0
119780,-87.719298245614,4,1,0,88,0,0
119810,-86.2909670405217,4,1,0,88,0,0
119840,-84.8858933177877,4,1,0,88,0,0
119900,-82.1440096816907,4,1,0,88,0,0
119930,-80.8064607650173,4,1,0,88,0,0
119960,-79.4906911249026,4,1,0,88,0,0
120020,-76.9230769230769,4,1,0,88,0,0
120067,-50,4,1,0,88,0,0
120944,-66.6666666666667,4,1,0,88,0,0
121039,-100,4,1,0,88,0,0
121280,-99.8978818665977,4,1,0,88,0,0
121340,-99.599685171877,4,1,0,88,0,0
121400,-99.1289738729404,4,1,0,88,0,0
121460,-98.5221674876847,4,1,0,88,0,0
121520,-97.8248231254951,4,1,0,88,0,0
121580,-97.0873786407767,4,1,0,88,0,0
121700,-93.4579439252336,4,1,0,88,0,0
121760,-93.3922932772359,4,1,0,88,0,0
121820,-93.1991695531383,4,1,0,88,0,0
121880,-92.8897490046469,4,1,0,88,0,0
121940,-92.4816740165863,4,1,0,88,0,0
122000,-91.9977176469897,4,1,0,88,0,0
122060,-91.4641643072322,4,1,0,88,0,0
122120,-90.9090909090909,4,1,0,88,0,0
122300,-92.73974744876,4,1,0,88,0,0
122360,-93.3581220155072,4,1,0,88,0,0
122420,-93.9806198100539,4,1,0,88,0,0
122460,-94.3979225911505,4,1,0,88,0,0
122500,-94.8170783246052,4,1,0,88,0,0
122540,-95.2380952380952,4,1,0,88,0,0
122642,-100,4,1,0,88,0,0
122720,-98.3227587614212,4,1,0,88,0,0
122780,-96.6736489045664,4,1,0,88,0,0
122840,-95.0521985983001,4,1,0,88,0,0
122900,-93.4579439252336,4,1,0,88,0,0
123002,-98.0392156862745,4,1,0,88,0,0
123237,-102.040816326531,4,1,0,88,0,0
123492,-105.263157894737,4,1,0,88,0,0
123616,-108.695652173913,4,1,0,88,0,0
123849,-100,4,1,0,88,0,0
123900,-99.2747082370917,4,1,0,88,0,0
123980,-97.8398680016769,4,1,0,88,0,0
124040,-96.7773636539916,4,1,0,88,0,0
124100,-95.7263977058556,4,1,0,88,0,0
124160,-94.6868448545682,4,1,0,88,0,0
124220,-93.6585811581694,4,1,0,88,0,0
124280,-92.6414840206622,4,1,0,88,0,0
124340,-91.6354321773964,4,1,0,88,0,0
124380,-90.9708079359083,4,1,0,88,0,0
124420,-90.311004159298,4,1,0,88,0,0
124460,-89.6559858851308,4,1,0,88,0,0
124500,-89.0057184045517,4,1,0,88,0,0
124540,-88.3601672604461,4,1,0,88,0,0
124580,-87.719298245614,4,1,0,88,0,0
124799,-93.4579439252336,4,1,0,88,0,0
124880,-95.0521985983001,4,1,0,88,0,0
124940,-96.6736489045664,4,1,0,88,0,0
125000,-98.3227587614212,4,1,0,88,0,0
125060,-100,4,1,0,88,0,0
125517,-93.4579439252336,4,1,0,88,0,0
126239,-91.743119266055,4,1,0,88,0,0
126355,-90.0900900900901,4,1,0,88,0,0
126491,-87.719298245614,4,1,0,88,0,0
126728,-92.2532404490442,4,1,0,88,0,0
126860,-96.0485504570705,4,1,0,88,0,0
126920,-98.0043623810035,4,1,0,88,0,0
126980,-100,4,1,0,88,0,0
127220,-106.382978723404,4,1,0,88,0,0
127280,-104.750018852321,4,1,0,88,0,0
127340,-103.142124625879,4,1,0,88,0,0
127400,-101.558911290876,4,1,0,88,0,0
127460,-100,4,1,0,88,0,0
127571,-103.905631809789,4,1,0,88,0,0
127693,-107.963803217915,4,1,0,88,0,0
127787,-111.111111111111,4,1,0,88,0,0
127940,-111.111111111111,4,1,0,88,0,0
128060,-107.609113378759,4,1,0,88,0,0
128120,-103.979108202104,4,1,0,88,0,0
128180,-100,4,1,0,88,0,0
128288,-104.304488151063,4,1,0,88,0,0
128463,-111.111111111111,4,1,0,88,0,0
128653,-93.4579439252336,4,1,0,88,0,0
128882,-100,4,1,0,88,0,0
129250,-93.4579439252336,4,1,0,88,0,0
129449,-100,4,1,0,88,0,0
129617,-95.2380952380952,4,1,0,88,0,0
129680,-94.2640851324961,4,1,0,88,0,0
129740,-93.3000363315979,4,1,0,88,0,0
129800,-92.3458469600806,4,1,0,88,0,0
129860,-91.4014161845136,4,1,0,88,0,0
129890,-90.9328290420318,4,1,0,88,0,0
129980,-89.5414322331335,4,1,0,88,0,0
130010,-89.0823806602437,4,1,0,88,0,0
130100,-87.719298245614,4,1,0,88,0,0
130140,-88.3181263426984,4,1,0,88,0,0
130180,-88.9210424238072,4,1,0,88,0,0
130220,-89.5280743961368,4,1,0,88,0,0
130260,-90.1392503573963,4,1,0,88,0,0
130300,-90.7545985971074,4,1,0,88,0,0
130338,-93.4579439252336,4,1,0,88,0,0
130568,-83.3333333333333,4,1,0,88,0,0
130690,-81.3008130081301,4,1,0,88,0,0
130816,-83.3333333333333,4,1,0,88,0,0
130872,-81.3008130081301,4,1,0,88,0,0
130910,-79.3650793650794,4,1,0,88,0,0
131044,-83.3333333333333,4,1,0,88,0,0
131095,-81.3008130081301,4,1,0,88,0,0
131160,-79.3650793650794,4,1,0,88,0,0
131216,-77.5193798449612,4,1,0,88,0,0
131275,-75.7575757575758,4,1,0,88,0,0
131516,-71.4285714285714,4,1,0,88,0,0
131668,-100,4,1,0,88,0,0
132253,-76.9230769230769,4,1,0,88,0,0
132475,-87.719298245614,4,1,0,88,0,0
132547,-88.506097171343,4,1,0,88,0,0
132607,-89.2999532961366,4,1,0,88,0,0
132667,-90.1009299195966,4,1,0,88,0,0
132727,-90.9090909090909,4,1,0,88,0,0
132787,-95.4619587959723,4,1,0,88,0,0
132847,-100.242841348803,4,1,0,88,0,0
132907,-105.263157894737,4,1,0,88,0,0
132967,-93.4579439252336,4,1,0,88,0,0
133010,-94.0532876823615,4,1,0,88,0,0
133100,-95.8621704168057,4,1,0,88,0,0
133160,-95.2380952380952,4,1,0,88,0,0
133209,-93.4579439252336,4,1,0,88,0,0
133336,-91.9890118985912,4,1,0,88,0,0
133460,-92.5925925925926,4,1,0,88,0,0
133520,-91.743119266055,4,1,0,88,0,0
133580,-89.1200490949614,4,1,0,88,0,0
133700,-87.719298245614,4,1,0,88,0,0
133730,-87.6968423672021,4,1,0,88,0,0
133940,-86.3314046043063,4,1,0,88,0,0
133970,-85.9789784036222,4,1,0,88,0,0
134000,-85.5927991011609,4,1,0,88,0,0
134180,-82.7054856305205,4,1,0,88,0,0
134210,-82.1540158768815,4,1,0,88,0,0
134240,-81.589740689143,4,1,0,88,0,0
134300,-80.4334903070483,4,1,0,88,0,0
134330,-79.8467254986059,4,1,0,88,0,0
134360,-79.2575473975695,4,1,0,88,0,0
134420,-78.081437197458,4,1,0,88,0,0
134571,-76.9230769230769,4,1,0,30,0,0
135349,-150.15015015015,4,1,0,30,0,0
135843,-150.15015015015,4,1,0,60,0,0
136281,-133.333333333333,4,1,0,88,0,0
136355,-100,4,1,0,88,0,0
137300,-100,4,1,0,88,0,0
137330,-100.522495326524,4,1,0,88,0,0
137420,-102.106418519375,4,1,0,88,0,0
137480,-103.17620856824,4,1,0,88,0,0
137540,-104.257207028537,4,1,0,88,0,0
137600,-105.34953133311,4,1,0,88,0,0
137660,-106.453300145169,4,1,0,88,0,0
137700,-107.195563241107,4,1,0,88,0,0
137740,-107.943001888228,4,1,0,88,0,0
137780,-108.695652173913,4,1,0,88,0,0
137995,-104.257207028537,4,1,0,88,0,0
138080,-103.17620856824,4,1,0,88,0,0
138140,-102.106418519375,4,1,0,88,0,0
138200,-101.04772066671,4,1,0,88,0,0
138260,-100,4,1,0,88,0,0
138500,-90.9090909090909,4,1,0,88,0,0
138540,-91.634012766264,4,1,0,88,0,0
138620,-93.1012444622223,4,1,0,88,0,0
138660,-93.8436468596697,4,1,0,88,0,0
138740,-95.3462589245592,4,1,0,88,0,0
138780,-96.1065633825943,4,1,0,88,0,0
138860,-97.6454089676311,4,1,0,88,0,0
138900,-98.4240471709767,4,1,0,88,0,0
138980,-100,4,1,0,88,0,0
139040,-99.263753614514,4,1,0,88,0,0
139100,-98.5329278164293,4,1,0,88,0,0
139160,-97.8074826968673,4,1,0,88,0,0
139220,-97.0873786407767,4,1,0,88,0,0
139454,-103.092783505155,4,1,0,88,0,0
139520,-99.8163402120225,4,1,0,88,0,0
139580,-96.6440272012256,4,1,0,88,0,0
139640,-93.5725350562016,4,1,0,88,0,0
139700,-90.5986595386109,4,1,0,88,0,0
139730,-89.1473546254753,4,1,0,88,0,0
139760,-87.719298245614,4,1,0,88,0,0
139789,-71.4285714285714,4,1,0,88,0,0
140156,-100,4,1,0,88,0,0
140293,-87.719298245614,4,1,0,88,0,0
140340,-88.2578308627386,4,1,0,88,0,0
140420,-89.3448349890226,4,1,0,88,0,0
140480,-90.1688648431119,4,1,0,88,0,0
140540,-91.0004947470588,4,1,0,88,0,0
140600,-91.8397947963306,4,1,0,88,0,0
140660,-92.6868357328874,4,1,0,88,0,0
140720,-93.541688951144,4,1,0,88,0,0
140780,-94.404426503988,4,1,0,88,0,0
140820,-94.984000940744,4,1,0,88,0,0
140860,-95.5671335425159,4,1,0,88,0,0
140900,-96.1538461538461,4,1,0,88,0,0
141009,-100,4,1,0,88,0,0
141126,-96.1538461538461,4,1,0,88,0,0
141200,-96.0473736527263,4,1,0,88,0,0
141260,-95.7334265471309,4,1,0,88,0,0
141320,-95.2279536186736,4,1,0,88,0,0
141380,-94.5560674450582,4,1,0,88,0,0
141410,-94.1675977226023,4,1,0,88,0,0
141500,-92.8471490370256,4,1,0,88,0,0
141560,-91.8868859363481,4,1,0,88,0,0
141620,-90.9090909090909,4,1,0,88,0,0
141740,-93.1012444622223,4,1,0,88,0,0
141800,-94.2170651246033,4,1,0,88,0,0
141860,-95.3462589245592,4,1,0,88,0,0
141920,-96.4889861394669,4,1,0,88,0,0
141980,-97.6454089676311,4,1,0,88,0,0
142020,-98.4240471709767,4,1,0,88,0,0
142060,-99.2088943446991,4,1,0,88,0,0
142100,-100,4,1,0,88,0,0
142820,-104.257207028537,4,1,0,88,0,0
142860,-105.716176762919,4,1,0,88,0,0
142900,-107.195563241107,4,1,0,88,0,0
142940,-108.695652173913,4,1,0,88,0,0
143048,-100,4,1,0,88,0,0
143120,-98.8156915513073,4,1,0,88,0,0
143180,-97.6454089676311,4,1,0,88,0,0
143240,-96.4889861394669,4,1,0,88,0,0
143300,-95.3462589245592,4,1,0,88,0,0
143360,-94.2170651246033,4,1,0,88,0,0
143420,-93.1012444622223,4,1,0,88,0,0
143480,-91.9986385582181,4,1,0,88,0,0
143540,-90.9090909090909,4,1,0,88,0,0
143632,-100,4,1,0,88,0,0
143977,-87.719298245614,4,1,0,88,0,0
144133,-100,4,1,0,88,0,0
144734,-93.4579439252336,4,1,0,88,0,0
144980,-93.4579439252336,4,1,0,88,0,0
145100,-92.0747769750306,4,1,0,88,0,0
145160,-91.3908890587019,4,1,0,88,0,0
145220,-90.7120807385174,4,1,0,88,0,0
145280,-90.0383142856383,4,1,0,88,0,0
145340,-89.3695522514576,4,1,0,88,0,0
145400,-88.7057574655191,4,1,0,88,0,0
145460,-88.046893033451,4,1,0,88,0,0
145490,-87.719298245614,4,1,0,88,0,0
145521,-71.4285714285714,4,1,0,88,0,0
145911,-100,4,1,0,88,0,0
146060,-98.375486608195,4,1,0,88,0,0
146120,-97.5731532857255,4,1,0,88,0,0
146140,-97.7517106549365,4,1,0,88,0,0
146180,-96.7773636539916,4,1,0,88,0,0
146240,-95.9880643437925,4,1,0,88,0,0
146260,-95.7263977058556,4,1,0,88,0,0
146300,-95.2052024211967,4,1,0,88,0,0
146360,-94.4287253839932,4,1,0,88,0,0
146420,-93.6585811581694,4,1,0,88,0,0
146480,-92.8947180944195,4,1,0,88,0,0
146500,-92.6414840206622,4,1,0,88,0,0
146540,-92.1370849646804,4,1,0,88,0,0
146620,-91.1365107063797,4,1,0,88,0,0
146740,-89.6559858851308,4,1,0,88,0,0
146900,-87.719298245614,4,1,0,88,0,0
147020,-89.9712134988645,4,1,0,88,0,0
147080,-91.1187582982073,4,1,0,88,0,0
147140,-92.2809395464241,4,1,0,88,0,0
147200,-93.4579439252336,4,1,0,88,0,0
147248,-87.719298245614,4,1,0,88,0,0
147376,-90.543167917847,4,1,0,88,0,0
147410,-91.2632267177255,4,1,0,88,0,0
147620,-87.719298245614,4,1,0,88,0,0
147740,-91.5045166053275,4,1,0,88,0,0
147800,-93.4579439252336,4,1,0,88,0,0
147858,-87.719298245614,4,1,0,88,0,0
147980,-88.3481748259236,4,1,0,88,0,0
148010,-88.506097171343,4,1,0,88,0,0
148100,-88.9815599438204,4,1,0,88,0,0
148130,-89.1406144650156,4,1,0,88,0,0
148220,-89.6194859218806,4,1,0,88,0,0
148280,-89.9401618975944,4,1,0,88,0,0
148340,-90.261985314407,4,1,0,88,0,0
148400,-90.5849602780862,4,1,0,88,0,0
148460,-90.9090909090909,4,1,0,88,0,0
148566,-93.8436468596697,4,1,0,88,0,0
148674,-96.8729306151464,4,1,0,88,0,0
148803,-100,4,1,0,88,0,0
149290,-97.0873786407767,4,1,0,88,0,0
149314,-96.1538461538461,4,1,0,88,0,0
149395,-100,4,1,0,88,0,0
149660,-90.9090909090909,4,1,0,88,0,0
149690,-91.7796893433534,4,1,0,88,0,0
149780,-94.4418289321895,4,1,0,88,0,0
149900,-98.1118495726264,4,1,0,88,0,0
149960,-100,4,1,0,88,0,0
150018,-90.9090909090909,4,1,0,88,0,0
150048,-91.7796893433534,4,1,0,88,0,0
150138,-94.4418289321895,4,1,0,88,0,0
150235,-98.116169544741,4,1,0,88,0,0
150300,-97.4819695106465,4,1,0,88,0,0
150340,-96.8665597980065,4,1,0,88,0,0
150380,-96.279720931207,4,1,0,88,0,0
150440,-95.4724147461355,4,1,0,88,0,0
150500,-94.7758576310032,4,1,0,88,0,0
150530,-94.4760843406254,4,1,0,88,0,0
150560,-94.2117562856768,4,1,0,88,0,0
150620,-93.7969207150042,4,1,0,88,0,0
150680,-93.5432788036604,4,1,0,88,0,0
150740,-87.719298245614,4,1,0,88,0,0
151687,-100,4,1,0,88,0,0
152660,-100,4,1,0,88,0,0
152690,-100.522495326524,4,1,0,88,0,0
152780,-102.106418519375,4,1,0,88,0,0
152840,-103.17620856824,4,1,0,88,0,0
152900,-104.257207028537,4,1,0,88,0,0
152960,-105.34953133311,4,1,0,88,0,0
153020,-106.453300145169,4,1,0,88,0,0
153060,-107.195563241107,4,1,0,88,0,0
153100,-107.943001888228,4,1,0,88,0,0
153140,-108.695652173913,4,1,0,88,0,0
153355,-104.257207028537,4,1,0,88,0,0
153440,-103.17620856824,4,1,0,88,0,0
153500,-102.106418519375,4,1,0,88,0,0
153560,-101.04772066671,4,1,0,88,0,0
153620,-100,4,1,0,88,0,0
153860,-100,4,1,0,88,0,0
153920,-99.1901278760239,4,1,0,88,0,0
153980,-98.3868146806197,4,1,0,88,0,0
154040,-97.5900072948533,4,1,0,88,0,0
154100,-96.799653029986,4,1,0,88,0,0
154160,-96.0156996239906,4,1,0,88,0,0
154220,-95.2380952380952,4,1,0,88,0,0
154340,-87.719298245614,4,1,0,88,0,0
154370,-87.7467540475166,4,1,0,88,0,0
154460,-88.1578435907886,4,1,0,88,0,0
154490,-88.4038103840435,4,1,0,88,0,0
154580,-89.4634034145743,4,1,0,88,0,0
154640,-90.7999027602125,4,1,0,88,0,0
154676,-92.4891445685737,4,1,0,88,0,0
154760,-92.9636108417267,4,1,0,88,0,0
154820,-94.5038362679245,4,1,0,88,0,0
154880,-96.2054124438302,4,1,0,88,0,0
154940,-98.0465136767958,4,1,0,88,0,0
155000,-100,4,1,0,88,0,0
155060,-90.0900900900901,4,1,0,88,0,0
155300,-93.4579439252336,4,1,0,88,0,0
155360,-95.0521985983001,4,1,0,88,0,0
155420,-96.6736489045664,4,1,0,88,0,0
155480,-98.3227587614212,4,1,0,88,0,0
155516,-100,4,1,0,88,0,0
155580,-98.4240471709767,4,1,0,88,0,0
155620,-96.8729306151464,4,1,0,88,0,0
155653,-95.3462589245592,4,1,0,88,0,0
155700,-93.8436468596697,4,1,0,88,0,0
155740,-92.3647152521261,4,1,0,88,0,0
155780,-90.9090909090909,4,1,0,88,0,0
155889,-93.4579439252336,4,1,0,88,0,0
156011,-95.2380952380952,4,1,0,88,0,0
156109,-97.0873786407767,4,1,0,88,0,0
156237,-100,4,1,0,88,0,0
156369,-105.263157894737,4,1,0,88,0,0
156980,-100,4,1,0,88,0,0
156997,-97.0873786407767,4,1,0,88,0,0
157031,-76.9230769230769,4,1,0,88,0,0
157460,-100,4,1,0,88,0,0
158420,-100,4,1,0,88,0,0
158480,-98.8156915513073,4,1,0,88,0,0
158540,-96.7773636539916,4,1,0,88,0,0
158580,-95.7263977058556,4,1,0,88,0,0
158600,-94.6868448545682,4,1,0,88,0,0
158660,-93.6585811581694,4,1,0,88,0,0
158720,-92.1370849646804,4,1,0,88,0,0
158780,-90.6403056806105,4,1,0,88,0,0
158840,-89.167841776456,4,1,0,88,0,0
158900,-87.719298245614,4,1,0,88,0,0
159191,-120.481927710843,4,1,0,88,0,0
159337,-100,4,1,0,88,0,0
159860,-100,4,1,0,88,0,0
159980,-99.4699808987028,4,1,0,88,0,0
160094,-97.9909383065393,4,1,0,88,0,0
160140,-97.3343338034057,4,1,0,88,0,0
160180,-96.6183574879227,4,1,0,88,0,0
160220,-95.8577783693162,4,1,0,88,0,0
160280,-94.6661603925712,4,1,0,88,0,0
160340,-87.719298245614,4,1,0,88,0,0
160460,-89.1200490949614,4,1,0,88,0,0
160520,-89.8287903183153,4,1,0,88,0,0
160580,-90.543167917847,4,1,0,88,0,0
160640,-91.2632267177255,4,1,0,88,0,0
160700,-91.9890118985912,4,1,0,88,0,0
160760,-92.7205690003906,4,1,0,88,0,0
160820,-93.4579439252336,4,1,0,88,0,0
161026,-100,4,1,0,88,0,0
161780,-93.4579439252336,4,1,0,88,0,0
162050,-93.8539830795876,4,1,0,88,0,0
162080,-94.2517004969677,4,1,0,88,0,0
162140,-95.0521985983001,4,1,0,88,0,0
162200,-95.8594954863585,4,1,0,88,0,0
162260,-96.6736489045664,4,1,0,88,0,0
162320,-97.4947170867735,4,1,0,88,0,0
162380,-98.3227587614212,4,1,0,88,0,0
162440,-99.1578331557428,4,1,0,88,0,0
162500,-100,4,1,0,88,0,0
162520,-99.5156027714693,4,1,0,88,0,0
162620,-97.1285862357264,4,1,0,88,0,0
162680,-95.7239477517603,4,1,0,88,0,0
162740,-94.3396226415094,4,1,0,88,0,0
162860,-100,4,1,0,88,0,0
162880,-99.5156027714693,4,1,0,88,0,0
162980,-97.1285862357264,4,1,0,88,0,0
163040,-95.7239477517603,4,1,0,88,0,0
163100,-94.3396226415094,4,1,0,88,0,0
163218,-87.719298245614,4,1,0,88,0,0
163340,-93.4579439252336,4,1,0,88,0,0
163580,-87.719298245614,4,1,0,88,0,0
163640,-93.4579439252336,4,1,0,88,0,0
163820,-93.4579439252336,4,1,0,88,0,0
163926,-95.5896375485674,4,1,0,88,0,0
164000,-96.6736489045664,4,1,0,88,0,0
164034,-97.7699532313315,4,1,0,88,0,0
164120,-98.8786899343491,4,1,0,88,0,0
164163,-100,4,1,0,88,0,0
164300,-96.8729306151464,4,1,0,88,0,0
164420,-93.8436468596697,4,1,0,88,0,0
164540,-90.9090909090909,4,1,0,88,0,0
164657,-96.1538461538461,4,1,0,88,0,0
164897,-87.719298245614,4,1,0,88,0,0
165020,-90.0484245386941,4,1,0,88,0,0
165140,-92.4393938856702,4,1,0,88,0,0
165200,-93.6585811581694,4,1,0,88,0,0
165260,-94.893848345767,4,1,0,88,0,0
165320,-96.1454075271774,4,1,0,88,0,0
165378,-97.4134735782309,4,1,0,88,0,0
165408,-98.6982642087645,4,1,0,88,0,0
165498,-100,4,1,0,88,0,0
165540,-99.8359265045808,4,1,0,88,0,0
165580,-99.3486977768809,4,1,0,88,0,0
165620,-98.5529426965205,4,1,0,88,0,0
165660,-97.4719326022543,4,1,0,88,0,0
165700,-96.1360629359218,4,1,0,88,0,0
165740,-94.5809913964336,4,1,0,88,0,0
165860,-88.9945412850507,4,1,0,88,0,0
165890,-87.4698992667873,4,1,0,88,0,0
165920,-85.9252063124662,4,1,0,88,0,0
165950,-84.3743033903456,4,1,0,88,0,0
165980,-82.8298039362408,4,1,0,88,0,0
166010,-81.3030345743374,4,1,0,88,0,0
166040,-79.8040229950673,4,1,0,88,0,0
166070,-78.3415242658084,4,1,0,88,0,0
166100,-76.9230769230769,4,1,0,88,0,0
166166,-76.9230769230769,4,1,0,30,0,0
167013,-100,4,1,0,88,0,0
167420,-100,4,1,0,88,0,0
167480,-99.0289422286862,4,1,0,88,0,0
167540,-98.0673139893248,4,1,0,88,0,0
167600,-97.1150237157128,4,1,0,88,0,0
167660,-96.1719807308081,4,1,0,88,0,0
167720,-95.2380952380952,4,1,0,88,0,0
167773,-87.719298245614,4,1,0,88,0,0
168020,-90.6403056806105,4,1,0,88,0,0
168080,-92.1370849646804,4,1,0,88,0,0
168140,-93.6585811581694,4,1,0,88,0,0
168200,-95.2052024211968,4,1,0,88,0,0
168260,-96.7773636539916,4,1,0,88,0,0
168300,-97.8398680016769,4,1,0,88,0,0
168340,-98.9140374272918,4,1,0,88,0,0
168380,-100,4,1,0,88,0,0
168488,-83.3333333333333,4,1,0,88,0,0
168980,-96.4192504002627,4,1,0,88,0,0
169010,-98.1933044561913,4,1,0,88,0,0
169040,-100,4,1,0,88,0,0
169225,-93.4579439252336,4,1,0,88,0,0
169280,-92.9657119399635,4,1,0,88,0,0
169300,-92.802211404634,4,1,0,88,0,0
169340,-92.4760724825958,4,1,0,88,0,0
169460,-91.5045166053275,4,1,0,88,0,0
169520,-91.0225730917205,4,1,0,88,0,0
169540,-90.862489991005,4,1,0,88,0,0
169580,-90.543167917847,4,1,0,88,0,0
169640,-90.0662877145708,4,1,0,88,0,0
169700,-89.5919191831689,4,1,0,88,0,0
169760,-89.1200490949614,4,1,0,88,0,0
169820,-88.6506642909422,4,1,0,88,0,0
169880,-88.1837516814122,4,1,0,88,0,0
169940,-87.719298245614,4,1,0,88,0,0
170060,-88.2430498391853,4,1,0,88,0,0
170120,-88.506097171343,4,1,0,88,0,0
170180,-88.7699286320988,4,1,0,88,0,0
170240,-89.0345465588937,4,1,0,88,0,0
170300,-89.2999532961366,4,1,0,88,0,0
170330,-89.4329532032143,4,1,0,88,0,0
170420,-89.8331426145661,4,1,0,88,0,0
170500,-90.1903696279495,4,1,0,88,0,0
170580,-90.5490171765093,4,1,0,88,0,0
170660,-90.9090909090909,4,1,0,88,0,0
170720,-93.1012444622223,4,1,0,88,0,0
170780,-95.3462589245592,4,1,0,88,0,0
170840,-97.6454089676311,4,1,0,88,0,0
170900,-100,4,1,0,88,0,0
171010,-93.4579439252336,4,1,0,88,0,0
171130,-90.9090909090909,4,1,0,88,0,0
171223,-100,4,1,0,88,0,0
171369,-93.4579439252336,4,1,0,88,0,0
171500,-90.9090909090909,4,1,0,88,0,0
171560,-91.634012766264,4,1,0,88,0,0
171620,-92.3647152521261,4,1,0,88,0,0
171680,-93.1012444622223,4,1,0,88,0,0
171740,-93.8436468596697,4,1,0,88,0,0
171800,-94.5919692780892,4,1,0,88,0,0
171860,-95.3462589245592,4,1,0,88,0,0
171920,-96.1065633825943,4,1,0,88,0,0
171980,-96.8729306151464,4,1,0,88,0,0
172020,-97.3872341700277,4,1,0,88,0,0
172060,-97.9042681899096,4,1,0,88,0,0
172100,-98.4240471709767,4,1,0,88,0,0
172160,-99.2088943446991,4,1,0,88,0,0
172220,-100,4,1,0,88,0,0
172321,-87.719298245614,4,1,0,88,0,0
172367,-76.9230769230769,4,1,0,88,0,0
172808,-100,4,1,0,88,0,0
173533,-93.4579439252336,4,1,0,88,0,0
173580,-92.8854257793878,4,1,0,88,0,0
173600,-92.6004832576937,4,1,0,88,0,0
173660,-91.750889645275,4,1,0,88,0,0
173700,-91.1888288186272,4,1,0,88,0,0
173720,-90.9090909090909,4,1,0,88,0,0
173775,-87.719298245614,4,1,0,88,0,0
173840,-88.4406044003922,4,1,0,88,0,0
173900,-89.167841776456,4,1,0,88,0,0
173960,-89.9010591455867,4,1,0,88,0,0
174020,-90.6403056806105,4,1,0,88,0,0
174140,-92.1370849646804,4,1,0,88,0,0
174200,-92.8947180944195,4,1,0,88,0,0
174260,-93.6585811581694,4,1,0,88,0,0
174320,-94.4287253839932,4,1,0,88,0,0
174380,-95.2052024211968,4,1,0,88,0,0
174500,-96.7773636539916,4,1,0,88,0,0
174560,-97.5731532857255,4,1,0,88,0,0
174620,-98.375486608195,4,1,0,88,0,0
174680,-99.1844174294506,4,1,0,88,0,0
174740,-100,4,1,0,88,0,0
175460,-92.5925925925926,4,1,0,88,0,0
175520,-94.0672442753581,4,1,0,88,0,0
175580,-95.5653816120467,4,1,0,88,0,0
175640,-97.0873786407767,4,1,0,88,0,0
175695,-87.719298245614,4,1,0,88,0,0
175819,-90.9090909090909,4,1,0,88,0,0
175937,-93.4579439252336,4,1,0,88,0,0
176058,-96.1538461538461,4,1,0,88,0,0
176177,-87.719298245614,4,1,0,88,0,0
176210,-88.0554947724718,4,1,0,88,0,0
176300,-89.0718352480732,4,1,0,88,0,0
176360,-89.7559042657101,4,1,0,88,0,0
176420,-90.4452269128427,4,1,0,88,0,0
176480,-91.1398435371876,4,1,0,88,0,0
176540,-91.8397947963306,4,1,0,88,0,0
176600,-92.5451216601067,4,1,0,88,0,0
176660,-93.2558654129979,4,1,0,88,0,0
176780,-94.6937703118066,4,1,0,88,0,0
176840,-95.4210156217649,4,1,0,88,0,0
176900,-96.1538461538461,4,1,0,88,0,0
177140,-97.0873786407767,4,1,0,88,0,0
177170,-98.5329278164293,4,1,0,88,0,0
177200,-100,4,1,0,88,0,0
177260,-101.534616513362,4,1,0,88,0,0
177320,-103.092783505155,4,1,0,88,0,0
177380,-100.594735922575,4,1,0,88,0,0
177440,-98.1572186847253,4,1,0,88,0,0
177500,-95.7787650770981,4,1,0,88,0,0
177560,-93.4579439252336,4,1,0,88,0,0
177606,-87.719298245614,4,1,0,88,0,0
177650,-87.3482508102188,4,1,0,88,0,0
177680,-86.9787728834957,4,1,0,88,0,0
177740,-86.2444990284335,4,1,0,88,0,0
177770,-85.879689906365,4,1,0,88,0,0
177800,-85.5164239052728,4,1,0,88,0,0
177860,-84.7944951843864,4,1,0,88,0,0
177920,-84.0786609779129,4,1,0,88,0,0
177980,-83.3688698360281,4,1,0,88,0,0
178040,-82.6650707432462,4,1,0,88,0,0
178100,-81.9672131147541,4,1,0,88,0,0
178156,-76.9230769230769,4,1,0,88,0,0
178553,-100,4,1,0,88,0,0
178700,-103.056068084713,4,1,0,88,0,0
178760,-104.618949071864,4,1,0,88,0,0
178820,-106.20553169081,4,1,0,88,0,0
178880,-107.816175385012,4,1,0,88,0,0
178940,-109.451245049013,4,1,0,88,0,0
179000,-111.111111111111,4,1,0,88,0,0
179056,-76.9230769230769,4,1,0,88,0,0
179285,-100,4,1,0,88,0,0
179412,-66.6666666666667,4,1,0,88,0,0
179520,-110.064241629821,4,1,0,88,0,0
180002,-133.333333333333,4,1,0,88,0,0
180042,-128.205128205128,4,1,0,88,0,0
180069,-50,4,1,0,88,0,0
180475,-100,4,1,0,88,0,0
180770,-97.0948976892141,4,1,0,88,0,0
180920,-95.5175780734935,4,1,0,88,0,0
181040,-94.2741915727896,4,1,0,88,0,0
181160,-93.0469906791887,4,1,0,88,0,0
181250,-92.1370849646804,4,1,0,88,0,0
181340,-91.2360772102593,4,1,0,88,0,0
181400,-90.6403056806105,4,1,0,88,0,0
181460,-90.0484245386941,4,1,0,88,0,0
181520,-89.4604083802808,4,1,0,88,0,0
181580,-88.8762319670303,4,1,0,88,0,0
181620,-88.488901827879,4,1,0,88,0,0
181660,-88.103259706248,4,1,0,88,0,0
181700,-87.719298245614,4,1,0,88,0,0
181940,-83.3333333333333,4,1,0,88,0,0
181980,-84.0487940371834,4,1,0,88,0,0
182020,-84.7703973492584,4,1,0,88,0,0
182060,-85.4981960070962,4,1,0,88,0,0
182100,-86.2322432010139,4,1,0,88,0,0
182140,-86.9725925779959,4,1,0,88,0,0
182180,-87.719298245614,4,1,0,88,0,0
182411,-100,4,1,0,88,0,0
183113,-76.9230769230769,4,1,0,88,0,0
183355,-88.5548807652176,4,1,0,88,0,0
183440,-90.3671152819964,4,1,0,88,0,0
183500,-92.2164363366987,4,1,0,88,0,0
183560,-94.1036028881028,4,1,0,88,0,0
183620,-96.0293894267264,4,1,0,88,0,0
183660,-97.3350922970171,4,1,0,88,0,0
183700,-98.6585486904288,4,1,0,88,0,0
183740,-100,4,1,0,88,0,0
183846,-87.719298245614,4,1,0,88,0,0
184246,-76.9230769230769,4,1,0,88,0,0
184522,-95.2380952380952,4,1,0,88,0,0
184660,-98.3868146806197,4,1,0,88,0,0
184700,-100,4,1,0,88,0,0
184803,-87.719298245614,4,1,0,88,0,0
184850,-88.0331749797248,4,1,0,88,0,0
184880,-88.3481748259236,4,1,0,88,0,0
184940,-88.9815599438204,4,1,0,88,0,0
185000,-89.6194859218806,4,1,0,88,0,0
185060,-90.261985314407,4,1,0,88,0,0
185120,-90.9090909090909,4,1,0,88,0,0
185180,-86.9565217391304,4,1,0,88,0,0
185210,-87.2649101381467,4,1,0,88,0,0
185240,-87.5743922263164,4,1,0,88,0,0
185300,-88.1966529988002,4,1,0,88,0,0
185360,-88.8233352518004,4,1,0,88,0,0
185420,-89.4544704021938,4,1,0,88,0,0
185480,-90.0900900900901,4,1,0,88,0,0
185540,-86.2068965517241,4,1,0,88,0,0
185570,-86.33138380153,4,1,0,88,0,0
185600,-86.4560508174101,4,1,0,88,0,0
185660,-86.7059251861341,4,1,0,88,0,0
185720,-86.9565217391304,4,1,0,88,0,0
185763,-76.9230769230769,4,1,0,88,0,0
185836,-71.4285714285714,4,1,0,88,0,0
186228,-87.719298245614,4,1,0,88,0,0
186300,-88.2316199773901,4,1,0,88,0,0
186340,-88.7469339077144,4,1,0,88,0,0
186380,-89.2652575124257,4,1,0,88,0,0
186440,-90.0484245386941,4,1,0,88,0,0
186500,-90.8384626658603,4,1,0,88,0,0
186540,-91.3690017768157,4,1,0,88,0,0
186580,-91.9026394843345,4,1,0,88,0,0
186620,-92.4393938856702,4,1,0,88,0,0
186680,-93.2504091365859,4,1,0,88,0,0
186740,-94.0685398142647,4,1,0,88,0,0
186780,-94.6179440866103,4,1,0,88,0,0
186820,-95.1705571368859,4,1,0,88,0,0
186860,-95.7263977058556,4,1,0,88,0,0
186920,-96.5662514218016,4,1,0,88,0,0
186980,-97.4134735782309,4,1,0,88,0,0
187020,-97.9824138283249,4,1,0,88,0,0
187060,-98.5546769555968,4,1,0,88,0,0
187100,-99.1302823672036,4,1,0,88,0,0
187160,-100,4,1,0,88,0,0
187670,-76.9230769230769,4,1,0,88,0,0
187808,-100,4,1,0,88,0,0
188180,-90.9090909090909,4,1,0,88,0,0
188220,-91.7380438484782,4,1,0,88,0,0
188260,-92.5745555805985,4,1,0,88,0,0
188300,-93.4186950301696,4,1,0,88,0,0
188360,-94.6993584956484,4,1,0,88,0,0
188420,-95.9975783925382,4,1,0,88,0,0
188460,-96.8729306151464,4,1,0,88,0,0
188500,-97.7562647215318,4,1,0,88,0,0
188540,-98.6476534943607,4,1,0,88,0,0
188600,-100,4,1,0,88,0,0
188653,-87.719298245614,4,1,0,88,0,0
188780,-93.4579439252336,4,1,0,88,0,0
188840,-91.5899178381526,4,1,0,88,0,0
188900,-89.7592296307152,4,1,0,88,0,0
188960,-87.9651329978959,4,1,0,88,0,0
189020,-86.2068965517241,4,1,0,88,0,0
189140,-90.9090909090909,4,1,0,88,0,0
189200,-88.952912966687,4,1,0,88,0,0
189260,-87.0388279778489,4,1,0,88,0,0
189320,-85.1659301881964,4,1,0,88,0,0
189380,-83.3333333333333,4,1,0,88,0,0
189500,-90.9090909090909,4,1,0,88,0,0
189560,-92.6084733220795,4,1,0,88,0,0
189620,-94.3396226415094,4,1,0,88,0,0
190081,-100,4,1,0,88,0,0
190220,-95.3462589245592,4,1,0,88,0,0
190250,-94.2170651246033,4,1,0,88,0,0
190340,-90.9090909090909,4,1,0,88,0,0
190460,-93.1012444622223,4,1,0,88,0,0
190520,-94.2170651246033,4,1,0,88,0,0
190580,-95.3462589245592,4,1,0,88,0,0
190640,-96.4889861394669,4,1,0,88,0,0
190700,-97.6454089676311,4,1,0,88,0,0
190740,-98.4240471709767,4,1,0,88,0,0
190780,-99.2088943446991,4,1,0,88,0,0
190820,-100,4,1,0,88,0,0
191532,-87.719298245614,4,1,0,88,0,0
191756,-100,4,1,0,88,0,0
192020,-103.796899633162,4,1,0,88,0,0
192140,-105.749073794706,4,1,0,88,0,0
192200,-106.738886435349,4,1,0,88,0,0
192260,-107.737963734568,4,1,0,88,0,0
192320,-108.746392409684,4,1,0,88,0,0
192380,-109.76425998969,4,1,0,88,0,0
192440,-110.791654822854,4,1,0,88,0,0
192500,-111.828666084383,4,1,0,88,0,0
192540,-112.525393800348,4,1,0,88,0,0
192560,-112.875383784165,4,1,0,88,0,0
192620,-113.931898774582,4,1,0,88,0,0
192740,-116.074688296711,4,1,0,88,0,0
192780,-116.797870064768,4,1,0,88,0,0
192820,-117.525557482397,4,1,0,88,0,0
192980,-120.481927710843,4,1,0,88,0,0
193200,-129.87012987013,4,1,0,88,0,0
193294,-133.333333333333,4,1,0,88,0,0
193392,-136.986301369863,4,1,0,88,0,0
193520,-142.857142857143,4,1,0,88,0,0
193580,-87.719298245614,4,1,0,88,0,0
193700,-94.3396226415094,4,1,0,88,0,0
193820,-100,4,1,0,88,0,0
193845,-101.010101010101,4,1,0,88,0,0
193885,-102.040816326531,4,1,0,88,0,0
193922,-103.092783505155,4,1,0,88,0,0
194180,-98.9455505807412,4,1,0,88,0,0
194210,-98.6736778613787,4,1,0,88,0,0
194300,-97.6949602658434,4,1,0,88,0,0
194420,-96.061013286255,4,1,0,88,0,0
194540,-94.1424415306589,4,1,0,88,0,0
194570,-93.6307130834901,4,1,0,88,0,0
194660,-92.0450676664586,4,1,0,88,0,0
194720,-90.9620022501624,4,1,0,88,0,0
194780,-89.8725051183787,4,1,0,88,0,0
194840,-88.7880571970723,4,1,0,88,0,0
194900,-87.719298245614,4,1,0,88,0,0
195020,-93.4579439252336,4,1,0,88,0,0
195080,-90.8169380339239,4,1,0,88,0,0
195140,-88.250563702276,4,1,0,88,0,0
195200,-85.7567119347304,4,1,0,88,0,0
195260,-83.3333333333333,4,1,0,88,0,0
195380,-90.9090909090909,4,1,0,88,0,0
195440,-87.1905963448671,4,1,0,88,0,0
195500,-83.6242010007091,4,1,0,88,0,0
195560,-80.2036834952634,4,1,0,88,0,0
195620,-76.9230769230769,4,1,0,88,0,0
195733,-80.6859507436887,4,1,0,88,0,0
195860,-84.6328944163685,4,1,0,88,0,0
195900,-85.9909905165351,4,1,0,88,0,0
195940,-87.3708798571434,4,1,0,88,0,0
195987,-87.3708798571434,4,1,0,70,0,0
196315,-87.3708798571434,4,1,0,60,0,0
196781,-150.15015015015,4,1,0,50,0,0
197725,-100,4,1,0,60,0,0
197785,480,4,1,0,60,1,0
197785,-100,4,1,0,60,0,0
199177,-66.6666666666667,4,1,0,60,0,0
199322,-100,4,1,0,60,0,0
201025,-66.6666666666667,4,1,0,60,0,0
201265,-100,4,1,0,60,0,0
202989,-66.6666666666667,4,1,0,60,0,0
203229,-100,4,1,0,60,0,0
204906,-66.6666666666667,4,1,0,60,0,0
205146,-100,4,1,0,60,0,0
206855,-66.6666666666667,4,1,0,60,0,0
207095,-100,4,1,0,60,0,0
208806,-66.6666666666667,4,1,0,60,0,0
209046,-100,4,1,0,60,0,0
210621,-66.6666666666667,4,1,0,60,0,0
210861,-100,4,1,0,60,0,0
212606,-66.6666666666667,4,1,0,60,0,0
212846,-100,4,1,0,60,0,0
213231,-100,4,1,0,30,0,0
214045,-225.225225225225,4,1,0,30,0,0
214135,-150.15015015015,4,1,0,31,0,0
214165,-150.15015015015,4,1,0,32,0,0
214195,-150.15015015015,4,1,0,33,0,0
214225,-150.15015015015,4,1,0,34,0,0
214255,-150.15015015015,4,1,0,35,0,0
214285,-150.15015015015,4,1,0,36,0,0
214315,-150.15015015015,4,1,0,37,0,0
214345,-150.15015015015,4,1,0,38,0,0
214375,-150.15015015015,4,1,0,39,0,0
214405,-150.15015015015,4,1,0,40,0,0
214435,-150.15015015015,4,1,0,41,0,0
214465,-150.15015015015,4,1,0,42,0,0
214495,-150.15015015015,4,1,0,43,0,0
214525,-150.15015015015,4,1,0,44,0,0
214555,-150.15015015015,4,1,0,45,0,0
214585,-150.15015015015,4,1,0,46,0,0
214615,-150.15015015015,4,1,0,47,0,0
214645,-150.15015015015,4,1,0,48,0,0
214675,-150.15015015015,4,1,0,49,0,0
214705,-150.15015015015,4,1,0,50,0,0
215014,-100,4,1,0,60,0,0
216438,-66.6666666666667,4,1,0,60,0,0
216678,-100,4,1,0,60,0,0
217605,-50,4,1,0,75,0,0
217820,-52.9611920524406,4,1,0,75,0,0
217940,-56.09775727231,4,1,0,75,0,0
218060,-59.4200819322001,4,1,0,75,0,0
218180,-62.9391674196601,4,1,0,75,0,0
218300,-66.6666666666667,4,1,0,75,0,0
218371,-50,4,1,0,60,0,0
218611,-100,4,1,0,60,0,0
220288,-66.6666666666667,4,1,0,60,0,0
220528,-100,4,1,0,60,0,0
222189,-66.6666666666667,4,1,0,60,0,0
222429,-100,4,1,0,60,0,0
224138,-66.6666666666667,4,1,0,60,0,0
224378,-100,4,1,0,60,0,0
226089,-66.6666666666667,4,1,0,60,0,0
226329,-100,4,1,0,60,0,0
226620,-100.601137272514,4,1,0,60,0,0
226660,-101.205888205232,4,1,0,60,0,0
226700,-101.814274521212,4,1,0,60,0,0
226940,-105.542168509943,4,1,0,60,0,0
227300,-111.391493337813,4,1,0,60,0,0
227540,-115.470053837925,4,1,0,60,0,0
227600,-116.512817332808,4,1,0,60,0,0
227660,-117.564997604337,4,1,0,60,0,0
227780,-119.697949401736,4,1,0,60,0,0
227971,-76.9230769230769,4,1,0,60,0,0
228422,-133.333333333333,4,1,0,45,0,0
228565,480,4,1,0,45,1,8
228565,-142.857142857143,4,1,0,45,0,0
229465,-150.15015015015,4,1,0,45,0,0
232400,-155.718809047523,4,1,0,45,0,0
234320,-161.493994291252,4,1,0,45,0,0
236240,-167.483365379346,4,1,0,45,0,0
238160,-173.694865879672,4,1,0,45,0,0
239120,-176.886477284471,4,1,0,45,0,0
240080,-180.136733965328,4,1,0,45,0,0
242000,-186.817513340751,4,1,0,45,0,0
243920,-193.746064573032,4,1,0,45,0,0
245840,-200.931576843494,4,1,0,45,0,0
247760,-208.383580135091,4,1,0,45,0,0
249680,-216.111957871812,4,1,0,45,0,0
250040,-217.592622820448,4,1,0,45,0,0
251600,-224.126960026842,4,1,0,45,0,0
253520,-232.439216716872,4,1,0,45,0,0
254120,-235.099489105332,4,1,0,45,0,0
255440,-241.059752300582,4,1,0,45,0,0
256880,-247.734324013342,4,1,0,45,0,0
257360,-250,4,1,0,45,0,0
257759,-76.9230769230769,4,1,0,20,0,0
258130,-150.15015015015,4,1,0,45,0,0
259165,-150.15015015015,4,1,0,55,0,0
259225,480,4,1,0,55,1,0
259225,-120.481927710843,4,1,0,55,0,0
260605,-66.6666666666667,4,1,0,70,0,0
260745,-120.481927710843,4,1,0,55,0,0
262525,-66.6666666666667,4,1,0,75,0,0
262665,-120.481927710843,4,1,0,55,0,0
264445,-66.6666666666667,4,1,0,75,0,0
264585,-120.481927710843,4,1,0,55,0,0
266403,-66.6666666666667,4,1,0,75,0,0
266769,-120.481927710843,4,1,0,55,0,0
268285,-66.6666666666667,4,1,0,75,0,0
268425,-120.481927710843,4,1,0,55,0,0
270205,-66.6666666666667,4,1,0,75,0,0
270340,-66.6666666666667,4,1,0,74,0,0
270355,-66.6666666666667,4,1,0,73,0,0
270370,-66.6666666666667,4,1,0,72,0,0
270385,-66.6666666666667,4,1,0,71,0,0
270400,-66.6666666666667,4,1,0,70,0,0
270415,-66.6666666666667,4,1,0,69,0,0
270430,-66.6666666666667,4,1,0,68,0,0
270445,-66.6666666666667,4,1,0,67,0,0
270460,-66.6666666666667,4,1,0,66,0,0
270475,-66.6666666666667,4,1,0,65,0,0
270490,-66.6666666666667,4,1,0,64,0,0
270505,-66.6666666666667,4,1,0,63,0,0
270520,-66.6666666666667,4,1,0,62,0,0
270535,-66.6666666666667,4,1,0,61,0,0
270550,-66.6666666666667,4,1,0,60,0,0
270565,-66.6666666666667,4,1,0,59,0,0
270580,-66.6666666666667,4,1,0,58,0,0
270595,-66.6666666666667,4,1,0,57,0,0
270610,-66.6666666666667,4,1,0,56,0,0
270625,-120.481927710843,4,1,0,55,0,0
272125,-66.6666666666667,4,1,0,75,0,0
272315,-120.481927710843,4,1,0,55,0,0
272643,-76.9230769230769,4,1,0,45,0,0
272900,-80.563947633434,4,1,0,45,0,0
273020,-82.5167612171222,4,1,0,45,0,0
273140,-84.5665961945032,4,1,0,45,0,0
273380,-88.9877641824249,4,1,0,45,0,0
273500,-91.3763563677898,4,1,0,45,0,0
273620,-93.8967136150235,4,1,0,45,0,0
273740,-96.5600482800241,4,1,0,45,0,0
273860,-99.3788819875776,4,1,0,45,0,0
274100,-105.540897097625,4,1,0,45,0,0
274220,-108.917631041525,4,1,0,45,0,0
274340,-112.517580872011,4,1,0,45,0,0
274460,-116.363636363636,4,1,0,45,0,0
274580,-120.481927710843,4,1,0,55,0,0
275965,-66.6666666666667,4,1,0,70,0,0
276105,-120.481927710843,4,1,0,55,0,0
277885,-66.6666666666667,4,1,0,75,0,0
278025,-120.481927710843,4,1,0,55,0,0
279805,-66.6666666666667,4,1,0,75,0,0
279945,-120.481927710843,4,1,0,55,0,0
281763,-66.6666666666667,4,1,0,75,0,0
282129,-120.481927710843,4,1,0,55,0,0
283645,-66.6666666666667,4,1,0,75,0,0
283785,-120.481927710843,4,1,0,55,0,0
285565,-66.6666666666667,4,1,0,75,0,0
285700,-66.6666666666667,4,1,0,74,0,0
285715,-66.6666666666667,4,1,0,73,0,0
285730,-66.6666666666667,4,1,0,72,0,0
285745,-66.6666666666667,4,1,0,71,0,0
285760,-66.6666666666667,4,1,0,70,0,0
285775,-66.6666666666667,4,1,0,69,0,0
285790,-66.6666666666667,4,1,0,68,0,0
285805,-66.6666666666667,4,1,0,67,0,0
285820,-66.6666666666667,4,1,0,66,0,0
285835,-66.6666666666667,4,1,0,65,0,0
285850,-66.6666666666667,4,1,0,64,0,0
285865,-66.6666666666667,4,1,0,63,0,0
285880,-66.6666666666667,4,1,0,62,0,0
285895,-66.6666666666667,4,1,0,61,0,0
285910,-66.6666666666667,4,1,0,60,0,0
285925,-66.6666666666667,4,1,0,59,0,0
285940,-66.6666666666667,4,1,0,58,0,0
285955,-66.6666666666667,4,1,0,57,0,0
285970,-66.6666666666667,4,1,0,56,0,0
285985,-100,4,1,0,55,0,0
286077,-100,4,1,0,60,0,0
286340,-91.6260327074179,4,1,0,60,0,0
286400,-89.6444904962536,4,1,0,60,0,0
286460,-87.7058019307029,4,1,0,60,0,0
286580,-83.9532986970081,4,1,0,60,0,0
286820,-76.9230769230769,4,1,0,60,0,0
287044,-87.719298245614,4,1,0,60,0,0
287250,-76.9230769230769,4,1,0,70,0,0
287540,-75.8984212932707,4,1,0,70,0,0
287780,-73.0288530789701,4,1,0,70,0,0
288020,-68.8364862258448,4,1,0,70,0,0
288380,-61.441004896372,4,1,0,70,0,0
288740,-54.2230145433387,4,1,0,70,0,0
288958,-50,4,1,0,60,0,0
289018,-50,4,1,0,59,0,0
289052,-50,4,1,0,58,0,0
289085,-50,4,1,0,57,0,0
289119,-50,4,1,0,56,0,0
289153,-50,4,1,0,55,0,0
289186,-50,4,1,0,54,0,0
289220,-50,4,1,0,53,0,0
289253,-50,4,1,0,52,0,0
289287,-50,4,1,0,51,0,0
289321,-50,4,1,0,50,0,0
289354,-50,4,1,0,49,0,0
289388,-50,4,1,0,48,0,0
289421,-50,4,1,0,47,0,0
289455,-50,4,1,0,46,0,0
289489,-50,4,1,0,45,0,0
289522,-50,4,1,0,44,0,0
289556,-50,4,1,0,43,0,0
289589,-50,4,1,0,42,0,0
289623,-50,4,1,0,41,0,0
289657,-50,4,1,0,40,0,0
289690,-50,4,1,0,39,0,0
289724,-50,4,1,0,38,0,0
289757,-50,4,1,0,37,0,0
289791,-50,4,1,0,36,0,0
289825,-50,4,1,0,35,0,0
289932,-111.111111111111,4,1,0,35,0,0
290389,-133.333333333333,4,1,0,45,0,0
290720,-151.515151515152,4,1,0,45,0,0
291360,-100,4,1,0,75,0,0
291420,-95.7214880303362,4,1,0,75,0,0
291460,-91.6260327074179,4,1,0,75,0,0
291500,-87.7058019307029,4,1,0,75,0,0
291620,-76.9230769230769,4,1,0,75,0,0
291694,-151.515151515152,4,1,0,40,0,0
292100,-153.423951170709,4,1,0,40,0,0
292160,-153.90489669145,4,1,0,40,0,0
292340,-155.356798032692,4,1,0,40,0,0
292580,-157.313995049677,4,1,0,40,0,0
292610,-157.560372033508,4,1,0,40,0,0
292820,-159.295848986807,4,1,0,40,0,0
293278,-133.333333333333,4,1,0,40,0,0
293780,-167.476105529223,4,1,0,40,0,0
294020,-169.585982524042,4,1,0,40,0,0
294080,-170.117591950425,4,1,0,40,0,0
294140,-170.65086783873,4,1,0,40,0,0
294290,-171.99138265281,4,1,0,40,0,0
294500,-173.885812558677,4,1,0,40,0,0
294740,-176.076439540859,4,1,0,40,0,0
294980,-178.294664212032,4,1,0,40,0,0
295220,-142.857142857143,4,1,0,40,0,0
295700,-185.118423093353,4,1,0,40,0,0
295940,-187.450559376124,4,1,0,40,0,0
296060,-188.627622155363,4,1,0,40,0,0
296300,-191.003967600675,4,1,0,40,0,0
296420,-192.203343381137,4,1,0,40,0,0
296660,-194.624736040381,4,1,0,40,0,0
296900,-166.666666666667,4,1,0,40,0,0
296960,-162.131672039081,4,1,0,40,0,0
297020,-157.720074469128,4,1,0,40,0,0
297140,-149.253731343284,4,1,0,40,0,0
297620,-204.619222905146,4,1,0,40,0,0
297860,-207.197031779678,4,1,0,40,0,0
297920,-207.846542391188,4,1,0,40,0,0
298010,-208.824627900645,4,1,0,40,0,0
298100,-209.807316090776,4,1,0,40,0,0
298340,-212.450484966514,4,1,0,40,0,0
298370,-212.783213848538,4,1,0,40,0,0
298580,-215.126952689193,4,1,0,40,0,0
299060,-181.818181818182,4,1,0,40,0,0
299540,-226.17428175256,4,1,0,40,0,0
299780,-229.023642933855,4,1,0,40,0,0
299840,-229.741574484779,4,1,0,40,0,0
300020,-231.908900588783,4,1,0,40,0,0
300260,-234.83050694391,4,1,0,40,0,0
300290,-235.198286250477,4,1,0,40,0,0
300500,-237.788919922985,4,1,0,40,0,0
300980,-217.391304347826,4,1,0,40,0,0
301460,-250,4,1,0,40,0,0
301700,-247.664110088183,4,1,0,40,0,0
301760,-246.371365659846,4,1,0,40,0,0
301820,-244.811592318418,4,1,0,40,0,0
301940,-240.938743978264,4,1,0,40,0,0
302180,-230.590079049701,4,1,0,40,0,0
302420,-217.666378218206,4,1,0,40,0,0
302660,-203.266294021039,4,1,0,40,0,0
302900,-188.358995712417,4,1,0,40,0,0
302930,-186.499757049173,4,1,0,40,0,0
303380,-159.768369381306,4,1,0,40,0,0
303740,-140.890975532713,4,1,0,40,0,0
304100,-124.714316474558,4,1,0,40,0,0
304340,-115.408481908449,4,1,0,40,0,0
304580,-107.201667096303,4,1,0,40,0,0
304640,-105.31085982966,4,1,0,40,0,0
304700,-103.4813472527,4,1,0,40,0,0
304760,-101.711577379241,4,1,0,40,0,0
304820,-100,4,1,0,40,0,0
305279,-120.481927710843,4,1,0,50,0,0
306260,-118.361845533115,4,1,0,50,0,0
306740,-117.315835651238,4,1,0,50,0,0
307220,-116.279069767442,4,1,0,50,0,0
308180,-113.665723245079,4,1,0,50,0,0
308660,-112.381158585453,4,1,0,50,0,0
309140,-111.111111111111,4,1,0,50,0,0
310580,-109.024638083209,4,1,0,50,0,0
311060,-107.475087165155,4,1,0,50,0,0
311300,-106.563878530992,4,1,0,50,0,0
311540,-105.570814110286,4,1,0,50,0,0
311780,-104.503193511012,4,1,0,50,0,0
312260,-102.174582935219,4,1,0,50,0,0
312500,-100.928968529317,4,1,0,50,0,0
312740,-99.6393504033945,4,1,0,50,0,0
312980,-98.3132119549453,4,1,0,50,0,0
313460,-95.5801185577172,4,1,0,50,0,0
313700,-94.18676656459,4,1,0,50,0,0
314420,-89.9732622189555,4,1,0,50,0,0
314660,-88.5756881978751,4,1,0,50,0,0
314900,-87.1895356173424,4,1,0,50,0,0
315260,-85.1406345965924,4,1,0,50,0,0
315740,-82.4837844510977,4,1,0,50,0,0
315980,-81.1941882393082,4,1,0,50,0,0
316580,-78.1022447725351,4,1,0,50,0,0
316820,-76.9230769230769,4,1,0,50,0,0
317735,-66.6666666666667,4,1,0,50,0,0
317953,-60.2409638554217,4,1,0,50,0,0
318701,-50,4,1,0,50,0,0
319645,-43.859649122807,4,1,0,70,0,0
319760,-43.5793354844498,4,1,0,70,0,0
319820,-43.3008133728699,4,1,0,70,0,0
319880,-43.0240713381493,4,1,0,70,0,0
319940,-42.7490980035481,4,1,0,70,0,0
320000,-42.4758820650368,4,1,0,70,0,0
320060,-42.2044122908317,4,1,0,70,0,0
320120,-41.9346775209331,4,1,0,70,0,0
320180,-41.6666666666667,4,1,0,70,0,0
320617,-41.6666666666667,4,1,0,88,0,0
320665,240,4,1,0,88,1,0
320665,-120.481927710843,4,1,0,88,0,0
321260,-109.76425998969,4,1,0,88,0,0
321300,-106.407923741059,4,1,0,88,0,0
321340,-103.154216463051,4,1,0,88,0,0
321380,-100,4,1,0,88,0,0
321610,-106.382978723404,4,1,0,88,0,0
321740,-108.747815125842,4,1,0,88,0,0
321800,-109.949874283386,4,1,0,88,0,0
321860,-111.165220569656,4,1,0,88,0,0
321980,-113.636363636364,4,1,0,88,0,0
322045,-108.695652173913,4,1,0,88,0,0
322096,-76.9230769230769,4,1,0,88,0,0
322572,-111.111111111111,4,1,0,88,0,0
322640,-113.383169965798,4,1,0,88,0,0
322700,-115.701689083437,4,1,0,88,0,0
322760,-118.067618508095,4,1,0,88,0,0
322820,-120.481927710843,4,1,0,88,0,0
323300,-120.481927710843,4,1,0,88,0,0
323360,-119.268664275592,4,1,0,88,0,0
323420,-118.067618508095,4,1,0,88,0,0
323480,-116.878667375384,4,1,0,88,0,0
323540,-115.701689083437,4,1,0,88,0,0
323600,-114.536563064714,4,1,0,88,0,0
323660,-113.383169965798,4,1,0,88,0,0
323720,-112.241391635171,4,1,0,88,0,0
323780,-111.111111111111,4,1,0,88,0,0
323884,-105.263157894737,4,1,0,88,0,0
324019,-100,4,1,0,88,0,0
324482,-120.481927710843,4,1,0,88,0,0
324603,-120.481927710843,4,1,0,88,0,0
324731,-87.719298245614,4,1,0,88,0,0
325045,-120.481927710843,4,1,0,88,0,0
325460,-120.481927710843,4,1,0,88,0,0
325580,-114.998302758398,4,1,0,88,0,0
325700,-109.76425998969,4,1,0,88,0,0
325740,-108.073063278861,4,1,0,88,0,0
325780,-106.407923741059,4,1,0,88,0,0
325820,-104.768439899471,4,1,0,88,0,0
325880,-102.356455536263,4,1,0,88,0,0
325940,-100,4,1,0,88,0,0
326363,-120.481927710843,4,1,0,88,0,0
327140,-116.279069767442,4,1,0,88,0,0
327200,-113.421467017797,4,1,0,88,0,0
327260,-110.634090952036,4,1,0,88,0,0
327320,-107.915215722459,4,1,0,88,0,0
327380,-105.263157894737,4,1,0,88,0,0
327481,-111.111111111111,4,1,0,88,0,0
327839,-100,4,1,0,88,0,0
328255,-120.481927710843,4,1,0,88,0,0
328460,-121.241322086843,4,1,0,88,0,0
328520,-122.180307322591,4,1,0,88,0,0
328580,-123.474951634325,4,1,0,88,0,0
328660,-125.715765897124,4,1,0,88,0,0
328760,-129.232318980947,4,1,0,88,0,0
328860,-133.333333333333,4,1,0,88,0,0
328905,-111.111111111111,4,1,0,88,0,0
329271,-120.481927710843,4,1,0,88,0,0
329531,-100,4,1,0,88,0,0
329570,-100.491545134023,4,1,0,88,0,0
329660,-101.980725097787,4,1,0,88,0,0
329720,-102.985751705304,4,1,0,88,0,0
329780,-104.000682914704,4,1,0,88,0,0
329810,-104.511893210922,4,1,0,88,0,0
329900,-106.060650543066,4,1,0,88,0,0
329930,-106.581986509923,4,1,0,88,0,0
330020,-108.161420467248,4,1,0,88,0,0
330050,-108.693082666445,4,1,0,88,0,0
330140,-110.303800868566,4,1,0,88,0,0
330170,-110.845993834378,4,1,0,88,0,0
330260,-112.488615936183,4,1,0,88,0,0
330320,-113.597198484015,4,1,0,88,0,0
330380,-114.716706184184,4,1,0,88,0,0
330440,-115.84724670477,4,1,0,88,0,0
330500,-116.988928774929,4,1,0,88,0,0
330560,-118.141862195347,4,1,0,88,0,0
330620,-119.306157848806,4,1,0,88,0,0
330680,-120.481927710843,4,1,0,88,0,0
330723,-93.4579439252336,4,1,0,88,0,0
330965,-100,4,1,0,88,0,0
331220,-100,4,1,0,88,0,0
331340,-102.356455536263,4,1,0,88,0,0
331460,-104.768439899471,4,1,0,88,0,0
331580,-107.237261601739,4,1,0,88,0,0
331700,-109.76425998969,4,1,0,88,0,0
331730,-110.405259643035,4,1,0,88,0,0
331820,-112.350805971056,4,1,0,88,0,0
331880,-113.666846530594,4,1,0,88,0,0
331940,-114.998302758398,4,1,0,88,0,0
332000,-116.34535522856,4,1,0,88,0,0
332060,-117.708186630357,4,1,0,88,0,0
332100,-118.625598156232,4,1,0,88,0,0
332140,-119.550159940147,4,1,0,88,0,0
332180,-120.481927710843,4,1,0,88,0,0
332411,-100,4,1,0,88,0,0
332762,-104.166666666667,4,1,0,88,0,0
332851,-25,4,1,0,88,0,0
333123,-100,4,1,0,88,0,0
333316,-111.111111111111,4,1,0,88,0,0
333800,-111.111111111111,4,1,0,88,0,0
333860,-112.925071437731,4,1,0,88,0,0
333920,-114.76864583295,4,1,0,88,0,0
333980,-116.642317765477,4,1,0,88,0,0
334040,-118.546578596961,4,1,0,88,0,0
334100,-120.481927710843,4,1,0,88,0,0
334211,-116.279069767442,4,1,0,88,0,0
334242,-114.942528735632,4,1,0,88,0,0
334323,-111.111111111111,4,1,0,88,0,0
334437,-105.263157894737,4,1,0,88,0,0
334509,-108.695652173913,4,1,0,88,0,0
334626,-102.040816326531,4,1,0,88,0,0
334683,-106.382978723404,4,1,0,88,0,0
334810,-100,4,1,0,88,0,0
335300,-113.636363636364,4,1,0,88,0,0
335330,-114.470320905967,4,1,0,88,0,0
335420,-117.009094300227,4,1,0,88,0,0
335540,-120.481927710843,4,1,0,88,0,0
335709,-303.030303030303,4,1,0,88,0,0
335994,-120.481927710843,4,1,0,88,0,0
336740,-100,4,1,0,88,0,0
336800,-102.669009608034,4,1,0,88,0,0
336860,-105.409255338946,4,1,0,88,0,0
336920,-108.2226384917,4,1,0,88,0,0
336980,-111.111111111111,4,1,0,88,0,0
337082,-120.481927710843,4,1,0,88,0,0
337160,-118.86696426912,4,1,0,88,0,0
337220,-117.273648114816,4,1,0,88,0,0
337280,-115.701689083437,4,1,0,88,0,0
337340,-114.150800899909,4,1,0,88,0,0
337400,-112.620701126445,4,1,0,88,0,0
337460,-111.111111111111,4,1,0,88,0,0
337580,-117.647058823529,4,1,0,88,0,0
337640,-115.281187114291,4,1,0,88,0,0
337700,-112.962892871081,4,1,0,88,0,0
337760,-110.691219315363,4,1,0,88,0,0
337820,-108.465228909328,4,1,0,88,0,0
337880,-106.28400296897,4,1,0,88,0,0
337940,-104.146641284934,4,1,0,88,0,0
338000,-102.052261750994,4,1,0,88,0,0
338060,-100,4,1,0,88,0,0
338180,-103.092783505155,4,1,0,88,0,0
338240,-103.899378046379,4,1,0,88,0,0
338300,-104.712283356716,4,1,0,88,0,0
338360,-105.531548811416,4,1,0,88,0,0
338420,-106.357224172039,4,1,0,88,0,0
338480,-107.189359589477,4,1,0,88,0,0
338540,-108.028005607002,4,1,0,88,0,0
338600,-108.873213163335,4,1,0,88,0,0
338660,-109.725033595739,4,1,0,88,0,0
338720,-110.583518643139,4,1,0,88,0,0
338780,-111.448720449262,4,1,0,88,0,0
338840,-112.320691565807,4,1,0,88,0,0
338900,-113.199484955637,4,1,0,88,0,0
338960,-114.085153995993,4,1,0,88,0,0
339020,-114.977752481737,4,1,0,88,0,0
339080,-115.877334628623,4,1,0,88,0,0
339140,-116.783955076585,4,1,0,88,0,0
339200,-117.697668893058,4,1,0,88,0,0
339260,-118.618531576325,4,1,0,88,0,0
339320,-119.546599058882,4,1,0,88,0,0
339380,-87.719298245614,4,1,0,88,0,0
339409,-76.9230769230769,4,1,0,88,0,0
339795,-120.481927710843,4,1,0,88,0,0
340567,-100,4,1,0,88,0,0
340820,-100,4,1,0,88,0,0
340940,-104.353201121162,4,1,0,88,0,0
341000,-106.600358177805,4,1,0,88,0,0
341060,-108.895905842336,4,1,0,88,0,0
341180,-113.636363636364,4,1,0,88,0,0
341289,-100,4,1,0,88,0,0
341695,-120.481927710843,4,1,0,88,0,0
342380,-113.636363636364,4,1,0,88,0,0
342440,-116.376555577778,4,1,0,88,0,0
342500,-119.182823655699,4,1,0,88,0,0
342560,-122.056761209539,4,1,0,88,0,0
342620,-125,4,1,0,88,0,0
342740,-117.647058823529,4,1,0,88,0,0
342800,-120.59050792971,4,1,0,88,0,0
342860,-123.607600123336,4,1,0,88,0,0
342920,-126.700177904187,4,1,0,88,0,0
342980,-129.87012987013,4,1,0,88,0,0
343200,-100,4,1,0,88,0,0
343400,-99.7317156269054,4,1,0,88,0,0
343460,-98.9455505807412,4,1,0,88,0,0
343490,-98.3737807683836,4,1,0,88,0,0
343520,-97.6949602658434,4,1,0,88,0,0
343580,-96.061013286255,4,1,0,88,0,0
343640,-94.1424415306589,4,1,0,88,0,0
343700,-92.0450676664586,4,1,0,88,0,0
343800,-87.719298245614,4,1,0,88,0,0
344365,-113.636363636364,4,1,0,88,0,0
344480,-115.310398441174,4,1,0,88,0,0
344540,-117.009094300227,4,1,0,88,0,0
344600,-118.732814508,4,1,0,88,0,0
344660,-120.481927710843,4,1,0,88,0,0
344778,-121.951219512195,4,1,0,88,0,0
344900,-87.719298245614,4,1,0,88,0,0
344940,-85.8200437975154,4,1,0,88,0,0
344980,-83.9619110584449,4,1,0,88,0,0
345020,-82.1440096816907,4,1,0,88,0,0
345060,-80.3654685978829,4,1,0,88,0,0
345100,-78.625435597611,4,1,0,88,0,0
345140,-66.6666666666667,4,1,0,88,0,0
345592,-100,4,1,0,88,0,0
345740,-104.166666666667,4,1,0,88,0,0
345860,-108.695652173913,4,1,0,88,0,0
345980,-109.896745565964,4,1,0,88,0,0
346060,-110.704838892592,4,1,0,88,0,0
346100,-111.111111111111,4,1,0,88,0,0
346220,-113.383169965798,4,1,0,88,0,0
346340,-115.701689083437,4,1,0,88,0,0
346400,-116.878667375384,4,1,0,88,0,0
346460,-118.067618508095,4,1,0,88,0,0
346580,-120.481927710843,4,1,0,50,0,0
346640,-118.067618508095,4,1,0,50,0,0
346700,-115.701689083437,4,1,0,50,0,0
346760,-113.383169965798,4,1,0,50,0,0
346804,-111.111111111111,4,1,0,88,0,0
347053,-100,4,1,0,88,0,0
347180,-106.600358177805,4,1,0,88,0,0
347240,-110.062150922375,4,1,0,88,0,0
347300,-113.636363636364,4,1,0,88,0,0
347517,-100,4,1,0,88,0,0
347751,-93.4579439252336,4,1,0,88,0,0
347861,-103.092783505155,4,1,0,88,0,0
348063,-90.9090909090909,4,1,0,88,0,0
348248,-100,4,1,0,88,0,0
348320,-97.2478118458128,4,1,0,88,0,0
348380,-94.5713690879861,4,1,0,88,0,0
348440,-91.968587070694,4,1,0,88,0,0
348500,-89.437438511761,4,1,0,88,0,0
348620,-100,4,1,0,88,0,0
348680,-96.171496093823,4,1,0,88,0,0
348740,-92.4895666092421,4,1,0,88,0,0
348800,-88.9485999388012,4,1,0,88,0,0
348860,-85.5431993156544,4,1,0,88,0,0
348980,-100,4,1,0,88,0,0
349040,-94.693701132611,4,1,0,88,0,0
349100,-89.6689703419226,4,1,0,88,0,0
349160,-84.9108667842698,4,1,0,88,0,0
349220,-80.4052424218059,4,1,0,88,0,0
349340,-71.4285714285714,4,1,0,88,0,0
349460,-55.5555555555556,4,1,0,88,0,0
350384,-120.481927710843,4,1,0,88,0,0
350880,-133.333333333333,4,1,0,88,0,0
351128,-120.481927710843,4,1,0,88,0,0
351373,-93.4579439252336,4,1,0,88,0,0
351385,-93.4579439252336,4,1,0,88,0,1
353034,-76.9230769230769,4,1,0,88,0,1
353283,-133.333333333333,4,1,0,88,0,1
353305,-93.4579439252336,4,1,0,88,0,1
353646,-93.4579439252336,4,1,0,88,0,1
359014,-66.6666666666667,4,1,0,88,0,1
359065,-93.4579439252336,4,1,0,88,0,1
359483,-93.4579439252336,4,1,0,88,0,1
361906,-120.481927710843,4,1,0,88,0,1
361945,-93.4579439252336,4,1,0,88,0,1
362475,-71.4285714285714,4,1,0,88,0,1
362888,-93.4579439252336,4,1,0,88,0,1
365722,-100,4,1,0,88,0,1
365785,-93.4579439252336,4,1,0,88,0,1
366485,-66.6666666666667,4,1,0,88,0,1
366731,-93.4579439252336,4,1,0,88,0,1
368642,-105.263157894737,4,1,0,88,0,1
368665,-93.4579439252336,4,1,0,88,0,1
370482,-120.481927710843,4,1,0,88,0,1
370585,-93.4579439252336,4,1,0,88,0,1
371032,-50,4,1,0,88,0,1
371265,-93.4579439252336,4,1,0,88,0,1
374386,-133.333333333333,4,1,0,88,0,1
374425,-93.4579439252336,4,1,0,88,0,1
377777,-76.9230769230769,4,1,0,88,0,1
377819,-93.4579439252336,4,1,0,88,0,1
378005,-87.719298245614,4,1,0,88,0,1
378214,-100,4,1,0,88,0,1
378320,-95.5442792204367,4,1,0,88,0,1
378380,-91.2870929175277,4,1,0,88,0,1
378440,-87.2195949493421,4,1,0,88,0,1
378497,-83.3333333333333,4,1,0,88,0,1
378620,-98.0392156862745,4,1,0,88,0,1
378680,-93.3672247221865,4,1,0,88,0,1
378740,-88.9178742536973,4,1,0,88,0,1
378800,-84.6805545020936,4,1,0,88,0,1
378857,-80.6451612903226,4,1,0,88,0,1
378980,-96.1538461538461,4,1,0,88,0,1
379040,-91.2898520248049,4,1,0,88,0,1
379100,-86.671905660192,4,1,0,88,0,1
379160,-82.2875606012385,4,1,0,88,0,1
379212,-78.125,4,1,0,88,0,1
379340,-94.3396226415094,4,1,0,88,0,1
379400,-89.3052762555402,4,1,0,88,0,1
379460,-84.5395830910306,4,1,0,88,0,1
379520,-80.0282067182104,4,1,0,88,0,1
379568,-75.7575757575758,4,1,0,88,0,1
379700,-90.9090909090909,4,1,0,88,0,1
379760,-86.1556449776451,4,1,0,88,0,1
379820,-81.6507467766542,4,1,0,88,0,1
379880,-77.3814002659392,4,1,0,88,0,1
379940,-73.3352889410384,4,1,0,88,0,1
380000,-66.6672537703988,4,1,0,88,0,1
380060,-60.4016135586576,4,1,0,88,0,1
380120,-54.8119789836146,4,1,0,88,0,1
380180,-50,4,1,0,88,0,1
381127,-25,4,1,0,88,0,1
381598,-76.9230769230769,4,1,0,88,0,1
381680,-79.4876333789852,4,1,0,88,0,1
381740,-82.1376901824954,4,1,0,88,0,1
381800,-84.8760978496973,4,1,0,88,0,1
381860,-87.7058019307029,4,1,0,88,0,1
381900,-89.6444904962536,4,1,0,88,0,1
381940,-91.6260327074179,4,1,0,88,0,1
381980,-93.651375820488,4,1,0,88,0,1
382020,-95.7214880303362,4,1,0,88,0,1
382060,-97.8373589332501,4,1,0,88,0,1
382094,-97.8373589332501,4,1,0,70,0,1
382105,480,4,1,0,70,1,0
382105,-50,4,1,0,70,0,0
382580,-50.8736887571191,4,1,0,70,0,0
382820,-51.3214028103738,4,1,0,70,0,0
383300,-52.2380742803161,4,1,0,70,0,0
383540,-52.7067924311553,4,1,0,70,0,0
383570,-52.6315789473684,4,1,0,70,0,0
384020,-53.6642838456763,4,1,0,70,0,0
384500,-54.647380632024,4,1,0,70,0,0
384740,-55.1480400399356,4,1,0,70,0,0
385100,-55.9097801842733,4,1,0,70,0,0
385460,-56.6836514606046,4,1,0,70,0,0
385490,-55.2183668556332,4,1,0,70,0,0
385940,-57.7326673562138,4,1,0,70,0,0
386420,-58.798922595349,4,1,0,70,0,0
386660,-59.3376000380705,4,1,0,70,0,0
386900,-59.879440498962,4,1,0,70,0,0
387140,-60.4240098231946,4,1,0,70,0,0
387375,-60.9708481163394,4,1,0,70,0,0
387396,-57.9224434396693,4,1,0,70,0,0
387860,-62.0693613400802,4,1,0,70,0,0
388220,-62.8953958455742,4,1,0,70,0,0
388580,-63.7211405231936,4,1,0,70,0,0
388940,-64.5445319586022,4,1,0,70,0,0
389060,-64.8180973141348,4,1,0,70,0,0
389300,-65.363376215884,4,1,0,70,0,0
389330,-60.5838803240107,4,1,0,70,0,0
389780,-66.4440678250488,4,1,0,70,0,0
390260,-67.5067106213706,4,1,0,70,0,0
390500,-68.0293486050311,4,1,0,70,0,0
390860,-68.8002097911258,4,1,0,70,0,0
390980,-69.053262476167,4,1,0,70,0,0
391220,-69.5528924753675,4,1,0,70,0,0
391250,-63.0013566448759,4,1,0,70,0,0
391700,-70.5232905756252,4,1,0,70,0,0
392180,-71.4494973021742,4,1,0,70,0,0
392240,-71.5618224579503,4,1,0,70,0,0
392300,-71.6733358338451,4,1,0,70,0,0
392420,-71.8938733928319,4,1,0,70,0,0
392780,-72.5346067943536,4,1,0,70,0,0
393140,-73.1417874604574,4,1,0,70,0,0
393170,-64.9514102172926,4,1,0,70,0,0
393620,-73.894301431683,4,1,0,70,0,0
394100,-74.5757114990591,4,1,0,70,0,0
394340,-74.887840093325,4,1,0,70,0,0
394460,-75.03644303828,4,1,0,70,0,0
394700,-75.3182968316215,4,1,0,70,0,0
394740,-75.3632466120161,4,1,0,70,0,0
394780,-75.4076096251911,4,1,0,70,0,0
394820,-75.4513829597055,4,1,0,70,0,0
395060,-75.7014808017977,4,1,0,70,0,0
395090,-66.2239009439655,4,1,0,70,0,0
395540,-76.1353510802416,4,1,0,70,0,0
395900,-76.4006722060292,4,1,0,70,0,0
396260,-76.6128346763578,4,1,0,70,0,0
396500,-76.7241435343296,4,1,0,70,0,0
396560,-76.7481613767432,4,1,0,70,0,0
396620,-76.7706475343793,4,1,0,70,0,0
396740,-76.8110108207994,4,1,0,70,0,0
396980,-76.8732169157715,4,1,0,70,0,0
397010,-66.6666666666667,4,1,0,70,0,0
397460,-76.9230769230769,4,1,0,70,0,0
397569,-100,4,1,0,70,0,0
399380,-133.333333333333,4,1,0,70,0,0
399860,-137.449825568132,4,1,0,70,0,0
400100,-139.555488487753,4,1,0,70,0,0
400460,-142.77462020398,4,1,0,70,0,0
400820,-146.068007752914,4,1,0,70,0,0
400850,-43.859649122807,4,1,0,70,0,0
401300,-150.57766640042,4,1,0,70,0,0
401780,-155.226554858955,4,1,0,70,0,0
402020,-157.604548423923,4,1,0,70,0,0
402260,-160.018971666791,4,1,0,70,0,0
402500,-162.470382672093,4,1,0,70,0,0
402740,-164.959348073942,4,1,0,70,0,0
402770,-41.1762623125554,4,1,0,70,0,0
403220,-170.05225213947,4,1,0,70,0,0
403580,-173.974853853026,4,1,0,70,0,0
403940,-177.987938368247,4,1,0,70,0,0
404300,-182.093592855333,4,1,0,70,0,0
404420,-183.483083114602,4,1,0,70,0,0
404660,-186.293952629315,4,1,0,70,0,0
404690,-38.657048379138,4,1,0,70,0,0
405140,-192.045534699729,4,1,0,70,0,0
405620,-197.974689342123,4,1,0,70,0,0
405860,-201.007563051842,4,1,0,70,0,0
406220,-205.644212089681,4,1,0,70,0,0
406340,-207.213408595133,4,1,0,70,0,0
406580,-210.387814885744,4,1,0,70,0,0
406610,-36.2919630257785,4,1,0,70,0,0
407060,-216.883263432795,4,1,0,70,0,0
407540,-223.579250456136,4,1,0,70,0,0
407600,-224.430655495794,4,1,0,70,0,0
407660,-225.285302743931,4,1,0,70,0,0
407780,-227.004373298862,4,1,0,70,0,0
408140,-232.240691739128,4,1,0,70,0,0
408500,-237.597796534341,4,1,0,70,0,0
408530,-34.071576478024,4,1,0,70,0,0
408980,-244.933317667633,4,1,0,70,0,0
409460,-252.4953134193,4,1,0,70,0,0
409700,-256.363415955243,4,1,0,70,0,0
409820,-258.319632336705,4,1,0,70,0,0
410060,-262.276960539728,4,1,0,70,0,0
410100,-262.942384362297,4,1,0,70,0,0
410140,-263.609496434047,4,1,0,70,0,0
410180,-264.278301038239,4,1,0,70,0,0
410420,-268.326913080171,4,1,0,70,0,0
410450,-31.9870358865201,4,1,0,70,0,0
410900,-276.611155485786,4,1,0,70,0,0
411260,-282.991755441658,4,1,0,70,0,0
411620,-289.519536937354,4,1,0,70,0,0
411860,-293.954832150825,4,1,0,70,0,0
411920,-295.074232207022,4,1,0,70,0,0
411980,-296.197895015004,4,1,0,70,0,0
412100,-298.458073879542,4,1,0,70,0,0
412337,-303.030303030303,4,1,0,70,0,0
412366,-30.03003003003,4,1,0,70,0,0
412805,-303.030303030303,4,1,0,70,0,0

[HitObjects]
256,192,36505,5,0,0:0:0:0:
256,192,36895,1,8,0:0:0:0:
256,192,37385,1,8,0:0:0:0:
256,192,38345,1,0,0:0:0:0:
256,192,39325,1,0,0:0:0:0:
256,192,39715,1,0,0:0:0:0:
256,192,40225,1,0,0:0:0:0:
256,192,41665,1,8,0:0:0:0:
256,192,43075,1,8,0:0:0:0:
256,192,45055,1,0,0:0:0:0:
256,192,46465,1,0,0:0:0:0:
256,192,46945,1,8,0:0:0:0:
256,192,50785,1,8,0:0:0:0:
256,192,51265,1,8,0:0:0:0:
256,192,51715,1,0,0:0:0:0:
256,192,52765,1,0,0:0:0:0:
256,192,53725,1,8,0:0:0:0:
211,93,54685,1,0,0:0:0:0:
256,192,55165,1,0,0:0:0:0:
256,192,55645,1,8,0:0:0:0:
256,192,57115,1,8,0:0:0:0:
256,192,59035,1,8,0:0:0:0:
256,192,59965,1,8,0:0:0:0:
256,192,60895,1,0,0:0:0:0:
256,192,61345,1,0,0:0:0:0:
256,192,61825,1,0,0:0:0:0:
256,192,62305,1,8,0:0:0:0:
256,192,62665,12,0,65664,0:0:0:0:
256,192,66165,5,8,0:0:0:0:
256,192,66388,1,8,0:0:0:0:
256,192,66611,1,8,0:0:0:0:
256,192,66834,1,8,0:0:0:0:
256,192,67057,1,8,0:0:0:0:
256,192,67279,1,8,0:0:0:0:
256,192,67502,1,8,0:0:0:0:
256,192,67725,1,8,0:0:0:0:
256,192,67948,1,8,0:0:0:0:
256,192,68171,1,8,0:0:0:0:
256,192,68394,1,8,0:0:0:0:
256,192,68617,1,8,0:0:0:0:
256,192,68840,1,8,0:0:0:0:
256,192,69072,1,8,0:0:0:0:
256,192,69314,1,8,0:0:0:0:
256,192,69500,1,8,0:0:0:0:
256,192,69646,1,8,0:0:0:0:
256,192,69774,1,8,0:0:0:0:
256,192,69891,1,8,0:0:0:0:
256,192,69991,1,8,0:0:0:0:
256,192,70084,1,8,0:0:0:0:
256,192,70169,1,8,0:0:0:0:
256,192,70247,1,8,0:0:0:0:
256,192,70308,1,8,0:0:0:0:
256,192,70369,1,8,0:0:0:0:
256,192,70430,1,8,0:0:0:0:
256,192,70476,12,0,71155,0:0:0:0:
256,192,71305,5,8,0:0:0:0:
256,192,71365,1,8,0:0:0:0:
256,192,71425,1,8,0:0:0:0:
256,192,71485,1,8,0:0:0:0:
256,192,71545,1,8,0:0:0:0:
256,192,71605,1,8,0:0:0:0:
256,192,71665,1,8,0:0:0:0:
256,192,71725,1,8,0:0:0:0:
0,384,71785,6,0,L|512:384,1,159.599997282028
256,192,72070,12,0,73465,0:0:0:0:
256,192,73555,12,0,73690,0:0:0:0:
256,192,73735,12,0,73870,0:0:0:0:
256,192,73915,12,0,74050,0:0:0:0:
256,192,74095,12,0,74230,0:0:0:0:
256,192,74275,12,0,74410,0:0:0:0:
256,192,74455,12,0,74545,0:0:0:0:
256,192,74905,5,0,0:0:0:0:
256,192,74935,1,0,0:0:0:0:
256,192,74965,1,0,0:0:0:0:
256,192,75025,1,8,0:0:0:0:
256,192,75145,1,0,0:0:0:0:
256,192,75205,1,8,0:0:0:0:
256,192,75265,1,0,0:0:0:0:
256,192,75325,1,0,0:0:0:0:
256,192,75385,1,8,0:0:0:0:
256,192,75445,1,0,0:0:0:0:
256,192,75505,1,8,0:0:0:0:
256,192,75565,1,0,0:0:0:0:
256,192,75625,1,8,0:0:0:0:
256,192,75685,1,8,0:0:0:0:
256,192,75745,1,0,0:0:0:0:
256,192,75785,1,0,0:0:0:0:
256,192,75825,1,0,0:0:0:0:
256,192,75865,1,8,0:0:0:0:
256,192,75985,1,8,0:0:0:0:
256,192,76105,1,0,0:0:0:0:
256,192,76145,1,8,0:0:0:0:
256,192,76225,1,0,0:0:0:0:
256,192,76345,1,0,0:0:0:0:
256,192,76375,1,8,0:0:0:0:
256,192,76405,12,0,76705,0:0:0:0:
256,192,76825,5,8,0:0:0:0:
256,192,76855,1,0,0:0:0:0:
256,192,76945,1,8,0:0:0:0:
256,192,77065,1,0,0:0:0:0:
256,192,77125,1,8,0:0:0:0:
256,192,77185,1,8,0:0:0:0:
256,192,77305,1,0,0:0:0:0:
256,192,77365,1,0,0:0:0:0:
256,192,77425,1,8,0:0:0:0:
256,192,77485,1,8,0:0:0:0:
256,192,77665,1,8,0:0:0:0:
256,192,77725,1,8,0:0:0:0:
256,192,77785,1,4,0:0:0:0:
256,192,77905,1,8,0:0:0:0:
256,192,78025,1,8,0:0:0:0:
256,192,78085,1,8,0:0:0:0:
256,192,78145,1,0,0:0:0:0:
256,192,78205,1,8,0:0:0:0:
256,192,78265,1,0,0:0:0:0:
256,192,78295,1,0,0:0:0:0:
256,192,78325,1,0,0:0:0:0:
256,192,78385,1,8,0:0:0:0:
256,192,78505,1,0,0:0:0:0:
256,192,78545,1,0,0:0:0:0:
256,192,78585,1,8,0:0:0:0:
256,192,78625,1,8,0:0:0:0:
256,192,78745,1,8,0:0:0:0:
256,192,78805,1,8,0:0:0:0:
256,192,78865,1,8,0:0:0:0:
256,192,78925,1,8,0:0:0:0:
256,192,78985,1,0,0:0:0:0:
256,192,79015,1,8,0:0:0:0:
256,192,79075,1,0,0:0:0:0:
256,192,79105,1,0,0:0:0:0:
256,192,79165,1,8,0:0:0:0:
256,192,79225,1,0,0:0:0:0:
256,192,79345,1,8,0:0:0:0:
256,192,79385,1,0,0:0:0:0:
256,192,79465,1,8,0:0:0:0:
256,192,79525,1,8,0:0:0:0:
256,192,79585,1,0,0:0:0:0:
256,192,79645,1,0,0:0:0:0:
256,192,79705,1,8,0:0:0:0:
256,192,79765,1,0,0:0:0:0:
256,192,79825,1,8,0:0:0:0:
256,192,79885,1,0,0:0:0:0:
256,192,79945,1,8,0:0:0:0:
256,192,79975,1,8,0:0:0:0:
256,192,80065,1,8,0:0:0:0:
256,192,80095,1,8,0:0:0:0:
256,192,80185,1,0,0:0:0:0:
256,192,80215,1,8,0:0:0:0:
256,192,80245,1,8,0:0:0:0:
256,192,80305,1,0,0:0:0:0:
256,192,80365,1,0,0:0:0:0:
256,192,80425,1,8,0:0:0:0:
256,192,80465,1,8,0:0:0:0:
256,192,80505,1,8,0:0:0:0:
256,192,80545,1,0,0:0:0:0:
256,192,80665,1,8,0:0:0:0:
256,192,80785,1,8,0:0:0:0:
256,192,80845,1,8,0:0:0:0:
256,192,80905,1,0,0:0:0:0:
256,192,80965,1,0,0:0:0:0:
256,192,81025,1,0,0:0:0:0:
256,192,81085,1,0,0:0:0:0:
256,192,81145,1,8,0:0:0:0:
256,192,81175,1,8,0:0:0:0:
256,192,81205,1,8,0:0:0:0:
256,192,81265,1,0,0:0:0:0:
256,192,81385,12,0,81565,0:0:0:0:
256,192,81625,5,4,0:0:0:0:
256,192,82105,1,0,0:0:0:0:
256,192,82135,1,8,0:0:0:0:
256,192,82585,1,0,0:0:0:0:
256,192,82615,1,0,0:0:0:0:
256,192,82645,1,0,0:0:0:0:
256,192,82705,1,8,0:0:0:0:
256,192,82825,1,0,0:0:0:0:
256,192,82885,1,8,0:0:0:0:
256,192,82945,1,0,0:0:0:0:
256,192,83005,1,0,0:0:0:0:
256,192,83065,1,8,0:0:0:0:
256,192,83125,1,0,0:0:0:0:
256,192,83185,1,8,0:0:0:0:
256,192,83245,1,0,0:0:0:0:
256,192,83305,1,8,0:0:0:0:
256,192,83365,1,8,0:0:0:0:
256,192,83425,1,0,0:0:0:0:
256,192,83465,1,0,0:0:0:0:
256,192,83505,1,0,0:0:0:0:
256,192,83545,1,8,0:0:0:0:
256,192,83605,1,8,0:0:0:0:
256,192,83785,1,8,0:0:0:0:
256,192,84025,1,8,0:0:0:0:
256,192,84085,1,8,0:0:0:0:
256,192,84145,1,8,0:0:0:0:
256,192,84205,1,8,0:0:0:0:
256,192,84265,1,8,0:0:0:0:
256,192,84385,1,8,0:0:0:0:
256,192,84505,1,0,0:0:0:0:
256,192,84535,1,0,0:0:0:0:
256,192,84565,1,8,0:0:0:0:
256,192,84625,1,8,0:0:0:0:
256,192,84745,1,0,0:0:0:0:
256,192,84805,1,8,0:0:0:0:
256,192,84865,1,0,0:0:0:0:
256,192,84985,1,8,0:0:0:0:
256,192,85045,1,8,0:0:0:0:
256,192,85105,1,0,0:0:0:0:
256,192,85165,1,8,0:0:0:0:
256,192,85225,1,0,0:0:0:0:
256,192,85265,1,0,0:0:0:0:
256,192,85305,1,8,0:0:0:0:
256,192,85345,1,8,0:0:0:0:
256,192,85465,1,0,0:0:0:0:
256,192,85525,1,0,0:0:0:0:
256,192,85585,1,0,0:0:0:0:
256,192,85645,1,0,0:0:0:0:
256,192,85705,1,8,0:0:0:0:
256,192,85825,1,0,0:0:0:0:
256,192,85885,1,8,0:0:0:0:
256,192,86005,1,0,0:0:0:0:
256,192,86065,1,8,0:0:0:0:
256,192,86185,1,8,0:0:0:0:
256,192,86215,1,8,0:0:0:0:
256,192,86245,1,0,0:0:0:0:
256,192,86305,1,8,0:0:0:0:
256,192,86425,1,8,0:0:0:0:
256,192,86485,1,8,0:0:0:0:
256,192,86545,1,8,0:0:0:0:
256,192,86605,1,8,0:0:0:0:
256,192,86665,1,0,0:0:0:0:
256,192,86725,1,0,0:0:0:0:
256,192,86785,1,0,0:0:0:0:
256,192,86845,1,0,0:0:0:0:
256,192,86905,1,8,0:0:0:0:
256,192,86945,1,8,0:0:0:0:
256,192,86985,1,0,0:0:0:0:
256,192,87025,1,8,0:0:0:0:
256,192,87145,1,0,0:0:0:0:
256,192,87185,1,0,0:0:0:0:
256,192,87225,1,8,0:0:0:0:
256,192,87265,1,0,0:0:0:0:
256,192,87385,1,8,0:0:0:0:
256,192,87505,1,0,0:0:0:0:
256,192,87565,1,0,0:0:0:0:
256,192,87625,1,8,0:0:0:0:
256,192,87665,1,0,0:0:0:0:
256,192,87705,1,0,0:0:0:0:
256,192,87745,1,8,0:0:0:0:
256,192,87865,1,0,0:0:0:0:
256,192,87905,1,0,0:0:0:0:
256,192,87945,1,0,0:0:0:0:
256,192,87985,1,8,0:0:0:0:
256,192,88105,1,0,0:0:0:0:
256,192,88145,1,8,0:0:0:0:
256,192,88185,1,8,0:0:0:0:
256,192,88225,1,0,0:0:0:0:
256,192,88345,1,4,0:0:0:0:
256,192,88825,12,0,90145,0:0:0:0:
256,192,90265,5,4,0:0:0:0:
256,192,90385,1,8,0:0:0:0:
256,192,90415,1,8,0:0:0:0:
256,192,90505,1,0,0:0:0:0:
256,192,90565,1,8,0:0:0:0:
256,192,90625,1,0,0:0:0:0:
256,192,90685,1,8,0:0:0:0:
256,192,90745,1,4,0:0:0:0:
256,192,90865,1,8,0:0:0:0:
256,192,90925,1,0,0:0:0:0:
256,192,90985,1,0,0:0:0:0:
256,192,91045,1,8,0:0:0:0:
256,192,91105,1,4,0:0:0:0:
256,192,91225,1,8,0:0:0:0:
256,192,91285,1,0,0:0:0:0:
256,192,91345,1,8,0:0:0:0:
256,192,91405,1,8,0:0:0:0:
256,192,91465,1,4,0:0:0:0:
256,192,91585,1,8,0:0:0:0:
256,192,91645,1,8,0:0:0:0:
256,192,91705,1,0,0:0:0:0:
256,192,91745,1,8,0:0:0:0:
256,192,91785,1,8,0:0:0:0:
256,192,91825,1,0,0:0:0:0:
256,192,91885,1,0,0:0:0:0:
256,192,91945,1,8,0:0:0:0:
256,192,92005,1,8,0:0:0:0:
256,192,92065,1,8,0:0:0:0:
256,192,92125,1,8,0:0:0:0:
256,192,92185,1,4,0:0:0:0:
256,192,92365,1,8,0:0:0:0:
256,192,92395,1,0,0:0:0:0:
256,192,92425,1,8,0:0:0:0:
256,192,92545,1,0,0:0:0:0:
256,192,92575,1,0,0:0:0:0:
256,192,92665,1,8,0:0:0:0:
256,192,92695,1,8,0:0:0:0:
256,192,92785,1,0,0:0:0:0:
256,192,92845,1,8,0:0:0:0:
256,192,92905,1,8,0:0:0:0:
256,192,93025,1,0,0:0:0:0:
256,192,93085,1,0,0:0:0:0:
256,192,93145,1,8,0:0:0:0:
256,192,93165,1,8,0:0:0:0:
256,192,93265,1,8,0:0:0:0:
256,192,93325,1,8,0:0:0:0:
256,192,93385,1,0,0:0:0:0:
256,192,93405,1,0,0:0:0:0:
256,192,93505,1,0,0:0:0:0:
256,192,93525,1,0,0:0:0:0:
256,192,93625,1,0,0:0:0:0:
256,192,93645,1,8,0:0:0:0:
256,192,93665,1,8,0:0:0:0:
256,192,93685,12,0,94045,0:0:0:0:
256,192,94105,5,8,0:0:0:0:
256,192,94165,1,8,0:0:0:0:
256,192,94225,1,8,0:0:0:0:
256,192,94285,1,8,0:0:0:0:
256,192,94345,1,0,0:0:0:0:
256,192,94385,1,8,0:0:0:0:
256,192,94425,1,8,0:0:0:0:
256,192,94465,1,0,0:0:0:0:
256,192,94585,1,8,0:0:0:0:
256,192,94615,1,8,0:0:0:0:
256,192,94705,1,0,0:0:0:0:
256,192,94765,1,8,0:0:0:0:
256,192,94825,1,0,0:0:0:0:
256,192,94885,1,0,0:0:0:0:
256,192,94945,1,8,0:0:0:0:
256,192,94975,1,8,0:0:0:0:
256,192,95065,1,0,0:0:0:0:
256,192,95095,1,0,0:0:0:0:
256,192,95185,1,0,0:0:0:0:
256,192,95215,1,0,0:0:0:0:
256,192,95305,1,8,0:0:0:0:
256,192,95335,1,0,0:0:0:0:
256,192,95425,1,8,0:0:0:0:
256,192,95455,1,8,0:0:0:0:
256,192,95545,1,0,0:0:0:0:
256,192,95575,1,8,0:0:0:0:
256,192,95605,12,0,95965,0:0:0:0:
256,192,96025,5,0,0:0:0:0:
256,192,96055,1,0,0:0:0:0:
256,192,96085,1,8,0:0:0:0:
256,192,96265,1,8,0:0:0:0:
256,192,96325,1,0,0:0:0:0:
256,192,96385,1,8,0:0:0:0:
256,192,96445,1,8,0:0:0:0:
256,192,96505,1,0,0:0:0:0:
256,192,96565,1,0,0:0:0:0:
256,192,96625,1,8,0:0:0:0:
256,192,96685,1,0,0:0:0:0:
256,192,96745,1,8,0:0:0:0:
256,192,96785,1,8,0:0:0:0:
256,192,96825,1,8,0:0:0:0:
256,192,96865,1,0,0:0:0:0:
256,192,96985,1,8,0:0:0:0:
256,192,97015,1,0,0:0:0:0:
256,192,97105,1,8,0:0:0:0:
256,192,97165,1,8,0:0:0:0:
256,192,97225,1,0,0:0:0:0:
256,192,97255,1,0,0:0:0:0:
256,192,97285,1,0,0:0:0:0:
256,192,97345,1,8,0:0:0:0:
256,192,97405,1,8,0:0:0:0:
0,384,97465,6,0,L|512:384,1,239.399995923042
256,192,97945,1,0,0:0:0:0:
256,192,97975,1,0,0:0:0:0:
256,192,98005,1,0,0:0:0:0:
256,192,98065,1,8,0:0:0:0:
256,192,98185,1,0,0:0:0:0:
256,192,98245,1,8,0:0:0:0:
256,192,98305,1,0,0:0:0:0:
256,192,98365,1,0,0:0:0:0:
256,192,98425,1,8,0:0:0:0:
256,192,98485,1,0,0:0:0:0:
256,192,98545,1,8,0:0:0:0:
256,192,98605,1,0,0:0:0:0:
256,192,98665,1,8,0:0:0:0:
256,192,98725,1,8,0:0:0:0:
256,192,98785,1,0,0:0:0:0:
256,192,98825,1,0,0:0:0:0:
256,192,98865,1,0,0:0:0:0:
256,192,98905,1,8,0:0:0:0:
256,192,98965,1,8,0:0:0:0:
256,192,99025,1,0,0:0:0:0:
256,192,99145,1,8,0:0:0:0:
256,192,99385,1,8,0:0:0:0:
256,192,99445,1,8,0:0:0:0:
256,192,99505,1,8,0:0:0:0:
256,192,99565,1,8,0:0:0:0:
256,192,99625,1,8,0:0:0:0:
256,192,99745,1,8,0:0:0:0:
256,192,99865,1,0,0:0:0:0:
256,192,99895,1,0,0:0:0:0:
256,192,99925,1,8,0:0:0:0:
256,192,99985,1,8,0:0:0:0:
256,192,100105,1,0,0:0:0:0:
256,192,100165,1,8,0:0:0:0:
256,192,100225,1,0,0:0:0:0:
256,192,100345,1,0,0:0:0:0:
256,192,100393,1,0,0:0:0:0:
256,192,100441,1,8,0:0:0:0:
256,192,100537,1,8,0:0:0:0:
256,192,100633,1,0,0:0:0:0:
256,192,100729,1,0,0:0:0:0:
256,192,100825,1,0,0:0:0:0:
256,192,100921,1,8,0:0:0:0:
256,192,100969,1,8,0:0:0:0:
256,192,101017,1,0,0:0:0:0:
256,192,101065,1,0,0:0:0:0:
256,192,101113,1,8,0:0:0:0:
256,192,101209,1,8,0:0:0:0:
256,192,101305,1,0,0:0:0:0:
256,192,101385,1,0,0:0:0:0:
256,192,101465,1,8,0:0:0:0:
256,192,101545,1,8,0:0:0:0:
256,192,101625,1,0,0:0:0:0:
256,192,101705,1,0,0:0:0:0:
256,192,101785,1,8,0:0:0:0:
256,192,101845,1,8,0:0:0:0:
256,192,101905,1,8,0:0:0:0:
256,192,101965,1,8,0:0:0:0:
256,192,102025,1,0,0:0:0:0:
256,192,102085,1,0,0:0:0:0:
256,192,102145,1,0,0:0:0:0:
256,192,102205,1,0,0:0:0:0:
256,192,102265,1,8,0:0:0:0:
256,192,102305,1,8,0:0:0:0:
256,192,102345,1,0,0:0:0:0:
256,192,102385,1,8,0:0:0:0:
256,192,102505,1,0,0:0:0:0:
256,192,102545,1,0,0:0:0:0:
256,192,102585,1,8,0:0:0:0:
256,192,102625,1,0,0:0:0:0:
256,192,102745,1,8,0:0:0:0:
256,192,102785,1,8,0:0:0:0:
256,192,102865,1,0,0:0:0:0:
256,192,102925,1,0,0:0:0:0:
256,192,102985,1,0,0:0:0:0:
256,192,103105,1,8,0:0:0:0:
256,192,103145,1,8,0:0:0:0:
256,192,103225,1,0,0:0:0:0:
256,192,103285,1,0,0:0:0:0:
256,192,103345,1,0,0:0:0:0:
256,192,103465,1,8,0:0:0:0:
256,192,103525,1,0,0:0:0:0:
256,192,103585,1,8,0:0:0:0:
256,192,103645,1,8,0:0:0:0:
256,192,103705,1,4,0:0:0:0:
256,192,103825,1,8,0:0:0:0:
256,192,103855,1,8,0:0:0:0:
256,192,103885,1,0,0:0:0:0:
256,192,103945,1,8,0:0:0:0:
256,192,104065,1,4,0:0:0:0:
256,192,104185,1,8,0:0:0:0:
256,192,104215,1,8,0:0:0:0:
256,192,104245,1,0,0:0:0:0:
256,192,104305,1,8,0:0:0:0:
256,192,104425,1,4,0:0:0:0:
256,192,104545,1,8,0:0:0:0:
256,192,104575,1,8,0:0:0:0:
256,192,104665,1,4,0:0:0:0:
256,192,104785,1,4,0:0:0:0:
256,192,104905,1,4,0:0:0:0:
256,192,105025,1,4,0:0:0:0:
256,192,105145,1,0,0:0:0:0:
256,192,105175,1,8,0:0:0:0:
256,192,105205,12,0,105565,0:0:0:0:
256,192,105625,5,0,0:0:0:0:
256,192,105655,1,0,0:0:0:0:
256,192,105685,1,0,0:0:0:0:
256,192,105745,1,8,0:0:0:0:
256,192,105865,1,0,0:0:0:0:
256,192,105925,1,8,0:0:0:0:
256,192,105985,1,0,0:0:0:0:
256,192,106045,1,0,0:0:0:0:
256,192,106105,1,8,0:0:0:0:
256,192,106225,1,0,0:0:0:0:
256,192,106315,1,0,0:0:0:0:
256,192,106427,1,0,0:0:0:0:
256,192,106555,1,0,0:0:0:0:
256,192,106585,12,0,107005,0:0:0:0:
256,192,107065,12,0,107485,0:0:0:0:
256,192,107545,5,8,0:0:0:0:
256,192,107575,1,8,0:0:0:0:
256,192,107605,1,0,0:0:0:0:
256,192,107665,1,8,0:0:0:0:
256,192,107725,1,8,0:0:0:0:
256,192,107785,1,8,0:0:0:0:
256,192,107905,1,8,0:0:0:0:
256,192,107935,1,8,0:0:0:0:
256,192,107965,1,0,0:0:0:0:
256,192,108025,1,8,0:0:0:0:
256,192,108085,1,8,0:0:0:0:
256,192,108145,1,8,0:0:0:0:
256,192,108265,1,0,0:0:0:0:
256,192,108305,1,0,0:0:0:0:
256,192,108345,1,8,0:0:0:0:
256,192,108385,1,8,0:0:0:0:
256,192,108505,1,0,0:0:0:0:
256,192,108553,1,0,0:0:0:0:
256,192,108601,1,8,0:0:0:0:
256,192,108697,1,8,0:0:0:0:
256,192,108793,1,0,0:0:0:0:
256,192,108841,1,0,0:0:0:0:
256,192,108889,1,0,0:0:0:0:
256,192,108937,1,0,0:0:0:0:
256,192,108985,1,8,0:0:0:0:
256,192,109025,12,0,109385,0:0:0:0:
256,192,109465,5,0,0:0:0:0:
256,192,109525,1,8,0:0:0:0:
256,192,109585,1,0,0:0:0:0:
256,192,109645,1,8,0:0:0:0:
256,192,109705,1,0,0:0:0:0:
256,192,109801,1,8,0:0:0:0:
256,192,109897,1,8,0:0:0:0:
256,192,109993,1,0,0:0:0:0:
256,192,110233,1,8,0:0:0:0:
256,192,110329,1,8,0:0:0:0:
256,192,110425,1,0,0:0:0:0:
256,192,110485,1,0,0:0:0:0:
256,192,110545,1,0,0:0:0:0:
256,192,110605,1,0,0:0:0:0:
256,192,110665,1,8,0:0:0:0:
256,192,110713,1,8,0:0:0:0:
256,192,110761,1,0,0:0:0:0:
256,192,110809,1,0,0:0:0:0:
256,192,110857,1,8,0:0:0:0:
256,192,110905,1,0,0:0:0:0:
256,192,110953,1,0,0:0:0:0:
256,192,111001,1,8,0:0:0:0:
256,192,111049,1,0,0:0:0:0:
256,192,111097,1,8,0:0:0:0:
256,192,111145,1,0,0:0:0:0:
256,192,111205,1,0,0:0:0:0:
256,192,111265,1,0,0:0:0:0:
256,192,111325,1,0,0:0:0:0:
256,192,111385,1,8,0:0:0:0:
256,192,111445,1,0,0:0:0:0:
256,192,111505,1,8,0:0:0:0:
256,192,111565,1,8,0:0:0:0:
256,192,111625,1,8,0:0:0:0:
256,192,111685,1,8,0:0:0:0:
256,192,111745,1,8,0:0:0:0:
256,192,111805,1,8,0:0:0:0:
256,192,111865,1,0,0:0:0:0:
256,192,111985,1,0,0:0:0:0:
256,192,112045,1,0,0:0:0:0:
256,192,112105,1,0,0:0:0:0:
256,192,112165,1,0,0:0:0:0:
256,192,112225,12,0,112465,0:0:0:0:
256,192,112585,5,0,0:0:0:0:
256,192,112645,1,0,0:0:0:0:
256,192,112705,1,0,0:0:0:0:
256,192,112765,1,0,0:0:0:0:
256,192,112825,1,8,0:0:0:0:
256,192,112855,1,8,0:0:0:0:
256,192,112885,1,0,0:0:0:0:
256,192,112945,1,8,0:0:0:0:
256,192,113065,1,0,0:0:0:0:
256,192,113095,1,0,0:0:0:0:
256,192,113125,1,0,0:0:0:0:
256,192,113305,1,8,0:0:0:0:
256,192,113345,1,8,0:0:0:0:
256,192,113385,1,8,0:0:0:0:
256,192,113425,1,8,0:0:0:0:
256,192,113545,1,8,0:0:0:0:
256,192,113605,1,8,0:0:0:0:
256,192,113665,1,0,0:0:0:0:
256,192,113705,1,8,0:0:0:0:
256,192,113745,1,8,0:0:0:0:
256,192,113785,1,0,0:0:0:0:
256,192,113845,1,8,0:0:0:0:
256,192,113905,1,8,0:0:0:0:
256,192,113965,1,0,0:0:0:0:
256,192,114025,1,8,0:0:0:0:
256,192,114085,1,0,0:0:0:0:
256,192,114145,1,0,0:0:0:0:
256,192,114205,1,0,0:0:0:0:
256,192,114265,1,8,0:0:0:0:
256,192,114305,1,8,0:0:0:0:
256,192,114345,1,8,0:0:0:0:
256,192,114385,1,0,0:0:0:0:
256,192,114445,1,0,0:0:0:0:
256,192,114505,1,8,0:0:0:0:
256,192,114565,1,8,0:0:0:0:
256,192,114625,1,0,0:0:0:0:
256,192,114745,1,0,0:0:0:0:
256,192,114775,1,8,0:0:0:0:
256,192,114805,12,0,115105,0:0:0:0:
256,192,115225,5,0,0:0:0:0:
256,192,115255,1,0,0:0:0:0:
256,192,115285,1,0,0:0:0:0:
256,192,115345,1,8,0:0:0:0:
256,192,115465,1,0,0:0:0:0:
256,192,115525,1,8,0:0:0:0:
256,192,115585,1,0,0:0:0:0:
256,192,115645,1,0,0:0:0:0:
256,192,115705,1,8,0:0:0:0:
256,192,115765,1,0,0:0:0:0:
256,192,115825,1,8,0:0:0:0:
256,192,115885,1,8,0:0:0:0:
256,192,115945,1,4,0:0:0:0:
256,192,116125,1,0,0:0:0:0:
256,192,116185,1,8,0:0:0:0:
256,192,116245,1,0,0:0:0:0:
256,192,116305,1,8,0:0:0:0:
256,192,116365,1,8,0:0:0:0:
256,192,116425,1,0,0:0:0:0:
256,192,116545,1,8,0:0:0:0:
256,192,116605,1,0,0:0:0:0:
256,192,116635,1,0,0:0:0:0:
256,192,116665,1,0,0:0:0:0:
256,192,116725,1,8,0:0:0:0:
256,192,116785,1,0,0:0:0:0:
256,192,116905,1,8,0:0:0:0:
256,192,116945,1,8,0:0:0:0:
256,192,116985,1,0,0:0:0:0:
256,192,117025,1,0,0:0:0:0:
256,192,117145,1,8,0:0:0:0:
256,192,117205,1,8,0:0:0:0:
256,192,117265,1,8,0:0:0:0:
256,192,117325,1,8,0:0:0:0:
256,192,117385,1,0,0:0:0:0:
256,192,117445,1,0,0:0:0:0:
256,192,117505,1,0,0:0:0:0:
256,192,117565,1,0,0:0:0:0:
256,192,117625,1,8,0:0:0:0:
256,192,117665,1,8,0:0:0:0:
256,192,117705,1,0,0:0:0:0:
256,192,117745,1,8,0:0:0:0:
256,192,117865,1,0,0:0:0:0:
256,192,117905,1,0,0:0:0:0:
256,192,117945,1,8,0:0:0:0:
256,192,117985,1,0,0:0:0:0:
256,192,118105,1,8,0:0:0:0:
256,192,118225,1,8,0:0:0:0:
256,192,118305,1,8,0:0:0:0:
256,192,118405,1,0,0:0:0:0:
256,192,118585,1,8,0:0:0:0:
256,192,118645,1,8,0:0:0:0:
256,192,118705,1,0,0:0:0:0:
256,192,118765,1,8,0:0:0:0:
256,192,118825,1,0,0:0:0:0:
256,192,118885,1,8,0:0:0:0:
256,192,118945,1,8,0:0:0:0:
256,192,119005,1,8,0:0:0:0:
256,192,119065,1,0,0:0:0:0:
256,192,119125,1,0,0:0:0:0:
256,192,119185,1,0,0:0:0:0:
256,192,119245,1,0,0:0:0:0:
256,192,119305,1,8,0:0:0:0:
256,192,119425,1,0,0:0:0:0:
256,192,119485,1,0,0:0:0:0:
256,192,119545,1,0,0:0:0:0:
256,192,119605,1,0,0:0:0:0:
256,192,119665,1,8,0:0:0:0:
256,192,119785,1,8,0:0:0:0:
256,192,119815,1,0,0:0:0:0:
256,192,119845,1,0,0:0:0:0:
256,192,119905,1,8,0:0:0:0:
256,192,119935,1,0,0:0:0:0:
256,192,119965,1,0,0:0:0:0:
256,192,120025,1,4,0:0:0:0:
256,192,120085,12,0,120865,0:0:0:0:
256,192,120985,5,12,0:0:0:0:
256,192,121225,1,0,0:0:0:0:
256,192,121285,1,0,0:0:0:0:
256,192,121345,1,0,0:0:0:0:
256,192,121405,1,0,0:0:0:0:
256,192,121465,1,0,0:0:0:0:
256,192,121525,1,0,0:0:0:0:
256,192,121585,1,8,0:0:0:0:
256,192,121615,1,0,0:0:0:0:
256,192,121705,1,8,0:0:0:0:
256,192,121765,1,0,0:0:0:0:
256,192,121825,1,0,0:0:0:0:
256,192,121885,1,0,0:0:0:0:
256,192,121945,1,8,0:0:0:0:
256,192,122005,1,0,0:0:0:0:
256,192,122065,1,8,0:0:0:0:
256,192,122125,1,8,0:0:0:0:
256,192,122305,1,0,0:0:0:0:
256,192,122365,1,8,0:0:0:0:
256,192,122425,1,0,0:0:0:0:
256,192,122465,1,0,0:0:0:0:
256,192,122505,1,8,0:0:0:0:
256,192,122545,1,8,0:0:0:0:
256,192,122665,1,0,0:0:0:0:
256,192,122725,1,0,0:0:0:0:
256,192,122785,1,0,0:0:0:0:
256,192,122845,1,0,0:0:0:0:
256,192,122905,1,8,0:0:0:0:
256,192,123025,1,0,0:0:0:0:
256,192,123085,1,8,0:0:0:0:
256,192,123145,1,0,0:0:0:0:
256,192,123265,1,0,0:0:0:0:
256,192,123325,1,0,0:0:0:0:
256,192,123385,1,8,0:0:0:0:
256,192,123505,1,8,0:0:0:0:
256,192,123625,1,0,0:0:0:0:
256,192,123685,1,0,0:0:0:0:
256,192,123745,1,8,0:0:0:0:
256,192,123865,1,0,0:0:0:0:
256,192,123905,1,0,0:0:0:0:
256,192,123985,1,8,0:0:0:0:
256,192,124045,1,0,0:0:0:0:
256,192,124105,1,8,0:0:0:0:
256,192,124165,1,8,0:0:0:0:
256,192,124225,1,0,0:0:0:0:
256,192,124285,1,8,0:0:0:0:
256,192,124345,1,0,0:0:0:0:
256,192,124385,1,0,0:0:0:0:
256,192,124425,1,0,0:0:0:0:
256,192,124465,1,8,0:0:0:0:
256,192,124505,1,8,0:0:0:0:
256,192,124545,1,8,0:0:0:0:
256,192,124585,1,0,0:0:0:0:
256,192,124825,1,8,0:0:0:0:
256,192,124885,1,8,0:0:0:0:
256,192,124945,1,8,0:0:0:0:
256,192,125005,1,8,0:0:0:0:
256,192,125065,1,0,0:0:0:0:
256,192,125185,1,8,0:0:0:0:
256,192,125245,1,0,0:0:0:0:
256,192,125305,1,8,0:0:0:0:
256,192,125425,1,0,0:0:0:0:
256,192,125545,1,8,0:0:0:0:
256,192,125585,1,8,0:0:0:0:
256,192,125605,1,8,0:0:0:0:
256,192,125665,1,0,0:0:0:0:
256,192,125725,1,0,0:0:0:0:
256,192,125785,1,8,0:0:0:0:
256,192,125825,1,8,0:0:0:0:
256,192,125845,1,8,0:0:0:0:
256,192,125905,1,0,0:0:0:0:
256,192,125965,1,0,0:0:0:0:
256,192,126025,1,8,0:0:0:0:
256,192,126145,1,0,0:0:0:0:
256,192,126265,1,8,0:0:0:0:
256,192,126305,1,0,0:0:0:0:
256,192,126385,1,8,0:0:0:0:
256,192,126425,1,0,0:0:0:0:
256,192,126505,1,8,0:0:0:0:
256,192,126545,1,8,0:0:0:0:
256,192,126585,1,0,0:0:0:0:
256,192,126745,1,0,0:0:0:0:
256,192,126865,1,8,0:0:0:0:
256,192,126925,1,8,0:0:0:0:
256,192,126985,12,0,127165,0:0:0:0:
256,192,127225,5,0,0:0:0:0:
256,192,127285,1,0,0:0:0:0:
256,192,127345,1,8,0:0:0:0:
256,192,127405,1,8,0:0:0:0:
256,192,127465,1,0,0:0:0:0:
256,192,127495,1,0,0:0:0:0:
256,192,127585,1,0,0:0:0:0:
256,192,127615,1,8,0:0:0:0:
256,192,127825,1,0,0:0:0:0:
256,192,127865,1,0,0:0:0:0:
256,192,127905,1,0,0:0:0:0:
256,192,127945,1,0,0:0:0:0:
256,192,128065,1,0,0:0:0:0:
256,192,128125,1,0,0:0:0:0:
256,192,128185,1,8,0:0:0:0:
256,192,128215,1,8,0:0:0:0:
256,192,128305,1,8,0:0:0:0:
256,192,128335,1,0,0:0:0:0:
256,192,128485,1,0,0:0:0:0:
256,192,128515,1,0,0:0:0:0:
256,192,128665,1,8,0:0:0:0:
256,192,128695,1,8,0:0:0:0:
256,192,128725,1,0,0:0:0:0:
256,192,128785,1,8,0:0:0:0:
256,192,128905,1,0,0:0:0:0:
256,192,128945,1,0,0:0:0:0:
256,192,128985,1,0,0:0:0:0:
256,192,129025,1,8,0:0:0:0:
256,192,129085,1,8,0:0:0:0:
256,192,129145,1,0,0:0:0:0:
256,192,129205,1,0,0:0:0:0:
256,192,129265,1,8,0:0:0:0:
256,192,129295,1,8,0:0:0:0:
256,192,129325,1,0,0:0:0:0:
256,192,129385,1,8,0:0:0:0:
256,192,129505,1,0,0:0:0:0:
256,192,129535,1,0,0:0:0:0:
256,192,129625,1,8,0:0:0:0:
256,192,129685,1,8,0:0:0:0:
256,192,129745,1,0,0:0:0:0:
256,192,129805,1,0,0:0:0:0:
256,192,129865,1,8,0:0:0:0:
256,192,129895,1,8,0:0:0:0:
256,192,129985,1,0,0:0:0:0:
256,192,130015,1,0,0:0:0:0:
256,192,130105,1,8,0:0:0:0:
256,192,130145,1,8,0:0:0:0:
256,192,130185,1,8,0:0:0:0:
256,192,130225,1,8,0:0:0:0:
256,192,130265,1,8,0:0:0:0:
256,192,130305,1,8,0:0:0:0:
256,192,130345,1,0,0:0:0:0:
256,192,130405,1,0,0:0:0:0:
256,192,130465,1,0,0:0:0:0:
256,192,130525,1,0,0:0:0:0:
256,192,130585,1,12,0:0:0:0:
256,192,130705,1,12,0:0:0:0:
256,192,130825,1,0,0:0:0:0:
256,192,130885,1,0,0:0:0:0:
256,192,130945,1,12,0:0:0:0:
256,192,131065,1,0,0:0:0:0:
256,192,131125,1,0,0:0:0:0:
256,192,131185,1,0,0:0:0:0:
256,192,131245,1,0,0:0:0:0:
256,192,131305,1,12,0:0:0:0:
256,192,131545,5,12,0:0:0:0:
256,192,131785,5,0,0:0:0:0:
256,192,131815,1,0,0:0:0:0:
256,192,131905,1,8,0:0:0:0:
256,192,131965,1,0,0:0:0:0:
256,192,131995,1,0,0:0:0:0:
256,192,132085,1,0,0:0:0:0:
256,192,132145,1,0,0:0:0:0:
256,192,132175,1,0,0:0:0:0:
256,192,132265,1,12,0:0:0:0:
256,192,132505,5,8,0:0:0:0:
256,192,132565,1,8,0:0:0:0:
256,192,132625,1,8,0:0:0:0:
256,192,132685,1,8,0:0:0:0:
256,192,132745,1,0,0:0:0:0:
256,192,132805,1,0,0:0:0:0:
256,192,132865,1,0,0:0:0:0:
256,192,132925,1,0,0:0:0:0:
256,192,132985,1,8,0:0:0:0:
256,192,133015,1,0,0:0:0:0:
256,192,133105,1,0,0:0:0:0:
256,192,133165,1,0,0:0:0:0:
256,192,133225,1,8,0:0:0:0:
256,192,133255,1,0,0:0:0:0:
256,192,133345,1,8,0:0:0:0:
256,192,133375,1,0,0:0:0:0:
256,192,133465,1,0,0:0:0:0:
256,192,133525,1,0,0:0:0:0:
256,192,133585,1,8,0:0:0:0:
256,192,133615,1,0,0:0:0:0:
256,192,133705,1,8,0:0:0:0:
256,192,133735,1,0,0:0:0:0:
256,192,133945,1,8,0:0:0:0:
256,192,133975,1,0,0:0:0:0:
256,192,134005,1,0,0:0:0:0:
256,192,134185,1,8,0:0:0:0:
256,192,134215,1,8,0:0:0:0:
256,192,134245,1,0,0:0:0:0:
256,192,134305,1,8,0:0:0:0:
256,192,134335,1,8,0:0:0:0:
256,192,134365,1,8,0:0:0:0:
256,192,134425,1,0,0:0:0:0:
256,192,136345,1,4,0:0:0:0:
256,192,136465,1,0,0:0:0:0:
256,192,136525,1,0,0:0:0:0:
256,192,136585,1,8,0:0:0:0:
256,192,136645,1,0,0:0:0:0:
256,192,136705,1,0,0:0:0:0:
256,192,136765,1,0,0:0:0:0:
256,192,136825,1,8,0:0:0:0:
256,192,136885,1,0,0:0:0:0:
256,192,136945,1,8,0:0:0:0:
256,192,137065,1,0,0:0:0:0:
256,192,137185,1,8,0:0:0:0:
256,192,137215,1,8,0:0:0:0:
256,192,137305,1,0,0:0:0:0:
256,192,137335,1,0,0:0:0:0:
256,192,137425,1,0,0:0:0:0:
256,192,137485,1,8,0:0:0:0:
256,192,137545,1,0,0:0:0:0:
256,192,137605,1,0,0:0:0:0:
256,192,137665,1,8,0:0:0:0:
256,192,137705,1,8,0:0:0:0:
256,192,137745,1,8,0:0:0:0:
0,384,137785,6,0,L|512:384,1,96.599998354912
256,192,138025,1,0,0:0:0:0:
256,192,138085,1,8,0:0:0:0:
256,192,138145,1,0,0:0:0:0:
256,192,138205,1,8,0:0:0:0:
256,192,138265,1,4,0:0:0:0:
256,192,138505,1,8,0:0:0:0:
256,192,138545,1,8,0:0:0:0:
256,192,138625,1,0,0:0:0:0:
256,192,138665,1,8,0:0:0:0:
256,192,138745,1,8,0:0:0:0:
256,192,138785,1,8,0:0:0:0:
256,192,138865,1,0,0:0:0:0:
256,192,138905,1,8,0:0:0:0:
256,192,138985,1,0,0:0:0:0:
256,192,139045,1,0,0:0:0:0:
256,192,139105,1,0,0:0:0:0:
256,192,139165,1,0,0:0:0:0:
256,192,139225,1,8,0:0:0:0:
256,192,139465,1,8,0:0:0:0:
256,192,139525,1,8,0:0:0:0:
256,192,139585,1,8,0:0:0:0:
256,192,139645,1,8,0:0:0:0:
256,192,139705,1,0,0:0:0:0:
256,192,139735,1,0,0:0:0:0:
256,192,139765,1,8,0:0:0:0:
256,192,139795,12,0,140065,0:0:0:0:
256,192,140185,5,4,0:0:0:0:
256,192,140305,1,8,0:0:0:0:
256,192,140345,1,8,0:0:0:0:
256,192,140425,1,0,0:0:0:0:
256,192,140485,1,8,0:0:0:0:
256,192,140545,1,0,0:0:0:0:
256,192,140605,1,8,0:0:0:0:
256,192,140665,1,0,0:0:0:0:
256,192,140725,1,0,0:0:0:0:
256,192,140785,1,8,0:0:0:0:
256,192,140825,1,8,0:0:0:0:
256,192,140865,1,8,0:0:0:0:
256,192,140905,1,0,0:0:0:0:
256,192,141025,1,8,0:0:0:0:
256,192,141145,1,0,0:0:0:0:
256,192,141205,1,0,0:0:0:0:
256,192,141265,1,8,0:0:0:0:
256,192,141325,1,0,0:0:0:0:
256,192,141385,1,8,0:0:0:0:
256,192,141415,1,8,0:0:0:0:
256,192,141505,1,0,0:0:0:0:
256,192,141565,1,0,0:0:0:0:
256,192,141625,1,8,0:0:0:0:
256,192,141745,1,8,0:0:0:0:
256,192,141805,1,8,0:0:0:0:
256,192,141865,1,8,0:0:0:0:
256,192,141925,1,8,0:0:0:0:
256,192,141985,1,0,0:0:0:0:
256,192,142025,1,8,0:0:0:0:
256,192,142065,1,8,0:0:0:0:
256,192,142105,1,4,0:0:0:0:
256,192,142225,1,0,0:0:0:0:
256,192,142285,1,0,0:0:0:0:
256,192,142345,1,8,0:0:0:0:
256,192,142405,1,0,0:0:0:0:
256,192,142465,1,0,0:0:0:0:
256,192,142525,1,0,0:0:0:0:
256,192,142585,1,8,0:0:0:0:
256,192,142705,1,8,0:0:0:0:
256,192,142825,1,0,0:0:0:0:
256,192,142865,1,0,0:0:0:0:
256,192,142905,1,0,0:0:0:0:
256,192,142945,1,0,0:0:0:0:
256,192,143065,1,8,0:0:0:0:
256,192,143125,1,8,0:0:0:0:
256,192,143185,1,0,0:0:0:0:
256,192,143245,1,0,0:0:0:0:
256,192,143305,1,8,0:0:0:0:
256,192,143365,1,0,0:0:0:0:
256,192,143425,1,0,0:0:0:0:
256,192,143485,1,0,0:0:0:0:
256,192,143545,1,12,0:0:0:0:
256,192,143785,1,0,0:0:0:0:
256,192,143815,1,8,0:0:0:0:
256,192,144025,1,4,0:0:0:0:
256,192,144265,1,8,0:0:0:0:
256,192,144325,1,0,0:0:0:0:
256,192,144385,1,8,0:0:0:0:
256,192,144445,1,8,0:0:0:0:
256,192,144505,1,0,0:0:0:0:
256,192,144625,1,0,0:0:0:0:
256,192,144745,1,8,0:0:0:0:
256,192,144785,1,0,0:0:0:0:
256,192,144865,1,8,0:0:0:0:
256,192,144905,1,0,0:0:0:0:
256,192,144985,1,8,0:0:0:0:
256,192,145105,1,8,0:0:0:0:
256,192,145165,1,0,0:0:0:0:
256,192,145225,1,8,0:0:0:0:
256,192,145285,1,0,0:0:0:0:
256,192,145345,1,8,0:0:0:0:
256,192,145405,1,8,0:0:0:0:
256,192,145465,1,0,0:0:0:0:
256,192,145495,1,8,0:0:0:0:
256,192,145525,12,0,145825,0:0:0:0:
256,192,145945,5,4,0:0:0:0:
256,192,146065,1,8,0:0:0:0:
256,192,146125,1,8,0:0:0:0:
256,192,146145,1,8,0:0:0:0:
256,192,146185,1,0,0:0:0:0:
256,192,146245,1,0,0:0:0:0:
256,192,146305,1,0,0:0:0:0:
256,192,146365,1,8,0:0:0:0:
256,192,146425,1,0,0:0:0:0:
256,192,146485,1,0,0:0:0:0:
256,192,146505,1,0,0:0:0:0:
256,192,146545,1,8,0:0:0:0:
256,192,146625,1,8,0:0:0:0:
256,192,146745,1,8,0:0:0:0:
256,192,146905,1,4,0:0:0:0:
256,192,147025,1,8,0:0:0:0:
256,192,147085,1,0,0:0:0:0:
256,192,147145,1,8,0:0:0:0:
256,192,147205,1,8,0:0:0:0:
256,192,147265,1,4,0:0:0:0:
256,192,147385,1,8,0:0:0:0:
256,192,147415,1,8,0:0:0:0:
256,192,147625,1,4,0:0:0:0:
256,192,147745,1,8,0:0:0:0:
256,192,147805,1,8,0:0:0:0:
256,192,147865,1,4,0:0:0:0:
256,192,147985,1,8,0:0:0:0:
256,192,148015,1,0,0:0:0:0:
256,192,148105,1,8,0:0:0:0:
256,192,148135,1,8,0:0:0:0:
256,192,148225,1,0,0:0:0:0:
256,192,148285,1,8,0:0:0:0:
256,192,148345,1,0,0:0:0:0:
256,192,148405,1,0,0:0:0:0:
256,192,148465,1,8,0:0:0:0:
256,192,148495,1,8,0:0:0:0:
256,192,148585,1,0,0:0:0:0:
256,192,148615,1,0,0:0:0:0:
256,192,148705,1,0,0:0:0:0:
256,192,148735,1,0,0:0:0:0:
256,192,148825,1,8,0:0:0:0:
256,192,148945,1,0,0:0:0:0:
256,192,149005,1,0,0:0:0:0:
256,192,149065,1,0,0:0:0:0:
256,192,149125,1,0,0:0:0:0:
256,192,149185,1,8,0:0:0:0:
256,192,149305,1,0,0:0:0:0:
256,192,149335,1,8,0:0:0:0:
256,192,149425,1,0,0:0:0:0:
256,192,149485,1,8,0:0:0:0:
256,192,149545,1,0,0:0:0:0:
256,192,149665,1,8,0:0:0:0:
256,192,149695,1,8,0:0:0:0:
256,192,149785,1,0,0:0:0:0:
256,192,149905,1,0,0:0:0:0:
256,192,149965,1,0,0:0:0:0:
256,192,150025,1,8,0:0:0:0:
256,192,150055,1,8,0:0:0:0:
256,192,150145,1,0,0:0:0:0:
256,192,150265,1,0,0:0:0:0:
256,192,150305,1,0,0:0:0:0:
256,192,150345,1,0,0:0:0:0:
256,192,150385,1,0,0:0:0:0:
256,192,150445,1,0,0:0:0:0:
256,192,150505,1,8,0:0:0:0:
256,192,150535,1,8,0:0:0:0:
256,192,150565,1,0,0:0:0:0:
256,192,150625,1,0,0:0:0:0:
256,192,150685,1,0,0:0:0:0:
256,192,151705,1,4,0:0:0:0:
256,192,151825,1,0,0:0:0:0:
256,192,151885,1,0,0:0:0:0:
256,192,151945,1,8,0:0:0:0:
256,192,152005,1,0,0:0:0:0:
256,192,152065,1,0,0:0:0:0:
256,192,152125,1,0,0:0:0:0:
256,192,152185,1,8,0:0:0:0:
256,192,152245,1,0,0:0:0:0:
256,192,152305,1,8,0:0:0:0:
256,192,152425,1,0,0:0:0:0:
256,192,152545,1,8,0:0:0:0:
256,192,152575,1,8,0:0:0:0:
256,192,152665,1,0,0:0:0:0:
256,192,152695,1,0,0:0:0:0:
256,192,152785,1,0,0:0:0:0:
256,192,152845,1,8,0:0:0:0:
256,192,152905,1,0,0:0:0:0:
256,192,152965,1,0,0:0:0:0:
256,192,153025,1,8,0:0:0:0:
256,192,153065,1,8,0:0:0:0:
256,192,153105,1,8,0:0:0:0:
0,384,153145,6,0,L|512:384,1,96.599998354912
256,192,153385,1,0,0:0:0:0:
256,192,153445,1,0,0:0:0:0:
256,192,153505,1,0,0:0:0:0:
256,192,153565,1,0,0:0:0:0:
256,192,153625,1,12,0:0:0:0:
256,192,153865,1,0,0:0:0:0:
256,192,153925,1,8,0:0:0:0:
256,192,153985,1,8,0:0:0:0:
256,192,154045,1,0,0:0:0:0:
256,192,154105,1,8,0:0:0:0:
256,192,154165,1,0,0:0:0:0:
256,192,154225,1,8,0:0:0:0:
256,192,154345,1,0,0:0:0:0:
256,192,154375,1,0,0:0:0:0:
256,192,154465,1,8,0:0:0:0:
256,192,154495,1,8,0:0:0:0:
256,192,154585,1,0,0:0:0:0:
256,192,154665,1,8,0:0:0:0:
256,192,154745,1,8,0:0:0:0:
256,192,154825,1,0,0:0:0:0:
256,192,154885,1,0,0:0:0:0:
256,192,154945,1,0,0:0:0:0:
256,192,155005,1,0,0:0:0:0:
256,192,155065,1,8,0:0:0:0:
256,192,155105,1,8,0:0:0:0:
256,192,155145,1,8,0:0:0:0:
256,192,155185,1,8,0:0:0:0:
256,192,155305,1,0,0:0:0:0:
256,192,155365,1,0,0:0:0:0:
256,192,155425,1,8,0:0:0:0:
256,192,155485,1,8,0:0:0:0:
256,192,155545,1,0,0:0:0:0:
256,192,155585,1,8,0:0:0:0:
256,192,155625,1,8,0:0:0:0:
256,192,155665,1,0,0:0:0:0:
256,192,155705,1,0,0:0:0:0:
256,192,155745,1,0,0:0:0:0:
256,192,155785,1,8,0:0:0:0:
256,192,155905,1,0,0:0:0:0:
256,192,155945,1,0,0:0:0:0:
256,192,155965,1,0,0:0:0:0:
256,192,156025,1,8,0:0:0:0:
256,192,156065,1,8,0:0:0:0:
256,192,156145,1,0,0:0:0:0:
256,192,156185,1,0,0:0:0:0:
256,192,156265,1,4,0:0:0:0:
256,192,156445,1,8,0:0:0:0:
256,192,156505,1,0,0:0:0:0:
256,192,156535,1,8,0:0:0:0:
256,192,156625,1,0,0:0:0:0:
256,192,156655,1,0,0:0:0:0:
256,192,156715,1,8,0:0:0:0:
256,192,156790,1,0,0:0:0:0:
256,192,156865,1,0,0:0:0:0:
256,192,156985,1,0,0:0:0:0:
256,192,157015,1,8,0:0:0:0:
256,192,157045,12,0,157345,0:0:0:0:
256,192,157465,5,4,0:0:0:0:
256,192,157585,1,0,0:0:0:0:
256,192,157645,1,0,0:0:0:0:
256,192,157705,1,8,0:0:0:0:
256,192,157765,1,0,0:0:0:0:
256,192,157825,1,0,0:0:0:0:
256,192,157885,1,0,0:0:0:0:
256,192,157945,1,8,0:0:0:0:
256,192,157985,1,8,0:0:0:0:
256,192,158041,1,8,0:0:0:0:
256,192,158105,1,8,0:0:0:0:
256,192,158185,1,0,0:0:0:0:
256,192,158215,1,0,0:0:0:0:
256,192,158253,1,0,0:0:0:0:
256,192,158305,1,0,0:0:0:0:
256,192,158365,1,0,0:0:0:0:
256,192,158425,1,0,0:0:0:0:
256,192,158545,1,0,0:0:0:0:
256,192,158585,1,0,0:0:0:0:
256,192,158625,1,0,0:0:0:0:
256,192,158665,1,8,0:0:0:0:
256,192,158725,1,8,0:0:0:0:
256,192,158785,1,8,0:0:0:0:
256,192,158845,1,8,0:0:0:0:
256,192,158905,12,0,159145,0:0:0:0:
256,192,159205,12,0,159325,0:0:0:0:
256,192,159385,5,4,0:0:0:0:
256,192,159505,1,8,0:0:0:0:
256,192,159565,1,0,0:0:0:0:
256,192,159625,1,8,0:0:0:0:
256,192,159685,1,8,0:0:0:0:
256,192,159745,1,0,0:0:0:0:
256,192,159805,1,0,0:0:0:0:
256,192,159865,1,8,0:0:0:0:
256,192,159985,1,8,0:0:0:0:
256,192,160105,1,0,0:0:0:0:
256,192,160145,1,0,0:0:0:0:
256,192,160185,1,0,0:0:0:0:
256,192,160225,1,8,0:0:0:0:
256,192,160285,1,8,0:0:0:0:
256,192,160345,1,4,0:0:0:0:
256,192,160465,1,8,0:0:0:0:
256,192,160525,1,0,0:0:0:0:
256,192,160585,1,8,0:0:0:0:
256,192,160645,1,8,0:0:0:0:
256,192,160705,1,8,0:0:0:0:
256,192,160765,1,8,0:0:0:0:
256,192,160825,1,0,0:0:0:0:
256,192,160855,1,8,0:0:0:0:
256,192,161065,1,0,0:0:0:0:
256,192,161095,1,0,0:0:0:0:
256,192,161185,1,0,0:0:0:0:
256,192,161305,1,0,0:0:0:0:
256,192,161425,1,0,0:0:0:0:
256,192,161485,1,0,0:0:0:0:
256,192,161545,1,0,0:0:0:0:
256,192,161575,1,0,0:0:0:0:
256,192,161605,1,0,0:0:0:0:
256,192,161665,1,0,0:0:0:0:
256,192,161725,1,0,0:0:0:0:
256,192,161785,1,8,0:0:0:0:
256,192,162025,1,8,0:0:0:0:
256,192,162055,1,8,0:0:0:0:
256,192,162085,1,8,0:0:0:0:
256,192,162145,1,8,0:0:0:0:
256,192,162205,1,8,0:0:0:0:
256,192,162265,1,0,0:0:0:0:
256,192,162325,1,8,0:0:0:0:
256,192,162385,1,8,0:0:0:0:
256,192,162445,1,8,0:0:0:0:
256,192,162505,1,0,0:0:0:0:
256,192,162525,1,0,0:0:0:0:
256,192,162625,1,8,0:0:0:0:
256,192,162685,1,8,0:0:0:0:
256,192,162745,1,8,0:0:0:0:
256,192,162865,1,0,0:0:0:0:
256,192,162885,1,0,0:0:0:0:
256,192,162985,1,8,0:0:0:0:
256,192,163045,1,8,0:0:0:0:
256,192,163105,1,0,0:0:0:0:
256,192,163125,1,0,0:0:0:0:
256,192,163225,1,4,0:0:0:0:
256,192,163345,1,8,0:0:0:0:
256,192,163375,1,8,0:0:0:0:
256,192,163465,1,8,0:0:0:0:
256,192,163585,1,4,0:0:0:0:
256,192,163705,1,8,0:0:0:0:
256,192,163735,1,8,0:0:0:0:
256,192,163825,1,8,0:0:0:0:
256,192,163945,1,0,0:0:0:0:
256,192,164005,1,0,0:0:0:0:
256,192,164065,1,8,0:0:0:0:
256,192,164125,1,8,0:0:0:0:
256,192,164185,1,0,0:0:0:0:
256,192,164215,1,0,0:0:0:0:
256,192,164305,1,0,0:0:0:0:
256,192,164335,1,8,0:0:0:0:
256,192,164425,1,8,0:0:0:0:
256,192,164455,1,8,0:0:0:0:
256,192,164545,1,8,0:0:0:0:
256,192,164665,1,0,0:0:0:0:
256,192,164725,1,0,0:0:0:0:
256,192,164785,1,0,0:0:0:0:
256,192,164845,1,0,0:0:0:0:
256,192,164905,1,8,0:0:0:0:
256,192,164935,1,8,0:0:0:0:
256,192,165025,1,8,0:0:0:0:
256,192,165055,1,8,0:0:0:0:
256,192,165145,1,0,0:0:0:0:
256,192,165205,1,0,0:0:0:0:
256,192,165265,1,8,0:0:0:0:
256,192,165325,1,8,0:0:0:0:
256,192,165385,1,0,0:0:0:0:
256,192,165445,1,0,0:0:0:0:
256,192,165505,1,8,0:0:0:0:
256,192,165545,1,8,0:0:0:0:
256,192,165585,1,0,0:0:0:0:
256,192,165625,1,0,0:0:0:0:
256,192,165665,1,8,0:0:0:0:
256,192,165705,1,8,0:0:0:0:
256,192,165745,1,0,0:0:0:0:
256,192,165865,1,8,0:0:0:0:
256,192,165895,1,8,0:0:0:0:
256,192,165925,1,0,0:0:0:0:
256,192,165955,1,0,0:0:0:0:
256,192,165985,1,8,0:0:0:0:
256,192,166015,1,8,0:0:0:0:
256,192,166045,1,0,0:0:0:0:
256,192,166075,1,0,0:0:0:0:
256,192,167065,1,4,0:0:0:0:
256,192,167185,1,8,0:0:0:0:
256,192,167245,1,0,0:0:0:0:
256,192,167305,1,8,0:0:0:0:
256,192,167425,1,0,0:0:0:0:
256,192,167485,1,0,0:0:0:0:
256,192,167545,1,8,0:0:0:0:
256,192,167605,1,0,0:0:0:0:
256,192,167665,1,8,0:0:0:0:
256,192,167725,1,0,0:0:0:0:
256,192,167785,1,8,0:0:0:0:
256,192,167815,1,8,0:0:0:0:
256,192,167845,1,0,0:0:0:0:
256,192,168025,1,8,0:0:0:0:
256,192,168085,1,8,0:0:0:0:
256,192,168145,1,8,0:0:0:0:
256,192,168205,1,8,0:0:0:0:
256,192,168265,1,0,0:0:0:0:
256,192,168305,1,0,0:0:0:0:
256,192,168345,1,8,0:0:0:0:
256,192,168385,1,0,0:0:0:0:
256,192,168505,1,0,0:0:0:0:
256,192,168535,1,8,0:0:0:0:
256,192,168985,1,8,0:0:0:0:
256,192,169015,1,8,0:0:0:0:
256,192,169045,1,0,0:0:0:0:
256,192,169225,1,8,0:0:0:0:
256,192,169285,1,8,0:0:0:0:
256,192,169305,1,0,0:0:0:0:
256,192,169345,1,8,0:0:0:0:
256,192,169465,1,0,0:0:0:0:
256,192,169525,1,8,0:0:0:0:
256,192,169545,1,8,0:0:0:0:
256,192,169585,1,0,0:0:0:0:
256,192,169645,1,0,0:0:0:0:
256,192,169705,1,8,0:0:0:0:
256,192,169765,1,8,0:0:0:0:
256,192,169825,1,8,0:0:0:0:
256,192,169885,1,8,0:0:0:0:
256,192,169945,1,0,0:0:0:0:
256,192,170065,1,8,0:0:0:0:
256,192,170125,1,0,0:0:0:0:
256,192,170185,1,8,0:0:0:0:
256,192,170245,1,0,0:0:0:0:
256,192,170305,1,8,0:0:0:0:
256,192,170335,1,8,0:0:0:0:
256,192,170425,1,0,0:0:0:0:
256,192,170505,1,0,0:0:0:0:
256,192,170585,1,0,0:0:0:0:
256,192,170665,1,8,0:0:0:0:
256,192,170725,1,8,0:0:0:0:
256,192,170785,1,8,0:0:0:0:
256,192,170845,1,8,0:0:0:0:
256,192,170905,1,0,0:0:0:0:
256,192,171025,1,8,0:0:0:0:
256,192,171055,1,0,0:0:0:0:
256,192,171145,1,8,0:0:0:0:
256,192,171265,1,0,0:0:0:0:
256,192,171385,1,8,0:0:0:0:
256,192,171415,1,0,0:0:0:0:
256,192,171505,1,8,0:0:0:0:
256,192,171565,1,8,0:0:0:0:
256,192,171625,1,0,0:0:0:0:
256,192,171685,1,8,0:0:0:0:
256,192,171745,1,0,0:0:0:0:
256,192,171805,1,8,0:0:0:0:
256,192,171865,1,0,0:0:0:0:
256,192,171925,1,8,0:0:0:0:
256,192,171985,1,0,0:0:0:0:
256,192,172025,1,0,0:0:0:0:
256,192,172065,1,0,0:0:0:0:
256,192,172105,1,8,0:0:0:0:
256,192,172165,1,0,0:0:0:0:
256,192,172225,1,8,0:0:0:0:
256,192,172345,1,8,0:0:0:0:
256,192,172405,12,0,172765,0:0:0:0:
256,192,172825,5,4,0:0:0:0:
256,192,172945,1,8,0:0:0:0:
256,192,173005,1,0,0:0:0:0:
256,192,173065,1,8,0:0:0:0:
256,192,173125,1,8,0:0:0:0:
256,192,173185,1,0,0:0:0:0:
256,192,173245,1,8,0:0:0:0:
256,192,173305,1,8,0:0:0:0:
256,192,173365,1,0,0:0:0:0:
256,192,173425,1,8,0:0:0:0:
256,192,173545,1,0,0:0:0:0:
256,192,173585,1,0,0:0:0:0:
256,192,173605,1,8,0:0:0:0:
256,192,173665,1,0,0:0:0:0:
256,192,173705,1,8,0:0:0:0:
256,192,173725,1,8,0:0:0:0:
256,192,173785,1,0,0:0:0:0:
256,192,173845,1,0,0:0:0:0:
256,192,173905,1,0,0:0:0:0:
256,192,173965,1,0,0:0:0:0:
256,192,174025,1,8,0:0:0:0:
256,192,174145,1,0,0:0:0:0:
256,192,174205,1,0,0:0:0:0:
256,192,174265,1,0,0:0:0:0:
256,192,174325,1,0,0:0:0:0:
256,192,174385,1,8,0:0:0:0:
256,192,174505,1,0,0:0:0:0:
256,192,174565,1,0,0:0:0:0:
256,192,174625,1,0,0:0:0:0:
256,192,174685,1,0,0:0:0:0:
256,192,174745,1,0,0:0:0:0:
256,192,174865,1,8,0:0:0:0:
256,192,174925,1,0,0:0:0:0:
256,192,174985,1,8,0:0:0:0:
256,192,175105,1,0,0:0:0:0:
256,192,175165,1,8,0:0:0:0:
256,192,175225,1,0,0:0:0:0:
256,192,175285,1,0,0:0:0:0:
256,192,175345,1,8,0:0:0:0:
256,192,175465,1,8,0:0:0:0:
256,192,175525,1,8,0:0:0:0:
256,192,175585,1,8,0:0:0:0:
256,192,175645,1,8,0:0:0:0:
256,192,175705,1,4,0:0:0:0:
256,192,175825,1,8,0:0:0:0:
256,192,175855,1,0,0:0:0:0:
256,192,175945,1,8,0:0:0:0:
256,192,176065,1,0,0:0:0:0:
256,192,176185,1,8,0:0:0:0:
256,192,176215,1,8,0:0:0:0:
256,192,176305,1,0,0:0:0:0:
256,192,176365,1,0,0:0:0:0:
256,192,176425,1,8,0:0:0:0:
256,192,176485,1,0,0:0:0:0:
256,192,176545,1,0,0:0:0:0:
256,192,176605,1,0,0:0:0:0:
256,192,176665,1,8,0:0:0:0:
256,192,176785,1,8,0:0:0:0:
256,192,176845,1,8,0:0:0:0:
256,192,176905,1,0,0:0:0:0:
256,192,177145,1,8,0:0:0:0:
256,192,177175,1,8,0:0:0:0:
256,192,177205,1,0,0:0:0:0:
256,192,177265,1,0,0:0:0:0:
256,192,177325,1,0,0:0:0:0:
256,192,177385,1,8,0:0:0:0:
256,192,177445,1,8,0:0:0:0:
256,192,177505,1,8,0:0:0:0:
256,192,177565,1,8,0:0:0:0:
256,192,177625,1,0,0:0:0:0:
256,192,177655,1,0,0:0:0:0:
256,192,177685,1,8,0:0:0:0:
256,192,177745,1,0,0:0:0:0:
256,192,177775,1,0,0:0:0:0:
256,192,177805,1,8,0:0:0:0:
256,192,177865,1,0,0:0:0:0:
256,192,177925,1,0,0:0:0:0:
256,192,177985,1,0,0:0:0:0:
256,192,178045,1,0,0:0:0:0:
256,192,178105,1,8,0:0:0:0:
256,192,178135,1,8,0:0:0:0:
256,192,178165,12,0,178465,0:0:0:0:
256,192,178585,5,4,0:0:0:0:
256,192,178705,1,8,0:0:0:0:
256,192,178765,1,0,0:0:0:0:
256,192,178825,1,8,0:0:0:0:
256,192,178885,1,0,0:0:0:0:
256,192,178945,1,8,0:0:0:0:
256,192,179005,1,0,0:0:0:0:
256,192,179065,12,0,179245,0:0:0:0:
256,192,179305,5,0,0:0:0:0:
256,192,179345,1,0,0:0:0:0:
256,192,179385,1,0,0:0:0:0:
256,192,179425,12,0,179965,0:0:0:0:
256,192,180025,5,0,0:0:0:0:
256,192,180055,1,8,0:0:0:0:
256,192,180085,12,0,180385,0:0:0:0:
256,192,180505,5,4,0:0:0:0:
256,192,180775,1,8,0:0:0:0:
256,192,180925,1,8,0:0:0:0:
256,192,181045,1,8,0:0:0:0:
256,192,181165,1,8,0:0:0:0:
256,192,181255,1,8,0:0:0:0:
256,192,181345,1,8,0:0:0:0:
256,192,181405,1,8,0:0:0:0:
256,192,181465,1,8,0:0:0:0:
256,192,181525,1,8,0:0:0:0:
256,192,181585,1,8,0:0:0:0:
256,192,181625,1,8,0:0:0:0:
256,192,181665,1,8,0:0:0:0:
0,384,181705,6,0,L|512:384,1,119.699997961522
256,192,181945,1,0,0:0:0:0:
256,192,181985,1,0,0:0:0:0:
256,192,182025,1,0,0:0:0:0:
256,192,182065,1,8,0:0:0:0:
256,192,182105,1,8,0:0:0:0:
256,192,182145,1,8,0:0:0:0:
256,192,182185,1,0,0:0:0:0:
256,192,182425,1,4,0:0:0:0:
256,192,182545,1,8,0:0:0:0:
256,192,182605,1,0,0:0:0:0:
256,192,182665,1,8,0:0:0:0:
256,192,182785,1,0,0:0:0:0:
256,192,182845,1,0,0:0:0:0:
256,192,182905,1,8,0:0:0:0:
256,192,182965,1,0,0:0:0:0:
256,192,183025,1,8,0:0:0:0:
256,192,183145,1,12,0:0:0:0:
256,192,183385,1,8,0:0:0:0:
256,192,183445,1,8,0:0:0:0:
256,192,183505,1,8,0:0:0:0:
256,192,183565,1,8,0:0:0:0:
256,192,183625,1,0,0:0:0:0:
256,192,183665,1,8,0:0:0:0:
256,192,183705,1,8,0:0:0:0:
256,192,183745,1,0,0:0:0:0:
256,192,183865,1,8,0:0:0:0:
256,192,183885,1,8,0:0:0:0:
256,192,184345,1,12,0:0:0:0:
256,192,184585,1,8,0:0:0:0:
256,192,184665,1,8,0:0:0:0:
256,192,184705,1,0,0:0:0:0:
256,192,184825,1,8,0:0:0:0:
256,192,184855,1,8,0:0:0:0:
256,192,184885,1,8,0:0:0:0:
256,192,184945,1,0,0:0:0:0:
256,192,185005,1,0,0:0:0:0:
256,192,185065,1,0,0:0:0:0:
256,192,185125,1,0,0:0:0:0:
256,192,185185,1,8,0:0:0:0:
256,192,185215,1,8,0:0:0:0:
256,192,185245,1,8,0:0:0:0:
256,192,185305,1,0,0:0:0:0:
256,192,185365,1,0,0:0:0:0:
256,192,185425,1,0,0:0:0:0:
256,192,185485,1,0,0:0:0:0:
256,192,185545,1,8,0:0:0:0:
256,192,185575,1,8,0:0:0:0:
256,192,185605,1,8,0:0:0:0:
256,192,185665,1,0,0:0:0:0:
256,192,185725,1,0,0:0:0:0:
256,192,185785,1,8,0:0:0:0:
256,192,185815,1,8,0:0:0:0:
256,192,185845,12,0,186145,0:0:0:0:
256,192,186265,5,0,0:0:0:0:
256,192,186305,1,8,0:0:0:0:
256,192,186345,1,8,0:0:0:0:
256,192,186385,1,0,0:0:0:0:
256,192,186445,1,0,0:0:0:0:
256,192,186505,1,8,0:0:0:0:
256,192,186545,1,0,0:0:0:0:
256,192,186585,1,0,0:0:0:0:
256,192,186625,1,8,0:0:0:0:
256,192,186685,1,8,0:0:0:0:
256,192,186745,1,0,0:0:0:0:
256,192,186785,1,0,0:0:0:0:
256,192,186825,1,8,0:0:0:0:
256,192,186865,1,0,0:0:0:0:
256,192,186925,1,0,0:0:0:0:
256,192,186985,1,8,0:0:0:0:
256,192,187025,1,8,0:0:0:0:
256,192,187065,1,0,0:0:0:0:
256,192,187105,1,8,0:0:0:0:
256,192,187165,1,8,0:0:0:0:
256,192,187225,1,4,0:0:0:0:
256,192,187465,1,4,0:0:0:0:
256,192,187585,1,4,0:0:0:0:
256,192,187705,1,12,0:0:0:0:
256,192,187945,1,0,0:0:0:0:
256,192,188005,1,0,0:0:0:0:
256,192,188065,1,0,0:0:0:0:
256,192,188125,1,0,0:0:0:0:
256,192,188185,1,8,0:0:0:0:
256,192,188225,1,8,0:0:0:0:
256,192,188265,1,0,0:0:0:0:
256,192,188305,1,8,0:0:0:0:
256,192,188365,1,8,0:0:0:0:
256,192,188425,1,0,0:0:0:0:
256,192,188465,1,0,0:0:0:0:
256,192,188505,1,0,0:0:0:0:
256,192,188545,1,8,0:0:0:0:
256,192,188605,1,8,0:0:0:0:
256,192,188665,1,4,0:0:0:0:
256,192,188785,1,0,0:0:0:0:
256,192,188845,1,8,0:0:0:0:
256,192,188905,1,8,0:0:0:0:
256,192,188965,1,8,0:0:0:0:
256,192,189025,1,4,0:0:0:0:
256,192,189145,1,8,0:0:0:0:
256,192,189205,1,0,0:0:0:0:
256,192,189265,1,8,0:0:0:0:
256,192,189325,1,8,0:0:0:0:
256,192,189385,1,4,0:0:0:0:
256,192,189505,1,8,0:0:0:0:
256,192,189565,1,0,0:0:0:0:
0,384,189625,6,0,L|512:384,1,222.599996209145
256,192,190105,1,4,0:0:0:0:
256,192,190225,1,8,0:0:0:0:
256,192,190255,1,0,0:0:0:0:
256,192,190345,1,8,0:0:0:0:
256,192,190465,1,0,0:0:0:0:
256,192,190525,1,0,0:0:0:0:
256,192,190585,1,8,0:0:0:0:
256,192,190645,1,8,0:0:0:0:
256,192,190705,1,0,0:0:0:0:
256,192,190745,1,8,0:0:0:0:
256,192,190785,1,8,0:0:0:0:
256,192,190825,1,4,0:0:0:0:
256,192,190945,1,8,0:0:0:0:
256,192,191065,1,0,0:0:0:0:
256,192,191185,1,0,0:0:0:0:
256,192,191225,1,0,0:0:0:0:
256,192,191265,1,0,0:0:0:0:
256,192,191305,1,0,0:0:0:0:
256,192,191365,1,0,0:0:0:0:
256,192,191425,1,0,0:0:0:0:
256,192,191485,1,0,0:0:0:0:
256,192,191545,1,8,0:0:0:0:
256,192,191585,1,8,0:0:0:0:
256,192,191785,1,4,0:0:0:0:
256,192,192025,1,8,0:0:0:0:
256,192,192145,1,0,0:0:0:0:
256,192,192205,1,0,0:0:0:0:
256,192,192265,1,8,0:0:0:0:
256,192,192325,1,0,0:0:0:0:
256,192,192385,1,8,0:0:0:0:
256,192,192445,1,0,0:0:0:0:
256,192,192505,1,8,0:0:0:0:
256,192,192545,1,8,0:0:0:0:
256,192,192585,1,0,0:0:0:0:
256,192,192625,1,8,0:0:0:0:
256,192,192745,1,0,0:0:0:0:
256,192,192785,1,0,0:0:0:0:
256,192,192825,1,8,0:0:0:0:
256,192,192865,1,0,0:0:0:0:
256,192,192985,12,0,193165,0:0:0:0:
256,192,193225,5,0,0:0:0:0:
256,192,193305,1,0,0:0:0:0:
256,192,193405,1,0,0:0:0:0:
256,192,193525,1,0,0:0:0:0:
256,192,193585,1,8,0:0:0:0:
256,192,193605,1,8,0:0:0:0:
256,192,193705,1,8,0:0:0:0:
256,192,193825,1,0,0:0:0:0:
256,192,193865,1,0,0:0:0:0:
256,192,193905,1,0,0:0:0:0:
256,192,193945,1,8,0:0:0:0:
256,192,194185,1,8,0:0:0:0:
256,192,194215,1,8,0:0:0:0:
256,192,194305,1,0,0:0:0:0:
256,192,194425,1,0,0:0:0:0:
256,192,194545,1,8,0:0:0:0:
256,192,194575,1,8,0:0:0:0:
256,192,194665,1,0,0:0:0:0:
256,192,194725,1,8,0:0:0:0:
256,192,194785,1,0,0:0:0:0:
256,192,194845,1,0,0:0:0:0:
256,192,194905,1,12,0:0:0:0:
256,192,195025,1,8,0:0:0:0:
256,192,195085,1,8,0:0:0:0:
256,192,195145,1,0,0:0:0:0:
256,192,195205,1,0,0:0:0:0:
256,192,195265,1,12,0:0:0:0:
256,192,195385,1,0,0:0:0:0:
256,192,195445,1,0,0:0:0:0:
256,192,195505,1,0,0:0:0:0:
256,192,195565,1,0,0:0:0:0:
256,192,195625,1,12,0:0:0:0:
256,192,195745,1,8,0:0:0:0:
256,192,195865,1,0,0:0:0:0:
256,192,197785,1,0,0:0:0:0:
256,192,197845,1,0,0:0:0:0:
256,192,197905,1,8,0:0:0:0:
256,192,197965,1,8,0:0:0:0:
256,192,198025,1,0,0:0:0:0:
256,192,198265,1,4,0:0:0:0:
256,192,198505,1,4,0:0:0:0:
256,192,198985,1,4,0:0:0:0:
256,192,199225,1,0,0:0:0:0:
256,192,199255,1,8,0:0:0:0:
256,192,199705,1,0,0:0:0:0:
256,192,199765,1,0,0:0:0:0:
256,192,199825,1,8,0:0:0:0:
256,192,199885,1,8,0:0:0:0:
256,192,199945,1,0,0:0:0:0:
256,192,200185,1,4,0:0:0:0:
256,192,200425,1,4,0:0:0:0:
256,192,200785,1,4,0:0:0:0:
256,192,201145,1,0,0:0:0:0:
256,192,201175,1,8,0:0:0:0:
256,192,201625,1,0,0:0:0:0:
256,192,201665,1,0,0:0:0:0:
256,192,201705,1,8,0:0:0:0:
256,192,201785,1,0,0:0:0:0:
256,192,201865,1,8,0:0:0:0:
256,192,201945,1,0,0:0:0:0:
256,192,202025,1,8,0:0:0:0:
256,192,202105,1,4,0:0:0:0:
256,192,202345,1,4,0:0:0:0:
256,192,202585,1,4,0:0:0:0:
256,192,202825,1,4,0:0:0:0:
256,192,203065,1,0,0:0:0:0:
256,192,203095,1,8,0:0:0:0:
256,192,203545,1,0,0:0:0:0:
256,192,203585,1,8,0:0:0:0:
256,192,203625,1,8,0:0:0:0:
256,192,203705,1,8,0:0:0:0:
256,192,203785,1,8,0:0:0:0:
256,192,203905,1,4,0:0:0:0:
256,192,204265,1,4,0:0:0:0:
256,192,204625,1,4,0:0:0:0:
256,192,204745,1,4,0:0:0:0:
256,192,204985,1,0,0:0:0:0:
256,192,205015,1,8,0:0:0:0:
256,192,205465,1,4,0:0:0:0:
256,192,205585,12,0,205825,0:0:0:0:
256,192,205945,5,4,0:0:0:0:
256,192,206185,1,4,0:0:0:0:
256,192,206545,1,4,0:0:0:0:
256,192,206665,1,4,0:0:0:0:
256,192,206905,1,0,0:0:0:0:
256,192,206935,1,8,0:0:0:0:
256,192,207385,1,0,0:0:0:0:
256,192,207425,1,8,0:0:0:0:
256,192,207465,1,8,0:0:0:0:
256,192,207545,1,0,0:0:0:0:
256,192,207585,1,8,0:0:0:0:
256,192,207625,1,8,0:0:0:0:
256,192,207705,1,0,0:0:0:0:
256,192,207745,1,8,0:0:0:0:
256,192,207785,1,8,0:0:0:0:
256,192,207865,1,0,0:0:0:0:
256,192,207925,1,0,0:0:0:0:
256,192,207985,1,0,0:0:0:0:
256,192,208105,1,4,0:0:0:0:
256,192,208225,1,8,0:0:0:0:
256,192,208285,1,8,0:0:0:0:
256,192,208345,1,8,0:0:0:0:
256,192,208465,1,4,0:0:0:0:
256,192,208585,1,8,0:0:0:0:
256,192,208645,1,8,0:0:0:0:
256,192,208705,1,8,0:0:0:0:
256,192,208825,1,0,0:0:0:0:
256,192,208855,1,8,0:0:0:0:
0,384,208885,6,0,L|512:384,1,131.249997764826
256,192,209305,1,0,0:0:0:0:
256,192,209385,1,0,0:0:0:0:
256,192,209465,1,0,0:0:0:0:
256,192,209545,1,8,0:0:0:0:
256,192,209625,1,8,0:0:0:0:
256,192,209705,1,8,0:0:0:0:
256,192,209785,1,4,0:0:0:0:
256,192,210025,1,4,0:0:0:0:
256,192,210145,1,4,0:0:0:0:
256,192,210385,1,0,0:0:0:0:
256,192,210425,1,0,0:0:0:0:
256,192,210465,1,0,0:0:0:0:
256,192,210505,1,0,0:0:0:0:
256,192,210745,1,0,0:0:0:0:
256,192,210775,1,8,0:0:0:0:
256,192,211105,1,8,0:0:0:0:
256,192,211225,1,4,0:0:0:0:
256,192,211465,1,8,0:0:0:0:
256,192,211585,1,4,0:0:0:0:
256,192,211945,1,4,0:0:0:0:
256,192,212185,1,0,0:0:0:0:
256,192,212245,1,0,0:0:0:0:
256,192,212305,1,0,0:0:0:0:
256,192,212425,1,4,0:0:0:0:
256,192,212665,1,0,0:0:0:0:
256,192,212695,1,8,0:0:0:0:
256,192,213145,1,4,0:0:0:0:
256,192,214105,12,0,214945,0:0:0:0:
256,192,215065,5,8,0:0:0:0:
256,192,215125,1,8,0:0:0:0:
256,192,215185,1,0,0:0:0:0:
256,192,215245,1,0,0:0:0:0:
256,192,215305,1,8,0:0:0:0:
256,192,215545,1,4,0:0:0:0:
256,192,215785,1,4,0:0:0:0:
256,192,216145,1,4,0:0:0:0:
256,192,216505,1,0,0:0:0:0:
256,192,216535,1,8,0:0:0:0:
256,192,216985,1,0,0:0:0:0:
256,192,217065,1,8,0:0:0:0:
256,192,217105,1,0,0:0:0:0:
256,192,217165,1,0,0:0:0:0:
256,192,217225,1,8,0:0:0:0:
256,192,217265,1,8,0:0:0:0:
256,192,217345,1,0,0:0:0:0:
256,192,217405,1,8,0:0:0:0:
256,192,217465,1,0,0:0:0:0:
256,192,217705,1,8,0:0:0:0:
256,192,217825,1,0,0:0:0:0:
256,192,217945,1,8,0:0:0:0:
256,192,218065,1,8,0:0:0:0:
256,192,218185,1,0,0:0:0:0:
256,192,218305,1,8,0:0:0:0:
256,192,218425,1,0,0:0:0:0:
256,192,218455,1,8,0:0:0:0:
256,192,218905,1,4,0:0:0:0:
256,192,219145,1,8,0:0:0:0:
256,192,219265,1,4,0:0:0:0:
256,192,219625,1,4,0:0:0:0:
256,192,219985,1,4,0:0:0:0:
256,192,220105,1,4,0:0:0:0:
256,192,220345,1,0,0:0:0:0:
256,192,220375,1,8,0:0:0:0:
256,192,220825,1,4,0:0:0:0:
256,192,221305,1,4,0:0:0:0:
256,192,221545,1,4,0:0:0:0:
256,192,221905,1,4,0:0:0:0:
256,192,222025,1,4,0:0:0:0:
256,192,222265,1,0,0:0:0:0:
256,192,222295,1,8,0:0:0:0:
256,192,222745,1,0,0:0:0:0:
256,192,222825,1,0,0:0:0:0:
256,192,222905,1,0,0:0:0:0:
256,192,222985,1,8,0:0:0:0:
256,192,223065,1,8,0:0:0:0:
256,192,223145,1,8,0:0:0:0:
256,192,223225,1,0,0:0:0:0:
256,192,223285,1,0,0:0:0:0:
256,192,223345,1,0,0:0:0:0:
256,192,223465,1,4,0:0:0:0:
256,192,223825,1,4,0:0:0:0:
256,192,224185,1,0,0:0:0:0:
256,192,224215,1,8,0:0:0:0:
0,384,224245,6,0,L|512:384,1,131.249997764826
256,192,224665,1,4,0:0:0:0:
256,192,224785,12,0,225025,0:0:0:0:
256,192,225145,5,4,0:0:0:0:
256,192,225385,1,4,0:0:0:0:
256,192,225505,1,4,0:0:0:0:
256,192,225745,1,0,0:0:0:0:
256,192,225785,1,0,0:0:0:0:
256,192,225825,1,0,0:0:0:0:
256,192,225865,1,0,0:0:0:0:
256,192,226105,1,0,0:0:0:0:
256,192,226135,1,8,0:0:0:0:
256,192,226585,1,0,0:0:0:0:
256,192,226625,1,0,0:0:0:0:
256,192,226665,1,8,0:0:0:0:
256,192,226705,1,8,0:0:0:0:
256,192,226945,1,4,0:0:0:0:
256,192,227305,1,4,0:0:0:0:
256,192,227545,1,0,0:0:0:0:
256,192,227605,1,0,0:0:0:0:
256,192,227665,1,0,0:0:0:0:
256,192,227785,1,4,0:0:0:0:
256,192,228025,1,0,0:0:0:0:
256,192,228055,1,8,0:0:0:0:
256,192,228505,1,4,0:0:0:0:
256,192,232405,1,8,0:0:0:0:
256,192,234325,1,0,0:0:0:0:
256,192,236245,1,8,0:0:0:0:
256,192,239125,1,8,0:0:0:0:
256,192,240085,1,0,0:0:0:0:
256,192,243925,1,0,0:0:0:0:
256,192,247765,1,0,0:0:0:0:
256,192,250045,1,8,0:0:0:0:
256,192,251605,1,0,0:0:0:0:
256,192,253525,1,0,0:0:0:0:
256,192,254125,1,8,0:0:0:0:
256,192,255445,1,0,0:0:0:0:
256,192,256885,1,0,0:0:0:0:
256,192,257785,1,8,0:0:0:0:
256,192,258025,1,8,0:0:0:0:
256,192,259225,1,4,0:0:0:0:
256,192,259465,1,0,0:0:0:0:
256,192,259525,1,8,0:0:0:0:
256,192,259615,1,8,0:0:0:0:
256,192,259705,1,0,0:0:0:0:
256,192,259945,1,8,0:0:0:0:
256,192,259975,1,0,0:0:0:0:
256,192,260185,1,12,0:0:0:0:
256,192,260665,1,0,0:0:0:0:
256,192,260695,1,8,0:0:0:0:
256,192,261145,5,4,0:0:0:0:
256,192,261385,1,8,0:0:0:0:
256,192,261445,1,0,0:0:0:0:
256,192,261625,1,0,0:0:0:0:
256,192,261865,1,0,0:0:0:0:
256,192,261895,1,0,0:0:0:0:
256,192,262105,1,12,0:0:0:0:
256,192,262585,1,0,0:0:0:0:
256,192,262615,1,8,0:0:0:0:
256,192,263065,5,4,0:0:0:0:
256,192,263305,1,0,0:0:0:0:
256,192,263365,1,0,0:0:0:0:
256,192,263425,1,0,0:0:0:0:
256,192,263575,1,0,0:0:0:0:
256,192,263785,1,4,0:0:0:0:
256,192,264025,1,12,0:0:0:0:
256,192,264265,1,4,0:0:0:0:
256,192,264505,1,0,0:0:0:0:
256,192,264535,1,8,0:0:0:0:
256,192,264985,5,4,0:0:0:0:
256,192,265225,1,8,0:0:0:0:
256,192,265345,1,4,0:0:0:0:
256,192,265555,1,0,0:0:0:0:
256,192,265585,1,8,0:0:0:0:
256,192,265705,1,4,0:0:0:0:
256,192,265945,1,12,0:0:0:0:
256,192,266185,1,0,0:0:0:0:
256,192,266245,1,0,0:0:0:0:
256,192,266305,1,0,0:0:0:0:
256,192,266365,1,0,0:0:0:0:
256,192,266425,1,0,0:0:0:0:
256,192,266455,1,8,0:0:0:0:
256,192,266665,1,0,0:0:0:0:
256,192,266695,1,8,0:0:0:0:
256,192,266905,1,4,0:0:0:0:
256,192,267145,1,0,0:0:0:0:
256,192,267205,1,8,0:0:0:0:
256,192,267295,1,8,0:0:0:0:
256,192,267385,1,0,0:0:0:0:
256,192,267625,1,8,0:0:0:0:
256,192,267655,1,0,0:0:0:0:
256,192,267865,1,12,0:0:0:0:
256,192,268345,1,0,0:0:0:0:
256,192,268375,1,8,0:0:0:0:
256,192,268825,5,4,0:0:0:0:
256,192,269065,1,8,0:0:0:0:
256,192,269125,1,0,0:0:0:0:
256,192,269305,1,0,0:0:0:0:
256,192,269545,1,0,0:0:0:0:
256,192,269575,1,0,0:0:0:0:
256,192,269785,1,12,0:0:0:0:
256,192,270265,1,0,0:0:0:0:
256,192,270295,1,8,0:0:0:0:
0,384,270325,6,0,L|512:384,1,131.249997764826
256,192,270745,1,4,0:0:0:0:
256,192,270985,1,0,0:0:0:0:
256,192,271045,1,0,0:0:0:0:
256,192,271105,1,0,0:0:0:0:
256,192,271255,1,0,0:0:0:0:
256,192,271465,1,4,0:0:0:0:
256,192,271705,1,12,0:0:0:0:
256,192,272065,1,4,0:0:0:0:
256,192,272185,1,0,0:0:0:0:
256,192,272215,1,8,0:0:0:0:
256,192,272425,1,4,0:0:0:0:
256,192,272665,1,0,0:0:0:0:
256,192,272905,1,0,0:0:0:0:
256,192,273025,1,0,0:0:0:0:
256,192,273145,1,8,0:0:0:0:
256,192,273385,1,0,0:0:0:0:
256,192,273505,1,8,0:0:0:0:
256,192,273625,1,0,0:0:0:0:
256,192,273745,1,0,0:0:0:0:
256,192,273865,1,8,0:0:0:0:
256,192,274105,1,0,0:0:0:0:
256,192,274225,1,8,0:0:0:0:
256,192,274345,1,8,0:0:0:0:
256,192,274465,1,8,0:0:0:0:
256,192,274585,1,4,0:0:0:0:
256,192,274825,1,0,0:0:0:0:
256,192,274885,1,8,0:0:0:0:
256,192,274975,1,8,0:0:0:0:
256,192,275065,1,0,0:0:0:0:
256,192,275305,1,8,0:0:0:0:
256,192,275335,1,0,0:0:0:0:
256,192,275545,1,12,0:0:0:0:
256,192,276025,1,0,0:0:0:0:
256,192,276055,1,8,0:0:0:0:
256,192,276505,5,4,0:0:0:0:
256,192,276745,1,8,0:0:0:0:
256,192,276805,1,0,0:0:0:0:
256,192,276985,1,0,0:0:0:0:
256,192,277225,1,0,0:0:0:0:
256,192,277255,1,0,0:0:0:0:
256,192,277465,1,12,0:0:0:0:
256,192,277945,1,0,0:0:0:0:
256,192,277975,1,8,0:0:0:0:
256,192,278425,5,4,0:0:0:0:
256,192,278665,1,0,0:0:0:0:
256,192,278725,1,0,0:0:0:0:
256,192,278785,1,0,0:0:0:0:
256,192,278935,1,0,0:0:0:0:
256,192,279145,1,4,0:0:0:0:
256,192,279385,1,12,0:0:0:0:
256,192,279625,1,4,0:0:0:0:
256,192,279865,1,0,0:0:0:0:
256,192,279895,1,8,0:0:0:0:
256,192,280345,5,4,0:0:0:0:
256,192,280585,1,8,0:0:0:0:
256,192,280705,1,4,0:0:0:0:
256,192,280915,1,0,0:0:0:0:
256,192,280945,1,8,0:0:0:0:
256,192,281065,1,4,0:0:0:0:
256,192,281305,1,12,0:0:0:0:
256,192,281545,1,0,0:0:0:0:
256,192,281605,1,0,0:0:0:0:
256,192,281665,1,0,0:0:0:0:
256,192,281725,1,0,0:0:0:0:
256,192,281785,1,0,0:0:0:0:
256,192,281815,1,8,0:0:0:0:
256,192,282025,1,0,0:0:0:0:
256,192,282055,1,8,0:0:0:0:
256,192,282265,1,4,0:0:0:0:
256,192,282505,1,0,0:0:0:0:
256,192,282565,1,8,0:0:0:0:
256,192,282655,1,8,0:0:0:0:
256,192,282745,1,0,0:0:0:0:
256,192,282985,1,8,0:0:0:0:
256,192,283015,1,0,0:0:0:0:
256,192,283225,1,12,0:0:0:0:
256,192,283705,1,0,0:0:0:0:
256,192,283735,1,8,0:0:0:0:
256,192,284185,5,4,0:0:0:0:
256,192,284425,1,8,0:0:0:0:
256,192,284485,1,0,0:0:0:0:
256,192,284665,1,0,0:0:0:0:
256,192,284905,1,0,0:0:0:0:
256,192,284935,1,0,0:0:0:0:
256,192,285145,1,12,0:0:0:0:
256,192,285625,1,0,0:0:0:0:
256,192,285655,1,8,0:0:0:0:
0,384,285685,6,0,L|512:384,1,131.249997764826
256,192,286105,1,4,0:0:0:0:
256,192,286345,1,0,0:0:0:0:
256,192,286405,1,0,0:0:0:0:
256,192,286465,1,0,0:0:0:0:
256,192,286585,1,12,0:0:0:0:
256,192,286825,1,4,0:0:0:0:
256,192,287065,1,8,0:0:0:0:
256,192,287105,1,0,0:0:0:0:
256,192,287305,1,12,0:0:0:0:
256,192,287545,1,4,0:0:0:0:
256,192,287785,1,4,0:0:0:0:
256,192,288025,1,4,0:0:0:0:
256,192,288385,1,4,0:0:0:0:
256,192,288745,1,4,0:0:0:0:
256,192,288985,12,0,289825,0:0:0:0:
256,192,289945,5,0,0:0:0:0:
256,192,290425,12,0,290665,0:0:0:0:
256,192,290785,12,0,291265,0:0:0:0:
256,192,291385,5,8,0:0:0:0:
256,192,291425,1,8,0:0:0:0:
256,192,291465,1,0,0:0:0:0:
256,192,291505,1,8,0:0:0:0:
256,192,291625,1,12,0:0:0:0:
256,192,292105,1,8,0:0:0:0:
256,192,292345,1,0,0:0:0:0:
256,192,292825,1,8,0:0:0:0:
256,192,293305,1,8,0:0:0:0:
256,192,293785,5,0,0:0:0:0:
256,192,294025,1,0,0:0:0:0:
256,192,294085,1,0,0:0:0:0:
256,192,294145,1,0,0:0:0:0:
256,192,294295,1,0,0:0:0:0:
256,192,294505,1,0,0:0:0:0:
256,192,294745,1,8,0:0:0:0:
256,192,294985,1,0,0:0:0:0:
256,192,295225,1,8,0:0:0:0:
256,192,295705,5,0,0:0:0:0:
256,192,295945,1,8,0:0:0:0:
256,192,296065,1,0,0:0:0:0:
256,192,296305,1,8,0:0:0:0:
256,192,296425,1,0,0:0:0:0:
256,192,296665,1,8,0:0:0:0:
256,192,296905,1,0,0:0:0:0:
256,192,296965,1,0,0:0:0:0:
256,192,297025,1,0,0:0:0:0:
256,192,297145,1,8,0:0:0:0:
256,192,297385,1,8,0:0:0:0:
256,192,297625,1,0,0:0:0:0:
256,192,297865,1,0,0:0:0:0:
256,192,297925,1,8,0:0:0:0:
256,192,298015,1,8,0:0:0:0:
256,192,298105,1,0,0:0:0:0:
256,192,298345,1,0,0:0:0:0:
256,192,298585,1,8,0:0:0:0:
256,192,299065,1,8,0:0:0:0:
256,192,299545,1,0,0:0:0:0:
256,192,299785,1,8,0:0:0:0:
256,192,299845,1,0,0:0:0:0:
256,192,300025,1,0,0:0:0:0:
256,192,300265,1,0,0:0:0:0:
256,192,300505,1,8,0:0:0:0:
256,192,300985,1,8,0:0:0:0:
256,192,301465,1,0,0:0:0:0:
256,192,301705,1,0,0:0:0:0:
256,192,301765,1,8,0:0:0:0:
256,192,301945,1,0,0:0:0:0:
256,192,302185,1,8,0:0:0:0:
256,192,302425,1,0,0:0:0:0:
256,192,302665,1,8,0:0:0:0:
256,192,302905,1,0,0:0:0:0:
256,192,303385,1,8,0:0:0:0:
256,192,303745,1,8,0:0:0:0:
256,192,304105,1,8,0:0:0:0:
256,192,304345,1,8,0:0:0:0:
256,192,304585,1,8,0:0:0:0:
256,192,304645,1,8,0:0:0:0:
256,192,304705,1,8,0:0:0:0:
256,192,304765,1,8,0:0:0:0:
256,192,304825,12,0,305185,0:0:0:0:
256,192,305305,5,8,0:0:0:0:
256,192,306265,1,8,0:0:0:0:
256,192,306745,1,0,0:0:0:0:
256,192,307225,1,0,0:0:0:0:
256,192,308185,1,8,0:0:0:0:
256,192,308665,1,8,0:0:0:0:
256,192,309145,1,0,0:0:0:0:
256,192,310585,1,8,0:0:0:0:
256,192,311065,1,0,0:0:0:0:
256,192,311305,1,0,0:0:0:0:
256,192,311545,1,0,0:0:0:0:
256,192,311785,1,8,0:0:0:0:
256,192,312265,1,0,0:0:0:0:
256,192,312505,1,8,0:0:0:0:
256,192,312745,1,0,0:0:0:0:
256,192,312985,1,0,0:0:0:0:
256,192,313465,1,0,0:0:0:0:
256,192,313705,1,8,0:0:0:0:
256,192,314425,1,8,0:0:0:0:
256,192,314665,1,8,0:0:0:0:
256,192,315265,1,0,0:0:0:0:
256,192,315745,1,0,0:0:0:0:
256,192,315985,1,8,0:0:0:0:
256,192,316585,1,0,0:0:0:0:
256,192,316825,1,0,0:0:0:0:
256,192,317785,12,0,317905,0:0:0:0:
256,192,318025,12,0,318385,0:0:0:0:
256,192,318745,12,0,319465,0:0:0:0:
256,192,319705,5,8,0:0:0:0:
256,192,319765,1,0,0:0:0:0:
256,192,319825,1,8,0:0:0:0:
256,192,319885,1,0,0:0:0:0:
256,192,319945,1,8,0:0:0:0:
256,192,320005,1,8,0:0:0:0:
256,192,320065,1,8,0:0:0:0:
256,192,320125,1,8,0:0:0:0:
256,192,320185,12,0,320545,0:0:0:0:
256,192,320665,5,0,0:0:0:0:
256,192,320785,1,8,0:0:0:0:
256,192,320905,1,8,0:0:0:0:
256,192,321025,1,0,0:0:0:0:
256,192,321145,1,8,0:0:0:0:
256,192,321265,1,0,0:0:0:0:
256,192,321305,1,0,0:0:0:0:
256,192,321345,1,0,0:0:0:0:
256,192,321385,1,8,0:0:0:0:
256,192,321415,1,8,0:0:0:0:
256,192,321505,1,8,0:0:0:0:
256,192,321535,1,8,0:0:0:0:
256,192,321625,1,0,0:0:0:0:
256,192,321745,1,0,0:0:0:0:
256,192,321805,1,0,0:0:0:0:
256,192,321865,1,0,0:0:0:0:
256,192,321985,1,0,0:0:0:0:
256,192,322105,1,0,0:0:0:0:
256,192,322135,1,8,0:0:0:0:
256,192,322585,1,8,0:0:0:0:
256,192,322645,1,8,0:0:0:0:
256,192,322705,1,8,0:0:0:0:
256,192,322765,1,8,0:0:0:0:
256,192,322825,1,0,0:0:0:0:
256,192,322945,1,0,0:0:0:0:
256,192,323005,1,8,0:0:0:0:
256,192,323065,1,0,0:0:0:0:
256,192,323185,1,0,0:0:0:0:
256,192,323305,1,0,0:0:0:0:
256,192,323365,1,0,0:0:0:0:
256,192,323425,1,8,0:0:0:0:
256,192,323485,1,0,0:0:0:0:
256,192,323545,1,8,0:0:0:0:
256,192,323605,1,8,0:0:0:0:
256,192,323665,1,0,0:0:0:0:
256,192,323725,1,0,0:0:0:0:
256,192,323785,1,8,0:0:0:0:
256,192,323815,1,8,0:0:0:0:
256,192,323905,1,8,0:0:0:0:
0,384,324025,6,0,L|512:384,1,139.999997615814
256,192,324505,1,0,0:0:0:0:
256,192,324625,1,8,0:0:0:0:
256,192,324745,1,0,0:0:0:0:
256,192,324785,1,0,0:0:0:0:
256,192,324825,1,0,0:0:0:0:
256,192,324865,1,0,0:0:0:0:
256,192,324905,1,0,0:0:0:0:
256,192,324945,1,0,0:0:0:0:
256,192,324985,1,0,0:0:0:0:
256,192,325225,1,0,0:0:0:0:
256,192,325285,1,0,0:0:0:0:
256,192,325345,1,8,0:0:0:0:
256,192,325405,1,0,0:0:0:0:
256,192,325465,1,8,0:0:0:0:
256,192,325585,1,8,0:0:0:0:
256,192,325705,1,8,0:0:0:0:
256,192,325745,1,8,0:0:0:0:
256,192,325785,1,0,0:0:0:0:
256,192,325825,1,8,0:0:0:0:
256,192,325885,1,8,0:0:0:0:
256,192,325945,12,0,326305,0:0:0:0:
256,192,326425,5,0,0:0:0:0:
256,192,326545,1,8,0:0:0:0:
256,192,326665,1,8,0:0:0:0:
256,192,326785,1,0,0:0:0:0:
256,192,326905,1,8,0:0:0:0:
256,192,327025,1,8,0:0:0:0:
256,192,327145,1,0,0:0:0:0:
256,192,327205,1,8,0:0:0:0:
256,192,327265,1,0,0:0:0:0:
256,192,327325,1,0,0:0:0:0:
256,192,327385,1,8,0:0:0:0:
256,192,327505,1,0,0:0:0:0:
256,192,327565,1,0,0:0:0:0:
256,192,327625,1,0,0:0:0:0:
256,192,327685,1,0,0:0:0:0:
256,192,327745,1,0,0:0:0:0:
0,384,327865,6,0,L|512:384,1,139.999997615814
256,192,328345,1,0,0:0:0:0:
256,192,328465,1,0,0:0:0:0:
256,192,328525,1,0,0:0:0:0:
256,192,328585,1,8,0:0:0:0:
256,192,328665,1,0,0:0:0:0:
256,192,328765,1,0,0:0:0:0:
256,192,328865,1,0,0:0:0:0:
256,192,328945,1,8,0:0:0:0:
256,192,329305,1,0,0:0:0:0:
256,192,329545,1,8,0:0:0:0:
256,192,329575,1,8,0:0:0:0:
256,192,329665,1,0,0:0:0:0:
256,192,329725,1,0,0:0:0:0:
256,192,329785,1,8,0:0:0:0:
256,192,329815,1,8,0:0:0:0:
256,192,329905,1,8,0:0:0:0:
256,192,329935,1,8,0:0:0:0:
256,192,330025,1,0,0:0:0:0:
256,192,330055,1,0,0:0:0:0:
256,192,330145,1,0,0:0:0:0:
256,192,330175,1,0,0:0:0:0:
256,192,330325,1,8,0:0:0:0:
256,192,330385,1,0,0:0:0:0:
256,192,330445,1,8,0:0:0:0:
256,192,330505,1,0,0:0:0:0:
256,192,330565,1,0,0:0:0:0:
256,192,330625,1,8,0:0:0:0:
256,192,330685,1,0,0:0:0:0:
256,192,330745,1,8,0:0:0:0:
256,192,330775,1,8,0:0:0:0:
256,192,330865,1,8,0:0:0:0:
256,192,330895,1,8,0:0:0:0:
256,192,330985,1,0,0:0:0:0:
256,192,331045,1,0,0:0:0:0:
256,192,331105,1,0,0:0:0:0:
256,192,331165,1,0,0:0:0:0:
256,192,331225,1,0,0:0:0:0:
256,192,331345,1,8,0:0:0:0:
256,192,331465,1,0,0:0:0:0:
256,192,331585,1,8,0:0:0:0:
256,192,331705,1,8,0:0:0:0:
256,192,331735,1,8,0:0:0:0:
256,192,331825,1,0,0:0:0:0:
256,192,331885,1,8,0:0:0:0:
256,192,331945,1,0,0:0:0:0:
256,192,332005,1,0,0:0:0:0:
256,192,332065,1,8,0:0:0:0:
256,192,332105,1,8,0:0:0:0:
256,192,332145,1,8,0:0:0:0:
256,192,332185,1,0,0:0:0:0:
256,192,332425,1,8,0:0:0:0:
256,192,332465,1,8,0:0:0:0:
256,192,332505,1,8,0:0:0:0:
256,192,332545,1,8,0:0:0:0:
256,192,332585,1,8,0:0:0:0:
256,192,332625,1,8,0:0:0:0:
256,192,332665,1,0,0:0:0:0:
256,192,332785,1,0,0:0:0:0:
256,192,332905,12,0,333265,0:0:0:0:
256,192,333385,5,8,0:0:0:0:
256,192,333415,1,8,0:0:0:0:
256,192,333505,1,8,0:0:0:0:
256,192,333535,1,8,0:0:0:0:
256,192,333625,1,0,0:0:0:0:
256,192,333685,1,8,0:0:0:0:
256,192,333745,1,8,0:0:0:0:
256,192,333805,1,8,0:0:0:0:
256,192,333865,1,0,0:0:0:0:
256,192,333925,1,0,0:0:0:0:
256,192,333985,1,0,0:0:0:0:
256,192,334045,1,0,0:0:0:0:
256,192,334105,1,0,0:0:0:0:
256,192,334225,1,0,0:0:0:0:
256,192,334255,1,8,0:0:0:0:
256,192,334345,1,0,0:0:0:0:
256,192,334465,1,8,0:0:0:0:
256,192,334525,1,0,0:0:0:0:
256,192,334645,1,8,0:0:0:0:
256,192,334705,1,0,0:0:0:0:
256,192,334825,1,0,0:0:0:0:
256,192,334885,1,0,0:0:0:0:
256,192,334945,1,0,0:0:0:0:
256,192,335005,1,0,0:0:0:0:
256,192,335065,1,0,0:0:0:0:
256,192,335305,1,0,0:0:0:0:
256,192,335335,1,8,0:0:0:0:
256,192,335425,1,0,0:0:0:0:
256,192,335545,1,8,0:0:0:0:
256,192,335785,12,0,335965,0:0:0:0:
256,192,336025,5,0,0:0:0:0:
256,192,336145,1,8,0:0:0:0:
256,192,336265,1,8,0:0:0:0:
256,192,336385,1,0,0:0:0:0:
256,192,336505,1,8,0:0:0:0:
256,192,336625,1,8,0:0:0:0:
256,192,336745,1,8,0:0:0:0:
256,192,336805,1,8,0:0:0:0:
256,192,336865,1,8,0:0:0:0:
256,192,336925,1,8,0:0:0:0:
256,192,336985,1,0,0:0:0:0:
256,192,337105,1,0,0:0:0:0:
256,192,337165,1,0,0:0:0:0:
256,192,337225,1,0,0:0:0:0:
256,192,337285,1,8,0:0:0:0:
256,192,337345,1,0,0:0:0:0:
256,192,337405,1,8,0:0:0:0:
256,192,337465,1,0,0:0:0:0:
256,192,337495,1,0,0:0:0:0:
256,192,337585,1,8,0:0:0:0:
256,192,337645,1,8,0:0:0:0:
256,192,337705,1,8,0:0:0:0:
256,192,337765,1,0,0:0:0:0:
256,192,337825,1,8,0:0:0:0:
256,192,337885,1,0,0:0:0:0:
256,192,337945,1,8,0:0:0:0:
256,192,338005,1,8,0:0:0:0:
256,192,338065,1,0,0:0:0:0:
256,192,338095,1,8,0:0:0:0:
256,192,338185,1,0,0:0:0:0:
256,192,338245,1,8,0:0:0:0:
256,192,338305,1,0,0:0:0:0:
256,192,338365,1,8,0:0:0:0:
256,192,338425,1,0,0:0:0:0:
256,192,338485,1,0,0:0:0:0:
256,192,338545,1,8,0:0:0:0:
256,192,338605,1,0,0:0:0:0:
256,192,338665,1,8,0:0:0:0:
256,192,338725,1,8,0:0:0:0:
256,192,338785,1,0,0:0:0:0:
256,192,338845,1,0,0:0:0:0:
256,192,338905,1,8,0:0:0:0:
256,192,338965,1,8,0:0:0:0:
256,192,339025,1,8,0:0:0:0:
256,192,339085,1,8,0:0:0:0:
256,192,339145,1,0,0:0:0:0:
256,192,339205,1,0,0:0:0:0:
256,192,339265,1,0,0:0:0:0:
256,192,339325,1,0,0:0:0:0:
256,192,339385,1,8,0:0:0:0:
256,192,339445,12,0,339745,0:0:0:0:
256,192,339865,5,0,0:0:0:0:
256,192,339985,1,8,0:0:0:0:
256,192,340105,1,8,0:0:0:0:
256,192,340225,1,0,0:0:0:0:
256,192,340345,1,8,0:0:0:0:
256,192,340465,1,8,0:0:0:0:
256,192,340585,1,0,0:0:0:0:
256,192,340645,1,8,0:0:0:0:
256,192,340705,1,0,0:0:0:0:
256,192,340765,1,8,0:0:0:0:
256,192,340825,1,0,0:0:0:0:
256,192,340945,1,0,0:0:0:0:
256,192,341005,1,0,0:0:0:0:
256,192,341065,1,0,0:0:0:0:
256,192,341185,1,0,0:0:0:0:
256,192,341305,1,8,0:0:0:0:
256,192,341785,1,0,0:0:0:0:
256,192,342025,1,0,0:0:0:0:
256,192,342085,1,0,0:0:0:0:
256,192,342145,1,0,0:0:0:0:
256,192,342265,1,0,0:0:0:0:
256,192,342385,1,8,0:0:0:0:
256,192,342445,1,8,0:0:0:0:
256,192,342505,1,8,0:0:0:0:
256,192,342565,1,8,0:0:0:0:
256,192,342625,1,0,0:0:0:0:
256,192,342745,1,8,0:0:0:0:
256,192,342805,1,8,0:0:0:0:
256,192,342865,1,8,0:0:0:0:
256,192,342925,1,8,0:0:0:0:
256,192,342985,1,0,0:0:0:0:
256,192,343225,1,0,0:0:0:0:
256,192,343285,1,0,0:0:0:0:
256,192,343345,1,0,0:0:0:0:
256,192,343405,1,0,0:0:0:0:
256,192,343465,1,8,0:0:0:0:
256,192,343495,1,8,0:0:0:0:
256,192,343525,1,0,0:0:0:0:
256,192,343585,1,8,0:0:0:0:
256,192,343645,1,8,0:0:0:0:
256,192,343705,1,0,0:0:0:0:
256,192,343825,1,8,0:0:0:0:
256,192,343855,1,8,0:0:0:0:
256,192,344425,1,8,0:0:0:0:
256,192,344485,1,8,0:0:0:0:
256,192,344545,1,8,0:0:0:0:
256,192,344605,1,8,0:0:0:0:
256,192,344665,1,0,0:0:0:0:
256,192,344785,1,0,0:0:0:0:
256,192,344905,1,8,0:0:0:0:
256,192,344945,1,8,0:0:0:0:
256,192,344985,1,0,0:0:0:0:
256,192,345025,1,0,0:0:0:0:
256,192,345065,1,8,0:0:0:0:
256,192,345105,1,8,0:0:0:0:
256,192,345145,12,0,345505,0:0:0:0:
256,192,345625,5,0,0:0:0:0:
256,192,345665,1,8,0:0:0:0:
256,192,345745,1,0,0:0:0:0:
256,192,345785,1,8,0:0:0:0:
256,192,345865,1,0,0:0:0:0:
256,192,345985,1,8,0:0:0:0:
256,192,346065,1,8,0:0:0:0:
256,192,346105,1,8,0:0:0:0:
256,192,346225,1,0,0:0:0:0:
256,192,346345,1,0,0:0:0:0:
256,192,346405,1,0,0:0:0:0:
256,192,346465,1,0,0:0:0:0:
256,192,346645,1,8,0:0:0:0:
256,192,346705,1,8,0:0:0:0:
256,192,346765,1,8,0:0:0:0:
256,192,346825,1,0,0:0:0:0:
256,192,346855,1,8,0:0:0:0:
256,192,346945,1,8,0:0:0:0:
256,192,346975,1,0,0:0:0:0:
256,192,347065,1,8,0:0:0:0:
256,192,347185,1,0,0:0:0:0:
256,192,347245,1,0,0:0:0:0:
0,384,347305,6,0,L|512:384,1,92.399998426437
256,192,347545,1,0,0:0:0:0:
256,192,347785,1,8,0:0:0:0:
256,192,347815,1,8,0:0:0:0:
256,192,347905,1,0,0:0:0:0:
256,192,348145,1,8,0:0:0:0:
256,192,348175,1,8,0:0:0:0:
256,192,348265,1,0,0:0:0:0:
256,192,348325,1,8,0:0:0:0:
256,192,348385,1,8,0:0:0:0:
256,192,348445,1,0,0:0:0:0:
256,192,348505,1,8,0:0:0:0:
256,192,348535,1,8,0:0:0:0:
256,192,348625,1,0,0:0:0:0:
256,192,348685,1,8,0:0:0:0:
256,192,348745,1,0,0:0:0:0:
256,192,348805,1,0,0:0:0:0:
256,192,348865,1,8,0:0:0:0:
256,192,348895,1,8,0:0:0:0:
256,192,348985,1,0,0:0:0:0:
256,192,349045,1,0,0:0:0:0:
256,192,349105,1,0,0:0:0:0:
256,192,349165,1,0,0:0:0:0:
256,192,349225,1,8,0:0:0:0:
256,192,349255,1,8,0:0:0:0:
256,192,349345,1,8,0:0:0:0:
256,192,349375,1,8,0:0:0:0:
256,192,349465,12,0,350785,0:0:0:0:
256,192,350905,5,0,0:0:0:0:
256,192,350965,1,0,0:0:0:0:
256,192,351025,1,0,0:0:0:0:
256,192,351085,1,0,0:0:0:0:
256,192,351145,12,0,351325,0:0:0:0:
256,192,351385,5,0,0:0:0:0:
256,192,351505,1,0,0:0:0:0:
256,192,351565,1,0,0:0:0:0:
256,192,351625,1,8,0:0:0:0:
256,192,351685,1,0,0:0:0:0:
256,192,351745,1,8,0:0:0:0:
256,192,351785,1,8,0:0:0:0:
256,192,351825,1,8,0:0:0:0:
256,192,351865,1,0,0:0:0:0:
256,192,351985,1,8,0:0:0:0:
256,192,352045,1,8,0:0:0:0:
256,192,352105,1,0,0:0:0:0:
256,192,352165,1,8,0:0:0:0:
256,192,352225,1,0,0:0:0:0:
256,192,352345,1,0,0:0:0:0:
256,192,352405,1,0,0:0:0:0:
256,192,352465,1,8,0:0:0:0:
256,192,352495,1,8,0:0:0:0:
256,192,352585,1,0,0:0:0:0:
256,192,352705,1,0,0:0:0:0:
256,192,352765,1,0,0:0:0:0:
256,192,352825,1,8,0:0:0:0:
256,192,352855,1,8,0:0:0:0:
256,192,352945,1,0,0:0:0:0:
256,192,353065,12,0,353245,0:0:0:0:
256,192,353304,12,0,353545,0:0:0:0:
256,192,353665,5,0,0:0:0:0:
256,192,353785,1,8,0:0:0:0:
256,192,353815,1,8,0:0:0:0:
256,192,353905,1,0,0:0:0:0:
256,192,353965,1,0,0:0:0:0:
256,192,354025,1,8,0:0:0:0:
256,192,354065,1,8,0:0:0:0:
256,192,354105,1,0,0:0:0:0:
256,192,354145,1,0,0:0:0:0:
256,192,354205,1,0,0:0:0:0:
256,192,354265,1,8,0:0:0:0:
256,192,354295,1,0,0:0:0:0:
256,192,354385,1,8,0:0:0:0:
256,192,354445,1,0,0:0:0:0:
256,192,354505,1,0,0:0:0:0:
256,192,354565,1,0,0:0:0:0:
256,192,354625,1,8,0:0:0:0:
256,192,354655,1,0,0:0:0:0:
256,192,354745,1,8,0:0:0:0:
256,192,354805,1,0,0:0:0:0:
256,192,354865,1,0,0:0:0:0:
256,192,354925,1,0,0:0:0:0:
256,192,354985,1,12,0:0:0:0:
256,192,355225,1,0,0:0:0:0:
256,192,355345,1,0,0:0:0:0:
256,192,355405,1,0,0:0:0:0:
256,192,355465,1,8,0:0:0:0:
256,192,355585,1,0,0:0:0:0:
256,192,355625,1,0,0:0:0:0:
256,192,355665,1,0,0:0:0:0:
256,192,355705,1,0,0:0:0:0:
256,192,355825,1,8,0:0:0:0:
256,192,355885,1,8,0:0:0:0:
256,192,355945,1,0,0:0:0:0:
256,192,356065,1,0,0:0:0:0:
256,192,356185,1,8,0:0:0:0:
256,192,356245,1,0,0:0:0:0:
256,192,356305,1,8,0:0:0:0:
256,192,356425,1,0,0:0:0:0:
256,192,356505,1,8,0:0:0:0:
256,192,356545,1,0,0:0:0:0:
256,192,356585,1,8,0:0:0:0:
256,192,356665,1,0,0:0:0:0:
256,192,356725,1,8,0:0:0:0:
256,192,356785,1,0,0:0:0:0:
256,192,356845,1,0,0:0:0:0:
256,192,356905,1,8,0:0:0:0:
256,192,357145,1,0,0:0:0:0:
256,192,357185,1,8,0:0:0:0:
256,192,357225,1,8,0:0:0:0:
256,192,357265,1,0,0:0:0:0:
256,192,357325,1,0,0:0:0:0:
256,192,357385,1,8,0:0:0:0:
256,192,357505,1,0,0:0:0:0:
256,192,357625,1,8,0:0:0:0:
256,192,357745,1,0,0:0:0:0:
256,192,357785,1,0,0:0:0:0:
256,192,357865,1,0,0:0:0:0:
256,192,357905,1,0,0:0:0:0:
256,192,358105,1,8,0:0:0:0:
256,192,358225,1,0,0:0:0:0:
256,192,358285,1,0,0:0:0:0:
256,192,358345,1,0,0:0:0:0:
256,192,358405,1,0,0:0:0:0:
256,192,358465,1,8,0:0:0:0:
256,192,358585,1,0,0:0:0:0:
256,192,358645,1,0,0:0:0:0:
256,192,358705,1,0,0:0:0:0:
256,192,358765,1,0,0:0:0:0:
256,192,358825,1,8,0:0:0:0:
256,192,358855,1,8,0:0:0:0:
256,192,359064,12,0,359425,0:0:0:0:
256,192,359545,5,0,0:0:0:0:
256,192,359665,1,8,0:0:0:0:
256,192,359785,1,8,0:0:0:0:
256,192,359815,1,8,0:0:0:0:
256,192,359905,1,0,0:0:0:0:
256,192,360025,1,8,0:0:0:0:
256,192,360145,1,8,0:0:0:0:
256,192,360175,1,8,0:0:0:0:
256,192,360265,1,0,0:0:0:0:
256,192,360325,1,0,0:0:0:0:
256,192,360385,1,0,0:0:0:0:
256,192,360445,1,0,0:0:0:0:
256,192,360505,1,8,0:0:0:0:
256,192,360535,1,8,0:0:0:0:
256,192,360625,1,0,0:0:0:0:
256,192,360685,1,0,0:0:0:0:
256,192,360745,1,8,0:0:0:0:
256,192,360865,1,0,0:0:0:0:
256,192,360925,1,8,0:0:0:0:
256,192,360985,1,0,0:0:0:0:
256,192,361105,1,0,0:0:0:0:
256,192,361165,1,0,0:0:0:0:
256,192,361225,1,8,0:0:0:0:
256,192,361285,1,0,0:0:0:0:
256,192,361345,1,0,0:0:0:0:
256,192,361405,1,0,0:0:0:0:
256,192,361465,1,8,0:0:0:0:
256,192,361585,1,0,0:0:0:0:
256,192,361615,1,8,0:0:0:0:
256,192,361705,1,0,0:0:0:0:
256,192,361735,1,0,0:0:0:0:
256,192,361944,12,0,362305,0:0:0:0:
256,192,362425,5,0,0:0:0:0:
256,192,362455,1,8,0:0:0:0:
256,192,362485,12,0,362785,0:0:0:0:
256,192,362905,5,0,0:0:0:0:
256,192,362965,1,0,0:0:0:0:
256,192,363025,1,8,0:0:0:0:
256,192,363145,1,8,0:0:0:0:
256,192,363265,1,0,0:0:0:0:
256,192,363305,1,0,0:0:0:0:
256,192,363345,1,0,0:0:0:0:
256,192,363385,1,8,0:0:0:0:
256,192,363445,1,8,0:0:0:0:
256,192,363505,1,8,0:0:0:0:
256,192,363565,1,8,0:0:0:0:
256,192,363625,1,0,0:0:0:0:
256,192,363685,1,0,0:0:0:0:
256,192,363745,1,0,0:0:0:0:
256,192,363805,1,0,0:0:0:0:
256,192,363865,1,0,0:0:0:0:
256,192,363925,1,8,0:0:0:0:
256,192,363985,1,0,0:0:0:0:
256,192,364045,1,8,0:0:0:0:
256,192,364105,1,0,0:0:0:0:
256,192,364225,1,8,0:0:0:0:
256,192,364265,1,8,0:0:0:0:
256,192,364285,1,0,0:0:0:0:
256,192,364345,1,8,0:0:0:0:
256,192,364405,1,8,0:0:0:0:
256,192,364465,1,0,0:0:0:0:
256,192,364585,1,0,0:0:0:0:
256,192,364645,1,0,0:0:0:0:
256,192,364705,1,0,0:0:0:0:
256,192,364825,1,0,0:0:0:0:
256,192,364885,1,8,0:0:0:0:
256,192,364945,1,8,0:0:0:0:
256,192,365005,1,8,0:0:0:0:
256,192,365065,1,0,0:0:0:0:
256,192,365095,1,0,0:0:0:0:
256,192,365185,1,8,0:0:0:0:
256,192,365245,1,0,0:0:0:0:
256,192,365275,1,0,0:0:0:0:
256,192,365365,1,8,0:0:0:0:
256,192,365425,1,0,0:0:0:0:
256,192,365455,1,0,0:0:0:0:
256,192,365545,1,8,0:0:0:0:
256,192,365605,1,8,0:0:0:0:
256,192,365665,1,0,0:0:0:0:
0,384,365784,6,0,L|512:384,1,245.583329151074
256,192,366265,1,8,0:0:0:0:
256,192,366535,12,0,366685,0:0:0:0:
256,192,366745,5,0,0:0:0:0:
256,192,366865,1,0,0:0:0:0:
256,192,366925,1,0,0:0:0:0:
256,192,366985,1,8,0:0:0:0:
256,192,367045,1,0,0:0:0:0:
256,192,367105,1,8,0:0:0:0:
256,192,367145,1,8,0:0:0:0:
256,192,367185,1,8,0:0:0:0:
256,192,367225,1,0,0:0:0:0:
256,192,367345,1,8,0:0:0:0:
256,192,367405,1,8,0:0:0:0:
256,192,367465,1,0,0:0:0:0:
256,192,367525,1,8,0:0:0:0:
256,192,367585,1,0,0:0:0:0:
256,192,367705,1,0,0:0:0:0:
256,192,367765,1,0,0:0:0:0:
256,192,367825,1,8,0:0:0:0:
256,192,367885,1,0,0:0:0:0:
256,192,367945,1,8,0:0:0:0:
256,192,367985,1,8,0:0:0:0:
256,192,368005,1,0,0:0:0:0:
256,192,368065,1,8,0:0:0:0:
256,192,368125,1,8,0:0:0:0:
256,192,368185,1,0,0:0:0:0:
256,192,368215,1,0,0:0:0:0:
256,192,368305,1,0,0:0:0:0:
256,192,368425,1,8,0:0:0:0:
256,192,368545,1,0,0:0:0:0:
256,192,368605,1,0,0:0:0:0:
256,192,368664,12,0,368905,0:0:0:0:
256,192,369025,5,0,0:0:0:0:
256,192,369145,1,8,0:0:0:0:
256,192,369185,1,8,0:0:0:0:
256,192,369225,1,0,0:0:0:0:
256,192,369265,1,0,0:0:0:0:
256,192,369325,1,0,0:0:0:0:
256,192,369385,1,8,0:0:0:0:
256,192,369445,1,0,0:0:0:0:
256,192,369505,1,0,0:0:0:0:
256,192,369565,1,0,0:0:0:0:
256,192,369625,1,8,0:0:0:0:
256,192,369655,1,0,0:0:0:0:
256,192,369745,1,8,0:0:0:0:
256,192,369805,1,0,0:0:0:0:
256,192,369865,1,0,0:0:0:0:
256,192,369925,1,0,0:0:0:0:
256,192,369985,1,8,0:0:0:0:
256,192,370015,1,0,0:0:0:0:
256,192,370105,1,8,0:0:0:0:
256,192,370165,1,0,0:0:0:0:
256,192,370225,1,0,0:0:0:0:
256,192,370285,1,0,0:0:0:0:
256,192,370345,1,8,0:0:0:0:
256,192,370375,1,8,0:0:0:0:
256,192,370584,12,0,370825,0:0:0:0:
256,192,370945,5,0,0:0:0:0:
256,192,370975,1,8,0:0:0:0:
256,192,371065,12,0,371245,0:0:0:0:
256,192,371305,5,0,0:0:0:0:
256,192,371425,1,8,0:0:0:0:
256,192,371465,1,0,0:0:0:0:
256,192,371505,1,0,0:0:0:0:
256,192,371545,1,8,0:0:0:0:
256,192,371605,1,8,0:0:0:0:
256,192,371665,1,0,0:0:0:0:
256,192,371695,1,0,0:0:0:0:
256,192,371785,1,8,0:0:0:0:
256,192,371845,1,8,0:0:0:0:
256,192,371905,1,0,0:0:0:0:
256,192,372025,1,8,0:0:0:0:
256,192,372085,1,0,0:0:0:0:
256,192,372145,1,8,0:0:0:0:
256,192,372205,1,0,0:0:0:0:
256,192,372265,1,8,0:0:0:0:
256,192,372325,1,0,0:0:0:0:
256,192,372385,1,8,0:0:0:0:
256,192,372445,1,0,0:0:0:0:
256,192,372505,1,12,0:0:0:0:
256,192,372745,1,0,0:0:0:0:
256,192,372865,1,12,0:0:0:0:
256,192,373105,1,0,0:0:0:0:
256,192,373165,1,0,0:0:0:0:
256,192,373225,1,12,0:0:0:0:
256,192,373345,1,8,0:0:0:0:
256,192,373375,1,8,0:0:0:0:
256,192,373465,1,0,0:0:0:0:
256,192,373585,1,0,0:0:0:0:
256,192,373645,1,0,0:0:0:0:
256,192,373705,1,0,0:0:0:0:
256,192,373765,1,0,0:0:0:0:
256,192,373825,1,8,0:0:0:0:
256,192,373945,1,0,0:0:0:0:
256,192,374005,1,0,0:0:0:0:
256,192,374065,1,0,0:0:0:0:
256,192,374125,1,0,0:0:0:0:
256,192,374185,1,8,0:0:0:0:
256,192,374215,1,8,0:0:0:0:
256,192,374424,12,0,374785,0:0:0:0:
256,192,374905,5,0,0:0:0:0:
256,192,374935,1,0,0:0:0:0:
256,192,375145,1,0,0:0:0:0:
256,192,375265,1,0,0:0:0:0:
256,192,375505,1,8,0:0:0:0:
256,192,375535,1,8,0:0:0:0:
256,192,375625,1,0,0:0:0:0:
256,192,375685,1,8,0:0:0:0:
256,192,375745,1,0,0:0:0:0:
256,192,375805,1,0,0:0:0:0:
256,192,375865,1,8,0:0:0:0:
256,192,375985,1,0,0:0:0:0:
256,192,376045,1,0,0:0:0:0:
256,192,376105,1,8,0:0:0:0:
256,192,376345,1,0,0:0:0:0:
256,192,376405,1,8,0:0:0:0:
256,192,376465,1,0,0:0:0:0:
256,192,376525,1,0,0:0:0:0:
256,192,376585,1,8,0:0:0:0:
256,192,376615,1,8,0:0:0:0:
256,192,376705,1,0,0:0:0:0:
256,192,376765,1,0,0:0:0:0:
256,192,376825,1,8,0:0:0:0:
256,192,376945,1,0,0:0:0:0:
256,192,377005,1,8,0:0:0:0:
256,192,377065,1,0,0:0:0:0:
256,192,377125,1,8,0:0:0:0:
256,192,377185,1,8,0:0:0:0:
256,192,377245,1,0,0:0:0:0:
256,192,377305,1,8,0:0:0:0:
256,192,377365,1,8,0:0:0:0:
256,192,377425,1,0,0:0:0:0:
256,192,377485,1,8,0:0:0:0:
256,192,377545,1,0,0:0:0:0:
256,192,377605,1,0,0:0:0:0:
256,192,377665,1,0,0:0:0:0:
256,192,377725,1,0,0:0:0:0:
256,192,377785,12,0,377965,0:0:0:0:
256,192,378025,5,8,0:0:0:0:
256,192,378055,1,8,0:0:0:0:
256,192,378265,1,0,0:0:0:0:
256,192,378325,1,0,0:0:0:0:
256,192,378385,1,0,0:0:0:0:
256,192,378445,1,0,0:0:0:0:
256,192,378505,1,8,0:0:0:0:
256,192,378535,1,8,0:0:0:0:
256,192,378625,1,0,0:0:0:0:
256,192,378685,1,8,0:0:0:0:
256,192,378745,1,0,0:0:0:0:
256,192,378805,1,0,0:0:0:0:
256,192,378865,1,8,0:0:0:0:
256,192,378895,1,8,0:0:0:0:
256,192,378985,1,0,0:0:0:0:
256,192,379045,1,0,0:0:0:0:
256,192,379105,1,8,0:0:0:0:
256,192,379165,1,0,0:0:0:0:
256,192,379225,1,8,0:0:0:0:
256,192,379255,1,8,0:0:0:0:
256,192,379345,1,8,0:0:0:0:
256,192,379405,1,0,0:0:0:0:
256,192,379465,1,8,0:0:0:0:
256,192,379525,1,0,0:0:0:0:
256,192,379585,1,8,0:0:0:0:
256,192,379615,1,8,0:0:0:0:
256,192,379705,1,0,0:0:0:0:
256,192,379765,1,8,0:0:0:0:
256,192,379825,1,0,0:0:0:0:
256,192,379885,1,8,0:0:0:0:
256,192,379945,1,0,0:0:0:0:
256,192,380005,1,8,0:0:0:0:
256,192,380065,1,0,0:0:0:0:
256,192,380125,1,8,0:0:0:0:
256,192,380185,12,0,381505,0:0:0:0:
256,192,381625,5,8,0:0:0:0:
256,192,381685,1,8,0:0:0:0:
256,192,381745,1,8,0:0:0:0:
256,192,381805,1,8,0:0:0:0:
256,192,381865,1,8,0:0:0:0:
256,192,381905,1,8,0:0:0:0:
256,192,381945,1,8,0:0:0:0:
256,192,381985,1,8,0:0:0:0:
256,192,382025,1,8,0:0:0:0:
256,192,382065,1,8,0:0:0:0:
256,192,382105,1,4,0:0:0:0:
256,192,382585,1,4,0:0:0:0:
256,192,382825,1,4,0:0:0:0:
256,192,383305,1,4,0:0:0:0:
256,192,383545,1,0,0:0:0:0:
256,192,383575,1,8,0:0:0:0:
256,192,384025,1,4,0:0:0:0:
256,192,384505,1,4,0:0:0:0:
256,192,384745,1,4,0:0:0:0:
256,192,385105,1,4,0:0:0:0:
256,192,385465,5,0,0:0:0:0:
256,192,385495,1,8,0:0:0:0:
256,192,385945,1,4,0:0:0:0:
256,192,386425,1,4,0:0:0:0:
256,192,386665,1,4,0:0:0:0:
256,192,386905,1,4,0:0:0:0:
256,192,387145,1,4,0:0:0:0:
256,192,387385,1,0,0:0:0:0:
256,192,387415,1,8,0:0:0:0:
256,192,387865,1,4,0:0:0:0:
256,192,388225,1,4,0:0:0:0:
256,192,388585,1,4,0:0:0:0:
256,192,388945,1,4,0:0:0:0:
256,192,389065,1,4,0:0:0:0:
256,192,389305,1,0,0:0:0:0:
256,192,389335,1,8,0:0:0:0:
256,192,389785,1,4,0:0:0:0:
256,192,390265,1,4,0:0:0:0:
256,192,390505,1,4,0:0:0:0:
256,192,390865,1,4,0:0:0:0:
256,192,390985,1,4,0:0:0:0:
256,192,391225,1,0,0:0:0:0:
256,192,391255,1,8,0:0:0:0:
256,192,391705,1,4,0:0:0:0:
256,192,392185,1,0,0:0:0:0:
256,192,392245,1,0,0:0:0:0:
256,192,392305,1,0,0:0:0:0:
256,192,392425,1,4,0:0:0:0:
256,192,392785,1,4,0:0:0:0:
256,192,393145,1,0,0:0:0:0:
256,192,393175,1,8,0:0:0:0:
256,192,393625,1,4,0:0:0:0:
256,192,394105,1,4,0:0:0:0:
256,192,394345,1,4,0:0:0:0:
256,192,394465,1,4,0:0:0:0:
256,192,394705,1,0,0:0:0:0:
256,192,394745,1,0,0:0:0:0:
256,192,394785,1,0,0:0:0:0:
256,192,394825,1,0,0:0:0:0:
256,192,395065,1,0,0:0:0:0:
256,192,395095,1,8,0:0:0:0:
256,192,395545,1,4,0:0:0:0:
256,192,395905,1,4,0:0:0:0:
256,192,396265,1,4,0:0:0:0:
256,192,396505,1,0,0:0:0:0:
256,192,396565,1,0,0:0:0:0:
256,192,396625,1,0,0:0:0:0:
256,192,396745,1,4,0:0:0:0:
256,192,396985,1,0,0:0:0:0:
256,192,397015,1,8,0:0:0:0:
256,192,397465,1,4,0:0:0:0:
256,192,397585,12,0,399145,0:0:0:0:
256,192,399385,5,0,0:0:0:0:
256,192,399865,1,0,0:0:0:0:
256,192,400105,1,0,0:0:0:0:
256,192,400465,1,0,0:0:0:0:
256,192,400825,1,0,0:0:0:0:
256,192,400855,1,8,0:0:0:0:
256,192,401305,1,0,0:0:0:0:
256,192,401785,1,0,0:0:0:0:
256,192,402025,1,0,0:0:0:0:
256,192,402265,1,0,0:0:0:0:
256,192,402505,1,0,0:0:0:0:
256,192,402745,1,0,0:0:0:0:
256,192,402775,1,8,0:0:0:0:
256,192,403225,1,0,0:0:0:0:
256,192,403585,1,0,0:0:0:0:
256,192,403945,1,0,0:0:0:0:
256,192,404305,1,0,0:0:0:0:
256,192,404425,1,0,0:0:0:0:
256,192,404665,1,0,0:0:0:0:
256,192,404695,1,8,0:0:0:0:
256,192,405145,1,0,0:0:0:0:
256,192,405625,1,0,0:0:0:0:
256,192,405865,1,0,0:0:0:0:
256,192,406225,1,0,0:0:0:0:
256,192,406345,1,0,0:0:0:0:
256,192,406585,1,0,0:0:0:0:
256,192,406615,1,8,0:0:0:0:
256,192,407065,1,0,0:0:0:0:
256,192,407545,1,0,0:0:0:0:
256,192,407605,1,0,0:0:0:0:
256,192,407665,1,0,0:0:0:0:
256,192,407785,1,0,0:0:0:0:
256,192,408145,1,0,0:0:0:0:
256,192,408505,1,0,0:0:0:0:
256,192,408535,1,8,0:0:0:0:
256,192,408985,1,0,0:0:0:0:
256,192,409465,1,0,0:0:0:0:
256,192,409705,1,0,0:0:0:0:
256,192,409825,1,0,0:0:0:0:
256,192,410065,1,0,0:0:0:0:
256,192,410105,1,0,0:0:0:0:
256,192,410145,1,0,0:0:0:0:
256,192,410185,1,0,0:0:0:0:
256,192,410425,1,0,0:0:0:0:
256,192,410455,1,8,0:0:0:0:
256,192,410905,1,0,0:0:0:0:
256,192,411265,1,0,0:0:0:0:
256,192,411625,1,0,0:0:0:0:
256,192,411865,1,0,0:0:0:0:
256,192,411925,1,0,0:0:0:0:
256,192,411985,1,0,0:0:0:0:
256,192,412105,1,0,0:0:0:0:
256,192,412345,1,0,0:0:0:0:
256,192,412375,1,8,0:0:0:0:
