osu file format v14

[General]
AudioFilename: audio1.mp3
AudioLeadIn: 0
PreviewTime: 169389
Countdown: 0
SampleSet: Soft
StackLeniency: 0.7
Mode: 0
LetterboxInBreaks: 0
WidescreenStoryboard: 1

[Editor]
Bookmarks: 28363,37251,46138,63911,68364,86123,102764,120608,131685,158449,169458,178341,187249,203898,221660,239474,250029
DistanceSpacing: 1.4
BeatDivisor: 8
GridSize: 32
TimelineZoom: 1.8

[Metadata]
Title:Kakusei
TitleUnicode:覚醒
Artist:Superfly
ArtistUnicode:Superfly
Creator:moph
Version:Normal
Source:Promare
Tags:flake プロメア 越智志帆 Shiho Ochi awakening ambitious jpop japanese anime pop
BeatmapID:2386179
BeatmapSetID:1080252

[Difficulty]
HPDrainRate:4
CircleSize:3.5
OverallDifficulty:5
ApproachRate:6
SliderMultiplier:1.3
SliderTickRate:1

[Events]
//Background and Video events
0,0,"bg5.jpg",0,0
//Break Periods
2,122809,130085
2,136337,138956
2,145197,147842
2,154099,156793
//Storyboard Layer 0 (Background)
//Storyboard Layer 1 (Fail)
//Storyboard Layer 2 (Pass)
//Storyboard Layer 3 (Foreground)
//Storyboard Layer 4 (Overlay)
//Storyboard Sound Samples

[TimingPoints]
720,750,4,2,1,60,1,0
720,-100,4,2,1,60,0,0
25845,-100,4,2,1,10,0,0
26220,-100,4,2,1,20,0,0
26595,-100,4,2,1,30,0,0
26970,-100,4,2,1,40,0,0
27345,-100,4,2,1,50,0,0
27720,-100,4,2,1,60,0,0
28363,555.555555555556,4,2,1,60,1,0
28363,-100,4,2,1,60,0,0
37251,540.540540540541,4,2,1,60,1,0
37251,-100,4,2,1,60,0,0
37791,555.555555555556,4,2,1,60,1,0
37791,-100,4,2,1,60,0,0
39179,487.804878048781,4,2,1,60,1,0
39300,631.578947368422,4,2,1,60,1,0
39457,555.555555555556,4,2,1,60,1,0
39457,-100,4,2,1,60,0,0
39734,645.161290322581,4,2,1,60,1,0
40012,555.555555555556,4,2,1,60,1,0
40567,555.555555555556,4,2,1,60,1,0
41122,681.818181818182,4,2,1,60,1,0
41122,-81.9672131147541,4,2,1,60,0,0
41400,555.555555555556,4,2,1,60,1,0
41677,555.555555555556,4,2,1,60,1,0
43902,560.747663551402,4,2,1,60,1,0
43902,-100,4,2,1,60,0,0
44462,555.555555555556,4,2,1,60,1,0
44462,-100,4,2,1,60,0,0
44600,508.474576271187,4,2,1,60,1,0
44727,540.540540540541,4,2,1,60,1,0
45017,560.747663551402,4,2,1,60,1,0
45017,-100,4,2,1,60,0,0
46138,550.45871559633,4,2,1,80,1,1
46138,-100,4,2,1,80,0,1
48339,555.555555555556,4,2,1,80,1,1
48339,-100,4,2,1,80,0,1
48894,576.923076923077,4,2,1,80,1,1
48894,-100,4,2,1,80,0,1
49470,540.540540540541,4,2,1,80,1,1
49470,-100,4,2,1,80,0,1
50010,582.52427184466,4,2,1,80,1,1
50010,-100,4,2,1,80,0,1
50592,550.45871559633,4,2,1,80,1,1
50592,-100,4,2,1,80,0,1
52380,-96.1538461538461,4,2,1,80,0,1
52518,504.201680672269,4,2,1,80,1,1
52793,550.45871559633,4,2,1,80,1,1
54445,594.059405940594,4,2,1,80,1,1
54445,-100,4,2,1,80,0,1
55039,550.45871559633,4,2,1,80,1,0
55039,-100,4,2,1,80,0,0
55589,540.540540540541,4,2,1,80,1,1
55589,-100,4,2,1,80,0,1
56129,540.540540540541,4,2,1,80,1,1
56129,-100,4,2,1,80,0,1
56669,582.52427184466,4,2,1,80,1,1
56669,-100,4,2,1,80,0,1
57251,530.973451327434,4,2,1,80,1,1
57251,-100,4,2,1,80,0,1
57781,560.747663551402,4,2,1,80,1,1
58902,550.458715596331,4,2,1,80,1,1
59452,571.428571428572,4,2,1,80,1,1
59452,-100,4,2,1,80,0,1
59880,517.241379310345,4,2,1,80,1,1
60009,545.454545454546,4,2,1,80,1,1
60023,-100,4,2,1,80,0,1
60281,555.555555555556,4,2,1,80,1,1
61113,576.923076923078,4,2,1,80,1,1
61113,-100,4,2,1,80,0,1
61689,500,4,2,1,80,1,1
61689,-100,4,2,1,80,0,1
61966,555.555555555556,4,2,1,80,1,1
63910,-100,4,2,1,40,0,0
65577,576.923076923078,4,2,1,40,1,0
65577,-100,4,2,1,40,0,0
66153,545.454545454546,4,2,1,40,1,0
66153,-100,4,2,1,40,0,0
66698,555.555555555556,4,2,1,40,1,0
66698,-100,4,2,1,40,0,0
67531,-100,4,2,1,60,0,0
68364,545.454545454546,4,2,1,60,1,0
68364,-100,4,2,1,60,0,0
69454,571.428571428572,4,2,1,60,1,0
69454,-100,4,2,1,60,0,0
70596,550.458715596331,4,2,1,60,1,0
70596,-100,4,2,1,60,0,0
72797,571.428571428572,4,2,1,60,1,0
72797,-100,4,2,1,60,0,0
73368,545.454545454546,4,2,1,60,1,0
73368,-100,4,2,1,60,0,0
74458,566.037735849058,4,2,1,60,1,0
74458,-100,4,2,1,60,0,0
75024,550.458715596331,4,2,1,60,1,0
75024,-100,4,2,1,60,0,0
75574,535.714285714286,4,2,1,60,1,0
75574,-100,4,2,1,60,0,0
76109,588.235294117648,4,2,1,60,1,0
76109,-97.0873786407767,4,2,1,60,0,0
76550,521.739130434783,4,2,1,60,1,0
76680,550.458715596331,4,2,1,60,1,0
76680,-100,4,2,1,60,0,0
77247,550.458715596331,4,2,1,60,1,0
78898,582.524271844661,4,2,1,60,1,0
78898,-100,4,2,1,60,0,0
79480,550.458715596331,4,2,1,60,1,0
79480,-100,4,2,1,60,0,0
81681,566.037735849058,4,2,1,60,1,0
81681,-100,4,2,1,60,0,0
82247,555.555555555556,4,2,1,60,1,0
82247,-100,4,2,1,60,0,0
82257,-100,4,2,1,60,0,0
83357,560.747663551402,4,2,1,60,1,0
83357,-100,4,2,1,60,0,0
83917,540.540540540541,4,2,1,60,1,0
83917,-100,4,2,1,60,0,0
84457,555.555555555556,4,2,1,60,1,0
84457,-100,4,2,1,60,0,0
86123,555.555555555556,4,2,1,70,1,0
86123,-100,4,2,1,70,0,0
87511,612.244897959184,4,2,1,70,1,0
87789,555.555555555556,4,2,1,70,1,0
88067,576.923076923078,4,2,1,70,1,0
88067,-100,4,2,1,70,0,0
88643,535.714285714287,4,2,1,70,1,0
88643,-100,4,2,1,70,0,0
89178,588.235294117648,4,2,1,70,1,0
89178,-100,4,2,1,70,0,0
89619,500.000000000001,4,2,1,70,1,0
89619,-100,4,2,1,70,0,0
89743,550.458715596331,4,2,1,70,1,0
89743,-100,4,2,1,70,0,0
90294,555.555555555556,4,2,1,70,1,0
90294,-100,4,2,1,70,0,0
92238,576.923076923078,4,2,1,70,1,0
92238,-100,4,2,1,70,0,0
92814,517.241379310345,4,2,1,70,1,0
92814,-100,4,2,1,70,0,0
93201,576.923076923078,4,2,1,70,1,0
93201,-100,4,2,1,70,0,0
93345,550.45871559633,4,2,1,70,1,0
93345,-100,4,2,1,70,0,0
93894,582.524271844661,4,2,1,70,1,0
93894,-100,4,2,1,70,0,0
94476,540.540540540541,4,2,1,70,1,0
94476,-100,4,2,1,70,0,0
95016,545.454545454546,4,2,1,70,1,0
95016,-100,4,2,1,70,0,0
95561,550.458715596331,4,2,1,70,1,0
95561,-100,4,2,1,70,0,0
96111,606.060606060606,4,2,1,70,1,0
96111,-100,4,2,1,70,0,0
96414,625.000000000001,4,2,1,70,1,0
96414,-100,4,2,1,70,0,0
96570,535.714285714287,4,2,1,70,1,0
96570,-100,4,2,1,70,0,0
97105,606.060606060607,4,2,1,70,1,0
97105,-100,4,2,1,70,0,0
97408,555.555555555556,4,2,1,70,1,0
97408,-100,4,2,1,70,0,0
97546,576.923076923078,4,2,1,70,1,0
97546,-100,4,2,1,70,0,0
97978,508.474576271187,4,2,1,70,1,0
97978,-100,4,2,1,70,0,0
98486,612.244897959184,4,2,1,70,1,0
98486,-100,4,2,1,70,0,0
98639,560.747663551402,4,2,1,70,1,0
98639,-100,4,2,1,70,0,0
98922,550.458715596331,4,2,1,70,1,0
98922,-100,4,2,1,70,0,0
100573,560.747663551403,4,2,1,70,1,0
100573,-100,4,2,1,70,0,0
101133,540.540540540541,4,2,1,70,1,0
101133,-100,4,2,1,70,0,0
102214,550.458715596331,4,2,1,70,1,0
102214,-100,4,2,1,70,0,0
102764,582.524271844661,4,2,1,80,1,1
102764,-100,4,2,1,80,0,1
103346,555.555555555556,4,2,1,80,1,1
103346,-100,4,2,1,80,0,1
104596,530.973451327434,4,2,1,80,1,1
105012,555.555555555556,4,2,1,80,1,1
105012,-100,4,2,1,80,0,1
107234,566.037735849057,4,2,1,80,1,1
107234,-100,4,2,1,80,0,1
107800,540.540540540541,4,2,1,80,1,1
107800,-100,4,2,1,80,0,1
108340,582.52427184466,4,2,1,80,1,1
108340,-100,4,2,1,80,0,1
108922,540.540540540541,4,2,1,80,1,1
108922,-100,4,2,1,80,0,1
109462,555.555555555556,4,2,1,80,1,1
109462,-100,4,2,1,80,0,1
110573,508.474576271187,4,2,1,80,1,1
110850,555.555555555556,4,2,1,80,1,1
111683,-100,4,2,1,80,0,0
112238,-100,4,2,1,80,0,1
113350,535.714285714286,4,2,1,80,1,1
113350,-100,4,2,1,80,0,1
113885,571.428571428572,4,2,1,80,1,1
113885,-100,4,2,1,80,0,1
114456,555.555555555556,4,2,1,80,1,1
114456,-100,4,2,1,80,0,1
116122,555.555555555556,4,2,1,80,1,1
116122,-100,4,2,1,80,0,1
118344,566.037735849057,4,2,1,80,1,1
118344,-100,4,2,1,80,0,1
120608,550.458715596331,4,2,1,80,1,0
120608,-100,4,2,1,80,0,0
122809,540.540540540541,4,2,1,80,1,0
122809,-100,4,2,1,80,0,0
123349,545.454545454546,4,2,1,80,1,0
123349,-100,4,2,1,80,0,0
123894,560.747663551402,4,2,1,80,1,0
123894,-100,4,2,1,80,0,0
124454,588.235294117648,4,2,1,80,1,0
124454,-100,4,2,1,80,0,0
125042,555.555555555556,4,2,1,80,1,0
125042,-100,4,2,1,80,0,0
125597,550.458715596331,4,2,1,80,1,0
125597,-100,4,2,1,80,0,0
127248,550.458715596331,4,2,1,80,1,0
127248,-100,4,2,1,80,0,0
127798,540.540540540541,4,2,1,80,1,0
127798,-100,4,2,1,80,0,0
128338,555.555555555556,4,2,1,80,1,0
128338,-100,4,2,1,80,0,0
128893,571.428571428572,4,2,1,80,1,0
128893,-100,4,2,1,80,0,0
129464,545.454545454546,4,2,1,80,1,0
129464,-100,4,2,1,80,0,0
130009,576.923076923078,4,2,1,80,1,0
130009,-100,4,2,1,80,0,0
130585,550.458715596331,4,2,1,80,1,0
130585,-100,4,2,1,80,0,0
131135,-200,4,2,1,40,0,0
131685,555.555555555556,4,2,1,40,1,0
131685,-200,4,2,1,40,0,0
134462,540.540540540541,4,2,1,40,1,0
134462,-100,4,2,1,40,0,0
134732,606.060606060607,4,2,1,40,1,0
134732,-200,4,2,1,40,0,0
135341,500,4,2,1,40,1,0
135341,-100,4,2,1,40,0,0
135591,526.315789473684,4,2,1,40,1,0
135591,-200,4,2,1,40,0,0
135854,566.037735849057,4,2,1,40,1,0
135854,-100,4,2,1,40,0,0
136137,555.555555555556,4,2,1,40,1,0
136137,-100,4,2,1,40,0,0
136414,612.244897959185,4,2,1,40,1,0
136414,-100,4,2,1,40,0,0
136719,487.804878048781,4,2,1,40,1,0
136719,-100,4,2,1,40,0,0
136962,566.037735849058,4,2,1,40,1,0
136962,-100,4,2,1,40,0,0
137245,555.555555555556,4,2,1,40,1,0
137245,-100,4,2,1,40,0,0
137800,535.714285714286,4,2,1,40,1,0
137800,-100,4,2,1,40,0,0
138603,588.235294117647,4,2,1,40,1,0
138603,-100,4,2,1,40,0,0
138897,540.540540540541,4,2,1,40,1,0
138897,-100,4,2,1,40,0,0
139167,500,4,2,1,40,1,0
139167,-100,4,2,1,40,0,0
139418,588.235294117648,4,2,1,40,1,0
139418,-100,4,2,1,40,0,0
140006,-200,4,2,1,40,0,0
140594,551.724137931035,4,2,1,40,1,0
140594,-200,4,2,1,40,0,0
143912,535.714285714286,4,2,1,40,1,0
143912,-100,4,2,1,40,0,0
144447,550.458715596331,4,2,1,40,1,0
144447,-200,4,2,1,40,0,0
144997,550.458715596331,4,2,1,40,1,0
144997,-100,4,2,1,40,0,0
146097,560.747663551402,4,2,1,40,1,0
146097,-100,4,2,1,40,0,0
147218,558.139534883721,4,2,1,40,1,0
147218,-100,4,2,1,40,0,0
148892,-200,4,2,1,40,0,0
150287,-200,4,2,1,5,0,0
150566,-200,4,2,1,40,0,0
151403,-200,4,2,1,5,0,0
151683,-200,4,2,1,40,0,0
152520,645.161290322582,4,2,1,5,1,0
152520,-100,4,2,1,5,0,0
152841,495.867768595042,4,2,1,40,1,0
152841,-200,4,2,1,40,0,0
153336,560.747663551403,4,2,1,40,1,0
153336,-200,4,2,1,40,0,0
153899,571.428571428572,4,2,1,40,1,0
153899,-100,4,2,1,40,0,0
154470,535.714285714286,4,2,1,40,1,0
154470,-100,4,2,1,40,0,0
154737,517.241379310345,4,2,1,40,1,0
154737,-100,4,2,1,40,0,0
154995,582.524271844661,4,2,1,40,1,0
154995,-100,4,2,1,40,0,0
155577,517.241379310345,4,2,1,40,1,0
155577,-100,4,2,1,40,0,0
155835,606.060606060607,4,2,1,40,1,0
155835,-100,4,2,1,40,0,0
156137,550.458715596331,4,2,1,40,1,0
156137,-100,4,2,1,40,0,0
157237,606.060606060607,4,2,1,40,1,0
157237,-100,4,2,1,40,0,0
158449,550.458715596331,4,2,1,40,1,0
158449,-100,4,2,1,40,0,0
166705,-100,4,2,1,10,0,0
167256,-100,4,2,1,20,0,0
167806,-100,4,2,1,30,0,0
168357,-100,4,2,1,40,0,0
168907,-100,4,2,1,50,0,0
169458,571.428571428572,4,2,1,60,1,0
169458,-100,4,2,1,60,0,0
170029,555.555555555556,4,2,1,60,1,0
170029,-100,4,2,1,60,0,0
171695,555.555555555556,4,2,1,60,1,0
171695,-100,4,2,1,60,0,0
176695,535.714285714286,4,2,1,60,1,0
176695,-100,4,2,1,60,0,0
177230,545.454545454546,4,2,1,60,1,0
177230,-100,4,2,1,60,0,0
177775,566.037735849057,4,2,1,60,1,0
177775,-100,4,2,1,60,0,0
178341,545.454545454546,4,2,1,60,1,0
178341,-100,4,2,1,60,0,0
178886,566.037735849057,4,2,1,60,1,0
178886,-100,4,2,1,60,0,0
180018,545.454545454546,4,2,1,60,1,0
180018,-100,4,2,1,60,0,0
180563,582.524271844661,4,2,1,60,1,0
180563,-91.743119266055,4,2,1,60,0,0
181118,555.555555555556,4,2,1,60,1,0
181673,-105.263157894737,4,2,1,60,0,0
181812,612.244897959184,4,2,1,60,1,0
181965,555.555555555556,4,2,1,60,1,0
182229,566.037735849057,4,2,1,60,1,0
182229,-100,4,2,1,60,0,0
182795,556.844547563806,4,2,1,60,1,0
182795,-100,4,2,1,60,0,0
187249,555.555555555556,4,2,1,60,1,0
187249,-100,4,2,1,60,0,0
187804,-100,4,2,1,70,0,0
188915,545.454545454546,4,2,1,70,1,0
188915,-100,4,2,1,70,0,0
189187,550.458715596331,4,2,1,70,1,0
189187,-100,4,2,1,70,0,0
189737,571.428571428571,4,2,1,70,1,0
189737,-100,4,2,1,70,0,0
190308,550.45871559633,4,2,1,70,1,0
190308,-100,4,2,1,70,0,0
191408,550.45871559633,4,2,1,70,1,0
191408,-100,4,2,1,70,0,0
192502,625.000000000001,4,2,1,70,1,0
192502,-100,4,2,1,70,0,0
192658,-75.7575757575758,4,2,1,70,0,0
192938,582.524271844661,4,2,1,70,1,0
193375,535.714285714286,4,2,1,70,1,0
193375,-100,4,2,1,70,0,0
194446,555.555555555556,4,2,1,70,1,0
194982,571.428571428572,4,2,1,70,1,0
194982,-100,4,2,1,70,0,0
195553,582.524271844661,4,2,1,70,1,0
195553,-100,4,2,1,70,0,0
196135,545.454545454546,4,2,1,70,1,0
196135,-100,4,2,1,70,0,0
196680,600.000000000001,4,2,1,70,1,0
196680,-97.0873786407767,4,2,1,70,0,0
196830,555.555555555556,4,2,1,70,1,0
197235,555.555555555556,4,2,1,70,1,0
197498,612.244897959185,4,2,1,70,1,0
197498,-97.0873786407767,4,2,1,70,0,0
197651,576.923076923078,4,2,1,70,1,0
198086,540.540540540541,4,2,1,70,1,0
198086,-100,4,2,1,70,0,0
198626,659.34065934066,4,2,1,70,1,0
198626,-88.4955752212389,4,2,1,70,0,0
198790,508.474576271187,4,2,1,70,1,0
199167,571.428571428572,4,2,1,70,1,0
199167,-100,4,2,1,70,0,0
199738,555.555555555556,4,2,1,70,1,0
199738,-100,4,2,1,70,0,0
201404,582.524271844661,4,2,1,70,1,0
201404,-100,4,2,1,70,0,0
201695,566.037735849057,4,2,1,70,1,0
201695,-100,4,2,1,70,0,0
202261,530.973451327434,4,2,1,70,1,0
202261,-100,4,2,1,70,0,0
203322,576.923076923078,4,2,1,70,1,0
203322,-100,4,2,1,70,0,0
203898,550.458715596331,4,2,1,70,1,1
203898,-100,4,2,1,70,0,1
205136,606.060606060607,4,2,1,70,1,1
205136,-90.9090909090909,4,2,1,70,0,1
205549,550.458715596331,4,2,1,70,1,1
206099,576.923076923078,4,2,1,70,1,1
206099,-100,4,2,1,70,0,1
206675,550.458715596331,4,2,1,70,1,1
206675,-100,4,2,1,70,0,1
207775,576.923076923078,4,2,1,70,1,1
207775,-100,4,2,1,70,0,1
208063,526.315789473685,4,2,1,70,1,1
208063,-100,4,2,1,70,0,1
208194,618.556701030929,4,2,1,70,1,1
208194,-100,4,2,1,70,0,1
208351,555.555555555556,4,2,1,70,1,1
208351,-100,4,2,1,70,0,1
209451,566.037735849058,4,2,1,70,1,1
209451,-100,4,2,1,70,0,1
210583,550.458715596331,4,2,1,70,1,1
210583,-100,4,2,1,70,0,1
212234,560.747663551403,4,2,1,70,1,1
212234,-100,4,2,1,70,0,1
212794,571.428571428573,4,2,1,70,1,1
212794,-100,4,2,1,70,0,1
213365,550.458715596331,4,2,1,70,1,1
213365,-100,4,2,1,70,0,1
215016,550.458715596331,4,2,1,70,1,1
215016,-100,4,2,1,70,0,1
216667,571.428571428573,4,2,1,70,1,1
216667,-100,4,2,1,70,0,1
217238,540.540540540542,4,2,1,70,1,1
217238,-100,4,2,1,70,0,1
217778,571.428571428572,4,2,1,70,1,1
217778,-100,4,2,1,70,0,1
218349,550.458715596331,4,2,1,70,1,1
218349,-100,4,2,1,70,0,1
219449,552.99539170507,4,2,1,70,1,1
219449,-100,4,2,1,70,0,1
221107,-100,4,2,1,70,0,0
221660,582.524271844661,4,2,1,80,1,1
221660,-100,4,2,1,80,0,1
222242,555.555555555556,4,2,1,80,1,1
222242,-100,4,2,1,80,0,1
223908,535.714285714286,4,2,1,80,1,1
223908,-100,4,2,1,80,0,1
224443,566.037735849057,4,2,1,80,1,1
224443,-100,4,2,1,80,0,1
225009,552.99539170507,4,2,1,80,1,1
225009,-100,4,2,1,80,0,1
225567,555.555555555556,4,2,1,80,1,1
225567,-100,4,2,1,80,0,1
226122,560.747663551403,4,2,1,80,1,1
226122,-100,4,2,1,80,0,1
228364,545.454545454546,4,2,1,80,1,1
228364,-100,4,2,1,80,0,1
230000,571.428571428572,4,2,1,80,1,1
230000,-100,4,2,1,80,0,1
230571,571.428571428572,4,2,1,80,1,0
230571,-100,4,2,1,80,0,0
231142,545.454545454546,4,2,1,80,1,1
231142,-100,4,2,1,80,0,1
232778,545.454545454546,4,2,1,80,1,1
232778,-100,4,2,1,80,0,1
233323,576.923076923078,4,2,1,80,1,1
233323,-100,4,2,1,80,0,1
233899,550.458715596331,4,2,1,80,1,1
233899,-100,4,2,1,80,0,1
234999,555.555555555556,4,2,1,80,1,1
234999,-100,4,2,1,80,0,1
237221,571.428571428572,4,2,1,80,1,1
237221,-100,4,2,1,80,0,1
238363,555.555555555556,4,2,1,80,1,1
238363,-100,4,2,1,80,0,1
239474,555.555555555556,3,2,1,60,1,0
239474,-100,3,2,1,60,0,0
246140,-100,3,2,1,80,0,1
247807,-100,3,2,1,70,0,1
249474,-133.333333333333,3,2,1,60,0,0

[Colours]
Combo1 : 145,158,193
Combo2 : 130,185,172
Combo3 : 184,146,183
Combo4 : 185,181,130

[HitObjects]
256,192,25470,12,4,28363,3:1:0:0:
256,192,30307,5,4,1:1:0:0:
256,192,32807,5,4,3:1:0:0:
0,192,34751,1,4,1:1:0:0:
0,192,37251,6,0,P|44:180|129:214,1,130,4|8,1:2|0:0,0:0:0:0:
217,362,38346,2,0,P|261:374|346:340,1,130,0|8,1:2|0:0,0:0:0:0:
372,261,39179,1,0,1:0:0:0:
300,206,39457,6,0,B|281:142|281:142|319:81,1,130,0|8,1:2|0:2,0:0:0:0:
490,135,40568,2,0,P|495:167|477:206,1,65,0|0,1:0|1:0,0:0:0:0:
410,252,41122,2,0,P|406:284|423:323,1,65,8|0,0:0|0:0,0:0:0:0:
478,372,41677,6,0,L|324:354,1,130,4|8,1:2|0:0,0:0:0:0:
301,184,42788,2,0,L|147:204,1,130,0|8,1:0|0:0,0:0:0:0:
103,260,43621,1,0,1:0:0:0:
27,208,43902,6,0,P|0:136|29:77,1,130,0|8,1:0|0:0,0:0:0:0:
90,34,44727,1,8,0:0:0:0:
90,34,45577,6,0,P|121:65|155:76,1,65,8|4,1:3|3:3,0:0:0:0:
225,104,46138,6,0,P|255:88|306:81,1,65,6|2,1:2|0:0,0:0:0:0:
375,71,46688,1,10,0:0:0:0:
438,136,46963,2,0,L|506:128,2,65,2|2|2,1:2|0:0|1:2,0:0:0:0:
353,160,47789,1,10,0:2:0:0:
353,160,47926,2,0,P|345:190|361:249,1,65,0|0,1:0|1:0,0:0:0:0:
382,253,48339,6,0,P|389:283|374:342,1,65,2|2,1:2|0:2,0:0:0:0:
316,374,48894,2,0,P|286:365|242:321,1,65,10|2,0:2|1:2,0:0:0:0:
227,321,49326,1,0,1:0:0:0:
227,321,49470,2,0,L|146:336,1,65,2|10,1:2|0:2,0:0:0:0:
83,372,50010,1,10,0:2:0:0:
83,372,50155,2,0,L|2:358,1,65,0|2,1:0|1:2,0:0:0:0:
4,317,50592,6,0,P|-4:285|8:237,1,65,6|2,1:2|0:0,0:0:0:0:
67,193,51142,1,10,0:2:0:0:
139,247,51417,2,0,P|147:278|135:327,2,65,2|2|2,1:2|0:2|1:2,0:0:0:0:
183,169,52243,1,10,0:2:0:0:
183,169,52380,2,0,P|174:137|187:88,1,65,0|8,1:0|0:0,0:0:0:0:
195,63,52793,1,0,1:0:0:0:
284,81,53069,6,0,L|350:69,1,65,2|8,1:2|0:0,0:0:0:0:
329,158,53619,2,0,L|395:146,1,65,2|0,1:2|1:0,0:0:0:0:
380,236,54169,2,0,L|446:224,1,65,2|8,1:2|0:0,0:0:0:0:
487,215,54593,5,4,1:2:0:0:
487,215,55589,6,0,P|461:249|453:278,1,65,12|2,0:2|1:2,0:0:0:0:
440,359,56129,2,0,L|368:346,1,65,2|2,1:2|1:2,0:0:0:0:
321,283,56669,1,10,0:2:0:0:
321,283,56814,2,0,L|248:295,1,65,0|0,1:0|1:0,0:0:0:0:
223,261,57251,6,0,P|213:235|226:172,1,65,2|2,1:2|0:2,0:0:0:0:
276,132,57781,2,0,P|286:105|273:42,1,65,10|2,1:2|1:2,0:0:0:0:
261,37,58201,1,0,1:0:0:0:
261,37,58341,2,0,L|179:45,1,65,2|10,1:2|1:2,0:0:0:0:
123,95,58902,1,10,0:2:0:0:
123,95,59039,2,0,L|41:87,1,65,0|2,1:0|1:2,0:0:0:0:
24,119,59452,6,0,P|13:149|22:203,1,65,2|2,1:2|0:2,0:0:0:0:
90,231,60009,2,0,P|91:263|80:293,1,65,10|2,1:2|1:2,0:0:0:0:
56,334,60419,1,0,1:0:0:0:
56,334,60558,2,0,L|137:355,1,65,2|2,1:2|1:2,0:0:0:0:
204,382,61113,2,0,L|266:363,1,65,10|2,1:2|0:2,0:0:0:0:
353,336,61689,5,0,1:2:0:0:
301,261,61966,2,0,B|290:232|290:232|304:175,1,65,2|8,1:2|0:0,0:0:0:0:
207,192,62522,2,0,B|218:163|218:163|204:106,1,65,2|8,1:2|0:0,0:0:0:0:
297,105,63077,2,0,B|286:76|286:76|300:19,1,65,2|8,1:2|1:2,0:0:0:0:
336,25,63494,6,0,L|416:38,1,65,4|8,1:2|1:2,0:0:0:0:
444,43,63911,1,0,1:0:0:0:
256,192,64189,12,2,66153,0:0:0:0:
256,192,67531,5,8,0:3:0:0:
207,269,67809,2,0,L|174:268,2,32.5,4|4|4,0:3|0:3|0:3,0:0:0:0:
250,349,68364,6,0,L|379:344,1,130,6|8,1:2|0:2,0:0:0:0:
470,338,69182,1,0,0:0:0:0:
444,250,69454,2,0,P|431:184|465:117,1,130,0|8,1:2|0:2,0:0:0:0:
301,30,70596,6,0,P|315:95|280:163,2,130,2|8|2,1:2|0:2|1:2,0:0:0:0:
126,82,72247,1,8,0:0:0:0:
7,220,72797,6,0,B|59:228|59:228|73:243|73:243|130:255,1,130,2|8,1:2|0:2,0:0:0:0:
217,236,73640,1,0,0:0:0:0:
236,324,73913,2,0,P|275:372|352:376,1,130,0|8,1:2|0:0,0:0:0:0:
410,324,74741,1,0,1:2:0:0:
365,241,75024,6,0,B|355:210|355:210|379:169,1,65,2|0,1:2|0:2,0:0:0:0:
447,133,75574,1,8,0:2:0:0:
302,23,76109,2,0,B|233:36|260:68|165:82,1,130,2|10,1:2|0:2,0:0:0:0:
97,55,76955,1,0,0:2:0:0:
28,114,77247,6,0,P|12:170|57:239,1,130,6|8,1:2|0:2,0:0:0:0:
133,250,78072,1,0,0:0:0:0:
224,248,78348,2,0,L|212:387,1,130,0|8,1:0|0:2,0:0:0:0:
31,359,79480,6,8,L|44:230,1,130,2|8,1:2|0:0,0:0:0:0:
42,48,80580,2,0,B|95:62|95:62|102:79|102:79|169:98,1,130,2|8,1:2|0:2,0:0:0:0:
237,136,81406,1,0,1:2:0:0:
300,71,81681,6,0,L|313:0,2,65,2|0|8,1:2|1:2|0:2,0:0:0:0:
388,90,82524,2,0,L|401:25,2,65,2|0|2,1:2|1:2|1:2,0:0:0:0:
440,161,83357,1,8,0:0:0:0:
354,190,83637,5,0,1:2:0:0:
265,220,83917,2,0,L|248:367,1,130,2|10,1:2|1:2,0:0:0:0:
70,370,85012,2,0,L|79:289,1,65,2|0,1:2|1:0,0:0:0:0:
90,214,85568,1,10,0:2:0:0:
92,32,86123,6,0,L|176:46,1,65,6|0,1:2|0:2,0:0:0:0:
196,124,86678,2,0,L|278:114,1,65,10|0,0:2|0:0,0:0:0:0:
316,46,87234,1,2,1:2:0:0:
316,46,87373,2,0,L|434:79,1,97.5,0|8,1:2|0:2,0:0:0:0:
487,119,88067,6,0,B|507:90|507:90|496:45,2,65,6|0|10,1:2|0:2|0:2,0:0:0:0:
406,160,88910,1,0,0:0:0:0:
442,243,89178,2,0,L|453:308,1,65,2|2,1:2|0:2,0:0:0:0:
376,355,89743,2,0,L|364:289,1,65,10|2,0:2|0:2,0:0:0:0:
319,211,90294,6,0,B|248:214|278:254|184:265,1,130,6|10,1:2|0:2,0:0:0:0:
63,379,91405,1,2,1:2:0:0:
63,379,91544,2,0,L|43:301,1,65,0|2,1:2|1:2,0:0:0:0:
36,271,91960,1,8,0:2:0:0:
100,207,92238,6,0,B|82:152|82:152|87:138|87:138|68:74,1,130,6|10,1:2|0:2,0:0:0:0:
238,28,93345,2,0,P|264:25|303:40,1,65,10|8,0:2|0:2,0:0:0:0:
359,107,93894,2,0,P|385:110|423:95,1,65,10|10,0:2|0:2,0:0:0:0:
502,56,94476,6,0,P|468:105|478:196,1,130,6|10,1:2|0:2,0:0:0:0:
511,352,95561,2,0,P|458:318|380:327,1,130,2|8,1:2|0:0,0:0:0:0:
324,377,96414,5,6,1:2:0:0:
261,198,96971,1,10,0:2:0:0:
194,367,97546,2,0,P|159:367|115:348,1,65,2|2,1:2|0:2,0:0:0:0:
57,304,98105,2,0,L|77:226,1,65,10|2,0:2|0:2,0:0:0:0:
143,182,98639,5,4,1:2:0:0:
72,123,98922,2,0,P|57:97|57:50,1,65,2|8,0:2|0:0,0:0:0:0:
125,6,99472,1,0,0:0:0:0:
210,49,99747,1,2,1:2:0:0:
210,49,99885,2,0,L|308:61,1,97.5,0|8,1:0|0:0,0:0:0:0:
391,27,100573,6,0,P|359:68|368:149,1,130,6|10,1:2|0:0,0:0:0:0:
447,181,101403,1,0,1:0:0:0:
486,263,101673,2,0,P|489:295|474:332,1,65,10|10,0:2|0:2,0:0:0:0:
395,362,102214,2,0,P|365:346|342:316,1,65,10|8,0:2|0:2,0:0:0:0:
335,232,102764,6,0,L|253:236,1,65,6|2,1:2|0:0,0:0:0:0:
184,205,103346,1,10,0:0:0:0:
170,294,103623,2,0,B|188:321|188:321|184:372,2,65,2|2|2,1:2|0:0|1:2,0:0:0:0:
102,354,104457,1,10,0:2:0:0:
102,354,104596,2,0,L|18:366,1,65,0|0,1:0|1:0,0:0:0:0:
8,327,105012,6,0,P|-2:283|8:240,1,65,2|2,1:2|0:2,0:0:0:0:
83,226,105567,2,0,P|94:183|83:140,1,65,10|2,0:2|1:2,0:0:0:0:
77,126,105984,1,0,1:0:0:0:
77,126,106123,2,0,L|158:112,1,65,2|10,0:2|0:2,0:0:0:0:
175,32,106678,1,10,0:2:0:0:
175,32,106817,2,0,L|256:46,1,65,0|2,1:0|1:2,0:0:0:0:
271,74,107234,6,0,P|280:107|267:155,1,65,6|2,1:2|0:0,0:0:0:0:
219,209,107800,1,10,0:2:0:0:
138,167,108070,2,0,L|66:150,1,65,2|2,1:2|0:2,0:0:0:0:
16,222,108631,1,2,1:2:0:0:
97,272,108922,1,10,0:2:0:0:
97,272,109057,2,0,P|88:304|101:352,1,65,0|8,1:0|0:0,0:0:0:0:
118,372,109462,1,0,1:0:0:0:
204,342,109739,6,0,L|210:274,1,65,2|8,1:2|0:0,0:0:0:0:
292,317,110295,2,0,L|298:248,1,65,2|0,1:2|1:0,0:0:0:0:
376,295,110850,2,0,L|383:226,1,65,2|8,1:2|0:0,0:0:0:0:
387,184,111267,5,4,1:2:0:0:
387,184,112239,6,0,P|414:202|455:200,1,65,12|2,0:2|1:2,0:0:0:0:
503,132,112795,2,0,P|495:100|464:74,1,65,2|2,1:2|1:2,0:0:0:0:
385,72,113350,1,10,0:2:0:0:
385,72,113483,2,0,L|312:84,1,65,0|0,1:0|1:0,0:0:0:0:
296,44,113885,6,0,P|273:25|227:19,1,65,2|2,1:2|0:2,0:0:0:0:
151,39,114456,2,0,P|130:63|122:94,1,65,10|2,1:2|1:2,0:0:0:0:
142,142,114872,1,0,1:0:0:0:
142,142,115011,2,0,L|130:208,1,65,2|10,0:2|1:2,0:0:0:0:
54,251,115567,1,10,0:2:0:0:
54,251,115706,2,0,L|65:317,1,65,0|2,1:0|1:2,0:0:0:0:
59,359,116122,6,0,L|142:372,1,65,2|2,1:2|0:2,0:0:0:0:
176,294,116677,2,0,L|259:307,1,65,10|2,1:2|1:2,0:0:0:0:
257,350,117094,1,0,1:0:0:0:
257,350,117233,2,0,P|285:358|337:342,1,65,2|2,0:2|1:2,0:0:0:0:
332,261,117788,2,0,P|359:254|412:269,1,65,10|2,1:2|0:2,0:0:0:0:
470,308,118344,5,0,1:2:0:0:
496,221,118627,2,0,B|518:133,1,65,2|8,1:2|0:0,0:0:0:0:
421,172,119193,2,0,B|442:84,1,65,2|8,1:2|0:0,0:0:0:0:
346,126,119759,2,0,B|367:38,1,65,2|8,1:2|1:2,0:0:0:0:
341,21,120183,6,0,P|312:14|261:34,1,65,4|8,1:2|1:2,0:0:0:0:
237,43,120608,1,0,1:0:0:0:
337,289,131135,6,0,L|296:287,1,32.5,2|0,2:0|0:0,0:0:0:0:
236,338,131685,6,0,P|201:359|229:232,1,325,2|0,0:0|0:0,0:0:0:0:
295,193,134732,2,0,P|312:164|308:125,1,65,2|0,0:0|2:0,0:0:0:0:
251,72,135591,2,0,L|208:62,1,32.5,2|0,0:0|0:0,0:0:0:0:
138,40,136137,1,2,0:0:0:0:
47,291,140006,6,0,P|67:287|83:282,1,32.5,2|0,2:0|0:0,0:0:0:0:
124,204,140594,6,0,B|303:247|184:336|391:375,1,325,2|0,0:0|0:0,0:0:0:0:
465,350,143628,2,0,P|482:315|481:278,1,65,2|0,0:0|0:0,0:0:0:0:
414,239,144447,2,0,L|405:199,1,32.5,2|0,0:0|0:0,0:0:0:0:
381,127,144997,1,2,0:0:0:0:
348,298,148892,6,0,L|302:297,1,32.5,2|0,2:0|2:0,0:0:0:0:
235,327,149450,6,0,B|235:351|226:374|226:374|198:358|188:337,1,97.5,2|0,2:0|2:0,0:0:0:0:
102,343,150566,2,0,B|81:330|65:311|65:311|93:295|116:297,1,97.5,2|0,2:0|2:0,0:0:0:0:
155,221,151683,2,0,B|175:209|200:205|200:205|200:237|187:256,1,97.5,2|0,2:0|2:0,0:0:0:0:
191,341,152841,6,0,L|233:331,1,32.5,2|0,2:0|2:0,0:0:0:0:
303,359,153336,2,0,L|345:349,1,32.5,2|0,2:0|2:0,0:0:0:0:
414,334,153899,1,2,2:0:0:0:
256,192,157843,5,2,0:0:0:0:
256,192,158449,12,4,169458,1:0:0:0:
256,192,170029,5,2,0:0:0:0:
315,260,170306,2,0,L|303:329,1,65,0|2,1:0|0:0,0:0:0:0:
0,192,171417,5,0,1:0:0:0:
427,174,173083,5,0,1:2:0:0:
474,252,173361,2,0,B|419:259|419:259|406:274|406:274|346:281,1,130,4|2,1:0|1:2,0:0:0:0:
253,25,174750,5,0,1:0:0:0:
32,186,175583,5,8,0:3:0:0:
90,255,175861,2,0,L|156:243,1,65,0|2,1:0|0:0,0:0:0:0:
304,131,176695,5,2,0:0:0:0:
304,131,177230,6,0,L|291:270,1,130,8|8,0:3|0:0,0:0:0:0:
282,350,178058,1,0,1:0:0:0:
372,336,178341,6,0,L|506:320,1,130,6|8,1:2|0:0,0:0:0:0:
498,138,179452,2,0,L|368:122,1,130,2|8,1:2|0:0,0:0:0:0:
212,31,180563,6,0,P|225:94|181:146,1,135.199999174805,2|8,1:2|0:0,0:0:0:0:
98,159,181396,1,0,1:0:0:0:
130,243,181673,2,0,L|107:314,1,65,2|0,1:2|1:0,0:0:0:0:
179,363,182229,2,0,L|203:293,1,65,8|0,0:0|1:0,0:0:0:0:
277,254,182795,6,0,B|342:284|296:316|376:352,1,130,2|8,1:2|0:0,0:0:0:0:
453,350,183630,1,0,1:0:0:0:
491,268,183908,2,0,P|491:239|461:200,1,65,2|0,1:2|0:0,0:0:0:0:
397,158,184465,2,0,P|397:129|427:90,1,65,8|0,0:0|0:0,0:0:0:0:
486,48,185022,6,0,L|341:43,1,130,2|8,1:2|0:0,0:0:0:0:
324,77,185718,1,8,0:0:0:0:
324,77,185857,2,0,L|271:67,1,32.5,8|8,0:0|0:0,0:0:0:0:
65,43,186692,6,0,L|142:57,1,65,8|4,0:3|0:3,0:0:0:0:
207,110,187249,1,2,0:0:0:0:
207,110,187804,6,0,P|208:158|198:186,1,65,8|0,0:0|0:0,0:0:0:0:
116,175,188360,1,2,1:2:0:0:
116,175,188499,2,0,P|107:217|123:282,1,97.5,0|10,1:2|0:2,0:0:0:0:
121,359,189187,6,0,B|43:346,2,65,6|0|10,1:2|0:2|0:2,0:0:0:0:
191,302,190022,1,0,1:0:0:0:
253,236,190308,2,0,L|324:252,1,65,2|2,1:2|0:2,0:0:0:0:
331,340,190858,2,0,L|393:325,1,65,10|10,0:2|0:2,0:0:0:0:
482,344,191408,6,0,B|478:289|478:289|469:282|469:282|465:213,1,130,6|10,1:2|0:2,0:0:0:0:
477,41,192502,1,2,1:2:0:0:
477,41,192658,2,0,L|359:53,1,116.999996429443,0|8,1:2|0:2,0:0:0:0:
320,132,193375,6,0,B|248:99|307:72|214:43,1,130,6|10,1:2|0:2,0:0:0:0:
144,86,194178,1,0,1:0:0:0:
169,169,194446,2,0,L|152:249,1,65,8|8,0:2|0:2,0:0:0:0:
82,287,194982,2,0,L|99:367,1,65,10|10,0:2|0:2,0:0:0:0:
182,376,195553,6,0,B|237:363|237:363|243:349|243:349|318:335,1,130,6|10,1:2|0:2,0:0:0:0:
418,200,196680,2,0,B|363:187|363:187|357:172|357:172|303:161,1,123.987501324329,2|8,1:2|0:2,0:0:0:0:
240,230,197498,6,0,B|211:243|211:243|161:234,1,65,6|0,1:2|0:2,0:0:0:0:
100,191,198086,1,10,0:2:0:0:
189,31,198626,2,0,L|197:99,1,65,2|2,1:2|0:2,0:0:0:0:
284,118,199167,2,0,L|291:53,1,65,10|2,0:2|0:2,0:0:0:0:
374,16,199738,5,4,1:2:0:0:
455,55,200015,2,0,P|470:81|470:128,1,65,2|8,0:2|0:0,0:0:0:0:
418,188,200571,1,0,1:0:0:0:
482,260,200849,1,2,1:2:0:0:
482,260,200988,2,0,L|499:355,1,97.5,0|8,1:0|0:0,0:0:0:0:
413,380,201695,6,0,L|388:246,1,130,4|8,1:2|0:0,0:0:0:0:
316,199,202526,1,0,1:0:0:0:
385,141,202791,2,0,P|396:110|392:78,1,65,10|10,0:2|0:2,0:0:0:0:
315,29,203322,2,0,P|283:35|256:53,1,65,10|8,0:2|0:2,0:0:0:0:
211,132,203898,5,4,1:2:0:0:
142,71,204173,2,0,L|60:58,1,65,2|8,0:2|0:0,0:0:0:0:
4,115,204723,1,2,0:2:0:0:
76,178,204998,1,2,1:2:0:0:
76,178,205136,2,0,L|34:277,1,97.5,0|8,1:0|0:0,0:0:0:0:
0,350,205824,1,2,1:2:0:0:
85,380,206099,6,0,B|171:372|114:334|222:324,1,130,4|8,1:2|0:0,0:0:0:0:
283,359,206950,1,0,0:0:0:0:
311,276,207225,1,2,1:2:0:0:
311,276,207363,2,0,L|294:169,1,97.5,0|8,1:0|0:0,0:0:0:0:
220,128,208063,1,2,1:2:0:0:
278,57,208351,5,4,1:2:0:0:
350,111,208628,2,0,L|423:102,1,65,2|8,0:2|0:0,0:0:0:0:
502,128,209184,1,0,0:0:0:0:
460,210,209451,1,2,1:2:0:0:
460,210,209592,2,0,B|452:250|452:250|455:260|455:260|443:314,1,97.5,0|8,1:0|0:0,0:0:0:0:
393,380,210300,1,2,1:2:0:0:
328,316,210583,6,0,P|299:321|262:342,1,65,0|2,1:0|1:2,0:0:0:0:
186,379,211133,2,0,P|157:374|120:353,1,65,10|2,0:2|1:2,0:0:0:0:
62,291,211683,1,10,0:2:0:0:
135,237,211959,1,10,0:2:0:0:
71,172,212234,2,0,L|58:32,1,130,10|4,0:2|1:2,0:0:0:0:
147,23,213079,6,0,P|188:35|206:62,1,65,2|8,0:2|0:0,0:0:0:0:
199,142,213640,1,2,0:2:0:0:
277,197,213915,1,2,1:2:0:0:
277,197,214053,2,0,P|321:181|346:135,1,97.5,0|8,1:0|0:0,0:0:0:0:
338,48,214741,1,2,0:2:0:0:
430,45,215016,6,0,L|496:57,1,65,4|0,1:2|0:0,0:0:0:0:
495,147,215566,2,0,L|427:159,1,65,8|0,0:0|0:0,0:0:0:0:
348,193,216116,1,0,1:0:0:0:
348,193,216254,2,0,B|359:237|359:237|358:245|358:245|372:304,1,97.5,0|8,1:0|0:0,0:0:0:0:
406,367,216952,2,0,P|364:376|332:362,1,65,0|0,0:0|1:0,0:0:0:0:
275,310,217508,6,0,P|253:312|225:332,1,32.5,2|2,1:2|1:2,0:0:0:0:
211,348,217778,2,0,P|177:358|129:341,1,65,8|0,0:2|0:0,0:0:0:0:
78,294,218349,2,0,B|56:344|56:344|19:371,2,97.5,2|2|2,1:2|1:2|1:2,0:0:0:0:
31,214,219449,6,0,L|21:139,1,65,12|8,1:2|0:0,0:0:0:0:
113,157,220001,2,0,L|122:88,1,65,12|8,1:2|0:0,0:0:0:0:
168,14,220554,5,14,0:2:0:0:
251,49,220831,1,14,0:2:0:0:
222,135,221107,1,14,1:2:0:0:
304,170,221384,1,14,1:2:0:0:
299,260,221660,6,0,L|292:328,1,65,6|2,1:2|0:0,0:0:0:0:
222,382,222242,1,10,0:0:0:0:
144,333,222519,2,0,B|128:267,2,65,2|2|2,1:2|0:0|1:2,0:0:0:0:
57,346,223353,1,10,0:2:0:0:
57,346,223492,2,0,L|41:281,1,65,0|0,1:0|1:0,0:0:0:0:
9,253,223908,6,0,P|-4:224|9:166,1,65,2|2,1:2|0:2,0:0:0:0:
49,118,224443,2,0,P|80:118|125:158,1,65,10|2,0:2|1:2,0:0:0:0:
143,173,224867,1,0,1:0:0:0:
143,173,225009,2,0,P|174:172|219:132,1,65,2|10,1:2|0:2,0:0:0:0:
221,69,225561,1,10,0:2:0:0:
221,69,225705,2,0,L|302:81,1,65,0|2,1:0|1:2,0:0:0:0:
323,55,226122,6,0,L|404:67,1,65,6|2,1:2|0:0,0:0:0:0:
451,130,226682,1,10,0:2:0:0:
376,183,226963,2,0,L|311:173,2,65,2|2|2,1:2|0:2|1:2,0:0:0:0:
431,261,227804,1,10,0:2:0:0:
431,261,227944,2,0,P|432:294|423:325,1,65,0|8,1:0|0:0,0:0:0:0:
401,363,228364,1,0,1:0:0:0:
310,371,228636,6,0,L|291:299,1,65,2|8,1:2|0:0,0:0:0:0:
210,346,229182,2,0,L|193:282,1,65,2|0,1:2|1:0,0:0:0:0:
118,334,229727,2,0,L|103:270,1,65,2|8,1:2|0:0,0:0:0:0:
90,226,230142,5,4,1:2:0:0:
90,226,231142,6,0,P|107:198|107:158,1,65,12|2,0:2|1:2,0:0:0:0:
36,111,231687,2,0,P|37:78|55:52,1,65,2|2,1:2|1:2,0:0:0:0:
144,24,232232,1,10,0:2:0:0:
144,24,232369,2,0,L|217:36,1,65,0|0,1:0|1:0,0:0:0:0:
219,78,232778,6,0,P|229:113|210:154,1,65,2|2,1:2|0:2,0:0:0:0:
161,208,233323,2,0,P|151:243|170:284,1,65,10|2,1:2|1:2,0:0:0:0:
194,307,233755,1,0,1:0:0:0:
194,307,233899,2,0,L|182:388,1,65,2|10,1:2|1:2,0:0:0:0:
279,380,234449,1,10,0:2:0:0:
279,380,234587,2,0,L|291:299,1,65,0|2,1:0|1:2,0:0:0:0:
272,272,234999,6,0,B|265:243|265:243|295:196,1,65,2|2,1:2|0:2,0:0:0:0:
371,189,235554,2,0,B|448:205,1,65,10|2,1:2|1:2,0:0:0:0:
480,186,235971,1,0,1:0:0:0:
480,186,236110,2,0,P|486:157|470:106,1,65,2|2,1:2|1:2,0:0:0:0:
436,41,236665,2,0,B|359:57,1,65,10|2,1:2|0:2,0:0:0:0:
292,96,237221,1,0,1:2:0:0:
215,46,237506,6,0,B|144:31,1,65,2|8,1:2|0:0,0:0:0:0:
178,119,238078,2,0,B|108:104,1,65,2|8,1:2|0:0,0:0:0:0:
139,193,238640,2,0,B|69:178,1,65,2|8,1:2|1:2,0:0:0:0:
33,197,239057,6,0,P|18:224|37:278,1,65,4|8,1:2|1:2,0:0:0:0:
49,291,239474,5,0,1:0:0:0:
308,376,240307,1,2,1:2:0:0:
308,376,241140,5,0,1:0:0:0:
392,117,241974,1,2,1:2:0:0:
392,117,242807,5,0,1:0:0:0:
133,33,243640,1,2,1:2:0:0:
133,33,244474,5,0,1:0:0:0:
49,291,245307,1,2,1:2:0:0:
49,291,246140,6,0,L|44:241,1,32.5,8|8,1:2|0:0,0:0:0:0:
129,297,246557,2,0,L|124:246,1,32.5,8|8,1:2|0:0,0:0:0:0:
209,302,246974,2,0,L|204:251,1,32.5,8|8,1:2|0:0,0:0:0:0:
289,307,247390,2,0,L|284:256,2,32.5,8|8|0,1:2|0:0|1:0,0:0:0:0:
311,346,247807,6,0,P|344:355|389:348,1,65,0|8,1:0|0:0,0:0:0:0:
436,287,248362,1,0,1:0:0:0:
395,205,248640,2,0,P|362:196|316:203,1,65,8|0,0:0|1:0,0:0:0:0:
269,264,249196,1,0,1:0:0:0:
181,270,249474,6,0,L|80:274,1,97.50000371933,8|0,0:3|0:0,0:0:0:0:
