osu file format v14

[General]
AudioFilename: Supercombo Piloto Automtico[1].mp3
AudioLeadIn: 0
PreviewTime: 32714
Countdown: 0
SampleSet: Normal
StackLeniency: 0.7
Mode: 1
LetterboxInBreaks: 0
WidescreenStoryboard: 0

[Editor]
DistanceSpacing: 0.9
BeatDivisor: 4
GridSize: 4
TimelineZoom: 1.7

[Metadata]
Title:Piloto Automatico
TitleUnicode:Piloto Automático
Artist:Supercombo
ArtistUnicode:Supercombo
Creator:igorsprite
Version:Muzukashii
Source:
Tags:Amianto Pop Brazil Portuguese rock alternative alternativo
BeatmapID:1468118
BeatmapSetID:485212

[Difficulty]
HPDrainRate:6
CircleSize:2
OverallDifficulty:5
ApproachRate:5
SliderMultiplier:1.4
SliderTickRate:1

[Events]
//Background and Video events
0,0,"sda.jpg",0,60
//Break Periods
2,154272,167417
//Storyboard Layer 0 (Background)
//Storyboard Layer 1 (Fail)
//Storyboard Layer 2 (Pass)
//Storyboard Layer 3 (Foreground)
//Storyboard Layer 4 (Overlay)
//Storyboard Sound Samples

[TimingPoints]
1345,454.545454545455,4,1,0,40,1,0
1345,-125,4,1,0,40,0,0
15208,-100,4,1,0,50,0,0
34072,-100,4,1,0,75,0,1
34526,-90.9090909090909,4,1,0,75,0,1
59640,-100,4,1,0,75,0,0
63163,-125,4,1,0,75,0,0
77481,-111.111111111111,4,1,0,75,0,0
77708,-100,4,1,0,75,0,0
95890,-100,4,1,0,75,0,1
96345,-90.9090909090909,4,1,0,75,0,1
121345,-90.9090909090909,4,1,0,75,0,0
121799,-100,4,1,0,75,0,0
124981,-90.9090909090909,4,1,0,75,0,1
135890,-90.9090909090909,4,1,0,75,0,0
136004,-100,4,1,0,75,0,0
154185,-100,4,1,0,5,0,0
166799,-125,4,1,0,35,0,0
174526,-100,4,1,0,75,0,0
174981,-83.3333333333333,4,1,0,75,0,0
175435,-71.4285714285714,4,1,0,75,0,0
175890,-62.5,4,1,0,75,0,1
182708,-62.5,4,1,0,75,0,0

[HitObjects]
256,196,1345,5,0,0:0:0:0:
256,196,1572,5,2,0:0:0:0:
308,220,2254,5,2,0:0:0:0:
355,229,2708,5,0,0:0:0:0:
264,176,2935,5,2,0:0:0:0:
256,116,3163,5,0,0:0:0:0:
112,126,3390,5,0,0:0:0:0:
196,168,3845,5,0,0:0:0:0:
256,116,4072,5,2,0:0:0:0:
201,112,4754,5,0,0:0:0:0:
260,216,4981,5,0,0:0:0:0:
260,216,5208,5,2,0:0:0:0:
260,216,5890,5,2,0:0:0:0:
260,216,6345,5,0,0:0:0:0:
260,216,6572,5,2,0:0:0:0:
260,216,6799,5,0,0:0:0:0:
321,78,7026,5,0,0:0:0:0:
260,216,7481,5,0,0:0:0:0:
260,216,7708,5,2,0:0:0:0:
150,107,8390,5,0,0:0:0:0:
260,216,8617,5,0,0:0:0:0:
260,216,8845,5,2,0:0:0:0:
260,216,9526,5,2,0:0:0:0:
260,216,9981,5,0,0:0:0:0:
260,216,10208,5,2,0:0:0:0:
260,216,10435,5,0,0:0:0:0:
260,216,10890,5,0,0:0:0:0:
276,104,11345,5,2,0:0:0:0:
212,152,11799,5,0,0:0:0:0:
212,152,12026,5,2,0:0:0:0:
260,216,12481,5,2,0:0:0:0:
260,216,12935,5,0,0:0:0:0:
260,216,13163,5,2,0:0:0:0:
168,76,13845,5,2,0:0:0:0:
200,204,14072,5,0,0:0:0:0:
200,204,14526,5,2,0:0:0:0:
144,252,15208,5,0,0:0:0:0:
176,248,15322,5,0,0:0:0:0:
204,232,15435,5,0,0:0:0:0:
312,160,15663,5,0,0:0:0:0:
172,140,15890,5,2,0:0:0:0:
259,284,16345,5,0,0:0:0:0:
172,176,16799,5,2,0:0:0:0:
148,236,17481,5,0,0:0:0:0:
276,216,17708,5,0,0:0:0:0:
212,224,17935,5,2,0:0:0:0:
212,216,18390,5,0,0:0:0:0:
184,148,18617,5,2,0:0:0:0:
88,228,19072,5,0,0:0:0:0:
120,228,19185,5,0,0:0:0:0:
152,224,19299,5,0,0:0:0:0:
212,204,19526,5,2,0:0:0:0:
277,176,19981,5,0,0:0:0:0:
220,244,20435,5,2,0:0:0:0:
240,148,21117,5,0,0:0:0:0:
240,148,21345,5,0,0:0:0:0:
240,148,21572,5,2,0:0:0:0:
240,148,22026,5,0,0:0:0:0:
100,236,22254,5,2,0:0:0:0:
296,244,22481,5,0,0:0:0:0:
264,232,22595,5,0,0:0:0:0:
252,204,22708,5,0,0:0:0:0:
232,244,22935,5,0,0:0:0:0:
180,280,23163,5,2,0:0:0:0:
194,163,23617,5,0,0:0:0:0:
256,232,24072,5,2,0:0:0:0:
168,284,24754,5,0,0:0:0:0:
256,192,24981,5,0,0:0:0:0:
256,192,25208,5,2,0:0:0:0:
252,172,25435,5,0,0:0:0:0:
284,252,25890,5,2,0:0:0:0:
248,224,26231,5,0,0:0:0:0:
248,224,26345,5,0,0:0:0:0:
220,228,26572,5,0,0:0:0:0:
268,216,26799,5,2,0:0:0:0:
204,220,27026,5,2,0:0:0:0:
272,192,27254,5,0,0:0:0:0:
272,196,27708,5,2,0:0:0:0:
252,192,28163,5,0,0:0:0:0:
252,192,28390,5,2,0:0:0:0:
252,192,28617,5,0,0:0:0:0:
252,192,29072,5,2,0:0:0:0:
240,152,29754,5,2,0:0:0:0:
184,228,29981,5,0,0:0:0:0:
308,148,30208,5,2,0:0:0:0:
308,148,30322,5,2,0:0:0:0:
248,140,30663,5,2,0:0:0:0:
120,232,30890,5,0,0:0:0:0:
184,236,31117,5,2,0:0:0:0:
248,240,31345,5,0,0:0:0:0:
312,248,31572,5,2,0:0:0:0:
276,300,31799,5,0,0:0:0:0:
264,288,32254,5,0,0:0:0:0:
264,200,32708,6,0,L|240:120,5,70
312,128,34072,5,4,0:0:0:0:
300,240,34526,5,0,0:0:0:0:
300,240,34981,5,2,0:0:0:0:
156,249,35208,5,2,0:0:0:0:
156,249,35435,5,0,0:0:0:0:
416,136,35663,5,0,0:0:0:0:
178,143,35890,5,0,0:0:0:0:
416,136,36117,5,2,0:0:0:0:
340,152,36345,5,0,0:0:0:0:
416,136,36799,5,2,0:0:0:0:
392,188,37481,5,0,0:0:0:0:
416,72,37708,5,0,0:0:0:0:
132,240,38163,5,0,0:0:0:0:
228,140,38617,5,2,0:0:0:0:
118,80,39072,5,0,0:0:0:0:
312,172,39299,5,2,0:0:0:0:
384,264,39754,5,0,0:0:0:0:
384,264,39981,5,0,0:0:0:0:
28,232,40435,5,2,0:0:0:0:
366,32,40663,5,2,0:0:0:0:
260,188,40890,5,0,0:0:0:0:
328,226,41117,5,0,0:0:0:0:
276,136,41345,5,2,0:0:0:0:
328,212,42254,5,2,0:0:0:0:
357,226,42481,5,2,0:0:0:0:
371,58,42708,5,2,0:0:0:0:
274,283,42935,5,0,0:0:0:0:
260,96,43163,5,0,0:0:0:0:
240,124,43390,5,2,0:0:0:0:
216,144,43617,5,0,0:0:0:0:
284,188,44072,5,2,0:0:0:0:
284,188,44754,5,0,0:0:0:0:
284,188,44981,5,2,0:0:0:0:
494,132,45435,5,0,0:0:0:0:
260,188,45890,5,2,0:0:0:0:
371,59,46345,5,0,0:0:0:0:
252,104,46572,5,2,0:0:0:0:
244,120,46799,5,2,0:0:0:0:
326,208,47026,5,0,0:0:0:0:
326,208,47254,5,0,0:0:0:0:
156,176,47708,5,2,0:0:0:0:
344,168,48049,5,2,0:0:0:0:
292,168,48163,5,2,0:0:0:0:
331,247,48390,5,0,0:0:0:0:
283,107,48617,5,4,0:0:0:0:
270,241,49072,5,0,0:0:0:0:
344,180,49526,5,2,0:0:0:0:
316,222,49754,5,2,0:0:0:0:
316,222,49981,5,0,0:0:0:0:
190,117,50208,5,0,0:0:0:0:
190,117,50435,5,0,0:0:0:0:
292,128,50663,5,2,0:0:0:0:
284,236,50890,5,0,0:0:0:0:
292,128,51345,5,2,0:0:0:0:
216,80,52026,5,0,0:0:0:0:
216,80,52254,5,0,0:0:0:0:
380,242,52708,5,0,0:0:0:0:
204,44,53163,5,2,0:0:0:0:
231,188,53617,5,0,0:0:0:0:
296,120,53845,5,2,0:0:0:0:
231,188,54072,5,2,0:0:0:0:
296,120,54299,5,0,0:0:0:0:
328,200,54526,5,0,0:0:0:0:
220,308,54981,5,2,0:0:0:0:
216,196,55208,5,0,0:0:0:0:
164,224,55435,5,0,0:0:0:0:
234,199,55663,5,0,0:0:0:0:
164,224,55890,5,2,0:0:0:0:
296,112,56799,5,2,0:0:0:0:
291,217,57026,5,2,0:0:0:0:
267,149,57254,5,2,0:0:0:0:
311,261,57481,5,0,0:0:0:0:
248,112,57708,5,0,0:0:0:0:
248,120,57935,5,2,0:0:0:0:
248,112,58163,5,0,0:0:0:0:
248,112,58617,5,2,0:0:0:0:
409,138,59299,5,0,0:0:0:0:
216,108,59526,5,6,0:0:0:0:
228,224,63163,5,2,0:0:0:0:
228,224,63617,5,0,0:0:0:0:
316,132,64072,5,0,0:0:0:0:
260,128,64981,5,2,0:0:0:0:
172,216,65435,5,0,0:0:0:0:
256,124,65890,5,2,0:0:0:0:
248,120,66799,5,2,0:0:0:0:
192,232,67254,5,0,0:0:0:0:
264,128,67708,5,0,0:0:0:0:
180,224,68617,5,0,0:0:0:0:
168,164,69072,5,2,0:0:0:0:
168,288,69526,5,2,0:0:0:0:
228,176,69981,5,0,0:0:0:0:
152,276,70435,5,2,0:0:0:0:
276,268,70890,5,0,0:0:0:0:
152,276,71345,5,2,0:0:0:0:
152,276,72254,5,2,0:0:0:0:
272,236,72708,5,0,0:0:0:0:
168,304,73163,5,0,0:0:0:0:
328,124,74072,5,2,0:0:0:0:
224,192,74526,5,0,0:0:0:0:
112,248,74981,5,2,0:0:0:0:
324,71,75663,5,2,0:0:0:0:
230,82,75890,5,0,0:0:0:0:
260,284,76345,5,2,0:0:0:0:
108,268,76799,5,0,0:0:0:0:
411,174,77026,5,2,0:0:0:0:
204,36,77481,5,2,0:0:0:0:
168,228,77708,5,0,0:0:0:0:
276,292,78163,5,2,0:0:0:0:
232,176,78617,5,0,0:0:0:0:
280,120,79072,5,2,0:0:0:0:
272,176,79299,5,2,0:0:0:0:
204,160,79526,5,0,0:0:0:0:
280,120,79981,5,2,0:0:0:0:
280,120,80435,5,0,0:0:0:0:
120,152,80890,5,2,0:0:0:0:
240,188,81345,5,0,0:0:0:0:
292,152,81572,5,2,0:0:0:0:
116,184,81799,5,2,0:0:0:0:
244,184,82254,5,0,0:0:0:0:
120,184,82708,5,2,0:0:0:0:
280,152,82935,5,0,0:0:0:0:
244,196,83163,5,0,0:0:0:0:
252,248,83617,5,2,0:0:0:0:
188,252,83845,5,0,0:0:0:0:
124,256,84072,5,2,0:0:0:0:
260,168,84526,5,2,0:0:0:0:
160,244,84981,5,0,0:0:0:0:
208,172,85208,5,0,0:0:0:0:
240,148,85435,5,2,0:0:0:0:
248,272,85890,5,0,0:0:0:0:
128,236,86345,5,2,0:0:0:0:
188,148,86572,5,2,0:0:0:0:
256,252,86799,5,0,0:0:0:0:
384,240,87254,5,2,0:0:0:0:
260,252,87708,5,0,0:0:0:0:
384,232,88163,5,2,0:0:0:0:
260,236,88617,5,0,0:0:0:0:
296,192,88845,5,0,0:0:0:0:
136,212,89072,5,2,0:0:0:0:
260,236,89526,5,2,0:0:0:0:
260,236,89981,5,0,0:0:0:0:
300,168,90208,5,2,0:0:0:0:
260,236,90435,5,0,0:0:0:0:
260,236,90890,5,2,0:0:0:0:
136,252,91345,5,0,0:0:0:0:
260,136,91572,5,2,0:0:0:0:
136,252,91799,5,2,0:0:0:0:
296,136,92026,5,0,0:0:0:0:
136,124,92254,5,2,0:0:0:0:
176,192,92708,5,0,0:0:0:0:
300,212,93163,5,2,0:0:0:0:
344,260,93390,5,0,0:0:0:0:
344,260,93617,5,2,0:0:0:0:
288,232,93845,5,0,0:0:0:0:
232,204,94072,5,2,0:0:0:0:
200,136,94526,6,0,L|280:140,5,70
272,84,95890,5,4,0:0:0:0:
128,184,96345,5,0,0:0:0:0:
264,188,96799,5,2,0:0:0:0:
392,133,97026,5,2,0:0:0:0:
392,133,97254,5,0,0:0:0:0:
256,192,97481,5,0,0:0:0:0:
351,212,97708,5,0,0:0:0:0:
256,192,97935,5,2,0:0:0:0:
256,192,98163,5,0,0:0:0:0:
252,84,98617,5,2,0:0:0:0:
392,133,99299,5,0,0:0:0:0:
228,188,99526,5,0,0:0:0:0:
367,174,99981,5,0,0:0:0:0:
212,192,100435,5,2,0:0:0:0:
398,234,100890,5,0,0:0:0:0:
224,164,101117,5,2,0:0:0:0:
317,111,101345,5,0,0:0:0:0:
224,164,101572,5,0,0:0:0:0:
224,164,101799,5,0,0:0:0:0:
208,128,102254,5,2,0:0:0:0:
238,240,102481,5,0,0:0:0:0:
238,240,102708,5,2,0:0:0:0:
206,57,102935,5,2,0:0:0:0:
288,192,103163,5,0,0:0:0:0:
140,304,104072,5,2,0:0:0:0:
298,257,104299,5,2,0:0:0:0:
387,119,104526,5,2,0:0:0:0:
298,257,104754,5,0,0:0:0:0:
256,192,104981,5,0,0:0:0:0:
216,112,105208,5,2,0:0:0:0:
216,112,105435,5,0,0:0:0:0:
272,80,105890,5,2,0:0:0:0:
382,153,106572,5,0,0:0:0:0:
256,76,106799,5,2,0:0:0:0:
284,156,107254,5,0,0:0:0:0:
172,184,107708,5,2,0:0:0:0:
381,154,108163,5,0,0:0:0:0:
364,200,108390,5,2,0:0:0:0:
364,200,108617,5,2,0:0:0:0:
381,154,108845,5,0,0:0:0:0:
364,200,109072,5,0,0:0:0:0:
276,76,109526,5,2,0:0:0:0:
296,208,109867,5,2,0:0:0:0:
296,208,109981,5,2,0:0:0:0:
296,208,110435,5,4,0:0:0:0:
446,158,110890,5,0,0:0:0:0:
224,112,111345,5,2,0:0:0:0:
379,163,111572,5,2,0:0:0:0:
379,163,111799,5,0,0:0:0:0:
291,188,112026,5,0,0:0:0:0:
283,188,112254,5,0,0:0:0:0:
224,112,112481,5,2,0:0:0:0:
160,40,112708,5,0,0:0:0:0:
296,212,113163,5,2,0:0:0:0:
304,188,113845,5,0,0:0:0:0:
304,188,114072,5,0,0:0:0:0:
310,139,114526,5,0,0:0:0:0:
164,204,114981,5,2,0:0:0:0:
282,196,115435,5,0,0:0:0:0:
248,72,115663,5,2,0:0:0:0:
248,72,115890,5,0,0:0:0:0:
272,171,116117,5,0,0:0:0:0:
232,212,116345,5,0,0:0:0:0:
164,84,116799,5,2,0:0:0:0:
282,196,117026,5,0,0:0:0:0:
282,196,117254,5,2,0:0:0:0:
303,114,117481,5,2,0:0:0:0:
176,136,117708,5,0,0:0:0:0:
272,148,118617,5,2,0:0:0:0:
283,196,118845,5,2,0:0:0:0:
303,114,119072,5,2,0:0:0:0:
283,196,119299,5,0,0:0:0:0:
244,48,119526,5,0,0:0:0:0:
268,248,119754,5,2,0:0:0:0:
268,248,119981,5,0,0:0:0:0:
128,124,120435,5,2,0:0:0:0:
326,178,120890,5,0,0:0:0:0:
256,136,121117,5,0,0:0:0:0:
256,136,121345,5,2,0:0:0:0:
280,132,121799,5,0,0:0:0:0:
280,132,122254,5,2,0:0:0:0:
280,132,122708,5,0,0:0:0:0:
248,180,123163,5,2,0:0:0:0:
361,166,123617,5,0,0:0:0:0:
425,173,124072,5,2,0:0:0:0:
224,104,124526,5,2,0:0:0:0:
300,120,124754,5,2,0:0:0:0:
268,88,124981,5,4,0:0:0:0:
461,211,125435,5,0,0:0:0:0:
248,188,125890,5,2,0:0:0:0:
331,176,126117,5,2,0:0:0:0:
362,121,126345,5,0,0:0:0:0:
287,196,126572,5,2,0:0:0:0:
344,200,126799,5,0,0:0:0:0:
110,59,127026,1,2,0:0:0:0:
344,200,127254,5,0,0:0:0:0:
296,144,127708,5,2,0:0:0:0:
287,196,127935,5,0,0:0:0:0:
362,121,128163,5,2,0:0:0:0:
296,144,128390,5,0,0:0:0:0:
296,144,128617,5,0,0:0:0:0:
276,60,129072,5,0,0:0:0:0:
200,72,129526,5,2,0:0:0:0:
362,121,129981,5,2,0:0:0:0:
260,88,130208,5,2,0:0:0:0:
266,242,130435,5,0,0:0:0:0:
176,156,130663,5,0,0:0:0:0:
176,156,130890,5,0,0:0:0:0:
204,28,131345,5,2,0:0:0:0:
362,121,131572,5,2,0:0:0:0:
272,188,131799,5,0,0:0:0:0:
362,121,132026,5,2,0:0:0:0:
272,188,132254,5,0,0:0:0:0:
452,205,132708,5,0,0:0:0:0:
216,140,133163,5,2,0:0:0:0:
287,196,133390,5,2,0:0:0:0:
323,75,133617,5,2,0:0:0:0:
280,112,133845,5,0,0:0:0:0:
287,196,134072,5,0,0:0:0:0:
280,112,134299,5,2,0:0:0:0:
280,112,134526,5,0,0:0:0:0:
200,80,134981,5,2,0:0:0:0:
252,184,135435,5,0,0:0:0:0:
252,184,135663,5,0,0:0:0:0:
252,184,135890,5,6,0:0:0:0:
276,112,139526,5,4,0:0:0:0:
256,196,139981,5,0,0:0:0:0:
344,148,140435,5,2,0:0:0:0:
323,80,140663,5,2,0:0:0:0:
323,80,140890,5,0,0:0:0:0:
212,208,141345,5,0,0:0:0:0:
212,208,141572,5,2,0:0:0:0:
228,104,141799,5,0,0:0:0:0:
280,244,142254,5,2,0:0:0:0:
323,87,142481,5,2,0:0:0:0:
323,87,142708,5,0,0:0:0:0:
364,160,142935,5,0,0:0:0:0:
248,216,143163,5,2,0:0:0:0:
347,250,143617,5,0,0:0:0:0:
260,200,144072,5,2,0:0:0:0:
115,106,144526,5,2,0:0:0:0:
236,128,144754,5,2,0:0:0:0:
115,106,144981,5,2,0:0:0:0:
232,200,145208,5,0,0:0:0:0:
216,188,145435,5,0,0:0:0:0:
144,105,145890,5,2,0:0:0:0:
144,105,146117,5,2,0:0:0:0:
144,105,146345,5,0,0:0:0:0:
307,306,146572,5,0,0:0:0:0:
232,136,146799,5,0,0:0:0:0:
399,153,147254,5,0,0:0:0:0:
156,176,147708,5,2,0:0:0:0:
225,207,147935,5,2,0:0:0:0:
337,164,148163,5,0,0:0:0:0:
264,172,148390,5,2,0:0:0:0:
264,172,148617,5,2,0:0:0:0:
313,269,148845,5,0,0:0:0:0:
156,292,149072,5,0,0:0:0:0:
192,92,149526,5,2,0:0:0:0:
339,164,149754,5,2,0:0:0:0:
268,100,149981,5,0,0:0:0:0:
314,268,150208,5,0,0:0:0:0:
192,92,150435,5,2,0:0:0:0:
385,251,150890,5,0,0:0:0:0:
228,204,151345,5,2,0:0:0:0:
108,172,151799,5,0,0:0:0:0:
339,164,152026,5,0,0:0:0:0:
232,204,152254,5,2,0:0:0:0:
314,268,152708,5,0,0:0:0:0:
344,156,153163,5,2,0:0:0:0:
339,164,153390,5,0,0:0:0:0:
332,168,153617,5,2,0:0:0:0:
332,168,153845,5,2,0:0:0:0:
424,152,154072,5,0,0:0:0:0:
160,84,168617,5,0,0:0:0:0:
208,236,168845,5,2,0:0:0:0:
264,152,169526,5,2,0:0:0:0:
264,152,170435,5,2,0:0:0:0:
264,152,170890,5,0,0:0:0:0:
355,106,171345,5,2,0:0:0:0:
268,200,172254,5,0,0:0:0:0:
176,192,172481,5,2,0:0:0:0:
236,248,172935,5,0,0:0:0:0:
272,96,173163,5,2,0:0:0:0:
276,200,173617,5,0,0:0:0:0:
355,106,174072,5,2,0:0:0:0:
260,116,174526,5,0,0:0:0:0:
296,228,174981,5,4,0:0:0:0:
412,184,175435,5,0,0:0:0:0:
180,276,175890,5,6,0:0:0:0:
320,128,176799,5,6,0:0:0:0:
320,128,177708,5,6,0:0:0:0:
260,188,178163,5,0,0:0:0:0:
324,128,178617,5,6,0:0:0:0:
260,188,179072,5,0,0:0:0:0:
324,128,179526,5,6,0:0:0:0:
289,52,179981,5,0,0:0:0:0:
324,128,180435,5,6,0:0:0:0:
324,128,181345,5,6,0:0:0:0:
260,188,181799,5,0,0:0:0:0:
328,128,182254,5,6,0:0:0:0:
300,252,182708,5,4,0:0:0:0:
