osu file format v14

[General]
AudioFilename: No Game No Life - The Kings Plan.mp3
AudioLeadIn: 0
PreviewTime: 50205
Countdown: 0
SampleSet: Normal
StackLeniency: 0.7
Mode: 0
LetterboxInBreaks: 1
WidescreenStoryboard: 0

[Editor]
DistanceSpacing: 1.2
BeatDivisor: 4
GridSize: 8
TimelineZoom: 1.3

[Metadata]
Title:All of you is all of me
TitleUnicode:All of you is all of me
Artist:SuperSweep
ArtistUnicode:スーパースィープ
Creator:xxdeathx
Version:wcx's Extreme
Source:No Game No Life
Tags:ノーゲーム・ノーライフ NGNL ost original soundtrack insert song the king's plan kawaiwkyik chaoslitz cloudsplash16 wcx19911123 rizia little 細江慎治 佐宗綾子 江口孝宏 田中文久 Hosoe Shinji Sasou Ayako Eguchi Takahiro Fumihisa Tanaka
BeatmapID:537411
BeatmapSetID:228789

[Difficulty]
HPDrainRate:6
CircleSize:5
OverallDifficulty:8
ApproachRate:9.2
SliderMultiplier:1.6
SliderTickRate:2

[Events]
//Background and Video events
0,0,"bg.jpg",0,0
//Break Periods
2,74499,79541
//Storyboard Layer 0 (Background)
//Storyboard Layer 1 (Fail)
//Storyboard Layer 2 (Pass)
//Storyboard Layer 3 (Foreground)
//Storyboard Sound Samples

[TimingPoints]
2299,375,4,2,1,50,1,0
8111,-100,4,2,1,30,0,0
8674,-100,4,2,1,50,0,0
10924,-100,4,2,1,30,0,0
11299,-100,4,2,1,50,0,0
14299,-100,4,2,1,55,0,0
16924,-100,4,2,1,30,0,0
17299,-100,4,2,1,55,0,0
20111,-100,4,2,1,30,0,0
20299,-100,4,2,1,55,0,0
22924,-100,4,2,1,30,0,0
23299,-100,4,2,1,55,0,0
26299,-100,4,2,1,50,0,0
28924,-100,4,2,1,25,0,0
29299,-100,4,2,1,50,0,0
32111,-100,4,2,1,25,0,0
32299,-100,4,2,1,50,0,0
34986,-100,4,2,1,25,0,0
35299,-100,4,2,1,50,0,0
41111,-100,4,2,1,25,0,0
41299,-100,4,2,1,50,0,0
41674,-100,4,2,1,25,0,0
41861,-100,4,2,1,50,0,0
42049,-100,4,2,1,25,0,0
42424,-100,4,2,1,50,0,0
42611,-100,4,2,1,30,0,0
42986,-100,4,2,1,50,0,0
44111,-100,4,2,1,25,0,0
44299,-100,4,2,1,45,0,0
47299,-100,4,2,1,50,0,0
48799,-100,4,2,1,55,0,0
50299,-100,4,1,1,55,0,1
74299,-100,4,2,1,55,0,0
80111,-100,4,2,1,30,0,0
80299,-100,4,2,1,50,0,0
82924,-100,4,2,1,30,0,0
83299,-100,4,2,1,50,0,0
88924,-100,4,2,1,30,0,0
89299,-100,4,2,1,50,0,0
92111,-100,4,2,1,30,0,0
92299,-100,4,2,1,50,0,0
94924,-100,4,2,1,30,0,0
95299,-100,4,2,1,50,0,0
100924,-100,4,2,1,30,0,0
101299,-100,4,2,1,50,0,0
104111,-100,4,2,1,30,0,0
104299,-100,4,2,1,50,0,0
106986,-100,4,2,1,30,0,0
107299,-100,4,2,1,50,0,0
113111,-100,4,2,1,30,0,0
113299,-100,4,2,1,50,0,0
113674,-100,4,2,1,25,0,0
113861,-100,4,2,1,50,0,0
114049,-100,4,2,1,25,0,0
114424,-100,4,2,1,50,0,0
114611,-100,4,2,1,30,0,0
114986,-100,4,2,1,50,0,0
116111,-100,4,2,1,30,0,0
116299,-100,4,2,1,45,0,0
119299,-100,4,2,1,50,0,0
120799,-100,4,2,1,55,0,0
122299,-100,4,1,1,55,0,1
146299,-100,4,2,1,50,0,0
147424,-100,4,2,1,35,0,0
147799,-100,4,2,1,50,0,0
147986,-100,4,2,1,20,0,0
148361,-100,4,2,1,50,0,0
148549,-100,4,2,1,30,0,0
148830,-100,4,2,1,50,0,0
149861,-100,4,2,1,45,0,0
150236,-100,4,2,1,50,0,0
150424,-100,4,2,1,40,0,0
150799,-100,4,2,1,50,0,0
150986,-100,4,2,1,35,0,0
151361,-100,4,2,1,50,0,0
151549,-100,4,2,1,30,0,0
151830,-100,4,2,1,50,0,0

[Colours]
Combo1 : 254,88,151
Combo2 : 100,213,9
Combo3 : 121,228,255
Combo4 : 252,133,219
Combo5 : 255,191,0

[HitObjects]
80,112,2299,6,0,B|128:120|128:120|160:112|160:112|192:136|240:128,1,160,2|0,0:0|0:0,0:0:0:0:
384,272,2861,2,0,B|400:232|384:200|384:200|408:192|408:192|400:160|416:128,1,160,2|0,0:0|0:0,0:0:0:0:
224,288,3424,6,0,B|216:248|216:248|248:208|248:208|272:240|312:240,1,160,2|0,0:0|0:0,0:0:0:0:
296,32,3986,2,0,B|312:160|312:160|336:128,1,160,2|0,0:0|0:0,0:0:0:0:
64,272,4549,6,0,B|128:280|128:280|132:308|160:328,1,120,2|0,0:0|0:0,0:0:0:0:
240,272,4924,2,0,L|176:264,1,40,2|0,0:0|0:0,0:0:0:0:
336,232,5111,2,0,L|272:224,1,40,2|0,0:0|0:0,0:0:0:0:
432,336,5299,6,0,B|400:312|400:256|400:256|412:216|388:188,1,160,2|0,0:0|0:0,0:0:0:0:
168,104,5861,2,0,L|328:96,1,160,2|0,0:0|0:0,0:0:0:0:
416,272,6424,6,0,B|384:328|312:320|312:320|336:360,1,160,2|0,0:0|0:0,0:0:0:0:
96,264,6986,2,0,P|152:240|264:288,1,160,2|0,0:0|0:0,0:0:0:0:
24,120,7549,2,0,B|0:176|40:216|40:216|16:244|24:272,1,160,2|0,0:0|0:0,0:0:0:0:
224,56,8111,5,0,1:0:0:0:
224,56,8174,1,0,1:0:0:0:
224,56,8236,1,0,1:0:0:0:
224,56,8299,2,0,L|96:160,1,160,0|0,1:0|0:0,0:0:0:0:
368,368,8861,2,0,L|344:224,1,120,0|0,1:0|0:0,0:0:0:0:
336,184,9236,1,0,3:0:0:0:
104,280,9424,6,0,L|208:304,2,80,0|0|0,1:0|0:0|0:0,0:0:0:0:
280,80,9986,2,0,P|352:72|440:136,1,160,2|0,0:0|0:0,0:0:0:0:
312,360,10549,2,0,B|288:336|288:336|288:280,1,80,2|0,0:0|0:0,0:0:0:0:
232,160,10924,5,0,1:0:0:0:
208,168,10986,1,0,1:0:0:0:
184,176,11049,1,0,1:0:0:0:
160,184,11111,1,0,1:0:0:0:
136,192,11174,1,0,1:0:0:0:
112,200,11236,1,0,1:0:0:0:
88,208,11299,1,0,1:0:0:0:
80,344,11486,1,0,1:0:0:0:
120,280,11674,1,0,0:0:0:0:
152,48,11861,5,0,1:0:0:0:
280,72,12049,1,0,0:0:0:0:
208,104,12236,1,0,3:0:0:0:
392,232,12424,2,0,B|376:112|376:112|400:64,1,160,0|0,1:0|0:0,0:0:0:0:
448,288,12986,6,0,P|408:312|360:304,2,80,2|0|0,0:0|0:0|0:0,0:0:0:0:
320,256,13549,2,0,L|272:248,1,40
240,320,13736,2,0,L|176:328,1,40
176,224,13924,2,0,L|128:216,1,40,2|0,0:3|0:0,0:0:0:0:
96,336,14111,2,0,L|32:344,1,40
0,144,14299,6,0,L|88:132,1,80,0|0,1:0|0:0,0:0:0:0:
158,122,14674,1,0,0:0:0:0:
280,368,14861,1,0,1:0:0:0:
272,288,15049,1,0,0:0:0:0:
264,208,15236,1,0,0:0:0:0:
480,48,15424,6,0,P|432:56|400:96,1,80,0|0,1:0|0:0,0:0:0:0:
376,152,15799,1,0,0:0:0:0:
112,184,15986,2,0,P|176:184|200:200,1,80,2|0,0:0|0:0,0:0:0:0:
248,240,16361,1,0,0:0:0:0:
464,328,16549,2,0,P|424:360|384:360,1,80,2|0,0:0|0:0,0:0:0:0:
248,240,16924,5,0,1:0:0:0:
272,248,16986,1,0,1:0:0:0:
296,256,17049,1,0,1:0:0:0:
320,264,17111,1,0,1:0:0:0:
344,272,17174,1,0,1:0:0:0:
368,280,17236,1,0,1:0:0:0:
392,288,17299,1,0,1:0:0:0:
448,168,17486,1,0,0:0:0:0:
464,248,17674,1,0,0:0:0:0:
224,80,17861,5,0,1:0:0:0:
104,112,18049,1,0,0:0:0:0:
152,48,18236,1,0,3:0:0:0:
144,256,18424,2,0,P|104:232|64:232,1,80,0|0,1:0|0:0,0:0:0:0:
0,264,18799,1,0,0:0:0:0:
216,160,18986,6,0,L|296:144,1,80,2|0,0:0|0:0,0:0:0:0:
376,128,19361,1,0,0:0:0:0:
392,368,19549,2,0,P|344:360|320:328,1,80,2|0,0:0|0:0,0:0:0:0:
296,264,19924,1,0,0:0:0:0:
416,64,20111,5,0,1:0:0:0:
416,64,20174,1,0,1:0:0:0:
416,64,20236,1,0,1:0:0:0:
416,64,20299,1,0,1:0:0:0:
344,96,20486,1,0,0:0:0:0:
464,128,20674,1,0,0:0:0:0:
104,160,20861,1,0,1:0:0:0:
72,232,21049,1,0,0:0:0:0:
184,176,21236,1,0,3:0:0:0:
336,360,21424,6,0,B|304:336|304:336|336:312,1,80,0|0,1:0|0:0,0:0:0:0:
412,340,21799,1,0,0:0:0:0:
144,232,21986,2,0,B|176:256|176:256|144:280,1,80,2|0,0:0|0:0,0:0:0:0:
68,252,22361,1,0,0:0:0:0:
248,40,22549,2,0,P|272:96|264:144,1,80,2|0,0:0|0:0,0:0:0:0:
176,336,22924,5,0,1:0:0:0:
161,313,22986,1,0,1:0:0:0:
149,288,23049,1,0,1:0:0:0:
141,262,23111,1,0,1:0:0:0:
135,235,23174,1,0,1:0:0:0:
133,208,23236,1,0,1:0:0:0:
134,181,23299,1,0,1:0:0:0:
280,112,23486,1,0,0:0:0:0:
224,184,23674,1,0,0:0:0:0:
384,376,23861,5,0,1:0:0:0:
408,232,24049,1,0,0:0:0:0:
448,312,24236,1,0,3:0:0:0:
376,64,24424,1,0,1:0:0:0:
208,16,24611,2,0,L|304:0,1,80
192,288,24986,1,2,0:0:0:0:
32,312,25174,2,0,L|112:336,1,80
496,192,25549,2,0,B|432:152|408:216|340:192,1,160,2|2,0:0|0:3,0:0:0:0:
80,104,26299,6,0,B|136:88|152:40|152:40|176:64|168:96,1,160,0|0,1:0|0:0,0:0:0:0:
112,248,26861,2,0,P|160:216|192:216,1,80,0|0,1:0|0:0,0:0:0:0:
256,240,27236,1,0,3:0:0:0:
352,352,27424,2,0,P|328:312|328:280,1,80,0|0,1:0|0:0,0:0:0:0:
368,208,27799,1,0,0:0:0:0:
496,144,27986,6,0,P|456:152|416:136,1,80,2|0,0:0|0:0,0:0:0:0:
368,80,28361,1,0,0:0:0:0:
160,72,28549,2,0,B|184:112|232:112|232:112|240:128|232:144,1,120,2|0,0:0|0:0,0:0:0:0:
192,200,28924,2,0,P|168:200|144:192,5,26.6666666666667,0|0|0|0|0|0,1:0|1:0|1:0|1:0|1:0|1:0,0:0:0:0:
256,208,29299,5,0,1:0:0:0:
368,80,29486,2,0,P|416:64|464:80,1,80
400,240,29861,2,0,L|416:160,1,80,0|0,1:0|0:0,0:0:0:0:
384,320,30236,1,0,3:0:0:0:
288,232,30424,2,0,L|280:144,1,80,0|0,1:0|0:0,0:0:0:0:
296,312,30799,1,0,0:0:0:0:
176,272,30986,6,0,L|136:200,1,80,2|0,0:0|0:0,0:0:0:0:
216,344,31361,1,0,0:0:0:0:
56,312,31549,2,0,B|-8:264|-8:264|40:264|64:224,1,160,2|0,0:0|0:0,0:0:0:0:
72,48,32111,5,0,1:0:0:0:
72,48,32174,1,0,1:0:0:0:
72,48,32236,1,0,1:0:0:0:
72,48,32299,2,0,P|24:96|-8:208,1,160,0|0,1:0|0:0,0:0:0:0:
144,376,32861,2,0,P|168:344|176:288,1,80,0|0,1:0|0:0,0:0:0:0:
168,224,33236,1,0,3:0:0:0:
312,8,33424,6,0,P|320:56|304:120,1,80,0|0,1:0|0:0,0:0:0:0:
280,160,33799,1,0,0:0:0:0:
176,360,33986,2,0,P|216:336|256:336,1,80,2|0,0:0|0:0,0:0:0:0:
328,352,34361,1,0,0:0:0:0:
496,176,34549,2,0,B|456:200|456:200|376:192,1,120,2|0,0:0|0:0,0:0:0:0:
320,184,34924,2,0,L|280:180,5,26.6666666666667,0|0|0|0|0|0,1:0|1:0|1:0|1:0|1:0|1:0,0:0:0:0:
400,128,35299,5,0,1:0:0:0:
312,92,35486,1,0,0:0:0:0:
224,56,35674,1,0,0:0:0:0:
56,200,35861,1,0,1:0:0:0:
152,192,36049,1,0,0:0:0:0:
248,184,36236,1,0,3:0:0:0:
392,328,36424,5,0,1:0:0:0:
296,336,36611,1,0,0:0:0:0:
200,344,36799,1,0,0:0:0:0:
256,32,36986,1,2,0:0:0:0:
256,32,37549,2,0,B|288:96|224:120|256:188,1,160,0|2,0:0|0:3,0:0:0:0:
480,336,38299,6,0,P|464:312|464:304,5,26.6666666666667,0|0|0|0|0|0,1:0|0:0|0:0|0:0|0:0|0:0,0:0:0:0:
448,256,38674,1,0,0:0:0:0:
296,120,38861,2,0,P|272:120|256:128,5,26.6666666666667,0|0|0|0|0|0,1:0|0:0|0:0|0:0|0:0|0:0,0:0:0:0:
216,152,39236,1,0,3:0:0:0:
176,336,39424,6,0,P|208:344|216:344,5,26.6666666666667,0|0|0|0|0|0,1:0|0:0|0:0|0:0|0:0|0:0,0:0:0:0:
264,336,39799,1,0,0:0:0:0:
80,248,39986,2,0,P|56:248|40:256,5,26.6666666666667,2|0|0|0|0|0,0:0|0:0|0:0|0:0|0:0|0:0,0:0:0:0:
0,280,40361,1,0,0:0:0:0:
120,96,40549,2,0,P|128:72|144:56,5,26.6666666666667,2|0|0|0|0|0,0:0|0:0|0:0|0:0|0:0|0:0,0:0:0:0:
176,32,40924,1,0,0:0:0:0:
200,176,41111,5,0,1:0:0:0:
200,176,41174,1,0,1:0:0:0:
200,176,41236,1,0,1:0:0:0:
200,176,41299,2,0,L|168:264,1,80,8|0,0:0|0:0,0:0:0:0:
140,340,41674,1,4,0:3:0:0:
504,336,41861,2,0,L|432:296,1,80,8|4,0:0|0:3,0:0:0:0:
352,256,42236,1,4,0:3:0:0:
88,112,42424,2,0,L|184:96,1,80,0|8,0:0|0:3,0:0:0:0:
264,84,42986,5,0,0:0:0:0:
352,128,43549,5,0,0:0:0:0:
400,216,44111,5,0,1:0:0:0:
400,216,44174,1,0,1:0:0:0:
400,216,44236,1,0,1:0:0:0:
400,216,44299,2,0,P|408:256|392:312,1,80,0|0,1:0|0:0,0:0:0:0:
352,376,44674,1,0,1:0:0:0:
264,128,44861,2,0,P|280:80|304:56,1,80,0|0,0:0|1:0,0:0:0:0:
392,40,45236,1,0,0:0:0:0:
144,72,45424,6,0,P|104:96|80:136,1,80,0|0,1:0|0:0,0:0:0:0:
64,216,45799,1,0,1:0:0:0:
304,336,45986,2,0,L|208:344,1,80,0|0,0:0|1:0,0:0:0:0:
72,280,46361,5,0,0:0:0:0:
96,248,46455,1,0,0:0:0:0:
120,216,46549,2,0,L|136:136,1,80,0|0,1:0|0:0,0:0:0:0:
400,8,46924,2,0,L|384:88,1,80,0|0,1:0|0:0,0:0:0:0:
352,240,47299,5,8,0:0:0:0:
448,224,47486,1,0,1:0:0:0:
264,48,47674,1,0,1:0:0:0:
168,64,47861,1,8,0:0:0:0:
24,224,48049,1,0,1:0:0:0:
60,193,48142,1,0,1:0:0:0:
106,181,48236,1,0,1:0:0:0:
153,190,48330,1,0,1:0:0:0:
191,219,48424,1,8,0:0:0:0:
148,241,48517,1,0,1:0:0:0:
122,281,48611,1,0,1:0:0:0:
123,329,48705,1,0,1:0:0:0:
152,367,48799,5,8,1:2:0:0:
368,328,48986,1,0,1:0:0:0:
272,80,49174,1,8,1:2:0:0:
148,241,49361,1,0,1:0:0:0:
400,240,49549,1,8,1:2:0:0:
144,40,49736,1,0,1:0:0:0:
208,304,49924,1,2,1:3:0:0:
216,320,50299,6,0,P|240:280|296:248,1,80,4|0,0:2|0:0,0:0:0:0:
328,248,50580,1,0,0:0:0:0:
366,257,50674,1,8,0:2:0:0:
264,16,50861,2,0,L|248:112,1,80
244,136,51142,1,0,0:0:0:0:
320,360,51330,1,0,0:0:0:0:
256,344,51424,6,0,L|176:328,1,80,8|0,0:2|0:0,0:0:0:0:
116,312,51705,2,0,L|52:296,1,40
240,160,51986,1,0,0:0:0:0:
24,40,52174,1,8,0:2:0:0:
120,216,52361,2,0,L|160:240,1,40
216,264,52549,6,0,P|240:272|296:264,1,80
344,224,52830,1,0,0:0:0:0:
408,200,52924,2,0,P|448:208|480:240,1,80,8|0,0:2|0:0,0:0:0:0:
272,40,53299,6,0,L|184:56,1,80,4|0,0:2|0:0,0:0:0:0:
144,104,53580,1,0,0:0:0:0:
153,142,53674,1,8,0:2:0:0:
336,56,53861,2,0,L|248:72,1,80
208,120,54142,2,0,L|224:184,1,40
264,368,54424,5,8,0:2:0:0:
464,240,54611,1,0,0:0:0:0:
464,240,54705,1,0,0:0:0:0:
464,240,54799,1,0,0:0:0:0:
320,16,54986,2,0,B|336:128,1,80,0|8,0:0|0:2,0:0:0:0:
337,138,55267,1,0,0:0:0:0:
96,216,55455,1,0,0:0:0:0:
144,176,55549,6,0,P|192:160|232:168,1,80
280,184,55830,1,0,0:0:0:0:
328,224,55924,2,0,L|416:208,1,80,8|0,0:2|0:0,0:0:0:0:
128,368,56299,6,0,P|80:360|40:312,1,80,4|0,0:2|0:0,0:0:0:0:
24,288,56580,1,0,0:0:0:0:
19,248,56674,1,8,0:2:0:0:
156,32,56861,2,0,L|148:120,1,80
147,152,57142,1,0,0:0:0:0:
252,377,57330,1,0,0:0:0:0:
256,312,57424,6,0,L|264:233,1,80,8|0,0:2|0:0,0:0:0:0:
280,40,57799,1,0,0:0:0:0:
432,224,57986,2,0,P|392:248|344:248,1,80,0|8,0:0|0:2,0:0:0:0:
192,112,58361,1,0,0:0:0:0:
256,104,58455,1,0,0:0:0:0:
320,96,58549,6,0,L|448:80,1,120
504,224,58924,2,0,P|488:272|448:304,1,80,8|0,0:2|0:0,0:0:0:0:
216,288,59299,6,0,P|256:288|312:320,1,80,4|0,0:2|0:0,0:0:0:0:
344,344,59580,1,0,0:0:0:0:
384,344,59674,1,8,0:2:0:0:
256,160,59861,2,0,P|256:96|280:56,1,80
400,0,60236,1,0,0:0:0:0:
136,64,60424,2,0,L|24:88,1,80,8|0,0:2|0:0,0:0:0:0:
32,240,60799,5,8,0:2:0:0:
264,40,60986,1,0,0:0:0:0:
192,288,61174,1,8,0:2:0:0:
64,96,61361,1,0,0:0:0:0:
312,176,61549,1,8,0:2:0:0:
104,200,61736,1,0,0:0:0:0:
368,80,61924,1,8,0:2:0:0:
400,320,62111,1,0,0:0:0:0:
176,136,62299,6,0,P|184:96|216:56,1,80,4|0,0:2|0:0,0:0:0:0:
264,40,62580,1,0,0:0:0:0:
304,40,62674,1,8,0:2:0:0:
480,232,62861,2,0,L|392:256,1,80
361,264,63142,1,0,0:0:0:0:
120,240,63330,1,0,0:0:0:0:
176,264,63424,6,0,P|208:296|216:344,1,80,8|0,0:2|0:0,0:0:0:0:
176,376,63705,2,0,L|112:376,1,40
16,184,63986,2,0,L|40:96,1,80,0|8,0:0|0:2,0:0:0:0:
288,24,64361,1,0,0:0:0:0:
96,144,64549,6,0,L|72:232,1,80
84,284,64830,1,0,0:0:0:0:
136,248,64924,2,0,L|160:160,1,80,8|0,0:2|0:0,0:0:0:0:
408,48,65299,6,0,P|440:88|448:144,1,80,4|0,0:2|0:0,0:0:0:0:
448,180,65580,1,0,0:0:0:0:
434,217,65674,1,8,0:2:0:0:
368,32,65861,2,0,P|392:72|392:128,1,80
384,168,66142,2,0,L|368:216,1,40
88,128,66424,6,0,L|176:120,1,80,8|0,0:2|0:0,0:0:0:0:
232,116,66705,2,0,L|280:112,1,40
416,264,66986,1,0,0:0:0:0:
272,48,67174,1,8,0:2:0:0:
80,192,67361,2,0,L|132:188,1,40
184,184,67549,6,0,P|216:200|240:248,1,80
264,296,67830,1,0,0:0:0:0:
312,336,67924,2,0,P|336:344|400:336,1,80,8|0,0:2|0:0,0:0:0:0:
472,48,68299,6,0,L|384:56,1,80,4|0,0:2|0:0,0:0:0:0:
328,63,68580,1,0,0:0:0:0:
288,65,68674,1,8,0:2:0:0:
24,24,68861,1,0,0:0:0:0:
104,256,69049,1,0,0:0:0:0:
104,256,69142,1,0,0:0:0:0:
104,256,69236,1,0,0:0:0:0:
288,168,69424,6,0,P|336:152|376:160,1,80,8|0,0:2|0:0,0:0:0:0:
420,188,69705,2,0,L|440:232,1,40
240,368,69986,2,0,P|216:328|216:288,1,80,0|8,0:0|0:2,0:0:0:0:
360,72,70361,1,0,0:0:0:0:
344,136,70455,1,0,0:0:0:0:
288,168,70549,6,0,P|216:176|168:160,1,120
72,64,70924,2,0,P|120:96|136:136,1,80,8|0,0:2|0:0,0:0:0:0:
96,360,71299,2,0,L|80:280,1,80,4|0,0:2|0:0,0:0:0:0:
64,216,71580,1,0,0:0:0:0:
55,176,71674,1,8,0:2:0:0:
176,312,71861,6,0,P|232:328|272:320,1,80
312,304,72142,2,0,L|344:264,1,40
456,24,72424,2,0,L|432:104,1,80,8|0,0:2|0:0,0:0:0:0:
376,304,72799,5,8,0:2:0:0:
112,176,72986,1,0,0:0:0:0:
416,168,73174,1,8,0:2:0:0:
280,360,73361,1,0,0:0:0:0:
24,256,73549,1,8,0:2:0:0:
168,56,73736,1,0,0:0:0:0:
400,232,73924,1,8,0:2:0:0:
144,192,74111,1,0,0:0:0:0:
328,32,74299,5,4,0:0:0:0:
408,264,80111,5,0,1:0:0:0:
408,264,80174,1,0,1:0:0:0:
408,264,80236,1,0,1:0:0:0:
408,264,80299,2,0,B|376:280|344:264|344:264|328:280|328:280|296:256|256:264,1,160,0|0,1:0|0:0,0:0:0:0:
120,328,80861,2,0,B|192:360|192:360|232:352,1,120,0|0,1:0|0:0,0:0:0:0:
272,344,81236,1,0,3:0:0:0:
384,192,81424,1,0,1:0:0:0:
96,96,82924,5,0,1:0:0:0:
96,96,82986,1,0,1:0:0:0:
96,96,83049,1,0,1:0:0:0:
96,96,83111,1,0,1:0:0:0:
96,96,83174,1,0,1:0:0:0:
96,96,83236,1,0,1:0:0:0:
96,96,83299,2,0,L|176:88,1,80,0|0,1:0|0:0,0:0:0:0:
256,80,83674,1,0,0:0:0:0:
400,240,83861,2,0,L|304:232,1,80,0|0,1:0|0:0,0:0:0:0:
240,224,84236,1,0,3:0:0:0:
56,336,84424,1,0,1:0:0:0:
64,344,85924,5,2,0:3:0:0:
336,328,86299,6,0,P|352:288|384:264,1,80,0|0,1:0|0:0,0:0:0:0:
464,256,86674,1,0,0:0:0:0:
264,176,86861,2,0,P|232:136|224:96,1,80,0|0,1:0|0:0,0:0:0:0:
216,32,87236,1,0,3:0:0:0:
184,256,87424,6,0,P|168:296|128:328,1,80,0|0,1:0|0:0,0:0:0:0:
64,344,87799,1,0,0:0:0:0:
80,120,87986,2,0,P|120:96|160:96,1,80,2|0,0:0|0:0,0:0:0:0:
224,128,88361,1,0,0:0:0:0:
464,176,88549,2,0,L|376:192,1,80,2|0,0:0|0:0,0:0:0:0:
160,248,88924,5,0,1:0:0:0:
184,256,88986,1,0,1:0:0:0:
208,264,89049,1,0,1:0:0:0:
232,272,89111,1,0,1:0:0:0:
256,280,89174,1,0,1:0:0:0:
280,272,89236,1,0,1:0:0:0:
304,264,89299,1,0,1:0:0:0:
304,136,89486,1,0,0:0:0:0:
256,200,89674,1,0,0:0:0:0:
32,72,89861,5,0,1:0:0:0:
160,40,90049,1,0,0:0:0:0:
104,96,90236,1,0,3:0:0:0:
48,288,90424,2,0,P|80:336|112:352,1,80,0|0,1:0|0:0,0:0:0:0:
176,368,90799,1,0,0:0:0:0:
248,152,90986,6,0,P|208:160|176:192,1,80,2|0,0:0|0:0,0:0:0:0:
144,256,91361,1,0,0:0:0:0:
352,376,91549,2,0,L|376:288,1,80,2|0,0:0|0:0,0:0:0:0:
396,224,91924,1,0,0:0:0:0:
508,32,92111,5,0,1:0:0:0:
508,32,92174,1,0,1:0:0:0:
508,32,92236,1,0,1:0:0:0:
508,32,92299,2,0,L|484:120,1,80,0|0,1:0|0:0,0:0:0:0:
464,184,92674,1,0,0:0:0:0:
256,56,92861,2,0,P|208:48|176:56,1,80,0|0,1:0|0:0,0:0:0:0:
112,104,93236,1,0,3:0:0:0:
0,312,93424,6,0,P|32:280|80:272,1,80,0|0,1:0|0:0,0:0:0:0:
144,288,93799,1,0,0:0:0:0:
328,376,93986,2,0,P|312:336|320:280,1,80,2|0,0:0|0:0,0:0:0:0:
336,224,94361,1,0,0:0:0:0:
464,48,94549,2,0,P|480:88|472:144,1,80,2|0,0:0|0:0,0:0:0:0:
312,232,94924,5,0,1:0:0:0:
286,238,94986,1,0,1:0:0:0:
259,241,95049,1,0,1:0:0:0:
232,238,95111,1,0,1:0:0:0:
205,232,95174,1,0,1:0:0:0:
181,220,95236,1,0,1:0:0:0:
159,204,95299,1,0,1:0:0:0:
112,72,95486,1,0,0:0:0:0:
168,128,95674,1,0,0:0:0:0:
72,296,95861,5,0,1:0:0:0:
176,384,96049,1,0,0:0:0:0:
152,312,96236,1,0,3:0:0:0:
384,288,96424,1,0,1:0:0:0:
424,152,96611,2,0,L|440:232,1,80
152,144,96986,1,2,0:0:0:0:
128,8,97174,2,0,L|96:88,1,80
256,368,97549,2,0,B|288:296|224:288|256:212,1,160,2|2,0:0|0:3,0:0:0:0:
464,16,98299,6,0,B|496:48|496:48|476:72|480:104|480:104|464:128|432:128,1,160,0|0,1:0|0:0,0:0:0:0:
224,64,98861,2,0,P|272:40|312:48,1,80,0|0,1:0|0:0,0:0:0:0:
368,80,99236,1,0,3:0:0:0:
216,240,99424,2,0,P|208:176|232:136,1,80,0|0,1:0|0:0,0:0:0:0:
280,120,99799,1,0,0:0:0:0:
424,240,99986,6,0,P|376:256|344:248,1,80,2|0,0:0|0:0,0:0:0:0:
288,200,100361,1,0,0:0:0:0:
448,80,100549,2,0,L|472:208,1,120,2|0,0:0|0:0,0:0:0:0:
484,260,100924,2,0,L|492:300,5,26.6666666666667,0|0|0|0|0|0,1:0|1:0|1:0|1:0|1:0|1:0,0:0:0:0:
424,240,101299,5,0,1:0:0:0:
272,352,101486,2,0,L|184:344,1,80
16,224,101861,2,0,P|64:200|80:176,1,80,0|0,1:0|0:0,0:0:0:0:
104,104,102236,1,0,3:0:0:0:
272,256,102424,2,0,P|248:208|224:192,1,80,0|0,1:0|0:0,0:0:0:0:
152,168,102799,1,0,0:0:0:0:
296,0,102986,6,0,P|248:24|232:48,1,80,2|0,0:0|0:0,0:0:0:0:
208,120,103361,1,0,0:0:0:0:
24,24,103549,2,0,B|48:72|104:72|104:72|116:44|144:28,1,160,2|0,0:0|0:0,0:0:0:0:
392,168,104111,5,0,1:0:0:0:
392,168,104174,1,0,1:0:0:0:
392,168,104236,1,0,1:0:0:0:
392,168,104299,2,0,L|216:144,1,160,0|0,1:0|0:0,0:0:0:0:
24,272,104861,2,0,L|112:264,1,80,0|0,1:0|0:0,0:0:0:0:
184,256,105236,1,0,3:0:0:0:
408,96,105424,2,0,L|320:84,1,80,0|0,1:0|0:0,0:0:0:0:
248,72,105799,1,0,0:0:0:0:
104,264,105986,6,0,L|160:320,1,80,2|0,0:0|0:0,0:0:0:0:
216,376,106361,1,0,0:0:0:0:
408,328,106549,2,0,B|440:312|440:312|464:216,1,120,2|0,0:0|0:0,0:0:0:0:
480,168,106924,2,0,L|492:124,5,26.6666666666667,0|0|0|0|0|0,1:0|1:0|1:0|1:0|1:0|1:0,0:0:0:0:
416,184,107299,5,0,1:0:0:0:
320,200,107486,1,0,0:0:0:0:
224,216,107674,1,0,0:0:0:0:
88,64,107861,1,0,1:0:0:0:
184,80,108049,1,0,0:0:0:0:
280,96,108236,1,0,3:0:0:0:
384,272,108424,5,0,1:0:0:0:
296,312,108611,1,0,0:0:0:0:
208,352,108799,1,0,0:0:0:0:
256,32,108986,1,2,0:0:0:0:
256,32,109549,2,0,B|288:104|224:112|256:188,1,160,0|2,0:0|0:3,0:0:0:0:
456,352,110299,6,0,P|472:336|480:320,1,26.6666666666667,0|0,1:0|0:0,0:0:0:0:
496,272,110424,2,0,P|496:248|488:224,5,26.6666666666667,0|0|0|0|0|0,0:0|0:0|0:0|0:0|0:0|0:0,0:0:0:0:
336,120,110861,2,0,P|304:112|296:104,1,26.6666666666667,0|0,1:0|0:0,0:0:0:0:
256,80,110986,2,0,P|224:80|208:88,5,26.6666666666667,0|0|0|0|0|0,0:0|0:0|0:0|0:0|3:0|0:0,0:0:0:0:
320,272,111424,6,0,P|328:304|320:320,1,26.6666666666667,0|0,1:0|0:0,0:0:0:0:
312,360,111549,2,0,P|288:376|272:376,5,26.6666666666667,0|0|0|0|0|0,0:0|0:0|0:0|0:0|0:0|0:0,0:0:0:0:
136,224,111986,2,0,P|112:208|104:208,1,26.6666666666667,2|0,0:0|0:0,0:0:0:0:
48,216,112111,2,0,P|24:240|16:256,5,26.6666666666667,0|0|0|0|0|0,0:0|0:0|0:0|0:0|0:0|0:0,0:0:0:0:
184,296,112549,2,0,B|228:272|224:216|224:216|248:192|288:200,1,160,2|0,0:0|0:0,0:0:0:0:
480,248,113111,5,0,1:0:0:0:
480,248,113174,1,0,1:0:0:0:
480,248,113236,1,0,1:0:0:0:
480,248,113299,2,0,L|400:232,1,80,0|0,1:0|0:0,0:0:0:0:
304,216,113674,1,4,0:3:0:0:
24,360,113861,2,0,L|104:336,1,80,0|4,1:0|0:3,0:0:0:0:
192,312,114236,1,4,0:3:0:0:
240,16,114424,2,0,L|256:112,1,80,0|8,1:0|0:3,0:0:0:0:
272,192,114986,5,0,0:0:0:0:
256,288,115549,5,0,0:0:0:0:
176,352,116111,5,0,1:0:0:0:
176,352,116174,1,0,1:0:0:0:
176,352,116236,1,0,1:0:0:0:
176,352,116299,2,0,P|120:360|88:352,1,80,0|0,1:0|0:0,0:0:0:0:
16,304,116674,1,0,1:0:0:0:
64,16,116861,2,0,L|96:96,1,80,0|0,0:0|1:0,0:0:0:0:
136,176,117236,1,0,0:0:0:0:
224,352,117424,6,0,P|216:304|232:256,1,80,0|0,1:0|0:0,0:0:0:0:
272,192,117799,1,0,1:0:0:0:
480,288,117986,2,0,L|392:296,1,80,0|0,0:0|1:0,0:0:0:0:
208,144,118361,1,0,0:0:0:0:
240,168,118455,1,0,0:0:0:0:
272,192,118549,2,0,L|360:184,1,80,0|0,1:0|0:0,0:0:0:0:
152,328,118924,2,0,L|64:312,1,80,0|0,1:0|0:0,0:0:0:0:
40,56,119299,5,8,0:0:0:0:
32,152,119486,1,0,1:0:0:0:
184,336,119674,1,0,1:0:0:0:
168,240,119861,1,8,0:0:0:0:
344,56,120049,1,0,1:0:0:0:
368,96,120142,1,0,1:0:0:0:
392,136,120236,1,0,1:0:0:0:
416,176,120330,1,0,1:0:0:0:
440,216,120424,1,8,0:0:0:0:
392,217,120517,1,0,1:0:0:0:
350,240,120611,1,0,1:0:0:0:
328,283,120705,1,0,1:0:0:0:
330,331,120799,5,8,1:2:0:0:
104,280,120986,1,0,1:0:0:0:
272,112,121174,1,8,1:2:0:0:
416,304,121361,1,0,1:0:0:0:
112,144,121549,1,8,1:2:0:0:
384,48,121736,1,0,1:0:0:0:
256,352,121924,1,2,0:3:0:0:
248,336,122299,6,0,P|216:304|176:296,1,80,4|0,0:2|0:0,0:0:0:0:
120,304,122580,1,0,0:0:0:0:
88,328,122674,1,8,0:2:0:0:
0,104,122861,2,0,P|32:136|72:144,1,80
128,136,123142,2,0,L|168:112,1,40
448,152,123424,5,8,0:2:0:0:
272,304,123611,2,0,L|264:264,1,40
256,200,123799,2,0,P|264:168|304:136,1,80
364,136,124080,1,0,0:0:0:0:
388,196,124174,2,0,P|380:228|340:260,1,80,8|0,0:2|0:0,0:0:0:0:
104,344,124549,6,0,B|64:344|64:344|32:320,1,80
32,256,124830,1,0,0:0:0:0:
32,192,124924,2,0,L|32:104,1,80,8|0,0:2|0:0,0:0:0:0:
256,16,125299,6,0,L|256:104,1,80,4|0,0:2|0:0,0:0:0:0:
256,368,125674,1,8,0:2:0:0:
488,192,125861,2,0,L|488:152,1,40
472,88,126049,2,0,P|440:64|400:56,1,80
112,120,126424,6,0,P|136:120|184:152,1,80,8|0,0:2|0:0,0:0:0:0:
208,208,126705,2,0,L|208:272,1,40
288,48,126986,2,0,P|320:32|376:32,1,80,0|8,0:0|0:2,0:0:0:0:
404,41,127267,1,0,0:0:0:0:
408,304,127455,1,0,0:0:0:0:
352,272,127549,6,0,L|344:184,1,80
288,160,127830,1,0,0:0:0:0:
232,128,127924,2,0,L|224:40,1,80,8|0,0:2|0:0,0:0:0:0:
72,312,128299,6,0,L|64:224,1,80,4|0,0:2|0:0,0:0:0:0:
56,168,128580,1,0,0:0:0:0:
52,128,128674,1,8,0:2:0:0:
184,320,128861,2,0,P|232:344|264:344,1,80
299,334,129142,1,0,0:0:0:0:
128,176,129330,1,0,0:0:0:0:
160,232,129424,6,0,P|192:248|240:248,1,80,8|0,0:2|0:0,0:0:0:0:
296,224,129705,2,0,L|320:192,1,40
128,96,129986,2,0,P|144:104|216:104,1,80,0|8,0:0|0:2,0:0:0:0:
472,40,130361,1,0,0:0:0:0:
408,56,130455,1,0,0:0:0:0:
360,96,130549,6,0,P|344:136|352:216,1,120
464,296,130924,2,0,P|424:256|400:248,1,80,8|0,0:2|0:0,0:0:0:0:
168,304,131299,5,4,0:2:0:0:
0,184,131486,1,0,0:0:0:0:
0,184,131580,1,0,0:0:0:0:
0,184,131674,1,8,0:2:0:0:
136,32,131861,2,0,P|168:64|184:104,1,80
185,138,132142,1,0,0:0:0:0:
136,352,132330,1,0,0:0:0:0:
168,296,132424,2,0,P|192:272|240:256,1,80,8|0,0:2|0:0,0:0:0:0:
464,272,132799,5,8,0:2:0:0:
264,104,132986,1,0,0:0:0:0:
240,352,133174,1,8,0:2:0:0:
376,184,133361,1,0,0:0:0:0:
32,224,133549,1,8,0:2:0:0:
192,72,133736,1,0,0:0:0:0:
136,352,133924,1,8,0:2:0:0:
80,120,134111,1,0,0:0:0:0:
240,352,134299,6,0,P|288:352|320:336,1,80,4|0,0:2|0:0,0:0:0:0:
364,296,134580,1,0,0:0:0:0:
377,258,134674,1,8,0:2:0:0:
488,32,134861,2,0,P|456:56|408:64,1,80
376,57,135142,1,0,0:0:0:0:
80,120,135330,1,0,0:0:0:0:
136,152,135424,6,0,P|176:160|216:152,1,80,8|0,0:2|0:0,0:0:0:0:
388,8,135799,1,0,0:0:0:0:
440,216,135986,2,0,L|448:256,1,40
440,320,136174,2,0,P|408:360|368:376,1,80,8|0,0:2|0:0,0:0:0:0:
76,264,136549,6,0,L|164:248,1,80
212,280,136830,1,0,0:0:0:0:
272,304,136924,2,0,L|360:288,1,80,8|0,0:2|0:0,0:0:0:0:
494,79,137299,6,0,L|406:95,1,80,4|0,0:2|0:0,0:0:0:0:
352,104,137580,1,0,0:0:0:0:
312,110,137674,1,8,0:2:0:0:
48,56,137861,2,0,P|88:88|104:136,1,80
102,157,138142,1,0,0:0:0:0:
208,360,138330,1,0,0:0:0:0:
216,296,138424,6,0,P|240:264|280:248,1,80,8|0,0:2|0:0,0:0:0:0:
504,264,138799,1,0,0:0:0:0:
352,104,138986,2,0,L|320:72,1,40
264,48,139174,2,0,P|224:48|184:72,1,80,8|0,0:2|0:0,0:0:0:0:
40,288,139549,6,0,P|80:288|120:264,1,80
160,224,139830,1,0,0:0:0:0:
216,192,139924,2,0,P|256:184|304:200,1,80,8|0,0:2|0:0,0:0:0:0:
440,368,140299,6,0,L|424:288,1,80,4|0,0:2|0:0,0:0:0:0:
409,227,140580,1,0,0:0:0:0:
400,187,140674,1,8,0:2:0:0:
208,16,140861,2,0,P|184:56|184:88,1,80
201,128,141142,1,0,0:0:0:0:
456,184,141330,1,0,0:0:0:0:
444,120,141424,6,0,P|412:100|368:104,1,80,8|0,0:2|0:0,0:0:0:0:
96,168,141799,1,0,0:0:0:0:
208,344,141986,2,0,P|248:360|288:352,1,80,0|8,0:0|0:2,0:0:0:0:
469,247,142361,1,0,0:0:0:0:
409,227,142455,1,0,0:0:0:0:
348,208,142549,6,0,L|224:168,1,120
240,40,142924,2,0,P|264:96|264:120,1,80,8|0,0:2|0:0,0:0:0:0:
112,344,143299,6,0,P|72:336|40:312,1,80,4|0,0:2|0:0,0:0:0:0:
12,256,143580,1,0,0:0:0:0:
4,216,143674,1,8,0:2:0:0:
216,272,143861,2,0,P|256:280|296:272,1,80
344,232,144142,2,0,L|360:176,1,40
176,32,144424,2,0,L|192:120,1,80,8|0,0:2|0:0,0:0:0:0:
228,352,144799,5,8,0:2:0:0:
56,156,144986,1,0,0:0:0:0:
292,192,145174,1,8,0:2:0:0:
88,288,145361,1,0,0:0:0:0:
288,40,145549,1,8,0:2:0:0:
464,224,145736,1,0,0:0:0:0:
160,208,145924,1,8,0:2:0:0:
408,104,146111,1,0,0:0:0:0:
384,312,146299,6,0,B|380:352|380:352|344:332|300:344|300:344|272:320,1,160,4|0,1:0|0:0,0:0:0:0:
24,264,146861,2,0,B|56:280|56:280|96:264|128:280|128:280|128:308|144:328,1,160,0|0,1:0|0:0,0:0:0:0:
344,208,147424,6,0,B|288:224|256:280|256:280|208:280,1,160,0|0,1:0|0:0,0:0:0:0:
56,112,147986,2,0,B|112:96|160:128|160:128|136:144|128:168,1,160,2|0,1:2|0:0,0:0:0:0:
260,300,148549,6,0,B|212:268|252:228|204:196,1,120,2|0,3:2|0:0,0:0:0:0:
344,236,148924,2,0,L|304:244,1,40,2|0,0:0|0:0,0:0:0:0:
428,172,149111,2,0,L|388:180,1,40,2|0,0:0|0:0,0:0:0:0:
480,120,149299,6,0,B|446:90|400:104|400:104|360:92|352:52,1,160,2|0,0:0|0:0,0:0:0:0:
176,120,149861,2,0,B|224:120|272:96|272:96|288:136|312:152,1,160,2|0,0:0|0:0,0:0:0:0:
408,304,150424,6,0,B|304:272|304:272|280:296|256:296,1,160,2|0,0:0|0:0,0:0:0:0:
96,200,150986,2,0,P|192:200|248:232,1,160,2|0,0:0|0:0,0:0:0:0:
416,148,151549,6,0,P|352:180|320:228,1,120,2|0,0:0|0:0,0:0:0:0:
296,292,151924,1,0,1:0:0:0:
248,56,152111,1,0,1:0:0:0:
