osu file format v14

[General]
AudioFilename: No Game No Life - The Kings Plan.mp3
AudioLeadIn: 0
PreviewTime: 50205
Countdown: 0
SampleSet: Soft
StackLeniency: 0.7
Mode: 0
LetterboxInBreaks: 1
WidescreenStoryboard: 0

[Editor]
DistanceSpacing: 1.3
BeatDivisor: 4
GridSize: 4
TimelineZoom: 1.3

[Metadata]
Title:All of you is all of me
TitleUnicode:All of you is all of me
Artist:SuperSweep
ArtistUnicode:スーパースィープ
Creator:xxdeathx
Version:Normal
Source:No Game No Life
Tags:ノーゲーム・ノーライフ NGNL ost original soundtrack insert song the king's plan kawaiwkyik chaoslitz cloudsplash16 wcx19911123 rizia little 細江慎治 佐宗綾子 江口孝宏 田中文久 Hosoe Shinji Sasou Ayako Eguchi Takahiro Fumihisa Tanaka
BeatmapID:539360
BeatmapSetID:228789

[Difficulty]
HPDrainRate:4
CircleSize:3.5
OverallDifficulty:4
ApproachRate:5
SliderMultiplier:1.12
SliderTickRate:2

[Events]
//Background and Video events
0,0,"bg.jpg",0,0
//Break Periods
2,74499,79099
//Storyboard Layer 0 (Background)
//Storyboard Layer 1 (Fail)
//Storyboard Layer 2 (Pass)
//Storyboard Layer 3 (Foreground)
//Storyboard Sound Samples

[TimingPoints]
2299,375,4,2,1,40,1,0
2299,-100,4,2,1,40,0,0
8299,-100,4,2,1,50,0,0
26299,-100,4,2,1,50,0,0
32299,-100,4,2,1,60,0,0
38299,-100,4,2,1,40,0,0
44299,-100,4,2,1,60,0,0
50299,-100,4,1,1,60,0,1
74299,-100,4,2,1,40,0,0
80299,-100,4,2,1,50,0,0
86299,-100,4,2,1,60,0,0
98299,-100,4,2,1,50,0,0
104299,-100,4,2,1,60,0,0
110299,-100,4,2,1,50,0,0
116299,-100,4,2,1,60,0,0
122299,-100,4,1,1,60,0,1
146299,-100,4,2,1,40,0,0

[Colours]
Combo1 : 254,88,151
Combo2 : 100,213,9
Combo3 : 121,228,255
Combo4 : 252,133,219
Combo5 : 255,191,0

[HitObjects]
468,208,2299,6,0,B|468:324|468:324|428:380,2,168,4|0|2,0:0|0:0|0:0,0:0:0:0:
464,40,3986,2,0,P|404:64|300:44,1,168,0|2,0:0|0:0,0:0:0:0:
192,48,4924,1,0,0:0:0:0:
116,128,5299,6,0,B|68:160|64:224|64:224|40:208|4:192,2,168,2|0|2,0:0|0:0|0:0,0:0:0:0:
156,292,6986,2,0,P|88:336|-4:316,1,168,0|2,0:0|0:0,0:0:0:0:
64,224,7924,2,0,L|108:188,1,56,0|0,0:0|0:0,0:0:0:0:
156,156,8299,6,0,B|200:164|256:156|256:156|300:176|316:208,1,168,8|8,0:0|0:0,0:0:0:0:
392,276,9236,1,0,0:0:0:0:
392,276,9424,2,0,P|464:268|504:352,2,168,8|2|2,0:0|0:0|0:0,0:0:0:0:
304,344,10924,1,0,0:0:0:0:
220,268,11299,6,0,P|224:200|256:92,1,168,8|8,0:0|0:0,0:0:0:0:
364,112,12236,1,0,0:0:0:0:
364,112,12424,2,0,P|452:104|488:40,2,168,8|0|0,0:0|0:0|0:0,0:0:0:0:
264,60,13924,1,0,0:3:0:0:
164,108,14299,6,0,L|152:232,1,112,8|0,0:0|0:0,0:0:0:0:
148,276,14861,1,8,0:0:0:0:
44,144,15424,2,0,L|32:268,1,112,8|0,0:0|0:0,0:0:0:0:
28,312,15986,1,2,0:0:0:0:
192,272,16549,2,0,P|252:268|304:300,1,112,0|0,0:0|0:0,0:0:0:0:
392,352,17299,6,0,B|428:276|428:276|424:236,1,112,8|0,0:0|0:0,0:0:0:0:
416,192,17861,1,8,0:0:0:0:
312,60,18424,2,0,B|296:92|296:92|324:172,1,112,8|0,0:0|0:0,0:0:0:0:
336,216,18986,2,0,P|244:220|184:172,1,168,2|2,0:0|0:0,0:0:0:0:
88,124,19924,2,0,P|80:152|80:196,1,56,0|0,0:0|0:0,0:0:0:0:
96,232,20299,6,0,P|148:216|188:172,1,112,8|0,0:0|0:0,0:0:0:0:
200,124,20861,1,8,0:0:0:0:
272,276,21424,2,0,P|324:268|368:228,1,112,8|0,0:0|0:0,0:0:0:0:
388,176,21986,1,2,0:0:0:0:
272,56,22549,2,0,L|284:188,1,112,2|0,0:0|0:0,0:0:0:0:
272,276,23299,6,0,B|224:268|224:268|184:276|152:312,1,112,8|0,0:0|0:0,0:0:0:0:
136,344,23861,1,8,0:0:0:0:
56,196,24424,2,0,B|40:164|40:128|40:128|72:92,1,112,8|0,0:0|0:0,0:0:0:0:
108,56,24986,2,0,L|280:64,1,168,2|2,0:0|0:0,0:0:0:0:
380,24,25924,1,2,0:3:0:0:
456,104,26299,6,0,P|460:140|448:176,1,56,8|0,0:0|0:0,0:0:0:0:
372,232,26861,2,0,P|364:258|365:286,1,56,8|0,0:0|0:0,0:0:0:0:
440,372,27424,2,0,B|504:304|504:304|504:224,2,168,8|2|2,0:0|0:0|0:0,0:0:0:0:
348,308,28924,1,0,0:0:0:0:
240,332,29299,6,0,P|152:320|72:280,1,168,8|8,0:0|0:0,0:0:0:0:
124,184,30236,1,0,0:0:0:0:
124,184,30424,2,0,B|160:152|132:108|132:108|104:64|148:20,2,168,8|2|2,0:0|0:0|0:0,0:0:0:0:
20,228,31924,2,0,L|44:296,1,56,0|0,0:0|0:0,0:0:0:0:
40,336,32299,6,0,P|100:308|156:296,1,112,8|0,0:0|0:0,0:0:0:0:
200,284,32861,1,8,0:0:0:0:
296,344,33236,1,0,0:0:0:0:
296,344,33424,2,0,P|336:300|372:240,1,112,8|0,0:0|0:0,0:0:0:0:
392,208,33986,2,0,P|332:152|328:68,1,168,2|2,0:0|0:0,0:0:0:0:
436,104,34924,1,8,0:1:0:0:
488,204,35299,6,0,L|504:328,1,112,8|0,0:0|0:0,0:0:0:0:
472,364,35861,1,8,0:0:0:0:
384,292,36236,1,0,0:0:0:0:
384,292,36424,2,0,L|369:180,1,112,8|0,0:0|0:0,0:0:0:0:
332,140,36986,2,0,P|272:100|172:124,1,168,2|2,0:0|0:0,0:0:0:0:
88,176,37924,1,2,0:3:0:0:
40,76,38299,6,0,L|50:20,1,56,8|0,0:0|0:0,0:0:0:0:
152,72,38861,2,0,L|158:127,1,56,8|0,0:0|0:0,0:0:0:0:
268,112,39424,2,0,B|316:148|372:128|372:128|340:176,2,168,8|2|2,0:0|0:0|0:0,0:0:0:0:
168,164,40924,2,0,L|112:192,1,56,0|0,0:0|0:0,0:0:0:0:
68,216,41299,6,0,P|47:164|64:96,1,112,8|0,0:0|0:0,0:0:0:0:
84,64,41861,1,8,0:0:0:0:
192,88,42236,1,0,0:0:0:0:
192,88,42424,2,0,P|248:72|312:88,1,112,8|0,0:0|0:0,0:0:0:0:
348,112,42986,2,0,B|360:236|360:236|408:280,1,168,2|2,0:0|0:0,0:0:0:0:
188,172,44299,6,0,L|200:296,1,112,8|0,0:0|0:0,0:0:0:0:
208,340,44861,2,0,P|244:340|272:328,1,56,8|0,0:0|0:0,0:0:0:0:
336,248,45424,2,0,L|432:327,1,112,8|0,0:0|0:0,0:0:0:0:
468,351,45986,2,0,P|493:325|504:297,1,56,2|0,0:0|0:0,0:0:0:0:
512,196,46549,1,2,0:0:0:0:
452,100,46924,1,0,0:0:0:0:
340,84,47299,6,0,L|324:16,2,56,8|0|0,0:0|0:0|0:0,0:0:0:0:
324,140,47861,2,0,L|344:212,2,56,8|0|0,0:0|0:0|0:0,0:0:0:0:
268,132,48424,2,0,B|220:136|192:88|192:88|140:104|132:144,1,168,8|0,0:0|0:0,0:0:0:0:
116,184,49174,1,8,0:0:0:0:
164,284,49549,1,8,0:0:0:0:
84,364,49924,1,8,0:0:0:0:
28,268,50299,6,0,B|24:184|24:184|48:144,1,112,4|8,0:0|0:0,0:0:0:0:
72,116,50861,2,0,P|128:112|184:68,1,112,0|0,0:0|0:0,0:0:0:0:
216,44,51424,2,0,B|241:122|241:122|240:168,1,112,8|0,0:0|0:0,0:0:0:0:
200,188,51986,1,0,0:0:0:0:
200,188,52174,2,0,B|204:276|204:276|232:304,1,112,8|0,0:0|0:0,0:0:0:0:
316,352,52924,1,8,0:0:0:0:
428,344,53299,6,0,P|452:304|452:236,1,112,0|8,0:0|0:0,0:0:0:0:
428,192,53861,2,0,B|420:164|436:140|436:140|452:116|440:80,1,112,0|0,0:0|0:0,0:0:0:0:
412,36,54424,1,8,0:0:0:0:
308,72,54799,2,0,L|236:60,2,56,0|0|8,0:0|0:0|0:0,0:0:0:0:
412,36,55549,2,0,B|440:68|440:68|444:104|436:144,1,112,0|8,0:0|0:0,0:0:0:0:
424,248,56299,5,0,0:0:0:0:
340,324,56674,1,8,0:0:0:0:
340,324,56861,2,0,B|316:340|284:328|284:328|256:316|232:324,1,112,0|0,0:0|0:0,0:0:0:0:
176,332,57424,2,0,P|168:264|196:212,1,112,8|0,0:0|0:0,0:0:0:0:
216,180,57986,2,0,P|192:164|160:160,1,56,0|8,0:0|0:0,0:0:0:0:
52,164,58549,1,0,0:0:0:0:
48,276,58924,1,8,0:0:0:0:
148,324,59299,6,0,B|228:324|228:324|264:296,1,112,0|8,0:0|0:0,0:0:0:0:
284,256,59861,2,0,B|296:224|328:208|328:208|352:224|388:212,1,112,0|0,0:0|0:0,0:0:0:0:
428,204,60424,1,8,0:0:0:0:
464,96,60799,2,0,L|528:60,2,56,8|0|8,0:0|0:0|0:0,0:0:0:0:
364,48,61549,1,8,0:0:0:0:
260,88,61924,1,8,0:0:0:0:
156,44,62299,6,0,P|104:36|40:68,1,112,4|8,0:0|0:0,0:0:0:0:
36,112,62861,2,0,B|36:188|36:188|72:220,1,112,0|0,0:0|0:0,0:0:0:0:
120,224,63424,2,0,P|160:252|156:328,1,112,8|0,0:0|0:0,0:0:0:0:
124,348,63986,1,0,0:0:0:0:
124,348,64174,2,0,L|256:340,1,112,8|0,0:0|0:0,0:0:0:0:
344,368,64924,1,8,0:0:0:0:
400,272,65299,6,0,B|416:200|416:200|392:160,1,112,0|8,0:0|0:0,0:0:0:0:
372,116,65861,2,0,B|412:112|452:88|452:88|464:116,1,112,0|0,0:0|0:0,0:0:0:0:
484,164,66424,1,8,0:0:0:0:
484,276,66799,2,0,L|488:336,2,56,0|0|8,0:0|0:0|0:0,0:0:0:0:
376,312,67549,2,0,P|324:328|252:304,1,112,0|8,0:0|0:0,0:0:0:0:
196,232,68299,5,0,0:0:0:0:
256,136,68674,1,8,0:0:0:0:
256,136,68861,2,0,B|256:56|256:56|224:32,1,112,0|0,0:0|0:0,0:0:0:0:
180,60,69424,2,0,P|128:76|60:60,1,112,8|0,0:0|0:0,0:0:0:0:
20,48,69986,2,0,L|4:120,1,56,0|8,0:0|0:0,0:0:0:0:
84,184,70549,1,0,0:0:0:0:
188,140,70924,1,8,0:0:0:0:
296,160,71299,6,0,L|360:136,1,56,0|0,0:0|0:0,0:0:0:0:
400,116,71674,1,8,0:0:0:0:
400,116,71861,2,0,P|424:176|408:228,1,112,0|0,0:0|0:0,0:0:0:0:
380,264,72424,1,8,0:0:0:0:
280,316,72799,2,0,L|276:380,2,56,8|0|8,0:0|0:0|0:0,0:0:0:0:
184,256,73549,1,8,0:0:0:0:
196,144,73924,1,2,0:3:0:0:
288,208,74299,5,2,0:0:0:0:
352,288,80299,6,0,B|396:264|384:220|384:220|352:180|360:136,1,168,8|8,0:0|0:0,0:0:0:0:
472,148,81236,1,0,0:0:0:0:
472,148,81424,2,0,P|496:224|484:320,2,168,8|2|2,0:0|0:0|0:0,0:0:0:0:
388,72,82924,1,0,0:0:0:0:
284,112,83299,6,0,B|228:136|228:136|108:132,1,168,8|8,0:0|0:0,0:0:0:0:
36,208,84236,1,0,0:0:0:0:
36,208,84424,2,0,B|148:212|148:212|196:256,2,168,8|2|2,0:0|0:0|0:0,0:0:0:0:
76,312,85924,1,2,0:3:0:0:
184,344,86299,6,0,P|252:320|280:268,1,112,8|0,0:0|0:0,0:0:0:0:
288,236,86861,1,8,0:0:0:0:
344,140,87236,1,0,0:0:0:0:
344,140,87424,2,0,P|273:125|219:151,1,112,8|0,0:0|0:0,0:0:0:0:
204,184,87986,2,0,P|120:184|32:180,1,168,2|2,0:0|0:0,0:0:0:0:
224,56,89299,6,0,P|284:92|296:136,1,112,8|0,0:0|0:0,0:0:0:0:
288,184,89861,1,8,0:0:0:0:
224,276,90236,1,0,0:0:0:0:
224,276,90424,2,0,P|312:268|404:272,2,168,8|2|2,0:0|0:0|0:0,0:0:0:0:
128,336,91924,2,0,P|112:304|112:272,1,56,0|0,0:0|0:0,0:0:0:0:
92,232,92299,6,0,P|140:208|208:196,1,112,8|0,0:0|0:0,0:0:0:0:
252,188,92861,1,8,0:0:0:0:
308,284,93236,1,0,0:0:0:0:
308,284,93424,2,0,B|340:308|340:308|428:304,1,112,8|0,0:0|0:0,0:0:0:0:
464,284,93986,2,0,P|480:220|468:104,1,168,2|2,0:0|0:0,0:0:0:0:
388,48,94924,1,0,0:0:0:0:
284,88,95299,6,0,B|206:97|206:97|168:124,1,112,8|0,0:0|0:0,0:0:0:0:
136,152,95861,2,0,P|108:160|68:148,1,56,8|0,0:0|0:0,0:0:0:0:
48,264,96424,2,0,B|56:348|56:348|96:376,1,112,8|0,0:0|0:0,0:0:0:0:
132,348,96986,2,0,P|168:340|204:348,1,56,2|0,0:0|0:0,0:0:0:0:
296,360,97549,1,2,0:0:0:0:
356,268,97924,1,2,0:3:0:0:
460,304,98299,6,0,L|500:264,1,56,8|0,0:0|0:0,0:0:0:0:
460,160,98861,2,0,L|476:96,1,56,8|0,0:0|0:0,0:0:0:0:
372,56,99424,2,0,P|312:28|216:60,2,168,8|2|2,0:0|0:0|0:0,0:0:0:0:
368,168,100924,2,0,L|380:244,1,56,0|0,0:0|0:0,0:0:0:0:
384,280,101299,6,0,P|324:296|260:280,1,112,8|0,0:0|0:0,0:0:0:0:
228,256,101861,1,8,0:0:0:0:
180,156,102236,1,0,0:0:0:0:
180,156,102424,2,0,B|168:124|168:124|168:40,1,112,8|0,0:0|0:0,0:0:0:0:
112,48,102986,2,0,P|52:64|40:160,1,168,2|2,0:0|0:0,0:0:0:0:
188,324,104299,6,0,B|220:352|220:352|260:352|300:336,1,112,8|0,0:0|0:0,0:0:0:0:
336,312,104861,2,0,L|400:312,1,56,8|0,0:0|0:0,0:0:0:0:
452,216,105424,2,0,B|368:216|368:216|336:176,1,112,8|0,0:0|0:0,0:0:0:0:
324,144,105986,2,0,P|288:152|260:176,1,56,2|0,0:0|0:0,0:0:0:0:
188,236,106549,1,2,0:0:0:0:
116,324,106924,1,8,0:0:0:0:
8,288,107299,6,0,B|8:216|8:216|40:168,1,112,8|0,0:0|0:0,0:0:0:0:
60,136,107861,1,8,0:0:0:0:
156,192,108236,1,0,0:0:0:0:
156,192,108424,2,0,B|188:152|188:152|188:20,2,168,8|2|2,0:0|0:0|0:0,0:0:0:0:
68,264,109924,1,2,0:3:0:0:
168,312,110299,6,0,P|204:320|240:308,1,56,8|0,0:0|0:0,0:0:0:0:
292,232,110861,2,0,B|380:235|380:235|392:268,1,112,8|0,0:0|0:0,0:0:0:0:
380,312,111424,2,0,B|356:352|356:352|436:316|472:352,2,168,8|2|2,0:0|0:0|0:0,0:0:0:0:
464,236,112924,2,0,L|472:164,1,56,0|0,0:0|0:0,0:0:0:0:
468,124,113299,6,0,P|420:96|340:104,1,112,8|0,0:0|0:0,0:0:0:0:
316,124,113861,1,8,0:0:0:0:
220,180,114236,1,0,0:0:0:0:
220,180,114424,2,0,B|200:196|176:200|176:200|180:136|160:80,2,168,8|2|2,0:0|0:0|0:0,0:0:0:0:
416,72,116299,6,0,P|436:120|432:196,1,112,8|0,0:0|0:0,0:0:0:0:
416,232,116861,1,8,0:0:0:0:
316,180,117236,1,0,0:0:0:0:
316,180,117424,2,0,P|260:160|200:168,1,112,8|0,0:0|0:0,0:0:0:0:
160,192,117986,2,0,L|156:268,1,56,0|0,0:0|0:0,0:0:0:0:
140,360,118549,1,0,0:0:0:0:
248,336,118924,1,0,0:0:0:0:
344,280,119299,6,0,L|412:300,2,56,8|0|0,0:0|0:0|0:0,0:0:0:0:
304,240,119861,2,0,L|228:252,2,56,8|0|0,0:0|0:0|0:0,0:0:0:0:
344,200,120424,2,0,B|376:196|388:172|388:172|392:112,1,112,8|8,0:0|0:0,0:0:0:0:
396,60,120986,2,0,P|372:52|336:56,1,56,2|8,0:0|0:0,0:0:0:0:
244,112,121549,1,10,0:0:0:0:
136,84,121924,1,8,0:0:0:0:
68,172,122299,6,0,B|60:232|60:232|80:288,1,112,4|8,0:0|0:0,0:0:0:0:
100,332,122861,2,0,P|144:296|208:296,1,112,0|0,0:0|0:0,0:0:0:0:
244,328,123424,2,0,B|268:348|268:348|308:320|356:336,1,112,8|0,0:0|0:0,0:0:0:0:
396,352,123986,1,0,0:0:0:0:
396,352,124174,2,0,P|416:300|392:232,1,112,8|0,0:0|0:0,0:0:0:0:
348,148,124924,1,8,0:0:0:0:
240,180,125299,6,0,B|196:184|156:168|156:168|164:184|168:200,1,112,0|8,0:0|0:0,0:0:0:0:
188,244,125861,2,0,P|216:296|188:360,1,112,0|0,0:0|0:0,0:0:0:0:
148,352,126424,2,0,B|116:332|64:340|64:340|60:296,1,112,8|0,0:0|0:0,0:0:0:0:
56,260,126986,2,0,L|-8:264,1,56,0|8,0:0|0:0,0:0:0:0:
40,160,127549,1,0,0:0:0:0:
120,84,127924,1,8,0:0:0:0:
212,148,128299,6,0,P|264:156|316:116,1,112,0|8,0:0|0:0,0:0:0:0:
336,72,128861,2,0,L|400:76,1,56,0|0,0:0|0:0,0:0:0:0:
484,144,129424,2,0,P|476:200|432:240,1,112,8|0,0:0|0:0,0:0:0:0:
392,268,129986,2,0,L|376:344,1,56,0|8,0:0|0:0,0:0:0:0:
272,352,130549,1,0,0:0:0:0:
200,268,130924,1,8,0:0:0:0:
152,168,131299,6,0,L|96:172,2,56,0|0|8,0:0|0:0|0:0,0:0:0:0:
188,124,131861,2,0,L|164:68,2,56,0|0|0,0:0|0:0|0:0,0:0:0:0:
232,156,132424,1,8,0:0:0:0:
324,216,132799,1,8,0:0:0:0:
324,216,132986,2,0,L|388:212,2,56,0|8|0,0:0|0:0|0:0,0:0:0:0:
296,264,133549,2,0,L|240:267,1,56,8|0,0:0|0:0,0:0:0:0:
208,312,133924,2,0,L|152:315,1,56,8|0,0:0|0:0,0:0:0:0:
108,348,134299,5,4,0:0:0:0:
52,252,134674,1,8,0:0:0:0:
52,252,134861,2,0,P|64:200|128:160,1,112,0|0,0:0|0:0,0:0:0:0:
164,164,135424,1,8,0:0:0:0:
252,232,135799,2,0,L|248:292,2,56,0|0|8,0:0|0:0|0:0,0:0:0:0:
336,156,136549,2,0,P|368:144|400:152,1,56,0|0,0:0|0:0,0:0:0:0:
436,180,136924,1,8,0:0:0:0:
420,292,137299,6,0,B|420:308|404:320|404:320|348:316|332:280,1,112,0|8,0:0|0:0,0:0:0:0:
296,248,137861,2,0,B|256:220|216:232|216:232|224:200,1,112,0|0,0:0|0:0,0:0:0:0:
240,152,138424,1,8,0:0:0:0:
304,60,138799,2,0,L|376:48,2,56,0|0|8,0:0|0:0|0:0,0:0:0:0:
240,152,139549,2,0,L|184:161,1,56,0|0,0:0|0:0,0:0:0:0:
148,204,139924,2,0,L|92:213,1,56,8|0,0:0|0:0,0:0:0:0:
60,260,140299,6,0,P|64:320|112:356,1,112,0|8,0:0|0:0,0:0:0:0:
152,328,140861,2,0,P|208:304|268:332,1,112,0|0,0:0|0:0,0:0:0:0:
300,352,141424,2,0,B|384:336|384:336|364:304,1,112,8|0,0:0|0:0,0:0:0:0:
332,272,141986,1,0,0:0:0:0:
332,272,142174,2,0,P|312:220|352:160,1,112,8|0,0:0|0:0,0:0:0:0:
408,84,142924,1,8,0:0:0:0:
484,164,143299,6,0,L|496:232,2,56,0|0|8,0:0|0:0|0:0,0:0:0:0:
484,108,143861,2,0,L|496:40,1,56
388,20,144424,2,0,P|336:40|272:24,1,112,8|8,0:0|0:0,0:0:0:0:
228,24,144986,1,0,0:0:0:0:
228,24,145174,2,0,L|152:28,1,56,8|0,0:0|0:0,0:0:0:0:
132,68,145549,2,0,P|120:100|132:136,1,56,8|0,0:0|0:0,0:0:0:0:
144,172,145924,1,2,0:3:0:0:
140,280,146299,6,0,P|64:296|0:220,2,168,2|2|2,0:0|0:0|0:0,0:0:0:0:
264,164,147986,2,0,B|320:120|368:192|432:140,1,168,2|2,0:0|0:0,0:0:0:0:
484,52,148924,1,0,0:0:0:0:
372,52,149299,6,0,B|348:44|332:16|332:16|300:60|312:132,2,168,2|2|2,0:0|0:0|0:0,0:0:0:0:
372,220,150986,2,0,B|320:244|320:244|268:220|268:220|212:236,1,168,2|2,0:0|0:0,0:0:0:0:
108,260,151924,1,8,0:0:0:0:
108,260,152111,1,8,0:0:0:0:
