osu file format v14

[General]
AudioFilename: No Game No Life - The Kings Plan.mp3
AudioLeadIn: 0
PreviewTime: 50205
Countdown: 0
SampleSet: Normal
StackLeniency: 0.7
Mode: 0
LetterboxInBreaks: 1
WidescreenStoryboard: 0

[Editor]
DistanceSpacing: 1.3
BeatDivisor: 4
GridSize: 4
TimelineZoom: 1.3

[Metadata]
Title:All of you is all of me
TitleUnicode:All of you is all of me
Artist:SuperSweep
ArtistUnicode:スーパースィープ
Creator:xxdeathx
Version:Expert
Source:No Game No Life
Tags:ノーゲーム・ノーライフ NGNL ost original soundtrack insert song the king's plan kawaiwkyik chaoslitz cloudsplash16 wcx19911123 rizia little 細江慎治 佐宗綾子 江口孝宏 田中文久 Hosoe Shinji Sasou Ayako Eguchi Takahiro Fumihisa Tanaka
BeatmapID:532666
BeatmapSetID:228789

[Difficulty]
HPDrainRate:6
CircleSize:4
OverallDifficulty:8
ApproachRate:9.1
SliderMultiplier:1.84
SliderTickRate:2

[Events]
//Background and Video events
0,0,"bg.jpg",0,0
//Break Periods
2,74499,79527
//Storyboard Layer 0 (Background)
//Storyboard Layer 1 (Fail)
//Storyboard Layer 2 (Pass)
//Storyboard Layer 3 (Foreground)
//Storyboard Sound Samples

[TimingPoints]
2299,375,4,2,1,40,1,0
2299,-133.333333333333,4,2,1,40,0,0
8299,-133.333333333333,4,2,1,50,0,0
10924,-100,4,2,1,30,0,0
11299,-133.333333333333,4,2,1,50,0,0
14299,-100,4,2,1,60,0,0
16924,-100,4,2,1,40,0,0
17299,-100,4,2,1,60,0,0
26299,-133.333333333333,4,2,1,50,0,0
28924,-100,4,2,1,30,0,0
29299,-133.333333333333,4,2,1,50,0,0
32299,-100,4,2,1,60,0,0
38299,-133.333333333333,4,2,1,40,0,0
44299,-100,4,2,1,60,0,0
50299,-86.9565217391304,4,1,1,60,0,1
74299,-133.333333333333,4,2,1,40,0,0
80299,-133.333333333333,4,2,1,50,0,0
82924,-100,4,2,1,30,0,0
83299,-133.333333333333,4,2,1,50,0,0
86299,-100,4,2,1,60,0,0
88924,-100,4,2,1,40,0,0
89299,-100,4,2,1,60,0,0
98299,-133.333333333333,4,2,1,50,0,0
100924,-100,4,2,1,30,0,0
101299,-133.333333333333,4,2,1,50,0,0
104299,-100,4,2,1,60,0,0
110299,-133.333333333333,4,2,1,50,0,0
116299,-100,4,2,1,60,0,0
122299,-86.9565217391304,4,1,1,60,0,1
146299,-133.333333333333,4,2,1,40,0,0

[Colours]
Combo1 : 254,88,151
Combo2 : 100,213,9
Combo3 : 121,228,255
Combo4 : 252,133,219
Combo5 : 255,191,0

[HitObjects]
148,288,2299,6,0,P|256:284|368:288,1,207.000007896424,4|0,0:0|0:0,0:0:0:0:
196,188,3424,1,2,0:0:0:0:
316,188,3986,1,0,0:0:0:0:
184,104,4549,1,2,0:0:0:0:
324,104,4924,1,0,0:0:0:0:
128,168,5299,6,0,B|72:212|72:212|68:368,1,207.000007896424,2|0,0:0|0:0,0:0:0:0:
168,232,6424,1,2,0:0:0:0:
44,148,6986,1,0,0:0:0:0:
44,148,7361,1,0,0:0:0:0:
44,148,7549,2,0,P|112:144|200:140,1,138.000005264282,2|0,0:0|0:0,0:0:0:0:
240,296,8111,2,0,L|248:336,2,23.0000008773804
236,280,8299,6,0,P|168:280|80:288,1,138.000005264282,8|0,0:0|0:0,0:0:0:0:
244,200,8861,2,0,P|316:176|396:164,1,138.000005264282,8|0,0:0|0:0,0:0:0:0:
184,112,9424,1,8,0:0:0:0:
184,112,9799,1,0,0:0:0:0:
184,112,9986,2,0,P|180:184|180:272,1,138.000005264282,2|0,0:0|0:0,0:0:0:0:
84,228,10549,2,0,P|44:216|4:212,1,69.0000026321412,2|0,0:0|0:0,0:0:0:0:
296,188,10924,2,0,L|338:172,2,30.6666666666667
280,236,11111,2,0,L|266:274,2,30.6666666666667
252,204,11299,6,0,L|164:180,2,69.0000026321412,8|0|0,0:0|0:0|0:0,0:0:0:0:
432,252,11861,2,0,L|524:228,2,69.0000026321412,8|0|0,0:0|0:0|0:0,0:0:0:0:
448,60,12424,1,8,0:0:0:0:
248,236,12799,1,0,0:0:0:0:
248,236,12986,2,0,P|288:300|364:300,1,138.000005264282
328,168,13549,2,0,P|348:132|384:104,1,69.0000026321412,0|0,0:3|0:0,0:0:0:0:
272,320,13924,2,0,P|252:356|216:384,1,69.0000026321412,0|0,0:3|0:0,0:0:0:0:
40,240,14299,6,0,P|88:232|156:228,1,92,8|0,0:0|0:0,0:0:0:0:
136,324,14674,1,0,0:0:0:0:
256,148,14861,2,0,P|212:136|144:128,1,92,8|0,0:0|0:0,0:0:0:0:
308,232,15236,1,0,0:0:0:0:
388,72,15424,2,0,P|400:168|396:280,1,184,8|0,0:0|0:0,0:0:0:0:
320,112,15986,6,0,P|312:64|312:16,2,92,2|0|0,0:0|0:0|0:0,0:0:0:0:
224,168,16549,2,0,P|240:224|244:284,1,92
148,304,16924,2,0,L|140:264,2,30.6666666666667,0|0|0,0:0|0:0|0:0,0:0:0:0:
172,352,17111,2,0,L|148:380,2,30.6666666666667,0|0|0,0:0|0:0|0:0,0:0:0:0:
224,344,17299,6,0,P|267:329|328:316,1,92,8|0,0:0|0:0,0:0:0:0:
232,256,17674,1,0,0:0:0:0:
344,128,17861,2,0,P|364:188|364:240,1,92,8|0,0:0|0:0,0:0:0:0:
280,12,18236,1,0,0:0:0:0:
260,140,18424,2,0,P|296:200|408:184,1,184,8|0,0:0|0:0,0:0:0:0:
180,224,18986,6,0,L|296:212,1,92,2|0,0:0|0:0,0:0:0:0:
124,288,19361,1,0,0:0:0:0:
68,152,19549,2,0,L|184:140,1,92,2|0,0:0|0:0,0:0:0:0:
20,312,19924,2,0,P|48:272|52:228,1,92
168,40,20299,6,0,P|88:72|-8:28,1,184,8|0,0:0|0:0,0:0:0:0:
200,136,20861,2,0,P|197:188|200:240,1,92,8|0,0:0|0:0,0:0:0:0:
280,100,21236,1,0,0:0:0:0:
288,240,21424,2,0,P|348:284|448:240,1,184,8|0,0:0|0:0,0:0:0:0:
212,304,21986,6,0,P|164:300|96:316,2,92,2|0|0,0:0|0:0|0:0,0:0:0:0:
424,196,22549,2,0,P|444:244|424:304,1,92,2|0,0:0|0:0,0:0:0:0:
332,124,22924,1,0,0:0:0:0:
176,204,23111,2,0,L|140:224,2,30.6666666666667,0|0|0,0:0|0:0|0:0,0:0:0:0:
192,192,23299,6,0,P|248:192|288:200,1,92,8|0,0:0|0:0,0:0:0:0:
332,124,23674,1,0,0:0:0:0:
344,280,23861,2,0,P|380:232|384:176,1,92,8|0,0:0|0:0,0:0:0:0:
332,124,24236,1,0,0:0:0:0:
140,64,24424,2,0,P|240:44|332:36,1,184,8|0,0:0|0:0,0:0:0:0:
220,140,24986,6,0,P|120:164|24:172,1,184,2|0,0:0|0:0,0:0:0:0:
260,72,25549,2,0,P|292:108|292:176,1,92,2|0,0:0|0:0,0:0:0:0:
152,240,25924,2,0,P|208:228|264:208,1,92,2|0,0:3|0:0,0:0:0:0:
156,76,26299,6,0,P|104:84|60:100,1,69.0000026321412,8|0,0:0|0:0,0:0:0:0:
76,204,26674,1,0,0:0:0:0:
276,232,26861,2,0,P|288:272|292:332,1,69.0000026321412,8|0,0:0|0:0,0:0:0:0:
332,144,27236,1,0,0:0:0:0:
408,248,27424,2,0,P|424:212|436:176,2,69.0000026321412,8|0|0,0:0|0:0|0:0,0:0:0:0:
280,96,27986,6,0,P|348:96|415:112,1,138.000005264282,2|0,0:0|0:0,0:0:0:0:
252,184,28549,2,0,P|228:196|184:208,1,69.0000026321412,2|0,0:0|0:0,0:0:0:0:
64,280,28924,2,0,L|44:304,2,30.6666666666667
104,252,29111,2,0,L|100:208,2,30.6666666666667
136,284,29299,6,0,P|124:324|96:372,2,69.0000026321412,8|0|0,0:0|0:0|0:0,0:0:0:0:
268,180,29861,2,0,P|256:220|248:268,1,69.0000026321412,8|0,0:0|0:0,0:0:0:0:
248,328,30236,1,0,0:0:0:0:
340,148,30424,2,0,P|272:140|192:140,1,138.000005264282,8|0,0:0|0:0,0:0:0:0:
360,232,30986,6,0,P|412:196|412:108,1,138.000005264282,2|0,0:0|0:0,0:0:0:0:
500,84,31549,2,0,P|512:128|512:180,1,69.0000026321412,2|0,0:0|0:0,0:0:0:0:
432,36,31924,1,0,0:0:0:0:
264,60,32111,2,0,L|244:32,2,23.0000008773804,0|0|0,0:0|0:0|0:0,0:0:0:0:
272,72,32299,6,0,P|324:68|372:72,1,92,8|0,0:0|0:0,0:0:0:0:
184,32,32674,1,0,0:0:0:0:
180,128,32861,2,0,P|176:180|180:252,1,92,8|0,0:0|0:0,0:0:0:0:
100,172,33236,1,0,0:0:0:0:
252,248,33424,2,0,P|208:296|100:244,1,184,8|0,0:0|0:0,0:0:0:0:
16,176,33986,6,0,P|20:224|16:280,1,92,2|0,0:0|0:0,0:0:0:0:
84,332,34361,1,0,0:0:0:0:
76,84,34549,2,0,L|100:172,1,92,2|0,0:0|0:0,0:0:0:0:
216,128,34924,2,0,L|208:240,1,92,8|0,0:1|0:0,0:0:0:0:
336,248,35299,6,0,P|304:308|268:336,1,92,8|0,0:0|0:0,0:0:0:0:
200,356,35674,1,0,0:0:0:0:
160,232,35861,2,0,P|192:228|264:232,1,92,8|0,0:0|0:0,0:0:0:0:
312,168,36236,1,0,0:0:0:0:
120,144,36424,2,0,P|110:235|114:327,1,184,8|0,0:0|0:0,0:0:0:0:
208,96,36986,5,2,0:0:0:0:
196,72,37549,2,0,P|124:68|88:72,1,92,2|0,0:0|0:0,0:0:0:0:
260,160,37924,2,0,P|308:164|360:160,1,92,2|0,0:3|0:0,0:0:0:0:
336,240,38299,6,0,L|348:312,2,69.0000026321412,8|0|0,0:0|0:0|0:0,0:0:0:0:
424,108,38861,2,0,L|436:28,2,69.0000026321412,8|0|0,0:0|0:0|0:0,0:0:0:0:
484,244,39424,2,0,L|488:320,2,69.0000026321412,8|0|0,0:0|0:0|0:0,0:0:0:0:
252,280,39986,6,0,P|328:272|408:276,1,138.000005264282,2|0,0:0|0:0,0:0:0:0:
215,192,40549,2,0,P|249:185|284:183,2,69.0000026321412,2|0|0,0:0|0:0|0:0,0:0:0:0:
88,308,41111,2,0,L|60:304,2,23.0000008773804,0|0|0,0:0|0:0|0:0,0:0:0:0:
104,328,41299,6,0,P|120:256|116:168,1,138.000005264282,8|0,0:0|0:0,0:0:0:0:
48,92,41861,2,0,P|40:176|44:260,1,138.000005264282,8|0,0:0|0:0,0:0:0:0:
148,120,42424,2,0,P|208:100|288:128,1,138.000005264282,8|0,0:0|0:0,0:0:0:0:
116,200,42986,6,0,P|120:252|116:284,2,69.0000026321412,2|0|0,0:0|0:0|0:0,0:0:0:0:
308,232,43549,2,0,L|332:244,11,23.0000008773804,2|0|0|0|0|0|0|0|0|0|0|0,0:0|0:0|0:0|0:0|0:0|0:0|0:0|0:0|0:0|0:0|0:0|0:0,0:0:0:0:
365,260,44299,6,0,P|365:320|373:368,1,92,8|0,0:0|0:0,0:0:0:0:
460,240,44674,1,0,0:0:0:0:
296,144,44861,1,8,0:0:0:0:
400,84,45049,1,0,0:0:0:0:
384,216,45236,1,0,0:0:0:0:
492,116,45424,2,0,B|504:84|504:84|492:20,2,92,8|0|0,0:0|0:0|0:0,0:0:0:0:
244,104,45986,6,0,L|348:112,1,92,2|0,0:0|0:0,0:0:0:0:
276,188,46361,1,0,0:0:0:0:
276,188,46455,1,0,0:0:0:0:
276,188,46549,2,0,B|336:192|336:192|376:228,1,92,2|0,0:0|0:0,0:0:0:0:
400,332,46924,2,0,P|348:340|309:316,1,92
180,208,47299,5,8,0:0:0:0:
276,188,47486,1,0,0:0:0:0:
112,136,47674,1,0,0:0:0:0:
224,48,47861,1,8,0:0:0:0:
180,208,48049,1,0,0:0:0:0:
176,219,48142,1,0,0:0:0:0:
173,230,48236,1,0,0:0:0:0:
170,241,48330,1,0,0:0:0:0:
166,252,48424,1,8,0:0:0:0:
163,263,48517,1,0,0:0:0:0:
160,274,48611,1,0,0:0:0:0:
157,285,48705,1,0,0:0:0:0:
153,296,48799,5,8,0:0:0:0:
256,272,48986,1,0,0:0:0:0:
256,272,49174,2,0,P|304:300|364:280,1,92,8|0,0:0|0:0,0:0:0:0:
448,136,49549,2,0,P|392:140|368:188,1,92,8|0,0:0|0:0,0:0:0:0:
271,47,49924,2,0,P|247:84|260:128,1,92,8|0,0:0|0:0,0:0:0:0:
368,271,50299,6,0,P|373:212|369:148,1,105.800002017975,4|0,0:0|0:0,0:0:0:0:
260,128,50674,1,8,0:0:0:0:
104,240,50861,2,0,P|152:240|216:228,1,105.800002017975
260,128,51236,1,0,0:0:0:0:
296,272,51424,2,0,P|268:352|152:340,1,211.60000403595,8|0,0:0|0:0,0:0:0:0:
168,136,51986,5,0,0:0:0:0:
216,288,52174,2,0,P|163:290|110:286,1,105.800002017975,8|0,0:0|0:0,0:0:0:0:
83,104,52549,2,0,B|87:120|99:136|99:136|131:132|175:136,1,105.800002017975
16,224,52924,1,8,0:0:0:0:
168,224,53111,1,0,0:0:0:0:
168,224,53205,1,0,0:0:0:0:
168,224,53299,6,0,P|224:208|260:144,1,105.800002017975
264,68,53674,1,8,0:0:0:0:
100,56,53861,2,0,P|76:108|100:168,1,105.800002017975
168,224,54236,1,0,0:0:0:0:
316,156,54424,2,0,P|252:148|204:152,1,105.800002017975,8|0,0:0|0:0,0:0:0:0:
388,100,54799,5,0,0:0:0:0:
392,324,54986,1,0,0:0:0:0:
392,324,55174,2,0,P|448:324|504:316,1,105.800002017975,8|0,0:0|0:0,0:0:0:0:
308,196,55549,2,0,P|252:196|172:204,1,105.800002017975
380,88,55924,1,8,0:0:0:0:
392,240,56111,1,0,0:0:0:0:
368,76,56299,6,0,P|424:72|484:76,1,105.800002017975
296,32,56674,1,8,0:0:0:0:
252,188,56861,2,0,P|244:244|248:296,2,105.800002017975,0|0|0,0:0|0:0|0:0,0:0:0:0:
144,108,57424,2,0,B|292:104|292:104|340:148,1,211.60000403595,8|0,0:0|0:0,0:0:0:0:
328,40,57986,5,0,0:0:0:0:
252,188,58174,1,8,0:0:0:0:
84,40,58361,1,0,0:0:0:0:
84,40,58455,1,0,0:0:0:0:
84,40,58549,2,0,P|56:84|56:136,1,105.800002017975
128,176,58830,1,0,0:0:0:0:
128,176,58924,2,0,P|88:228|28:244,1,105.800002017975,8|0,0:0|0:0,0:0:0:0:
232,256,59299,6,0,P|284:250|336:258,1,105.800002017975
180,356,59674,1,8,0:0:0:0:
51,242,59861,2,0,P|48:190|55:138,2,105.800002017975
96,364,60424,2,0,P|140:340|180:296,1,105.800002017975,8|0,0:0|0:0,0:0:0:0:
240,60,60799,5,8,0:0:0:0:
232,256,60986,1,0,0:0:0:0:
324,48,61174,5,8,0:0:0:0:
312,284,61361,1,0,0:0:0:0:
408,36,61549,5,8,0:0:0:0:
392,316,61736,1,0,0:0:0:0:
492,24,61924,5,8,0:0:0:0:
472,344,62111,1,0,0:0:0:0:
472,344,62205,1,0,0:0:0:0:
472,344,62299,6,0,P|409:357|345:390,1,105.800002017975,4|0,0:0|0:0,0:0:0:0:
312,284,62674,1,8,0:0:0:0:
100,244,62861,2,0,P|149:264|188:300,1,105.800002017975
256,352,63236,1,0,0:0:0:0:
256,352,63424,2,0,P|192:348|120:356,1,105.800002017975,8|0,0:0|0:0,0:0:0:0:
328,380,63799,5,0,0:0:0:0:
188,312,63986,1,0,0:0:0:0:
260,224,64174,1,8,0:0:0:0:
256,352,64361,1,0,0:0:0:0:
336,256,64549,2,0,P|392:244|468:244,1,105.800002017975
180,196,64924,2,0,P|136:172|72:156,1,105.800002017975,8|0,0:0|0:0,0:0:0:0:
284,56,65299,5,0,0:0:0:0:
252,140,65486,1,0,0:0:0:0:
192,40,65674,1,8,0:0:0:0:
376,76,65861,2,0,P|440:88|504:108,2,105.800002017975,0|0|0,0:0|0:0|0:0,0:0:0:0:
100,20,66424,1,8,0:0:0:0:
284,56,66611,1,0,0:0:0:0:
304,60,66705,1,0,0:0:0:0:
324,64,66799,5,0,0:0:0:0:
100,20,66986,1,0,0:0:0:0:
100,20,67174,2,0,P|100:92|108:148,1,105.800002017975,8|0,0:0|0:0,0:0:0:0:
156,296,67549,1,0,0:0:0:0:
284,168,67736,1,0,0:0:0:0:
288,348,67924,1,8,0:0:0:0:
220,232,68111,1,0,0:0:0:0:
420,288,68299,6,0,B|496:284|496:284|528:248,1,105.800002017975
512,156,68674,1,8,0:0:0:0:
364,128,68861,2,0,P|312:116|228:116,1,105.800002017975
428,60,69236,1,0,0:0:0:0:
420,288,69424,1,8,0:0:0:0:
288,192,69611,1,0,0:0:0:0:
288,192,69705,1,0,0:0:0:0:
288,192,69799,6,0,L|236:216,1,52.9000010089875
204,168,69986,2,0,P|208:220|204:300,1,105.800002017975,0|8,0:0|0:0,0:0:0:0:
100,320,70361,1,0,0:0:0:0:
100,320,70455,1,0,0:0:0:0:
100,320,70549,2,0,P|160:336|208:360,1,105.800002017975,0|0,0:0|0:0,0:0:0:0:
280,304,70830,1,0,0:0:0:0:
280,304,70924,2,0,P|320:296|380:260,1,105.800002017975,8|0,0:0|0:0,0:0:0:0:
472,152,71299,6,0,B|512:200|512:200|488:364,1,211.60000403595,0|8,0:0|0:0,0:0:0:0:
348,188,71861,2,0,P|332:124|336:60,1,105.800002017975
408,268,72236,1,0,0:0:0:0:
412,28,72424,1,8,0:0:0:0:
268,96,72611,1,0,0:0:0:0:
236,108,72705,1,0,0:0:0:0:
204,120,72799,5,8,0:0:0:0:
500,72,72986,1,0,0:0:0:0:
116,36,73174,5,8,0:0:0:0:
500,72,73361,1,0,0:0:0:0:
88,156,73549,5,8,0:0:0:0:
500,72,73736,1,0,0:0:0:0:
111,253,73924,6,0,B|80:190|80:190|88:154,1,105.800002017975,2|0,0:3|0:0,0:0:0:0:
236,12,74299,1,2,0:0:0:0:
240,224,80111,6,0,L|234:252,2,23.0000008773804,0|0|0,0:0|0:0|0:0,0:0:0:0:
240,208,80299,6,0,P|191:267|132:321,1,138.000005264282,8|0,0:0|0:0,0:0:0:0:
304,280,80861,2,0,P|352:268|400:264,1,69.0000026321412,8|0,0:0|0:0,0:0:0:0:
240,208,81236,1,0,0:0:0:0:
240,208,81424,2,0,P|184:184|108:160,1,138.000005264282,8|0,0:0|0:0,0:0:0:0:
272,124,81986,6,0,P|336:100|416:80,1,138.000005264282,2|0,0:0|0:0,0:0:0:0:
364,248,82549,2,0,P|352:296|348:348,1,69.0000026321412,2|0,0:0|0:0,0:0:0:0:
240,208,82924,2,0,L|248:256,2,30.6666666666667
196,176,83111,2,0,L|204:128,2,30.6666666666667
147,198,83299,6,0,P|151:242|151:294,2,69.0000026321412,8|0|0,0:0|0:0|0:0,0:0:0:0:
192,64,83861,1,8,0:0:0:0:
220,352,84236,1,0,0:0:0:0:
400,284,84424,2,0,B|292:268|292:268|260:284,1,138.000005264282,8|0,0:0|0:0,0:0:0:0:
64,296,84986,6,0,P|124:260|148:192,1,138.000005264282,2|0,0:0|0:0,0:0:0:0:
216,156,85549,2,0,P|220:196|216:240,1,69.0000026321412,2|0,0:0|0:0,0:0:0:0:
168,84,85924,2,0,P|176:48|196:8,1,69.0000026321412,2|0,0:3|0:0,0:0:0:0:
416,104,86299,6,0,B|348:120|348:120|320:112,1,92,8|0,0:0|0:0,0:0:0:0:
260,40,86674,1,0,0:0:0:0:
468,172,86861,2,0,L|364:196,1,92,8|0,0:0|0:0,0:0:0:0:
276,204,87236,1,0,0:0:0:0:
124,340,87424,2,0,B|176:312|176:312|196:180,1,184,8|0,0:0|0:0,0:0:0:0:
68,80,87986,6,0,P|56:124|56:184,1,92,2|0,0:0|0:0,0:0:0:0:
148,52,88361,1,0,0:0:0:0:
136,228,88549,2,0,P|181:222|227:226,1,92,2|0,0:0|0:0,0:0:0:0:
352,312,88924,2,0,L|376:344,2,30.6666666666667,0|0|0,0:0|0:0|0:0,0:0:0:0:
300,300,89111,2,0,L|268:316,2,30.6666666666667,0|0|0,0:0|0:0|0:0,0:0:0:0:
352,268,89299,6,0,P|399:254|447:250,2,92,8|0|0,0:0|0:0|0:0,0:0:0:0:
232,340,89861,2,0,P|184:316|124:308,2,92,8|0|0,0:0|0:0|0:0,0:0:0:0:
320,196,90424,2,0,P|332:144|328:92,1,92,8|0,0:0|0:0,0:0:0:0:
240,224,90799,5,0,0:0:0:0:
128,60,90986,2,0,P|232:44|340:36,1,184,2|0,0:0|0:0,0:0:0:0:
480,56,91549,2,0,P|432:40|376:0,1,92,2|0,0:0|0:0,0:0:0:0:
272,168,91924,1,0,0:0:0:0:
384,284,92111,2,0,L|424:300,2,30.6666666666667,0|0|0,0:0|0:0|0:0,0:0:0:0:
355,275,92299,6,0,P|360:183|360:92,1,184,8|0,0:0|0:0,0:0:0:0:
272,168,92861,2,0,P|268:232|268:292,1,92,8|0,0:0|0:0,0:0:0:0:
316,348,93236,1,0,0:0:0:0:
176,260,93424,2,0,P|232:256|276:260,1,92,8|0,0:0|0:0,0:0:0:0:
316,348,93799,5,0,0:0:0:0:
112,320,93986,2,0,P|144:232|212:164,1,184,2|0,0:0|0:0,0:0:0:0:
296,96,94549,2,0,P|248:76|192:64,1,92,2|0,0:0|0:0,0:0:0:0:
340,192,94924,2,0,P|392:168|452:152,1,92
244,184,95299,6,0,B|244:256|244:256|264:284,1,92,8|0,0:0|0:0,0:0:0:0:
336,332,95674,1,0,0:0:0:0:
420,164,95861,2,0,B|348:175|348:175|336:204,1,92,8|0,0:0|0:0,0:0:0:0:
336,332,96236,1,0,0:0:0:0:
316,104,96424,2,0,P|260:52|176:124,1,184,8|0,0:0|0:0,0:0:0:0:
316,192,96986,6,0,P|408:164|508:156,1,184,2|0,0:0|0:0,0:0:0:0:
248,120,97549,2,0,P|188:112|128:112,1,92,2|0,0:0|0:0,0:0:0:0:
0,112,97924,2,0,P|40:80|96:56,1,92,2|0,0:3|0:0,0:0:0:0:
112,212,98299,6,0,P|120:252|120:292,1,69.0000026321412,8|0,0:0|0:0,0:0:0:0:
180,352,98674,1,0,0:0:0:0:
272,280,98861,2,0,P|232:272|196:272,1,69.0000026321412,8|0,0:0|0:0,0:0:0:0:
344,204,99236,1,0,0:0:0:0:
344,204,99424,2,0,P|354:275|360:368,1,138.000005264282,8|0,0:0|0:0,0:0:0:0:
432,224,99986,6,0,P|428:188|412:136,2,69.0000026321412,2|0|0,0:0|0:0|0:0,0:0:0:0:
280,132,100549,2,0,P|332:124|372:128,1,69.0000026321412,2|0,0:0|0:0,0:0:0:0:
176,216,100924,2,0,L|192:188,2,30.6666666666667,0|0|0,0:0|0:0|0:0,0:0:0:0:
128,228,101112,2,0,L|132:188,2,30.6666666666667,0|0|0,0:0|0:0|0:0,0:0:0:0:
84,268,101299,6,0,P|48:216|28:192,1,69.0000026321412,8|0,0:0|0:0,0:0:0:0:
44,344,101674,1,0,0:0:0:0:
192,292,101861,2,0,P|216:320|228:356,2,69.0000026321412,8|0|0,0:0|0:0|0:0,0:0:0:0:
48,184,102424,2,0,P|96:136|180:108,1,138.000005264282,8|0,0:0|0:0,0:0:0:0:
352,60,102986,6,0,B|345:112|345:112|333:128,2,69.0000026321412,2|0|0,0:0|0:0|0:0,0:0:0:0:
276,172,103549,2,0,P|320:200|404:156,1,138.000005264282,2|0,0:0|0:0,0:0:0:0:
476,80,104111,2,0,L|476:36,2,23.0000008773804,0|0|0,0:0|0:0|0:0,0:0:0:0:
476,108,104299,6,0,P|480:168|480:236,1,92,8|0,0:0|0:0,0:0:0:0:
432,288,104674,1,0,0:0:0:0:
276,172,104861,2,0,P|316:140|364:112,1,92,8|0,0:0|0:0,0:0:0:0:
436,64,105236,1,0,0:0:0:0:
180,76,105424,2,0,P|136:148|188:224,1,184,8|0,0:0|0:0,0:0:0:0:
380,192,105986,6,0,B|352:150|352:150|212:148,1,184,2|0,0:0|0:0,0:0:0:0:
40,56,106549,2,0,P|104:44|156:40,1,92,2|0,0:0|0:0,0:0:0:0:
276,84,106924,1,8,0:0:0:0:
412,60,107111,1,0,0:0:0:0:
268,96,107299,6,0,P|264:152|268:224,1,92,8|0,0:0|0:0,0:0:0:0:
296,284,107674,1,0,0:0:0:0:
436,200,107861,2,0,P|388:188|320:184,2,92,8|0|0,0:0|0:0|0:0,0:0:0:0:
380,280,108424,2,0,P|384:324|380:376,1,92,8|0,0:0|0:0,0:0:0:0:
268,200,108799,5,0,0:0:0:0:
268,200,108986,2,0,P|160:192|84:216,1,184,2|0,0:0|0:0,0:0:0:0:
0,340,109549,2,0,P|16:288|24:224,1,92,2|0,0:0|0:0,0:0:0:0:
84,48,109924,2,0,P|72:100|72:156,1,92,2|0,0:3|0:0,0:0:0:0:
144,336,110299,6,0,P|204:304|264:332,1,138.000005264282,8|0,0:0|0:0,0:0:0:0:
400,272,110861,2,0,B|344:272|344:272|320:248,1,69.0000026321412,8|0,0:0|0:0,0:0:0:0:
296,192,111236,1,0,0:0:0:0:
440,192,111424,2,0,P|452:256|456:336,1,138.000005264282,8|0,0:0|0:0,0:0:0:0:
492,132,111986,6,0,P|423:138|356:122,1,138.000005264282,2|0,0:0|0:0,0:0:0:0:
208,96,112549,2,0,L|256:20,1,69.0000026321412,2|0,0:0|0:0,0:0:0:0:
236,268,112924,1,0,0:0:0:0:
288,112,113111,2,0,L|300:72,2,23.0000008773804,0|0|0,0:0|0:0|0:0,0:0:0:0:
280,136,113299,6,0,P|276:176|280:232,1,69.0000026321412,8|0,0:0|0:0,0:0:0:0:
320,328,113674,1,0,0:0:0:0:
376,176,113861,2,0,L|528:152,1,138.000005264282,8|0,0:0|0:0,0:0:0:0:
268,220,114424,2,0,L|120:184,1,138.000005264282,8|0,0:0|0:0,0:0:0:0:
312,136,114986,5,2,0:0:0:0:
376,256,115174,1,0,0:0:0:0:
420,116,115361,1,0,0:0:0:0:
232,160,115549,2,0,P|176:172|100:216,1,138.000005264282,2|0,0:0|0:0,0:0:0:0:
20,92,116111,2,0,L|-8:68,2,23.0000008773804,0|0|0,0:0|0:0|0:0,0:0:0:0:
32,116,116299,6,0,P|36:172|28:240,1,92,8|0,0:0|0:0,0:0:0:0:
108,56,116674,1,0,0:0:0:0:
156,240,116861,1,8,0:0:0:0:
244,144,117049,1,0,0:0:0:0:
80,136,117236,1,0,0:0:0:0:
236,56,117424,2,0,B|296:32|296:32|336:32,2,92,8|0|0,0:0|0:0|0:0,0:0:0:0:
228,216,117986,5,2,0:0:0:0:
188,356,118174,1,0,0:0:0:0:
228,216,118361,1,0,0:0:0:0:
240,200,118455,1,0,0:0:0:0:
252,184,118549,2,0,P|304:176|356:204,1,92,2|0,0:0|0:0,0:0:0:0:
380,352,118924,2,0,B|408:336|408:336|428:264,1,92,0|0,0:0|0:0,0:0:0:0:
460,100,119299,5,8,0:0:0:0:
312,248,119486,1,0,0:0:0:0:
252,80,119674,1,0,0:0:0:0:
436,216,119861,1,8,0:0:0:0:
268,168,120049,1,0,0:0:0:0:
257,164,120142,1,0,0:0:0:0:
246,160,120236,1,0,0:0:0:0:
235,157,120330,1,0,0:0:0:0:
224,153,120424,1,8,0:0:0:0:
213,149,120517,1,0,0:0:0:0:
202,146,120611,1,0,0:0:0:0:
191,142,120705,1,0,0:0:0:0:
180,138,120799,5,8,0:0:0:0:
96,216,120986,1,2,0:0:0:0:
96,216,121174,2,0,P|68:260|76:304,1,92,8|0,0:0|0:0,0:0:0:0:
232,236,121549,2,0,P|276:244|328:216,1,92,10|0,0:0|0:0,0:0:0:0:
168,56,121924,2,0,P|156:96|184:140,1,92,8|0,0:0|0:0,0:0:0:0:
308,136,122299,6,0,P|364:132|424:144,1,105.800002017975,4|0,0:0|0:0,0:0:0:0:
308,240,122674,1,8,0:0:0:0:
168,56,122861,2,0,P|167:108|159:161,1,105.800002017975
84,252,123236,1,0,0:0:0:0:
324,324,123424,2,0,B|280:364|280:364|116:340,1,211.60000403595,8|0,0:0|0:0,0:0:0:0:
244,184,123986,5,0,0:0:0:0:
84,252,124174,1,8,0:0:0:0:
256,180,124361,1,0,0:0:0:0:
72,256,124549,2,0,B|44:272|44:272|32:360,1,105.800002017975
228,268,124924,2,0,B|252:252|252:252|268:172,1,105.800002017975,8|0,0:0|0:0,0:0:0:0:
292,140,125205,1,0,0:0:0:0:
292,140,125299,6,0,P|340:124|400:148,1,105.800002017975
216,68,125674,1,8,0:0:0:0:
488,120,125861,2,0,L|496:236,1,105.800002017975
504,340,126236,1,0,0:0:0:0:
392,140,126424,1,8,0:0:0:0:
372,268,126611,1,0,0:0:0:0:
367,294,126704,1,0,0:0:0:0:
363,320,126798,5,0,0:0:0:0:
392,140,126986,1,0,0:0:0:0:
248,144,127174,2,0,P|192:148|144:116,1,105.800002017975,8|0,0:0|0:0,0:0:0:0:
224,32,127549,1,0,0:0:0:0:
60,120,127736,1,0,0:0:0:0:
320,60,127924,1,8,0:0:0:0:
124,48,128111,1,0,0:0:0:0:
108,244,128299,6,0,B|104:324|104:324|128:360,1,105.800002017975
236,348,128674,1,8,0:0:0:0:
436,252,128861,2,0,P|368:200|248:248,1,211.60000403595
488,144,129424,1,8,0:0:0:0:
340,304,129611,1,0,0:0:0:0:
323,323,129705,1,0,0:0:0:0:
307,342,129799,1,0,0:0:0:0:
396,48,129986,5,0,0:0:0:0:
320,152,130174,1,8,0:0:0:0:
208,80,130361,1,0,0:0:0:0:
208,80,130455,1,0,0:0:0:0:
208,80,130549,2,0,P|152:76|96:88,1,105.800002017975,0|0,0:0|0:0,0:0:0:0:
120,160,130830,1,0,0:0:0:0:
120,160,130924,2,0,B|140:204|108:240|108:240|136:236,1,105.800002017975,8|0,0:0|0:0,0:0:0:0:
328,248,131299,5,0,0:0:0:0:
128,312,131486,1,0,0:0:0:0:
328,248,131674,1,8,0:0:0:0:
40,184,131861,1,0,0:0:0:0:
224,336,132049,1,0,0:0:0:0:
40,184,132236,1,0,0:0:0:0:
344,144,132424,1,8,0:0:0:0:
316,352,132611,1,0,0:0:0:0:
316,352,132704,1,0,0:0:0:0:
316,352,132799,5,8,0:0:0:0:
40,184,132986,1,0,0:0:0:0:
160,380,133174,5,8,0:0:0:0:
136,156,133361,1,0,0:0:0:0:
316,352,133549,5,8,0:0:0:0:
212,96,133736,1,0,0:0:0:0:
448,256,133924,5,8,0:0:0:0:
244,8,134111,1,0,0:0:0:0:
244,8,134205,1,0,0:0:0:0:
244,8,134299,6,0,P|164:16|132:52,1,105.800002017975,4|0,0:0|0:0,0:0:0:0:
119,239,134674,1,8,0:0:0:0:
212,96,134861,2,0,B|252:144|252:144|236:300,1,211.60000403595
336,128,135424,2,0,L|324:240,1,105.800002017975,8|0,0:0|0:0,0:0:0:0:
320,276,135705,1,0,0:0:0:0:
316,308,135799,5,0,0:0:0:0:
48,160,135986,1,0,0:0:0:0:
48,160,136174,2,0,P|112:156|168:160,1,105.800002017975,8|0,0:0|0:0,0:0:0:0:
8,272,136549,2,0,P|0:332|4:384,1,105.800002017975
96,232,136924,1,8,0:0:0:0:
96,48,137111,1,0,0:0:0:0:
96,232,137299,6,0,P|156:236|220:224,1,105.800002017975
296,160,137674,1,8,0:0:0:0:
452,256,137861,2,0,P|464:304|448:360,2,105.800002017975,0|0|0,0:0|0:0|0:0,0:0:0:0:
296,160,138424,1,8,0:0:0:0:
260,292,138611,1,0,0:0:0:0:
296,300,138705,1,0,0:0:0:0:
332,292,138799,5,0,0:0:0:0:
176,256,138986,1,0,0:0:0:0:
176,256,139174,2,0,P|124:252|64:256,1,105.800002017975,8|0,0:0|0:0,0:0:0:0:
240,184,139549,2,0,P|296:180|356:184,1,105.800002017975
144,152,139924,1,8,0:0:0:0:
232,356,140111,1,0,0:0:0:0:
232,356,140205,1,0,0:0:0:0:
232,356,140299,6,0,P|256:300|260:248,1,105.800002017975
272,112,140674,1,8,0:0:0:0:
96,152,140861,2,0,P|64:208|56:268,1,105.800002017975
272,128,141236,1,0,0:0:0:0:
496,96,141424,2,0,L|380:172,1,105.800002017975,8|0,0:0|0:0,0:0:0:0:
384,128,141705,1,0,0:0:0:0:
360,104,141799,5,0,0:0:0:0:
400,272,141986,1,0,0:0:0:0:
248,208,142174,1,8,0:0:0:0:
116,288,142361,1,0,0:0:0:0:
116,288,142455,1,0,0:0:0:0:
116,288,142549,2,0,P|84:228|24:200,1,105.800002017975
44,132,142830,1,0,0:0:0:0:
44,132,142924,2,0,P|52:76|92:36,1,105.800002017975,8|0,0:0|0:0,0:0:0:0:
116,288,143299,5,0,0:0:0:0:
284,140,143486,1,0,0:0:0:0:
216,280,143674,1,8,0:0:0:0:
224,68,143861,1,0,0:0:0:0:
216,280,144049,1,0,0:0:0:0:
44,132,144236,1,0,0:0:0:0:
312,272,144424,1,8,0:0:0:0:
224,68,144611,1,0,0:0:0:0:
224,68,144705,1,0,0:0:0:0:
224,68,144799,5,8,0:0:0:0:
492,168,144986,1,0,0:0:0:0:
152,152,145174,5,8,0:0:0:0:
492,168,145361,1,0,0:0:0:0:
112,52,145549,5,8,0:0:0:0:
492,168,145736,1,0,0:0:0:0:
80,236,145924,1,2,0:3:0:0:
392,184,146111,1,0,0:0:0:0:
392,184,146205,1,0,0:0:0:0:
392,184,146299,6,0,B|372:168|348:168|348:168|360:220|320:264,1,138.000005264282,2|0,0:0|0:0,0:0:0:0:
140,204,146861,2,0,P|196:224|268:188,1,138.000005264282,2|0,0:0|0:0,0:0:0:0:
196,124,147424,2,0,P|136:112|44:108,1,138.000005264282,2|0,0:0|0:0,0:0:0:0:
140,204,147986,2,0,P|168:264|141:325,1,138.000005264282,2|0,0:0|0:0,0:0:0:0:
28,284,148549,2,0,P|64:268|104:268,1,69.0000026321412,2|0,0:0|0:0,0:0:0:0:
168,272,148924,1,0,0:0:0:0:
240,308,149111,1,0,0:0:0:0:
328,176,149299,6,0,P|360:104|364:20,1,138.000005264282,2|0,0:0|0:0,0:0:0:0:
440,212,149861,2,0,P|412:288|408:376,1,138.000005264282,2|0,0:0|0:0,0:0:0:0:
228,280,150424,2,0,P|152:284|92:316,1,138.000005264282,2|0,0:0|0:0,0:0:0:0:
328,176,150986,2,0,P|352:236|352:320,1,138.000005264282,2|0,0:0|0:0,0:0:0:0:
280,356,151549,1,2,0:0:0:0:
80,140,151924,1,8,0:0:0:0:
232,84,152111,1,8,0:0:0:0:
