osu file format v14

[General]
AudioFilename: No Game No Life - The Kings Plan.mp3
AudioLeadIn: 0
PreviewTime: 50205
Countdown: 0
SampleSet: Normal
StackLeniency: 0.7
Mode: 0
LetterboxInBreaks: 1
WidescreenStoryboard: 0

[Editor]
DistanceSpacing: 1.3
BeatDivisor: 4
GridSize: 4
TimelineZoom: 1.3

[Metadata]
Title:All of you is all of me
TitleUnicode:All of you is all of me
Artist:SuperSweep
ArtistUnicode:スーパースィープ
Creator:xxdeathx
Version:Insane
Source:No Game No Life
Tags:ノーゲーム・ノーライフ NGNL ost original soundtrack insert song the king's plan kawaiwkyik chaoslitz cloudsplash16 wcx19911123 rizia little 細江慎治 佐宗綾子 江口孝宏 田中文久 Hosoe Shinji Sasou Ayako Eguchi Takahiro Fumihisa Tanaka
BeatmapID:778732
BeatmapSetID:228789

[Difficulty]
HPDrainRate:6
CircleSize:4
OverallDifficulty:7.5
ApproachRate:9
SliderMultiplier:1.6
SliderTickRate:2

[Events]
//Background and Video events
0,0,"bg.jpg",0,0
//Break Periods
2,74499,79699
//Storyboard Layer 0 (Background)
//Storyboard Layer 1 (Fail)
//Storyboard Layer 2 (Pass)
//Storyboard Layer 3 (Foreground)
//Storyboard Sound Samples

[TimingPoints]
2299,375,4,2,1,40,1,0
2299,-133.333333333333,4,2,1,40,0,0
8299,-133.333333333333,4,2,1,50,0,0
10924,-100,4,2,1,30,0,0
11299,-133.333333333333,4,2,1,50,0,0
14299,-100,4,2,1,60,0,0
16924,-100,4,2,1,40,0,0
17299,-100,4,2,1,60,0,0
22924,-100,4,2,1,40,0,0
23299,-100,4,2,1,60,0,0
26299,-133.333333333333,4,2,1,50,0,0
28924,-100,4,2,1,30,0,0
29299,-133.333333333333,4,2,1,50,0,0
32299,-100,4,2,1,60,0,0
38299,-133.333333333333,4,2,1,40,0,0
40924,-133.333333333333,4,2,1,30,0,0
41299,-133.333333333333,4,2,1,40,0,0
44299,-100,4,2,1,60,0,0
50299,-86.9565217391304,4,1,1,60,0,1
74299,-133.333333333333,4,2,1,40,0,0
80299,-133.333333333333,4,2,1,50,0,0
82924,-100,4,2,1,30,0,0
83299,-133.333333333333,4,2,1,50,0,0
86299,-100,4,2,1,60,0,0
88924,-100,4,2,1,40,0,0
89299,-100,4,2,1,60,0,0
94924,-100,4,2,1,40,0,0
95299,-100,4,2,1,60,0,0
98299,-133.333333333333,4,2,1,50,0,0
100924,-100,4,2,1,30,0,0
101299,-133.333333333333,4,2,1,50,0,0
104299,-100,4,2,1,60,0,0
110299,-133.333333333333,4,2,1,50,0,0
116299,-100,4,2,1,60,0,0
122299,-86.9565217391304,4,1,1,60,0,1
146299,-133.333333333333,4,2,1,40,0,0

[Colours]
Combo1 : 254,88,151
Combo2 : 100,213,9
Combo3 : 121,228,255
Combo4 : 252,133,219
Combo5 : 255,191,0

[HitObjects]
280,112,2299,6,0,P|288:204|280:316,2,180.000006866455,4|0|2,0:0|0:0|0:0,0:0:0:0:
192,260,3986,2,0,P|84:264|36:204,1,180.000006866455,0|2,0:0|0:0,0:0:0:0:
136,164,4924,1,0,0:0:0:0:
192,260,5299,6,0,P|272:276|368:264,1,180.000006866455,2|0,0:0|0:0,0:0:0:0:
368,263,6236,1,0,0:0:0:0:
424,188,6424,2,0,B|440:133|440:133|424:5,1,180.000006866455,2|0,0:0|0:0,0:0:0:0:
192,136,7361,1,0,0:0:0:0:
192,136,7549,2,0,P|152:152|116:148,1,60.0000022888184,2|0,0:0|0:0,0:0:0:0:
244,77,7924,2,0,P|262:52|304:37,1,60.0000022888184,0|0,0:0|0:0,0:0:0:0:
268,153,8299,6,0,P|292:205|296:277,1,120.000004577637,8|0,0:0|0:0,0:0:0:0:
232,352,8861,1,8,0:0:0:0:
72,148,9236,1,0,0:0:0:0:
140,232,9424,2,0,P|196:244|256:224,1,120.000004577637,8|0,0:0|0:0,0:0:0:0:
192,136,9986,2,0,B|180:112|180:112|176:60,1,60.0000022888184,2|0,0:0|0:0,0:0:0:0:
384,284,10549,2,0,B|396:308|396:308|400:360,1,60.0000022888184,2|0,0:0|0:0,0:0:0:0:
328,168,10924,2,0,L|324:120,3,26.6666666666667,0|0|0|0,0:0|0:0|0:0|0:0,0:0:0:0:
264,316,11299,6,0,P|220:324|188:320,1,60.0000022888185,8|0,0:0|0:0,0:0:0:0:
116,304,11674,1,0,0:0:0:0:
224,224,11861,2,0,P|236:188|232:160,1,60.0000022888184,8|0,0:0|0:0,0:0:0:0:
204,80,12236,1,0,0:0:0:0:
56,140,12424,2,0,B|76:176|76:176|172:188,1,120.000004577637,8|0,0:0|0:0,0:0:0:0:
116,84,12986,2,0,L|108:20,1,60.0000022888184,0|0,0:0|0:0,0:0:0:0:
116,304,13549,1,0,0:3:0:0:
116,304,13924,2,0,P|152:296|192:300,1,60.0000022888184,0|0,0:3|0:0,0:0:0:0:
350,286,14299,6,0,P|278:286|222:214,1,160,8|0,0:0|0:0,0:0:0:0:
272,48,14861,2,0,B|308:84|308:84|320:204,1,160,8|0,0:0|0:0,0:0:0:0:
408,180,15424,2,0,L|396:80,1,80,8|0,0:0|0:0,0:0:0:0:
368,12,15799,1,0,0:0:0:0:
308,140,15986,2,0,P|268:144|229:136,2,80,2|0|0,0:0|0:0|0:0,0:0:0:0:
496,144,16549,2,0,L|505:223,1,80,0|0,0:0|0:0,0:0:0:0:
468,56,16924,2,0,L|472:16,3,26.6666666666667,0|0|0|0,0:0|0:0|0:0|0:0,0:0:0:0:
436,260,17299,6,0,P|384:264|332:232,1,80,8|0,0:0|0:0,0:0:0:0:
340,152,17674,1,0,0:0:0:0:
264,296,17861,2,0,P|256:244|272:196,1,80,8|0,0:0|0:0,0:0:0:0:
340,152,18236,1,0,0:0:0:0:
108,191,18424,2,0,P|168:217|271:215,1,160,8|0,0:0|0:0,0:0:0:0:
156,304,18986,2,0,P|76:328|-8:328,1,160,2|0,0:0|0:0,0:0:0:0:
108,191,19549,2,0,P|124:151|128:107,1,80,2|0,0:0|0:0,0:0:0:0:
20,216,19924,2,0,P|40:256|76:280,1,80,0|0,0:0|0:0,0:0:0:0:
261,217,20299,6,0,B|232:172|232:172|220:60,1,160,8|0,0:0|0:0,0:0:0:0:
356,216,20861,2,0,P|364:260|356:308,1,80,8|0,0:0|0:0,0:0:0:0:
308,140,21236,1,0,0:0:0:0:
284,328,21424,2,0,P|360:379|432:337,1,160,8|0,0:0|0:0,0:0:0:0:
436,228,21986,2,0,P|428:184|436:136,1,80,2|0,0:0|0:0,0:0:0:0:
156,104,22549,2,0,P|183:129|232:136,1,80,2|0,0:0|0:0,0:0:0:0:
36,184,22924,2,0,L|0:188,3,26.6666666666667,0|0|0|0,0:0|0:0|0:0|0:0,0:0:0:0:
224,137,23299,6,0,L|328:133,1,80,8|0,0:0|0:0,0:0:0:0:
156,196,23674,1,0,0:0:0:0:
80,68,23861,2,0,P|72:112|88:156,1,80,8|0,0:0|0:0,0:0:0:0:
156,196,24236,1,0,0:0:0:0:
280,60,24424,2,0,B|296:48|296:48|364:40,2,80,8|0|0,0:0|0:0|0:0,0:0:0:0:
388,136,24986,2,0,P|448:88|444:-12,1,160,2|0,0:0|0:0,0:0:0:0:
304,140,25549,2,0,P|296:188|312:248,1,80,2|0,0:0|0:0,0:0:0:0:
448,288,25924,2,0,P|408:264|356:272,1,80,2|0,0:3|0:0,0:0:0:0:
176,352,26299,6,0,B|208:352|208:352|256:336,1,60.0000022888184,8|0,0:0|0:0,0:0:0:0:
300,300,26674,1,0,0:0:0:0:
116,292,26861,2,0,P|96:328|104:372,2,60.0000022888184,8|0|0,0:0|0:0|0:0,0:0:0:0:
224,216,27424,2,0,L|368:188,1,120.000004577637,8|0,0:0|0:0,0:0:0:0:
236,128,27986,2,0,L|100:88,1,120.000004577637,2|0,0:0|0:0,0:0:0:0:
216,24,28549,1,2,0:0:0:0:
300,300,28924,2,0,L|304:340,3,26.6666666666667,0|0|0|0,0:0|0:0|0:0|0:0,0:0:0:0:
428,280,29299,6,0,B|444:248|444:248|448:200,1,60.0000022888184,8|0,0:0|0:0,0:0:0:0:
424,144,29674,1,0,0:0:0:0:
308,184,29861,2,0,P|336:200|372:200,1,60.0000022888184,8|0,0:0|0:0,0:0:0:0:
280,68,30236,1,0,0:0:0:0:
280,68,30424,2,0,P|252:132|216:172,1,120.000004577637,8|0,0:0|0:0,0:0:0:0:
144,196,30986,1,2,0:0:0:0:
144,196,31549,2,0,P|140:240|152:272,1,60.0000022888184,2|0,0:0|0:0,0:0:0:0:
156,116,31924,2,0,P|136:88|112:72,1,60.0000022888184,0|0,0:0|0:0,0:0:0:0:
219,169,32299,6,0,P|296:168|412:144,1,160,8|0,0:0|0:0,0:0:0:0:
480,44,32861,2,0,B|440:36|440:36|400:48,1,80,8|0,0:0|0:0,0:0:0:0:
308,96,33236,1,0,0:0:0:0:
464,136,33424,2,0,L|488:320,1,160,8|0,0:0|0:0,0:0:0:0:
400,380,33986,2,0,B|384:265|384:265|340:216,1,160,2|0,0:0|0:0,0:0:0:0:
192,252,34549,2,0,P|240:264|280:252,1,80,2|0,0:0|0:0,0:0:0:0:
148,340,34924,2,0,P|108:372|64:376,1,80,8|0,0:1|0:0,0:0:0:0:
27,195,35299,6,0,P|27:111|67:19,1,160,8|0,0:0|0:0,0:0:0:0:
152,76,35861,2,0,B|212:72|212:72|240:56,1,80,8|0,0:0|0:0,0:0:0:0:
53,40,36236,1,0,0:0:0:0:
160,164,36424,2,0,L|336:152,1,160,8|0,0:0|0:0,0:0:0:0:
424,236,36986,2,0,P|376:276|260:268,1,160,2|0,0:0|0:0,0:0:0:0:
319,153,37549,2,0,B|328:112|328:112|320:56,1,80,2|0,0:0|0:0,0:0:0:0:
208,240,37924,2,0,B|199:281|199:281|207:337,1,80,2|0,0:3|0:0,0:0:0:0:
424,236,38299,6,0,L|408:108,1,120.000004577637,8|0,0:0|0:0,0:0:0:0:
384,24,38861,1,8,0:0:0:0:
317,316,39236,1,0,0:0:0:0:
317,316,39424,2,0,P|261:300|201:320,1,120.000004577637,8|0,0:0|0:0,0:0:0:0:
292,224,39986,2,0,P|340:204|408:200,1,120.000004577637,2|0,0:0|0:0,0:0:0:0:
292,132,40549,2,0,P|248:120|216:124,1,60.0000022888184,2|0,0:0|0:0,0:0:0:0:
392,96,40924,2,0,L|400:68,3,20.0000007629395,0|0|0|0,0:0|0:0|0:0|0:0,0:0:0:0:
468,261,41299,6,0,P|444:278|416:288,1,60.0000022888184,8|0,0:0|0:0,0:0:0:0:
320,272,41674,1,0,0:0:0:0:
292,132,41861,2,0,P|309:156|318:184,1,60.0000022888184,8|0,0:0|0:0,0:0:0:0:
320,272,42236,1,0,0:0:0:0:
152,168,42424,2,0,P|124:136|160:76,1,120.000004577637,8|0,0:0|0:0,0:0:0:0:
228,184,42986,2,0,P|232:244|252:304,1,120.000004577637,2|0,0:0|0:0,0:0:0:0:
392,364,43549,2,0,B|324:325|287:413|212:379,1,180.000006866455,2|0,0:0|0:0,0:0:0:0:
144,288,44299,6,0,P|108:264|68:264,1,80,8|0,0:0|0:0,0:0:0:0:
0,340,44674,1,0,0:0:0:0:
116,180,44861,2,0,L|136:96,2,80,8|0|0,0:0|0:0|0:0,0:0:0:0:
244,260,45424,2,0,P|288:236|300:204,1,80,8|0,0:0|0:0,0:0:0:0:
292,68,45799,1,0,0:0:0:0:
292,68,45986,2,0,B|352:72|352:72|384:92,1,80,2|0,0:0|0:0,0:0:0:0:
456,252,46361,1,0,0:0:0:0:
444,264,46455,1,0,0:0:0:0:
432,276,46549,2,0,L|328:268,1,80,2|0,0:0|0:0,0:0:0:0:
265,142,46924,2,0,P|293:174|297:222,1,80,0|0,0:0|0:0,0:0:0:0:
216,336,47299,6,0,L|284:280,1,80,8|0,0:0|0:0,0:0:0:0:
120,380,47674,1,0,0:0:0:0:
192,216,47861,1,8,0:0:0:0:
277,285,48049,1,0,0:0:0:0:
306,291,48142,1,0,0:0:0:0:
335,285,48236,1,0,0:0:0:0:
358,266,48330,1,0,0:0:0:0:
371,240,48424,2,0,L|368:196,1,40,8|0,0:0|0:0,0:0:0:0:
396,124,48611,2,0,L|344:92,1,40,0|0,0:0|0:0,0:0:0:0:
340,16,48799,5,8,0:0:0:0:
340,16,48986,1,0,0:0:0:0:
340,16,49174,2,0,P|384:28|436:8,1,80,8|0,0:0|0:0,0:0:0:0:
268,92,49549,2,0,P|244:120|200:136,1,80,8|0,0:0|0:0,0:0:0:0:
80,212,49924,2,0,P|72:168|108:128,1,80,8|0,0:0|0:0,0:0:0:0:
196,280,50299,6,0,P|200:340|188:392,1,92.0000017547608,4|0,0:0|0:0,0:0:0:0:
100,296,50674,1,8,0:0:0:0:
276,224,50861,2,0,B|308:220|308:220|376:232,2,92.0000017547608,0|0|0,0:0|0:0|0:0,0:0:0:0:
418,319,51424,2,0,P|464:260|432:152,1,184.000003509522,8|0,0:0|0:0,0:0:0:0:
336,304,51986,1,0,0:0:0:0:
356,140,52174,2,0,L|360:40,1,92.0000017547608,8|0,0:0|0:0,0:0:0:0:
211,167,52549,2,0,P|239:211|283:223,1,92.0000017547608,0|0,0:0|0:0,0:0:0:0:
264,52,52924,1,8,0:0:0:0:
124,108,53111,1,0,0:0:0:0:
228,288,53299,6,0,B|176:324|176:324|36:316,1,184.000003509522,0|8,0:0|0:0,0:0:0:0:
48,156,53861,2,0,P|72:216|56:276,1,92.0000017547608,0|0,0:0|0:0,0:0:0:0:
0,368,54236,1,0,0:0:0:0:
152,212,54424,2,0,B|184:200|184:200|264:204,1,92.0000017547608,8|0,0:0|0:0,0:0:0:0:
420,236,54799,1,0,0:0:0:0:
344,368,54986,1,0,0:0:0:0:
344,368,55174,2,0,P|316:328|320:268,1,92.0000017547608,8|0,0:0|0:0,0:0:0:0:
320,128,55549,2,0,L|204:120,1,92.0000017547608,0|0,0:0|0:0,0:0:0:0:
420,236,55924,1,8,0:0:0:0:
248,220,56111,1,0,0:0:0:0:
420,236,56299,6,0,P|468:240|516:236,1,92.0000017547608,0|0,0:0|0:0,0:0:0:0:
320,128,56674,1,8,0:0:0:0:
216,308,56861,2,0,P|304:296|340:204,1,184.000003509522,0|0,0:0|0:0,0:0:0:0:
136,280,57424,2,0,P|132:336|140:400,1,92.0000017547608,8|0,0:0|0:0,0:0:0:0:
160,188,57799,1,0,0:0:0:0:
136,72,57986,2,0,P|96:64|40:72,1,92.0000017547608,0|8,0:0|0:0,0:0:0:0:
248,220,58361,1,0,0:0:0:0:
268,208,58455,1,0,0:0:0:0:
288,196,58549,2,0,P|296:148|288:100,1,92.0000017547608,0|0,0:0|0:0,0:0:0:0:
272,64,58830,1,0,0:0:0:0:
272,64,58924,2,0,P|320:52|372:60,1,92.0000017547608,8|0,0:0|0:0,0:0:0:0:
410,226,59299,6,0,B|372:181|372:181|361:48,1,184.000003509522,0|8,0:0|0:0,0:0:0:0:
495,187,59861,2,0,P|503:243|479:287,1,92.0000017547608
356,348,60236,1,0,0:0:0:0:
356,348,60424,2,0,P|408:344|476:352,1,92.0000017547608,8|0,0:0|0:0,0:0:0:0:
384,152,60799,5,8,0:0:0:0:
316,268,60986,1,0,0:0:0:0:
288,56,61174,5,8,0:0:0:0:
304,184,61361,1,0,0:0:0:0:
168,4,61549,5,8,0:0:0:0:
240,128,61736,1,0,0:0:0:0:
0,36,61924,5,8,0:0:0:0:
160,96,62111,1,0,0:0:0:0:
56,292,62299,6,0,B|20:240|20:240|24:100,1,184.000003509522,4|8,0:0|0:0,0:0:0:0:
120,240,62861,2,0,P|172:248|232:236,2,92.0000017547608
240,324,63424,2,0,P|288:332|344:320,1,92.0000017547608,8|0,0:0|0:0,0:0:0:0:
172,164,63799,1,0,0:0:0:0:
164,340,63986,1,0,0:0:0:0:
172,164,64174,2,0,P|228:160|280:168,1,92.0000017547608,8|0,0:0|0:0,0:0:0:0:
448,288,64549,2,0,P|432:330|400:363,1,92.0000017547608,0|0,0:0|0:0,0:0:0:0:
164,340,64924,2,0,P|190:302|229:278,1,92.0000017547608,8|0,0:0|0:0,0:0:0:0:
372,228,65299,6,0,P|336:140|340:44,1,184.000003509522,0|8,0:0|0:0,0:0:0:0:
492,48,65861,1,0,0:0:0:0:
492,48,66049,2,0,B|468:76|468:76|396:92,1,92.0000017547608,0|0,0:0|0:0,0:0:0:0:
164,104,66424,2,0,P|208:104|276:136,1,92.0000017547608,8|0,0:0|0:0,0:0:0:0:
372,228,66799,1,0,0:0:0:0:
256,368,66986,1,0,0:0:0:0:
256,368,67174,2,0,P|260:320|248:264,1,92.0000017547608,8|0,0:0|0:0,0:0:0:0:
84,56,67549,2,0,P|71:117|87:154,1,92.0000017547608,0|0,0:0|0:0,0:0:0:0:
96,316,67924,2,0,P|156:296|180:264,1,92.0000017547608,8|0,0:0|0:0,0:0:0:0:
343,106,68299,6,0,P|263:122|159:102,1,184.000003509522,0|8,0:0|0:0,0:0:0:0:
368,8,68861,1,0,0:0:0:0:
368,8,69049,2,0,P|420:0|484:4,1,92.0000017547608,0|0,0:0|0:0,0:0:0:0:
400,188,69424,2,0,P|332:204|248:124,1,184.000003509522,8|0,0:0|0:0,0:0:0:0:
468,140,69986,2,0,P|484:180|464:244,1,92.0000017547608,0|8,0:0|0:0,0:0:0:0:
376,328,70361,1,0,0:0:0:0:
356,312,70455,1,0,0:0:0:0:
336,296,70549,2,0,B|292:284|292:284|240:296,1,92.0000017547608,0|0,0:0|0:0,0:0:0:0:
204,308,70830,1,0,0:0:0:0:
204,308,70924,2,0,B|160:320|160:320|108:308,1,92.0000017547608,8|0,0:0|0:0,0:0:0:0:
88,140,71299,6,0,L|116:236,1,92.0000017547608,0|0,0:0|0:0,0:0:0:0:
60,40,71674,1,8,0:0:0:0:
240,124,71861,2,0,L|340:172,1,92.0000017547608,0|0,0:0|0:0,0:0:0:0:
148,76,72236,1,0,0:0:0:0:
336,24,72424,2,0,L|432:8,1,92.0000017547608,8|0,0:0|0:0,0:0:0:0:
236,44,72799,5,8,0:0:0:0:
440,128,72986,1,0,0:0:0:0:
208,200,73174,5,8,0:0:0:0:
440,128,73361,1,0,0:0:0:0:
148,76,73549,5,8,0:0:0:0:
440,128,73736,1,0,0:0:0:0:
148,272,73924,6,0,B|124:232|124:232|120:180,1,92.0000017547608,2|0,0:3|0:0,0:0:0:0:
236,44,74299,1,2,0:0:0:0:
276,120,80299,6,0,P|328:96|412:88,1,120.000004577637,8|0,0:0|0:0,0:0:0:0:
280,32,80861,2,0,B|248:24|248:24|208:24,1,60.0000022888184,8|0,0:0|0:0,0:0:0:0:
132,32,81236,1,0,0:0:0:0:
148,208,81424,2,0,B|176:180|176:180|192:92,1,120.000004577637,8|0,0:0|0:0,0:0:0:0:
84,144,81986,2,0,P|61:183|72:265,1,120.000004577637,2|0,0:0|0:0,0:0:0:0:
144,296,82549,2,0,P|180:288|224:300,1,60.0000022888184,2|0,0:0|0:0,0:0:0:0:
88,364,82924,2,0,L|56:372,3,26.6666666666667,0|0|0|0,0:0|0:0|0:0|0:0,0:0:0:0:
264,336,83299,6,0,B|276:304|276:304|272:260,1,60.0000022888184,8|0,0:0|0:0,0:0:0:0:
232,196,83674,1,0,0:0:0:0:
352,352,83861,1,8,0:0:0:0:
352,352,84236,1,0,0:0:0:0:
412,284,84424,2,0,P|455:240|531:219,1,120.000004577637,8|0,0:0|0:0,0:0:0:0:
412,172,84986,2,0,P|356:152|288:160,1,120.000004577637,2|0,0:0|0:0,0:0:0:0:
376,80,85549,2,0,P|404:70|444:73,1,60.0000022888184,2|0,0:0|0:0,0:0:0:0:
296,157,85924,2,0,P|268:145|228:145,1,60.0000022888184,2|0,0:3|0:0,0:0:0:0:
4,204,86299,6,0,B|36:228|36:228|88:236,1,80,8|0,0:0|0:0,0:0:0:0:
176,204,86674,1,0,0:0:0:0:
108,48,86861,2,0,P|100:96|108:152,1,80,8|0,0:0|0:0,0:0:0:0:
176,204,87236,1,0,0:0:0:0:
218,79,87424,2,0,P|294:66|386:83,1,160,8|0,0:0|0:0,0:0:0:0:
480,208,87986,2,0,L|492:304,2,80,2|0|0,0:0|0:0|0:0,0:0:0:0:
460,84,88549,2,0,P|484:52|496:8,1,80,2|0,0:0|0:0,0:0:0:0:
396,192,88924,2,0,L|404:232,3,26.6666666666667,0|0|0|0,0:0|0:0|0:0|0:0,0:0:0:0:
255,198,89299,6,0,L|147:206,1,80,8|0,0:0|0:0,0:0:0:0:
324,136,89674,1,0,0:0:0:0:
232,284,89861,2,0,L|128:300,1,80,8|0,0:0|0:0,0:0:0:0:
328,248,90236,1,0,0:0:0:0:
360,372,90424,2,0,P|456:372|488:304,1,160,8|0,0:0|0:0,0:0:0:0:
412,224,90986,2,0,P|404:272|408:308,1,80,2|0,0:0|0:0,0:0:0:0:
112,224,91549,2,0,P|119:180|107:132,1,80,2|0,0:0|0:0,0:0:0:0:
12,304,91924,2,0,P|17:345|44:383,1,80,0|0,0:0|0:0,0:0:0:0:
264,316,92299,6,0,P|188:296|108:316,1,160,8|0,0:0|0:0,0:0:0:0:
196,224,92861,2,0,P|208:184|204:128,1,80,8|0,0:0|0:0,0:0:0:0:
136,308,93236,1,0,0:0:0:0:
280,232,93424,2,0,P|292:156|272:72,1,160,8|0,0:0|0:0,0:0:0:0:
56,124,93986,2,0,B|101:152|101:152|220:145,1,160,2|0,0:0|0:0,0:0:0:0:
324,16,94549,2,0,P|284:0|240:4,1,80,2|0,0:0|0:0,0:0:0:0:
436,96,94924,2,0,L|480:92,3,26.6666666666667,0|0|0|0,0:0|0:0|0:0|0:0,0:0:0:0:
364,228,95299,6,0,L|384:312,1,80,8|0,0:0|0:0,0:0:0:0:
284,128,95674,1,0,0:0:0:0:
156,252,95861,2,0,L|140:352,1,80,8|0,0:0|0:0,0:0:0:0:
207,145,96236,1,0,0:0:0:0:
207,145,96424,2,0,P|244:192|308:128,1,160,8|0,0:0|0:0,0:0:0:0:
156,72,96986,2,0,P|116:72|68:48,1,80,2|0,0:0|0:0,0:0:0:0:
472,116,97549,2,0,P|452:152|400:180,1,80,2|0,0:0|0:0,0:0:0:0:
280,380,97924,2,0,P|280:336|268:288,1,80,2|0,0:3|0:0,0:0:0:0:
116,176,98299,6,0,B|88:180|88:180|52:172,2,60.0000022888184,8|0|0,0:0|0:0|0:0,0:0:0:0:
256,132,98861,1,8,0:0:0:0:
256,132,99236,1,0,0:0:0:0:
364,296,99424,2,0,L|504:280,1,120.000004577637,8|0,0:0|0:0,0:0:0:0:
304,228,99986,2,0,L|160:220,1,120.000004577637,2|0,0:0|0:0,0:0:0:0:
344,100,100549,2,0,B|352:128|352:128|344:160,1,60.0000022888184,2|0,0:0|0:0,0:0:0:0:
272,28,100924,2,0,L|268:-12,3,26.6666666666667,0|0|0|0,0:0|0:0|0:0|0:0,0:0:0:0:
128,60,101299,6,0,L|56:52,1,60.0000022888185,8|0,0:0|0:0,0:0:0:0:
180,148,101674,1,0,0:0:0:0:
344,100,101861,2,0,L|420:92,1,60.0000022888184,8|0,0:0|0:0,0:0:0:0:
272,28,102236,1,0,0:0:0:0:
180,148,102424,2,0,B|143:163|143:163|63:155,1,120.000004577637,8|0,0:0|0:0,0:0:0:0:
28,240,102986,2,0,L|160:252,1,120.000004577637,2|0,0:0|0:0,0:0:0:0:
176,340,103549,2,0,L|44:328,1,120.000004577637,2|0,0:0|0:0,0:0:0:0:
403,93,104299,6,0,P|415:129|403:181,1,80,8|0,0:0|0:0,0:0:0:0:
296,340,104674,1,0,0:0:0:0:
296,340,104861,2,0,L|308:236,1,80,8|0,0:0|0:0,0:0:0:0:
296,136,105236,1,0,0:0:0:0:
64,148,105424,2,0,B|108:188|108:188|216:204,1,160,8|0,0:0|0:0,0:0:0:0:
296,340,105986,2,0,P|212:316|120:332,1,160,2|0,0:0|0:0,0:0:0:0:
385,244,106549,2,0,B|405:208|405:208|409:156,1,80,2|0,0:0|0:0,0:0:0:0:
296,340,106924,1,8,0:0:0:0:
148,112,107299,6,0,L|140:16,2,80,8|0|0,0:0|0:0|0:0,0:0:0:0:
52,288,107861,2,0,L|8:396,2,80,8|0|0,0:0|0:0|0:0,0:0:0:0:
212,224,108424,2,0,P|260:216|288:192,1,80,8|0,0:0|0:0,0:0:0:0:
96,204,108799,1,0,0:0:0:0:
232,316,108986,2,0,P|316:292|364:240,1,160,2|0,0:0|0:0,0:0:0:0:
276,44,109549,2,0,B|280:84|280:84|300:132,1,80,2|0,0:0|0:0,0:0:0:0:
416,316,109924,2,0,B|441:284|441:284|461:236,1,80,2|0,0:3|0:0,0:0:0:0:
212,224,110299,6,0,B|152:224|152:224|88:200,1,120.000004577637,8|0,0:0|0:0,0:0:0:0:
136,44,110861,2,0,P|176:88|156:164,1,120.000004577637,8|0,0:0|0:0,0:0:0:0:
103,322,111424,2,0,L|94:192,1,120.000004577637,8|0,0:0|0:0,0:0:0:0:
260,148,111986,2,0,B|344:152|344:152|372:188,1,120.000004577637,2|0,0:0|0:0,0:0:0:0:
368,348,112549,1,2,0:0:0:0:
320,64,112924,2,0,L|316:32,3,20.0000007629395,0|0|0|0,0:0|0:0|0:0|0:0,0:0:0:0:
480,128,113299,5,8,0:0:0:0:
364,180,113486,1,0,0:0:0:0:
364,180,113674,1,0,0:0:0:0:
432,12,113861,1,8,0:0:0:0:
364,180,114049,1,0,0:0:0:0:
232,68,114236,1,0,0:0:0:0:
316,280,114424,2,0,L|448:252,1,120.000004577637,8|0,0:0|0:0,0:0:0:0:
284,200,114986,2,0,L|160:180,1,120.000004577637,2|0,0:0|0:0,0:0:0:0:
300,120,115549,2,0,B|420:108|420:108|392:168,1,180.000006866455,2|0,0:0|0:0,0:0:0:0:
352,344,116299,6,0,B|337:305|337:305|344:260,1,80,8|0,0:0|0:0,0:0:0:0:
394,161,116674,1,0,0:0:0:0:
512,296,116861,2,0,B|472:304|472:304|428:296,1,80,8|0,0:0|0:0,0:0:0:0:
394,161,117236,1,0,0:0:0:0:
260,280,117424,2,0,P|192:304|92:276,1,160,8|0,0:0|0:0,0:0:0:0:
28,200,117986,2,0,B|20:160|20:160|24:120,1,80,2|0,0:0|0:0,0:0:0:0:
160,8,118361,1,0,0:0:0:0:
164,24,118455,1,0,0:0:0:0:
168,40,118549,2,0,L|160:136,1,80,2|0,0:0|0:0,0:0:0:0:
260,280,118924,2,0,L|268:184,1,80,0|0,0:0|0:0,0:0:0:0:
416,60,119299,6,0,P|388:88|340:96,1,80,8|0,0:0|0:0,0:0:0:0:
244,80,119674,1,0,0:0:0:0:
424,192,119861,1,8,0:0:0:0:
266,200,120049,1,0,0:0:0:0:
237,192,120142,1,0,0:0:0:0:
207,194,120236,1,0,0:0:0:0:
180,206,120330,1,0,0:0:0:0:
159,227,120424,2,0,P|148:248|148:284,1,40,8|0,0:0|0:0,0:0:0:0:
182,350,120611,2,0,P|202:360|238:360,1,40,0|0,0:0|0:0,0:0:0:0:
292,320,120799,5,8,0:0:0:0:
292,320,120986,1,2,0:0:0:0:
292,320,121174,2,0,P|259:287|206:282,1,80,8|0,0:0|0:0,0:0:0:0:
340,200,121549,2,0,P|376:176|424:188,1,80,10|0,0:0|0:0,0:0:0:0:
484,360,121924,2,0,P|445:340|431:293,1,80,8|0,0:0|0:0,0:0:0:0:
404,68,122299,6,0,P|449:74|494:66,1,92.0000017547608,4|0,0:0|0:0,0:0:0:0:
494,66,122674,1,8,0:0:0:0:
312,28,122861,2,0,B|304:72|304:72|324:132,2,92.0000017547608,0|0|0,0:0|0:0|0:0,0:0:0:0:
232,232,123424,2,0,P|148:220|116:128,1,184.000003509522,8|0,0:0|0:0,0:0:0:0:
184,20,123986,1,0,0:0:0:0:
184,20,124174,2,0,P|139:26|94:18,1,92.0000017547608,8|0,0:0|0:0,0:0:0:0:
208,140,124549,2,0,P|253:134|298:142,1,92.0000017547608,0|0,0:0|0:0,0:0:0:0:
428,264,124924,2,0,P|400:228|384:185,1,92.0000017547608,8|0,0:0|0:0,0:0:0:0:
332,48,125299,6,0,P|300:136|308:224,1,184.000003509522,0|8,0:0|0:0,0:0:0:0:
324,356,125861,2,0,P|296:320|252:296,1,92.0000017547608,0|0,0:0|0:0,0:0:0:0:
140,276,126236,1,0,0:0:0:0:
184,40,126424,2,0,B|220:84|220:84|212:212,1,184.000003509522,8|0,0:0|0:0,0:0:0:0:
196,368,126986,1,0,0:0:0:0:
120,184,127174,1,8,0:0:0:0:
120,184,127549,2,0,L|20:188,1,92.0000017547608,0|0,0:0|0:0,0:0:0:0:
156,88,127924,2,0,L|256:84,1,92.0000017547608,8|0,0:0|0:0,0:0:0:0:
396,160,128299,6,0,P|308:184|212:164,1,184.000003509522,0|8,0:0|0:0,0:0:0:0:
56,68,128861,1,0,0:0:0:0:
56,68,129049,2,0,P|48:116|56:164,1,92.0000017547608,0|0,0:0|0:0,0:0:0:0:
112,328,129424,2,0,P|164:256|256:260,1,184.000003509522,8|0,0:0|0:0,0:0:0:0:
408,296,129986,2,0,L|396:176,1,92.0000017547608,0|8,0:0|0:0,0:0:0:0:
244,8,130361,1,0,0:0:0:0:
228,24,130455,1,0,0:0:0:0:
212,40,130549,2,0,B|196:84|196:84|208:132,1,92.0000017547608,0|0,0:0|0:0,0:0:0:0:
220,168,130830,1,0,0:0:0:0:
220,168,130924,2,0,B|264:156|264:156|312:168,1,92.0000017547608,8|0,0:0|0:0,0:0:0:0:
444,368,131299,6,0,P|404:376|352:348,1,92.0000017547608,0|0,0:0|0:0,0:0:0:0:
268,256,131674,1,8,0:0:0:0:
417,88,131861,2,0,P|443:118|445:177,1,92.0000017547608,0|0,0:0|0:0,0:0:0:0:
408,296,132236,1,0,0:0:0:0:
136,244,132424,2,0,L|140:132,1,92.0000017547608,8|0,0:0|0:0,0:0:0:0:
128,352,132799,5,8,0:0:0:0:
280,208,132986,1,0,0:0:0:0:
24,132,133174,5,8,0:0:0:0:
208,284,133361,1,0,0:0:0:0:
400,84,133549,5,8,0:0:0:0:
312,312,133736,1,0,0:0:0:0:
152,68,133924,5,8,0:0:0:0:
360,196,134111,1,0,0:0:0:0:
128,352,134299,6,0,P|44:332|52:236,1,184.000003509522,4|8,0:0|0:0,0:0:0:0:
252,140,134861,1,0,0:0:0:0:
252,140,135049,2,0,P|216:176|160:184,1,92.0000017547608,0|0,0:0|0:0,0:0:0:0:
4,124,135424,2,0,B|40:80|40:80|168:88,1,184.000003509522,8|0,0:0|0:0,0:0:0:0:
340,100,135986,1,0,0:0:0:0:
255,230,136174,2,0,B|244:200|244:200|255:126,1,92.0000017547608,8|0,0:0|0:0,0:0:0:0:
476,164,136549,2,0,P|444:188|376:184,1,92.0000017547608,0|0,0:0|0:0,0:0:0:0:
187,75,136924,2,0,P|219:51|287:55,1,92.0000017547608,8|0,0:0|0:0,0:0:0:0:
307,303,137299,6,0,B|259:259|259:259|251:115,1,184.000003509522,0|8,0:0|0:0,0:0:0:0:
168,256,137861,1,0,0:0:0:0:
168,256,138049,2,0,L|164:152,1,92.0000017547608,0|0,0:0|0:0,0:0:0:0:
60,32,138424,2,0,P|44:120|68:224,1,184.000003509522,8|0,0:0|0:0,0:0:0:0:
144,364,138986,1,0,0:0:0:0:
257,264,139174,2,0,B|225:252|225:252|157:256,1,92.0000017547608,8|0,0:0|0:0,0:0:0:0:
368,284,139549,2,0,P|367:237|335:193,1,92.0000017547608,0|0,0:0|0:0,0:0:0:0:
131,144,139924,2,0,P|171:167|225:161,1,92.0000017547608,8|0,0:0|0:0,0:0:0:0:
374,13,140299,6,0,P|333:36|311:86,1,92.0000017547608,0|0,0:0|0:0,0:0:0:0:
257,264,140674,1,8,0:0:0:0:
436,192,140861,1,0,0:0:0:0:
436,192,141049,2,0,L|320:184,1,92.0000017547608,0|0,0:0|0:0,0:0:0:0:
116,136,141424,2,0,L|216:128,1,92.0000017547608,8|0,0:0|0:0,0:0:0:0:
17,145,141799,1,0,0:0:0:0:
198,40,141986,2,0,B|214:80|214:80|206:136,1,92.0000017547608,0|8,0:0|0:0,0:0:0:0:
76,320,142361,1,0,0:0:0:0:
96,296,142455,1,0,0:0:0:0:
116,272,142549,2,0,P|164:260|216:264,1,92.0000017547608,0|0,0:0|0:0,0:0:0:0:
248,280,142830,1,0,0:0:0:0:
248,280,142924,2,0,P|240:328|248:376,1,92.0000017547608,8|0,0:0|0:0,0:0:0:0:
456,204,143299,6,0,P|464:156|452:104,1,92.0000017547608,0|0,0:0|0:0,0:0:0:0:
396,296,143674,1,8,0:0:0:0:
352,84,143861,2,0,P|323:44|278:16,1,92.0000017547608,0|0,0:0|0:0,0:0:0:0:
374,191,144236,1,0,0:0:0:0:
188,72,144424,2,0,P|140:64|88:76,1,92.0000017547608,8|0,0:0|0:0,0:0:0:0:
279,132,144799,5,8,0:0:0:0:
192,336,144986,1,0,0:0:0:0:
188,72,145174,5,8,0:0:0:0:
192,336,145361,1,0,0:0:0:0:
97,71,145549,5,8,0:0:0:0:
192,336,145736,1,0,0:0:0:0:
352,84,145924,6,0,B|390:64|390:64|439:68,1,92.0000017547608,2|0,0:3|0:0,0:0:0:0:
372,240,146299,6,0,P|315:258|256:247,1,120.000004577637,2|0,0:0|0:0,0:0:0:0:
163,183,146861,2,0,B|191:143|191:143|187:63,1,120.000004577637,2|0,0:0|0:0,0:0:0:0:
64,144,147424,2,0,P|52:176|84:260,1,120.000004577637,2|0,0:0|0:0,0:0:0:0:
277,169,147986,2,0,B|235:166|235:166|199:186|199:186|151:182,1,120.000004577637,2|0,0:0|0:0,0:0:0:0:
340,96,148549,2,0,P|372:96|404:112,1,60.0000022888184,2|0,0:0|0:0,0:0:0:0:
248,76,148924,2,0,P|232:48|229:12,1,60.0000022888184,0|0,0:0|0:0,0:0:0:0:
277,169,149299,6,0,P|288:228|276:296,1,120.000004577637,2|0,0:0|0:0,0:0:0:0:
368,221,149861,2,0,P|392:167|396:103,1,120.000004577637,2|0,0:0|0:0,0:0:0:0:
468,204,150424,2,0,P|464:264|436:324,1,120.000004577637,2|0,0:0|0:0,0:0:0:0:
244,352,150986,2,0,P|287:314|355:306,1,120.000004577637,2|0,0:0|0:0,0:0:0:0:
440,318,151549,1,2,0:0:0:0:
132,364,151924,1,8,0:0:0:0:
112,220,152111,1,8,0:0:0:0:
