osu file format v14

[General]
AudioFilename: audio.mp3
AudioLeadIn: 0
PreviewTime: 73277
Countdown: 0
SampleSet: Soft
StackLeniency: 0.7
Mode: 0
LetterboxInBreaks: 0
EpilepsyWarning: 1
WidescreenStoryboard: 1

[Editor]
Bookmarks: 3910,25227,32340,46562,60805,67931,75080,89355,101845,103630,117905,132180
DistanceSpacing: 1.1
BeatDivisor: 2
GridSize: 16
TimelineZoom: 1

[Metadata]
Title:Black Is The New Yellow (Original Mix)
TitleUnicode:Black Is The New Yellow (Original Mix)
Artist:Super8 & Tab feat. Anton Sonin
ArtistUnicode:Super8 & Tab feat. Anton Sonin
Creator:Tankuwi
Version:Protostar (0.5M years old)
Source:
Tags:electronic progressive trance makrica Etna jamesjan3 anjunabeats empire
BeatmapID:1957079
BeatmapSetID:936861

[Difficulty]
HPDrainRate:2
CircleSize:2.5
OverallDifficulty:2
ApproachRate:3
SliderMultiplier:1.9
SliderTickRate:1

[Events]
//Background and Video events
0,0,"7.jpg",0,0
//Break Periods
//Storyboard Layer 0 (Background)
//Storyboard Layer 1 (Fail)
//Storyboard Layer 2 (Pass)
//Storyboard Layer 3 (Foreground)
//Storyboard Sound Samples

[TimingPoints]
3910,444.115470022206,4,1,0,100,1,0
32340,444.444444444444,4,2,0,25,1,0
32340,-250.000000000001,4,2,1,25,0,0
35895,-250.000000000001,4,2,1,30,0,0
39451,-250.000000000001,4,2,1,35,0,0
43006,-250.000000000001,4,2,1,40,0,0
46562,-222.222222222223,4,2,0,50,0,0
50117,-222.222222222223,4,2,0,55,0,0
53678,445.43429844098,4,1,0,100,1,0
53678,-222.222222222223,4,2,0,60,0,0
57239,-222.222222222223,4,2,0,65,0,0
60805,445.43429844098,4,1,1,100,1,0
60805,-222.222222222222,4,2,1,65,0,0
73277,-222.222222222222,4,2,0,20,0,0
75080,446.096654275093,4,1,0,100,1,0
75080,-200,4,3,1,65,0,1
101845,-200,4,2,1,65,0,0
103630,-200,4,3,1,65,0,1
132180,-200,4,1,1,100,0,0

[Colours]
Combo1 : 253,238,57
Combo2 : 92,58,101
Combo3 : 159,121,57
Combo4 : 160,194,135

[HitObjects]
18,100,32340,6,0,P|-3:155|14:259,2,152,2|0|2,0:0|0:0|0:0,0:0:0:0:
161,15,35006,1,0,0:0:0:0:
163,183,35895,2,0,P|200:229|299:265,2,152,2|0|2,0:0|0:0|0:0,0:0:0:0:
308,100,38562,2,0,L|261:170,1,76
220,233,39451,6,0,B|281:276|281:276|362:292,2,152,2|0|2,0:0|0:0|0:0,0:0:0:0:
120,98,42117,1,0,0:0:0:0:
276,38,43006,2,0,B|349:21|349:21|424:37,2,152,2|0|2,0:0|0:0|0:0,0:0:0:0:
354,185,45673,2,0,L|396:109,1,76
432,43,46562,6,0,P|465:73|474:138,1,85.4999973907472,0|8,0:0|0:0,0:0:0:0:
444,190,47451,2,0,P|435:231|448:271,1,85.4999973907472,0|8,0:0|0:0,0:0:0:0:
492,345,48339,2,0,B|452:357|452:357|396:344,2,85.4999973907472,0|8|0,0:0|0:0|0:0,0:0:0:0:
448,271,49673,1,8,0:0:0:0:
362,272,50117,6,0,P|326:241|318:182,1,85.4999973907472,0|8,0:0|0:0,0:0:0:0:
401,195,51006,2,0,B|442:182|442:182|471:151,2,85.4999973907472,0|8|0,0:0|0:0|0:0,0:0:0:0:
350,126,52339,1,8,0:0:0:0:
308,51,52784,2,0,P|265:53|231:78,1,85.4999973907472,0|8,0:0|0:0,0:0:0:0:
205,159,53678,6,0,B|156:142|145:86,1,85.4999973907472,0|8,0:0|0:0,0:0:0:0:
119,18,54568,2,0,B|70:35|59:91,1,85.4999973907472,0|8,0:0|0:0,0:0:0:0:
84,160,55459,2,0,B|46:138|46:138|0:140,2,85.4999973907472,0|8|0,0:0|0:0|0:0,0:0:0:0:
115,239,56796,1,8,0:0:0:0:
30,224,57241,6,0,B|22:275|66:311,1,85.4999973907472,0|8,0:0|0:0,0:0:0:0:
115,239,58132,2,0,B|111:195|111:195|84:158,2,85.4999973907472,0|8|0,0:0|0:0|0:0,0:0:0:0:
140,320,59468,1,8,0:0:0:0:
221,344,59914,2,0,P|273:343|321:323,1,85.4999973907472,0|8,0:0|0:0,0:0:0:0:
354,263,60805,6,0,B|403:225|403:225|428:152,1,128.249996086121,0|0,1:0|1:0,0:0:0:0:
415,34,62141,1,0,1:0:0:0:
331,49,62586,2,0,B|349:111|349:111|330:171,1,128.249996086121,0|0,1:0|1:0,0:0:0:0:
267,283,63923,1,0,1:0:0:0:
183,264,64368,6,0,B|134:226|134:226|109:153,1,128.249996086121,0|0,1:0|1:0,0:0:0:0:
122,38,65704,1,0,1:0:0:0:
206,50,66149,2,0,B|187:112|187:112|206:172,1,128.249996086121,0|0,1:0|1:0,0:0:0:0:
270,284,67486,1,0,1:0:0:0:
256,192,67931,12,0,73277,0:0:0:0:
436,344,75080,5,0,1:0:0:0:
372,286,75526,2,0,B|360:240|360:240|370:192,1,95,8|0,1:0|1:0,0:0:0:0:
446,156,76418,2,0,B|455:109|455:109|443:63,1,95,8|0,1:0|1:0,0:0:0:0:
371,17,77310,1,8,1:0:0:0:
362,102,77756,2,0,P|337:142|276:156,1,95,0|8,1:0|1:0,0:0:0:0:
211,133,78648,6,0,B|239:172|239:172|227:231,1,95,0|8,1:0|1:0,0:0:0:0:
164,273,79540,1,0,1:0:0:0:
242,307,79987,2,0,P|276:347|336:358,2,95,8|0|8,1:0|1:0|1:0,0:0:0:0:
232,222,81325,2,0,P|195:192|149:187,1,95,0|8,1:0|1:0,0:0:0:0:
84,244,82217,5,0,1:0:0:0:
65,160,82663,2,0,P|102:113|145:100,1,95,8|0,1:0|1:0,0:0:0:0:
213,131,83555,2,0,P|259:135|301:114,1,95,8|0,1:0|1:0,0:0:0:0:
352,45,84448,1,8,1:0:0:0:
389,121,84894,2,0,L|454:219,1,95,0|8,1:0|1:0,0:0:0:0:
489,271,85786,6,0,B|444:255|444:255|401:275,1,95,0|8,1:0|1:0,0:0:0:0:
354,347,86678,1,0,1:0:0:0:
314,271,87124,2,0,P|331:223|374:192,2,95,8|0|8,1:0|1:0|1:0,0:0:0:0:
401,275,88462,2,0,B|444:255|444:255|450:197,1,95,0|8,1:0|1:0,0:0:0:0:
416,128,89355,5,0,1:0:0:0:
471,63,89801,2,0,P|408:43|361:61,1,95,8|0,1:0|1:0,0:0:0:0:
327,116,90693,2,0,P|281:121|238:102,1,95,8|0,1:0|1:0,0:0:0:0:
191,30,91585,1,8,1:0:0:0:
150,105,92031,2,0,P|168:157|230:190,1,95,0|8,1:0|1:0,0:0:0:0:
283,184,92923,6,0,P|265:236|203:269,1,95,0|8,1:0|1:0,0:0:0:0:
149,252,93816,1,0,1:0:0:0:
198,180,94262,2,0,P|193:134|164:97,2,95,8|0|8,1:0|1:0|1:0,0:0:0:0:
113,170,95600,2,0,L|58:86,1,95,0|8,1:0|1:0,0:0:0:0:
34,9,96492,5,0,1:0:0:0:
117,25,96938,2,0,B|162:42|162:42|215:36,1,95,8|0,1:0|1:0,0:0:0:0:
294,34,97830,2,0,B|340:28|340:28|385:45,1,95,8|0,1:0|1:0,0:0:0:0:
462,84,98723,1,8,1:0:0:0:
392,134,99169,2,0,P|364:176|362:231,1,95,0|8,1:0|1:0,0:0:0:0:
404,291,100061,6,0,B|359:275|359:275|313:288,1,95,0|8,1:0|1:0,0:0:0:0:
273,363,100953,1,0,1:0:0:0:
193,330,101399,2,0,L|97:339,1,95,8|0,1:0|0:0,0:0:0:0:
14,322,102291,1,8,0:1:0:0:
75,163,103184,1,8,0:1:0:0:
14,102,103630,6,0,L|125:81,1,95,2|8,1:0|1:0,0:0:0:0:
158,15,104522,2,0,L|269:36,1,95,0|8,1:0|1:0,0:0:0:0:
336,23,105414,1,2,1:0:0:0:
304,102,105860,2,0,P|351:108|405:72,1,95,8|0,1:0|1:0,0:0:0:0:
423,7,106752,1,10,1:0:0:0:
478,72,107198,6,0,P|476:110|438:161,2,95,2|8|0,1:0|1:0|1:0,0:0:0:0:
392,87,108537,1,10,1:0:0:0:
360,166,108983,2,0,B|365:217|365:217|395:248,1,95,2|8,1:0|1:0,0:0:0:0:
462,301,109875,2,0,P|428:326|370:329,1,95,0|8,1:0|1:0,0:0:0:0:
306,280,110767,6,0,L|213:316,1,95,2|8,1:0|1:0,0:0:0:0:
155,256,111659,2,0,L|62:220,1,95,0|8,1:0|1:0,0:0:0:0:
8,158,112552,1,2,1:0:0:0:
57,87,112998,2,0,L|170:46,1,95,8|0,1:0|1:0,0:0:0:0:
215,3,113890,1,10,1:0:0:0:
261,74,114336,6,0,P|303:90|360:74,2,95,2|8|0,1:0|1:0|1:0,0:0:0:0:
310,4,115674,1,10,1:0:0:0:
395,4,116120,2,0,P|427:33|437:91,1,95,2|8,1:0|1:0,0:0:0:0:
396,156,117013,2,0,P|354:169|299:148,1,95,0|8,1:0|1:0,0:0:0:0:
229,118,117905,6,0,B|249:159|249:159|237:210,1,95,2|8,1:0|1:0,0:0:0:0:
168,257,118797,2,0,B|182:303|182:303|220:329,1,95,0|8,1:0|1:0,0:0:0:0:
301,300,119689,1,2,1:0:0:0:
361,361,120135,2,0,L|463:338,1,95,8|0,1:0|1:0,0:0:0:0:
485,260,121027,1,10,1:0:0:0:
431,193,121474,6,0,L|446:88,2,95,2|8|0,1:0|1:0|1:0,0:0:0:0:
401,273,122812,1,10,1:0:0:0:
345,207,123258,2,0,B|333:161|333:161|343:102,1,95,2|8,1:0|1:0,0:0:0:0:
348,29,124150,2,0,B|310:64|310:64|267:71,1,95,0|8,1:0|1:0,0:0:0:0:
185,46,125042,6,0,P|183:92|218:142,1,95,2|8,1:0|1:0,0:0:0:0:
289,156,125935,2,0,P|312:196|310:243,1,95,0|8,1:0|1:0,0:0:0:0:
275,321,126827,1,2,1:0:0:0:
193,331,127273,2,0,L|76:363,1,95,8|0,1:0|1:0,0:0:0:0:
17,372,128165,1,10,1:0:0:0:
47,291,128611,6,0,B|6:270|6:270|-8:217,2,95,2|8|0,1:0|1:0|1:0,0:0:0:0:
79,211,129949,1,10,1:0:0:0:
65,126,130395,2,0,P|72:83|114:41,1,95,2|8,1:0|1:0,0:0:0:0:
191,43,131288,2,0,P|222:72|234:131,1,95,0|8,1:0|1:0,0:0:0:0:
150,118,132180,5,4,1:0:0:0:
