osu file format v14

[General]
AudioFilename: audio.mp3
AudioLeadIn: 0
PreviewTime: 73277
Countdown: 0
SampleSet: Soft
StackLeniency: 0.3
Mode: 0
LetterboxInBreaks: 0
EpilepsyWarning: 1
WidescreenStoryboard: 1

[Editor]
Bookmarks: 11015,18121,25227,50122,71495,75080,89355,101845,103630,117905,132180
DistanceSpacing: 1.8
BeatDivisor: 4
GridSize: 32
TimelineZoom: 3.299999

[Metadata]
Title:Black Is The New Yellow (Original Mix)
TitleUnicode:Black Is The New Yellow (Original Mix)
Artist:Super8 & Tab feat. Anton Sonin
ArtistUnicode:Super8 & Tab feat. Anton Sonin
Creator:Tankuwi
Version:Etna's Orange Supergiant (500M years old)
Source:
Tags:electronic progressive trance makrica Etna jamesjan3 anjunabeats empire
BeatmapID:2056160
BeatmapSetID:936861

[Difficulty]
HPDrainRate:5
CircleSize:3.5
OverallDifficulty:7.5
ApproachRate:8.5
SliderMultiplier:2
SliderTickRate:1

[Events]
//Background and Video events
0,0,"550529-1920x1080.jpg",0,0
//Break Periods
2,32540,44762
//Storyboard Layer 0 (Background)
//Storyboard Layer 1 (Fail)
//Storyboard Layer 2 (Pass)
//Storyboard Layer 3 (Foreground)
//Storyboard Sound Samples

[TimingPoints]
3910,444.115470022206,4,1,0,100,1,0
3910,-200,4,2,0,20,0,0
4798,-200,4,2,0,5,0,0
4909,-200,4,2,0,20,0,0
5020,-200,4,2,0,5,0,0
5131,-200,4,2,0,20,0,0
8351,-200,4,2,0,5,0,0
8462,-200,4,2,0,20,0,0
8573,-200,4,2,0,5,0,0
8684,-200,4,2,0,20,0,0
11904,-200,4,2,0,5,0,0
12015,-200,4,2,0,20,0,0
12126,-200,4,2,0,5,0,0
12237,-200,4,2,0,20,0,0
15457,-200,4,2,0,5,0,0
15568,-200,4,2,0,20,0,0
15679,-200,4,2,0,5,0,0
15790,-200,4,2,0,20,0,0
19009,-200,4,2,0,5,0,0
19120,-200,4,2,0,20,0,0
19231,-200,4,2,0,5,0,0
19343,-200,4,2,0,20,0,0
22562,-200,4,2,0,5,0,0
22673,-200,4,2,0,20,0,0
22784,-200,4,2,0,5,0,0
22895,-200,4,2,0,20,0,0
32111,-200,4,2,0,25,0,0
32340,444.444444444444,4,2,0,25,1,0
53678,445.43429844098,4,1,0,100,1,0
53678,-100,4,2,0,60,0,0
57239,-100,4,2,0,60,0,0
60805,445.43429844098,4,1,0,100,1,0
60805,-80,4,1,1,100,0,0
74613,-100,4,2,0,50,0,0
75080,446.096654275093,4,1,0,100,1,1
75080,-66.6666666666667,4,3,1,65,0,1
101845,-100,4,2,1,65,0,0
103630,-66.6666666666667,4,3,1,65,0,1
132180,-100,4,3,1,100,0,0

[Colours]
Combo1 : 255,0,128
Combo2 : 128,0,255
Combo3 : 255,0,255
Combo4 : 64,0,128

[HitObjects]
432,160,3910,6,0,B|416:220|416:220|430:292|430:292|411:364,1,200,2|0,0:0|0:0,0:0:0:0:
505,225,4909,2,0,L|511:201,1,25,0|0,0:0|0:0,0:0:0:0:
340,289,5131,2,0,L|334:313,1,25,0|0,0:0|0:0,0:0:0:0:
284,129,5353,1,0,0:0:0:0:
287,112,5464,1,0,0:0:0:0:
290,95,5575,1,0,0:0:0:0:
293,78,5686,6,0,B|307:57|329:45|329:45|349:131|283:179,1,200,2|0,0:0|0:0,0:0:0:0:
170,82,7129,1,0,0:0:0:0:
170,82,7240,2,0,L|194:88,1,25,0|0,0:0|0:0,0:0:0:0:
173,189,7462,6,0,B|117:190|87:148|87:148|52:103|0:106,1,200,2|0,0:0|0:0,0:0:0:0:
175,58,8462,2,0,L|169:83,1,25,0|0,0:0|0:0,0:0:0:0:
3,213,8684,2,0,L|9:238,1,25,0|0,0:0|0:0,0:0:0:0:
230,312,8906,1,0,0:0:0:0:
243,299,9017,1,0,0:0:0:0:
249,283,9128,1,0,0:0:0:0:
249,264,9239,6,0,P|157:241|96:313,1,200,2|0,0:0|0:0,0:0:0:0:
454,315,11015,6,0,B|412:283|413:230|413:230|360:252|317:224,1,200,2|0,0:0|0:0,0:0:0:0:
371,140,12015,2,0,L|394:129,1,25,0|0,0:0|0:0,0:0:0:0:
511,207,12237,2,0,L|511:232,1,25,0|0,0:0|0:0,0:0:0:0:
335,334,12459,1,0,0:0:0:0:
318,334,12570,1,0,0:0:0:0:
301,334,12681,1,0,0:0:0:0:
284,334,12792,6,0,B|250:334|228:316|228:316|194:338|194:338|160:317|160:317|141:337|105:337,1,200,2|0,0:0|0:0,0:0:0:0:
106,219,14235,1,0,0:0:0:0:
106,219,14346,2,0,L|101:243,1,25,0|0,0:0|0:0,0:0:0:0:
50,113,14568,6,0,B|198:149|198:149|222:199,1,200,2|0,0:0|0:0,0:0:0:0:
100,244,15568,2,0,L|106:219,1,25,0|0,0:0|0:0,0:0:0:0:
158,47,15790,2,0,L|164:22,1,25,0|0,0:0|0:0,0:0:0:0:
357,151,16012,1,0,0:0:0:0:
340,153,16123,1,0,0:0:0:0:
323,153,16234,1,0,0:0:0:0:
307,148,16345,6,0,B|337:15|337:15|337:51|348:77,1,200,2|0,0:0|0:0,0:0:0:0:
461,346,18121,6,0,B|405:347|375:305|375:305|340:260|288:263,1,200,2|0,0:0|0:0,0:0:0:0:
459,239,19120,2,0,L|484:242,1,25,0|0,0:0|0:0,0:0:0:0:
290,369,19342,2,0,L|266:365,1,25,0|0,0:0|0:0,0:0:0:0:
123,231,19565,1,0,0:0:0:0:
142,221,19676,1,0,0:0:0:0:
158,221,19787,1,0,0:0:0:0:
176,227,19898,6,0,P|168:321|80:355,1,200,2|0,0:0|0:0,0:0:0:0:
75,229,21341,1,0,0:0:0:0:
75,229,21452,2,0,L|81:254,1,25,0|0,0:0|0:0,0:0:0:0:
7,136,21674,6,0,B|70:119|70:119|142:133|142:133|202:117,1,200,2|0,0:0|0:0,0:0:0:0:
137,25,22673,2,0,L|129:0,1,25
75,229,22895,2,0,L|81:254,1,25
307,221,23117,1,0,0:0:0:0:
290,219,23228,1,0,0:0:0:0:
273,220,23339,1,0,0:0:0:0:
257,225,23450,6,0,B|236:239|224:261|224:261|310:281|358:215,1,200,2|0,0:0|0:0,0:0:0:0:
358,215,25227,5,2,0:0:0:0:
256,192,25283,12,4,32340,0:0:0:0:
256,192,46562,12,0,53233,0:0:0:0:
142,119,53678,6,0,P|158:165|194:200,1,100,2|2,0:0|0:0,0:0:0:0:
295,20,54346,6,0,P|262:57|250:105,1,100,2|2,0:0|0:0,0:0:0:0:
456,104,55014,6,0,P|407:94|359:108,1,100,10|2,0:0|0:0,0:0:0:0:
409,202,55459,2,0,P|445:237|462:284,1,100,0|2,0:0|0:0,0:0:0:0:
462,284,55793,1,0,0:0:0:0:
462,284,55905,1,8,0:0:0:0:
253,305,56127,1,2,0:0:0:0:
253,305,56350,6,0,L|352:299,1,100,2|0,0:0|0:0,0:0:0:0:
174,225,56796,1,8,0:0:0:0:
145,334,57018,1,0,0:0:0:0:
282,196,57241,5,2,0:0:0:0:
95,146,57464,1,2,0:0:0:0:
95,146,57575,1,0,0:0:0:0:
95,146,57686,2,0,P|71:189|63:238,1,100,8|2,0:0|0:0,0:0:0:0:
203,118,58132,2,0,P|176:75|138:44,1,100,2|0,0:0|0:0,0:0:0:0:
174,225,58577,5,10,0:0:0:0:
203,118,58800,1,0,0:0:0:0:
95,146,59023,1,0,0:0:0:0:
174,225,59245,2,0,B|241:225|241:225|304:200|304:200|368:200,1,200,2|2,0:0|0:0,0:0:0:0:
203,118,59914,5,2,0:0:0:0:
339,315,60136,1,2,0:0:0:0:
491,58,60359,1,10,0:0:0:0:
492,58,60805,6,0,P|495:89|507:119,1,62.5,2|0,1:2|1:2,2:0:0:0:
308,116,61027,2,0,P|319:87|322:56,1,62.5,2|0,1:2|1:2,2:0:0:0:
405,240,61250,5,8,1:2:0:0:
405,240,61361,1,0,1:2:0:0:
405,240,61473,2,0,L|405:177,1,62.5,2|0,1:2|1:2,2:0:0:0:
330,347,61695,5,2,1:2:0:0:
364,365,61806,1,0,1:2:0:0:
403,371,61917,1,0,1:2:0:0:
441,366,62029,1,0,1:2:0:0:
477,350,62141,2,0,L|504:293,1,62.5,10|0,1:2|1:2,2:0:0:0:
303,291,62364,2,0,L|330:347,1,62.5,2|0,1:2|1:2,2:0:0:0:
37,265,62586,6,0,L|4:317,1,62.5,2|0,1:2|1:2,2:0:0:0:
146,217,62809,2,0,P|177:216|207:222,1,62.5,2|0,1:2|1:2,2:0:0:0:
164,384,63032,5,8,1:2:0:0:
164,384,63143,1,0,1:2:0:0:
164,384,63254,2,0,L|169:321,1,62.5,2|0,1:2|1:2,2:0:0:0:
185,118,63477,6,0,L|190:55,3,62.5,2|0|0|0,1:2|1:2|1:2|1:2,2:0:0:0:
308,94,63923,2,0,B|302:132|302:132|287:151,1,62.5,10|0,1:2|1:2,2:0:0:0:
67,74,64145,2,0,B|63:97|63:97|79:133,1,62.5,2|0,1:2|1:2,2:0:0:0:
291,263,64368,6,0,L|354:268,1,62.5,2|0,1:2|1:2,2:0:0:0:
433,50,64591,2,0,L|383:13,3,62.5,2|0|8|0,1:2|1:2|1:2|0:0,2:0:0:0:
488,160,65036,2,0,B|488:192|488:192|468:215,1,62.5,2|0,1:2|1:2,2:0:0:0:
283,117,65259,2,0,L|342:139,3,62.5,2|0|0|0,1:2|1:2|1:2|1:2,2:0:0:0:
191,50,65704,6,0,P|177:77|170:108,1,62.5,10|0,1:2|1:2,2:0:0:0:
245,370,65927,2,0,P|259:342|266:311,1,62.5,2|0,1:2|1:2,2:0:0:0:
64,154,66150,2,0,P|80:179|103:201,1,62.5,2|0,1:2|1:2,2:0:0:0:
372,266,66372,2,0,P|355:240|332:218,3,62.5,2|0|8|0,1:2|1:2|1:2|1:2,2:0:0:0:
90,315,66818,2,0,P|120:313|150:304,1,62.5,2|0,1:2|1:2,2:0:0:0:
345,108,67041,6,0,P|314:109|284:118,3,62.5,2|0|0|0,1:2|1:2|1:2|1:2,2:0:0:0:
64,154,67486,2,0,P|95:155|125:164,1,62.5,10|0,1:2|1:2,2:0:0:0:
318,275,67709,2,0,B|335:243|335:243|332:217,1,62.5,2|0,1:2|1:2,2:0:0:0:
199,12,67931,5,2,1:2:0:0:
199,12,68043,1,0,1:2:0:0:
199,12,68154,2,0,B|182:44|182:44|184:70,1,62.5,2|0,1:2|1:2,2:0:0:0:
425,166,68377,5,8,1:2:0:0:
425,166,68489,1,0,0:0:0:0:
425,166,68600,2,0,B|441:133|441:133|439:107,1,62.5,2|0,1:2|0:0,2:0:0:0:
218,221,68822,1,2,1:2:0:0:
192,222,68934,1,0,1:2:0:0:
167,223,69045,1,0,1:2:0:0:
142,224,69156,1,0,1:2:0:0:
116,225,69268,6,0,L|127:148,1,62.5,10|0,1:2|1:2,2:0:0:0:
329,45,69490,2,0,L|318:122,1,62.5,2|0,1:2|1:2,2:0:0:0:
471,270,69713,5,2,1:2:0:0:
471,270,69825,1,0,1:2:0:0:
471,270,69936,2,0,P|440:277|409:276,1,62.5,2|0,1:2|1:2,2:0:0:0:
259,113,70159,5,8,1:2:0:0:
259,113,70271,1,0,0:0:0:0:
259,113,70382,2,0,P|289:105|320:106,1,62.5,2|0,1:2|0:0,2:0:0:0:
304,378,70604,1,2,1:2:0:0:
303,352,70716,1,0,1:2:0:0:
302,327,70827,1,0,1:2:0:0:
301,302,70938,1,0,1:2:0:0:
300,277,71049,6,0,L|297:194,1,62.5,10|0,1:2|1:2,2:0:0:0:
154,11,71272,2,0,L|151:73,1,62.5,2|0,1:2|1:2,2:0:0:0:
26,274,71495,5,2,1:2:0:0:
37,237,71606,1,0,1:2:0:0:
68,213,71718,1,2,1:2:0:0:
103,200,71829,1,0,1:2:0:0:
141,207,71940,1,8,1:2:0:0:
174,226,72052,1,0,1:2:0:0:
194,258,72163,1,2,1:2:0:0:
202,294,72274,1,0,1:2:0:0:
196,330,72386,6,2,L|143:314,16,31.25,2|2|2|2|2|2|2|2|10|2|2|2|2|2|2|2|2,1:2|0:2|1:2|0:2|1:2|0:2|1:2|0:2|1:2|0:2|1:2|0:2|1:2|0:2|1:2|0:2|0:2,0:2:0:0:
256,192,73332,12,0,74613,0:0:0:0:
511,96,75080,6,0,P|434:124|360:85,1,150.000005722046,2|2,1:0|0:1,0:0:0:0:
338,9,75414,1,0,0:0:0:0:
338,9,75526,2,0,L|319:177,1,150.000005722046,8|2,1:0|0:1,0:0:0:0:
447,294,75972,6,0,B|479:250|479:250|463:156,1,150.000005722046,2|0,1:0|0:0,0:0:0:0:
300,273,76418,2,0,B|338:290|345:328|345:328|354:370|390:384,1,150.000005722046,10|2,1:0|0:1,0:0:0:0:
447,294,76864,1,0,1:0:0:0:
245,367,77087,1,2,0:1:0:0:
245,367,77198,1,0,0:0:0:0:
245,367,77310,6,0,L|264:199,1,150.000005722046,8|2,1:0|0:1,0:0:0:0:
281,54,77756,2,8,B|236:63|236:63|185:103|185:103|146:113,1,150.000005722046,2|0,1:0|0:0,0:0:0:0:
0,187,78202,2,8,B|30:220|30:220|90:244|90:244|118:273,1,150.000005722046,8|0,1:0|0:0,0:0:0:0:
351,226,78648,6,0,B|373:196|373:196|262:219,1,150.000005722046,2|2,1:0|0:1,0:0:0:0:
311,326,78983,1,0,0:0:0:0:
311,326,79094,2,0,P|389:325|452:268,1,150.000005722046,8|2,1:0|0:1,0:0:0:0:
412,106,79540,2,0,B|451:119|461:156|461:156|474:197|511:208,1,150.000005722046,2|0,1:0|0:0,0:0:0:0:
303,102,79987,1,10,1:0:0:0:
472,16,80210,1,2,0:1:0:0:
255,0,80433,6,0,B|209:30|209:30|192:124,1,150.000005722046,0|2,1:0|0:1,0:0:0:0:
192,123,80767,1,0,0:0:0:0:
192,123,80879,1,8,1:0:0:0:
100,36,81102,1,2,0:1:0:0:
281,234,81325,2,0,B|285:208|301:194|301:194|289:166|289:166|309:144|309:144|299:128|302:101,1,150.000005722046,2|2,1:0|0:1,0:0:0:0:
100,36,81771,2,0,B|95:61|79:75|79:75|91:103|91:103|71:125|71:125|81:141|79:169,1,150.000005722046,10|0,1:0|0:0,0:0:0:0:
198,282,82217,6,0,P|260:326|335:317,1,150.000005722046,2|2,1:0|0:1,0:0:0:0:
451,254,82552,1,0,0:0:0:0:
451,254,82663,2,0,P|375:266|329:326,1,150.000005722046,8|2,1:0|0:1,0:0:0:0:
503,320,83109,2,0,L|475:171,1,150.000005722046,2|0,1:0|0:0,0:0:0:0:
314,45,83555,1,10,1:0:0:0:
475,172,83778,1,2,0:1:0:0:
449,72,84001,6,8,B|407:92|407:92|369:135|369:135|326:152,1,150.000005722046,0|2,1:0|0:1,0:0:0:0:
217,147,84336,1,0,0:0:0:0:
217,147,84448,2,0,P|249:80|314:45,1,150.000005722046,8|2,1:0|0:1,0:0:0:0:
475,172,84894,2,0,B|453:215|453:215|358:253,1,150.000005722046,2|0,1:0|0:0,0:0:0:0:
205,317,85340,2,0,B|165:312|143:281|143:281|120:246|81:242,1,150.000005722046,8|0,1:0|0:0,0:0:0:0:
228,213,85786,5,2,1:0:0:0:
59,348,86009,1,2,0:1:0:0:
59,348,86120,1,0,0:0:0:0:
59,348,86232,2,0,L|38:176,1,150.000005722046,8|2,1:0|0:1,0:0:0:0:
214,105,86678,2,0,P|285:120|332:189,1,150.000005722046,2|0,1:0|0:0,0:0:0:0:
104,90,87124,2,0,P|117:55|140:26,1,75.0000028610231,10|0,1:0|0:0,0:0:0:0:
288,27,87347,1,2,0:1:0:0:
228,213,87570,6,8,B|181:215|181:215|129:189|129:189|82:192,1,150.000005722046,0|2,1:0|0:1,0:0:0:0:
84,191,87905,1,0,0:0:0:0:
84,191,88016,1,8,1:0:0:0:
214,105,88239,1,2,0:1:0:0:
238,322,88462,2,8,B|191:322|191:322|140:294|140:294|95:294,2,150.000005722046,2|2|10,1:0|0:1|1:0,0:0:0:0:
328,259,89132,1,0,0:0:0:0:
471,286,89355,6,0,B|432:290|409:325|409:325|387:356|346:361,1,150.000005722046,2|2,1:0|0:1,0:0:0:0:
512,356,89690,1,0,0:0:0:0:
512,356,89801,2,0,B|517:309|517:309|480:213,1,150.000005722046,8|2,1:0|0:1,0:0:0:0:
295,132,90247,2,0,B|373:132|373:132|428:87,1,150.000005722046,2|0,1:0|0:0,0:0:0:0:
220,7,90693,2,8,B|219:52|219:52|189:102|189:102|187:149,1,150.000005722046,10|2,1:0|0:1,0:0:0:0:
327,31,91139,5,0,1:0:0:0:
112,24,91362,2,0,P|92:55|81:91,1,75.0000028610231,2|0,0:1|0:0,0:0:0:0:
177,251,91585,2,0,B|135:250|110:221|110:221|84:189|44:189,1,150.000005722046,8|2,1:0|0:1,0:0:0:0:
157,355,92031,2,0,P|231:342|278:283,1,150.000005722046,2|0,1:0|0:0,0:0:0:0:
480,282,92477,2,0,P|404:269|358:207,1,150.000005722046,8|0,1:0|0:0,0:0:0:0:
476,95,92923,6,0,B|515:83|515:83|459:177,1,150.000005722046,2|2,1:0|0:1,0:0:0:0:
459,176,93258,1,0,0:0:0:0:
459,176,93369,1,8,1:0:0:0:
281,9,93593,1,2,0:1:0:0:
427,1,93816,2,0,B|390:14|377:54|377:54|363:90|325:105,1,150.000005722046,2|0,1:0|0:0,0:0:0:0:
162,54,94262,2,0,P|214:105|225:178,1,150.000005722046,10|2,1:0|0:1,0:0:0:0:
143,299,94708,6,0,B|94:212|94:212|103:163,1,150.000005722046,0|2,1:0|0:1,0:0:0:0:
103,163,95042,1,0,0:0:0:0:
103,163,95154,1,8,1:0:0:0:
6,268,95377,1,2,0:1:0:0:
227,366,95600,2,0,B|260:373|283:364|283:364|312:376|312:376|339:365|373:372,1,150.000005722046,2|2,1:0|0:1,0:0:0:0:
371,172,96046,2,0,B|337:179|310:168|310:168|281:180|281:180|258:171|225:178,1,150.000005722046,10|0,1:0|0:0,0:0:0:0:
384,278,96492,6,0,P|449:244|477:176,1,150.000005722046,2|2,1:0|0:1,0:0:0:0:
393,68,96827,1,0,0:0:0:0:
393,68,96938,2,0,P|455:107|477:177,1,150.000005722046,8|2,1:0|0:1,0:0:0:0:
244,73,97384,2,0,L|393:68,1,150.000005722046,2|0,1:0|0:0,0:0:0:0:
226,178,97830,1,10,1:0:0:0:
162,4,98053,1,2,0:1:0:0:
15,43,98277,6,0,B|56:44|80:73|80:73|106:106|146:106,1,150.000005722046,0|2,1:0|0:1,0:0:0:0:
145,105,98611,1,0,0:0:0:0:
145,105,98723,1,8,1:0:0:0:
6,149,98946,1,2,0:1:0:0:
157,262,99169,2,0,B|107:239|49:239|49:239|70:272,1,150.000005722046,2|0,1:0|0:0,0:0:0:0:
239,368,99615,2,0,B|274:273|274:273|262:208,1,150.000005722046,8|0,1:0|0:0,0:0:0:0:
363,341,100061,5,2,1:0:0:0:
125,382,100284,1,2,0:1:0:0:
125,382,100395,1,0,0:0:0:0:
125,382,100507,1,8,1:0:0:0:
378,338,100730,5,2,0:1:0:0:
157,262,100953,1,2,1:0:0:0:
157,262,101065,1,0,0:0:0:0:
157,262,101176,1,0,0:0:0:0:
393,335,101399,5,10,1:0:0:0:
256,192,101622,1,2,0:1:0:0:
256,192,101678,12,0,103407,0:0:0:0:
352,170,103630,6,0,P|359:133|376:100,1,75.0000028610231,2|0,1:0|0:0,0:0:0:0:
489,40,103853,2,0,P|499:75|500:113,1,75.0000028610231,2|0,0:1|0:0,0:0:0:0:
464,236,104076,1,8,1:0:0:0:
225,232,104299,1,2,0:1:0:0:
225,232,104410,1,0,0:0:0:0:
225,232,104522,6,8,B|265:236|265:236|321:269|321:269|364:272,1,150.000005722046,2|0,1:0|0:0,0:0:0:0:
352,170,104968,1,10,1:0:0:0:
238,333,105191,1,2,0:1:0:0:
189,122,105414,6,0,P|161:135|128:166,1,75.0000028610231,2|0,1:0|0:0,0:0:0:0:
10,119,105637,2,0,P|7:149|17:192,1,75.0000028610231,2|0,0:1|0:0,0:0:0:0:
110,275,105860,1,8,1:0:0:0:
103,28,106083,1,2,0:1:0:0:
103,28,106195,1,0,0:0:0:0:
103,28,106306,5,2,1:0:0:0:
17,192,106529,1,0,0:0:0:0:
225,232,106752,2,0,B|282:252|282:252|382:247,1,150.000005722046,10|0,1:0|0:0,0:0:0:0:
512,88,107198,6,0,B|479:111|479:111|460:143,1,75.0000028610231,2|0,1:0|0:0,0:0:0:0:
371,247,107421,2,0,B|366:208|366:208|348:175,1,75.0000028610231,2|0,0:1|0:0,0:0:0:0:
195,122,107644,2,0,B|237:124|267:96|267:96|298:64|337:64,1,150.000005722046,8|2,1:0|0:1,0:0:0:0:
198,17,107979,1,0,0:0:0:0:
198,17,108090,6,0,P|129:39|87:117,1,150.000005722046,2|2,1:0|0:1,0:0:0:0:
215,259,108537,2,0,P|230:187|195:123,1,150.000005722046,10|2,1:0|0:1,0:0:0:0:
51,201,108983,2,0,B|87:209|87:209|125:204,1,75.0000028610231,0|0,1:0|0:0,0:0:0:0:
215,259,109206,2,0,B|193:290|193:290|163:312,1,75.0000028610231,2|0,0:1|0:0,0:0:0:0:
38,326,109429,5,8,1:0:0:0:
226,155,109652,1,2,0:1:0:0:
226,155,109763,1,0,0:0:0:0:
226,155,109875,5,2,1:0:0:0:
51,201,110098,1,2,0:1:0:0:
319,309,110321,2,0,B|478:305,1,150.000005722046,10|0,1:0|0:0,0:0:0:0:
322,115,110767,6,0,P|322:151|333:187,1,75.0000028610231,2|0,1:0|0:0,0:0:0:0:
458,185,110990,2,0,P|467:148|466:111,1,75.0000028610231,2|0,0:1|0:0,0:0:0:0:
397,3,111213,1,8,1:0:0:0:
210,129,111436,1,2,0:1:0:0:
210,129,111548,1,0,0:0:0:0:
210,129,111659,6,0,P|225:56|281:9,1,150.000005722046,2|0,1:0|0:0,0:0:0:0:
322,115,112105,1,10,1:0:0:0:
138,11,112328,1,2,0:1:0:0:
37,119,112551,6,0,P|60:138|101:155,1,75.0000028610231,2|0,1:0|0:0,0:0:0:0:
105,281,112774,2,0,P|140:266|169:243,1,75.0000028610231,2|0,0:1|0:0,0:0:0:0:
210,129,112997,1,8,1:0:0:0:
0,237,113221,1,2,0:1:0:0:
0,237,113332,1,0,0:0:0:0:
0,237,113444,5,2,1:0:0:0:
238,325,113667,1,0,0:0:0:0:
2,384,113890,2,0,B|8:344|8:344|-8:281|-8:281|0:237,1,150.000005722046,10|0,1:0|0:0,0:0:0:0:
170,243,114336,6,0,B|140:266|140:266|106:280,1,75.0000028610231,2|0,1:0|0:0,0:0:0:0:
30,130,114559,2,0,B|62:145|62:145|90:171,1,75.0000028610231,2|0,0:1|0:0,0:0:0:0:
237,324,114782,2,0,B|305:353|305:353|378:330,1,150.000005722046,8|2,1:0|0:1,0:0:0:0:
491,346,115117,1,0,0:0:0:0:
491,346,115228,6,0,P|478:273|423:225,1,150.000005722046,2|2,1:0|0:1,0:0:0:0:
321,165,115674,2,0,B|311:201|311:201|311:239,1,75.0000028610231,10|0,1:0|0:0,0:0:0:0:
512,153,115897,2,0,B|484:127|484:127|452:110,1,75.0000028610231,2|0,0:1|0:0,0:0:0:0:
310,68,116120,6,0,B|274:80|274:80|243:106,1,75.0000028610231,0|0,1:0|0:0,0:0:0:0:
137,209,116343,2,0,B|146:172|146:172|137:135,1,75.0000028610231,2|0,0:1|0:0,0:0:0:0:
18,43,116566,2,8,B|58:45|58:45|119:22|119:22|164:26,1,150.000005722046,8|2,1:0|0:1,0:0:0:0:
246,104,116901,1,0,0:0:0:0:
246,104,117012,5,2,1:0:0:0:
35,171,117236,1,2,0:1:0:0:
242,253,117458,2,0,B|246:104,1,150.000005722046,10|0,1:0|0:0,0:0:0:0:
141,269,117905,6,0,P|155:303|178:333,1,75.0000028610231,2|0,1:0|0:0,0:0:0:0:
305,333,118128,2,0,P|328:303|343:269,1,75.0000028610231,2|0,0:1|0:0,0:0:0:0:
244,187,118351,1,8,1:0:0:0:
482,225,118574,1,2,0:1:0:0:
482,225,118685,1,0,0:0:0:0:
482,225,118797,6,0,B|440:227|414:197|414:197|390:168|349:167,1,150.000005722046,2|0,1:0|0:0,0:0:0:0:
483,122,119243,1,10,1:0:0:0:
343,269,119466,1,2,0:1:0:0:
292,90,119689,6,0,P|269:119|254:154,1,75.0000028610231,2|0,1:0|0:0,0:0:0:0:
177,256,119912,2,0,P|162:221|140:191,1,75.0000028610231,2|0,0:1|0:0,0:0:0:0:
19,66,120135,2,0,P|88:90|149:51,1,150.000005722046,8|2,1:0|0:1,0:0:0:0:
149,51,120470,1,0,0:0:0:0:
149,51,120581,5,2,1:0:0:0:
4,203,120804,1,0,0:0:0:0:
208,255,121027,2,0,L|362:239,1,150.000005722046,10|0,1:0|0:0,0:0:0:0:
512,137,121473,6,0,B|471:133|471:133|436:145,1,75.0000028610231,2|0,1:0|0:0,0:0:0:0:
444,319,121696,2,0,B|467:286|467:286|474:249,1,75.0000028610231,2|0,0:1|0:0,0:0:0:0:
388,49,121919,2,0,B|333:84|331:144|331:144|321:128|306:121,1,150.000005722046,8|2,1:0|0:1,0:0:0:0:
161,128,122254,1,0,0:0:0:0:
161,128,122366,6,0,B|201:115|215:78|215:78|227:42|266:28,1,150.000005722046,2|2,1:0|0:1,0:0:0:0:
123,28,122812,2,0,P|68:78|57:151,1,150.000005722046,10|2,1:0|0:1,0:0:0:0:
214,223,123258,6,0,B|182:232|182:232|140:230,1,75.0000028610231,0|0,1:0|0:0,0:0:0:0:
29,258,123481,2,0,B|48:295|48:295|72:318,1,75.0000028610231,2|0,0:1|0:0,0:0:0:0:
232,361,123704,1,8,1:0:0:0:
57,150,123927,1,2,0:1:0:0:
57,150,124038,1,0,0:0:0:0:
57,150,124150,5,2,1:0:0:0:
72,318,124373,1,2,0:1:0:0:
333,240,124596,2,8,B|508:222,1,150.000005722046,10|0,1:0|0:0,0:0:0:0:
342,68,125042,6,0,P|319:97|305:132,1,75.0000028610231,2|0,1:0|0:0,0:0:0:0:
178,134,125265,2,0,P|192:168|215:197,1,75.0000028610231,2|0,0:1|0:0,0:0:0:0:
333,240,125488,1,8,1:0:0:0:
190,34,125711,1,2,0:1:0:0:
190,34,125823,1,0,0:0:0:0:
190,34,125934,6,0,P|118:51|79:113,1,150.000005722046,2|0,1:0|0:0,0:0:0:0:
186,271,126380,2,0,B|208:179|208:179|178:134,1,150.000005722046,10|2,1:0|0:1,0:0:0:0:
24,258,126827,6,0,P|60:249|92:230,1,75.0000028610231,2|0,1:0|0:0,0:0:0:0:
156,339,127050,2,0,P|175:307|186:271,1,75.0000028610231,2|0,0:1|0:0,0:0:0:0:
32,368,127273,1,8,1:0:0:0:
292,346,127496,1,2,0:1:0:0:
292,346,127607,1,0,0:0:0:0:
292,346,127719,6,0,L|446:330,1,150.000005722046,2|0,1:0|0:0,0:0:0:0:
363,129,128165,2,0,B|344:119|332:105|332:105|330:170|361:210,1,150.000005722046,10|0,1:0|0:0,0:0:0:0:
419,43,128611,5,2,1:0:0:0:
230,186,128834,1,2,0:1:0:0:
230,186,128946,1,0,0:0:0:0:
230,186,129057,5,8,1:0:0:0:
467,167,129280,1,2,0:1:0:0:
254,52,129503,1,2,1:0:0:0:
254,52,129615,1,0,0:0:0:0:
254,52,129726,5,2,0:1:0:0:
356,266,129949,1,10,1:0:0:0:
419,43,130172,1,2,0:1:0:0:
419,43,130619,2,0,B|353:59|353:59|304:143|304:143|318:207|356:266,1,300.000011444092,2|2,0:1|0:1,0:0:0:0:
467,167,131288,5,2,1:0:0:0:
224,319,131511,1,2,0:1:0:0:
494,292,131734,1,10,1:0:0:0:
230,186,131957,1,0,0:0:0:0:
356,266,132180,5,4,1:0:0:0:
