osu file format v14

[General]
AudioFilename: audio.mp3
AudioLeadIn: 0
PreviewTime: 7140
Countdown: 1
SampleSet: Soft
StackLeniency: 0.7
Mode: 0
LetterboxInBreaks: 0
WidescreenStoryboard: 1

[Editor]
DistanceSpacing: 0.8
BeatDivisor: 4
GridSize: 16
TimelineZoom: 1.580001

[Metadata]
Title:Targets!
TitleUnicode:Targets!
Artist:Super Smash Bros. Melee
ArtistUnicode:Super Smash Bros. Melee
Creator:QuadroKiller
Version:Standard
Source:Super Smash Bros. Melee Nintendo Gamecube
Tags:nintendo gamecube super smash bros melee ssbm break the targets smash nintendo pal hal
BeatmapID:1268251
BeatmapSetID:598952

[Difficulty]
HPDrainRate:2
CircleSize:3
OverallDifficulty:3.5
ApproachRate:4
SliderMultiplier:1.00000000596046
SliderTickRate:1

[Events]
//Background and Video events
0,0,"maxresdefault.jpg",0,0
//Break Periods
2,35808,37499
//Storyboard Layer 0 (Background)
//Storyboard Layer 1 (Fail)
//Storyboard Layer 2 (Pass)
//Storyboard Layer 3 (Foreground)
//Storyboard Sound Samples

[TimingPoints]
635,416.357290069185,4,2,0,100,1,0
22285,-100,4,2,0,100,0,1
28947,-100,4,2,0,100,0,0
57259,-100,4,2,0,100,0,1
63921,-100,4,2,0,100,0,0

[HitObjects]
82,110,635,6,0,P|190:87|448:112,2,350.000002086163
256,208,3965,1,2,0:0:0:0:
256,192,4382,12,2,6880,0:0:0:0:
256,304,7296,6,0,P|192:288|160:256,1,100.000000596046,0|8,0:0|0:0,0:0:0:0:
192,128,8129,2,0,P|128:144|96:176,2,100.000000596046,0|8|0,0:0|0:0|0:0,0:0:0:0:
320,160,9378,1,8,0:0:0:0:
400,48,9794,2,0,P|448:96|464:128,1,100.000000596046,0|8,0:0|0:0,0:0:0:0:
400,224,10627,5,0,0:0:0:0:
448,336,11043,1,8,0:0:0:0:
304,336,11460,2,0,P|240:288|224:256,1,100.000000596046,0|8,0:0|0:0,0:0:0:0:
272,128,12293,5,0,0:0:0:0:
128,80,12709,1,8,0:0:0:0:
80,224,13125,1,0,0:0:0:0:
240,272,13542,1,8,0:0:0:0:
352,160,13958,6,0,P|416:144|480:144,2,100.000000596046
288,288,15207,1,8,0:0:0:0:
144,224,15623,6,0,P|96:256|64:304,2,100.000000596046
288,288,16872,1,8,0:0:0:0:
256,160,17289,6,0,P|224:96|192:64,1,100.000000596046
80,224,18122,2,0,L|192:240,1,100.000000596046,0|8,0:0|0:0,0:0:0:0:
336,240,18954,6,0,L|464:208,2,100.000000596046
144,256,20203,1,8,0:0:0:0:
336,320,22285,6,0,B|512:272|208:160|560:192|336:64,1,300.000001788139
208,48,23951,2,0,B|80:96|80:96|176:160|160:240,1,300.000001788138
208,336,25616,6,0,B|304:320|384:256|304:160|304:112|352:80,1,300.000001788139
256,192,27281,12,0,28947,0:0:0:0:
224,224,29363,6,0,P|192:160|192:112,1,100.000000596046
288,64,30196,1,8,0:0:0:0:
384,128,30612,6,0,P|416:192|416:240,1,100.000000596046
400,320,31445,2,0,P|304:304|256:304,1,100.000000596046,0|8,0:0|0:0,0:0:0:0:
208,224,32278,6,0,P|144:320|144:336,2,100.000000596046
128,128,33527,1,8,0:0:0:0:
256,80,33943,6,0,B|368:48|304:208|448:176,2,200.000001192093,0|0|4,0:0|0:0|0:0,0:0:0:0:
256,192,38939,6,0,L|256:304,2,100.000000596046
256,80,40188,1,2,0:0:0:0:
256,192,40605,12,2,42270,0:0:0:0:
256,192,42687,5,8,0:0:0:0:
160,288,43103,2,0,B|128:336|128:336|64:336,2,100.000000596046,0|8|0,0:0|0:0|0:0,0:0:0:0:
256,192,44352,5,8,0:0:0:0:
336,288,44768,2,0,B|368:336|368:336|448:336,2,100.000000596046,0|8|0,0:0|0:0|0:0,0:0:0:0:
256,192,46017,5,8,0:0:0:0:
256,80,46434,2,0,P|336:64|368:64,1,100.000000596046,0|8,0:0|0:0,0:0:0:0:
448,144,47267,5,0,0:0:0:0:
352,208,47683,1,8,0:0:0:0:
448,272,48099,1,0,0:0:0:0:
352,336,48516,1,8,0:0:0:0:
240,256,48932,6,0,P|176:320|160:336,2,100.000000596046
240,128,50181,1,8,0:0:0:0:
128,192,50597,6,0,L|32:272,2,100.000000596046
128,64,51846,1,8,0:0:0:0:
256,64,52263,6,0,P|304:102|331:133,1,100.000000596046
213,181,53096,2,0,P|254:227|291:252,1,100.000000596046,0|8,0:0|0:0,0:0:0:0:
416,288,53928,5,0,0:0:0:0:
480,192,54345,1,0,0:0:0:0:
352,160,54761,1,0,0:0:0:0:
416,64,55177,1,8,0:0:0:0:
352,304,57259,6,0,B|240:240|128:352|64:256,1,300.000001788139
112,144,58925,2,0,B|128:96|128:48|128:48|240:96|336:96,1,300.000001788138
448,80,60590,6,0,B|480:192|480:192|336:256|320:336,1,300.000001788139
256,192,62255,12,0,63921,0:0:0:0:
256,272,64337,6,0,B|304:272|304:272|352:224,1,100.000000596046
432,144,65170,1,8,0:0:0:0:
336,64,65586,5,0,0:0:0:0:
192,64,66003,2,0,B|144:96|144:96|144:144,1,100.000000596046
144,272,66835,1,8,0:0:0:0:
256,336,67252,6,0,B|320:336|320:336|352:304,2,100.000000596046
256,208,68501,1,8,0:0:0:0:
352,112,68917,6,0,P|256:48|176:80,2,200.000001192092,0|0|4,0:0|0:0|0:0,0:0:0:0:
288,208,70999,5,0,0:0:0:0:
384,304,71415,2,0,B|368:352|368:352|304:336|256:336,2,150.000000894069
464,208,73081,2,0,P|432:144|400:128,1,100.000000596046
256,144,73913,5,0,0:0:0:0:
304,256,74330,1,0,0:0:0:0:
189,242,74746,1,0,0:0:0:0:
256,192,75162,12,4,77244,0:0:0:0:
