osu file format v14

[General]
AudioFilename: audio.mp3
AudioLeadIn: 0
PreviewTime: 7140
Countdown: 1
SampleSet: Soft
StackLeniency: 0.7
Mode: 0
LetterboxInBreaks: 0
WidescreenStoryboard: 1

[Editor]
DistanceSpacing: 0.8
BeatDivisor: 4
GridSize: 16
TimelineZoom: 1.580001

[Metadata]
Title:Targets!
TitleUnicode:Targets!
Artist:Super Smash Bros. Melee
ArtistUnicode:Super Smash Bros. Melee
Creator:QuadroKiller
Version:Hyper
Source:Super Smash Bros. Melee Nintendo Gamecube
Tags:nintendo gamecube super smash bros melee ssbm break the targets smash nintendo pal hal
BeatmapID:1278580
BeatmapSetID:598952

[Difficulty]
HPDrainRate:4
CircleSize:4
OverallDifficulty:5
ApproachRate:8
SliderMultiplier:0.70000000596046
SliderTickRate:1

[Events]
//Background and Video events
0,0,"anime-super-smash-bros-wallpaper-1.jpg",0,0
//Break Periods
2,35808,38189
2,70782,73163
//Storyboard Layer 0 (Background)
//Storyboard Layer 1 (Fail)
//Storyboard Layer 2 (Pass)
//Storyboard Layer 3 (Foreground)
//Storyboard Sound Samples

[TimingPoints]
635,416.357290069185,4,2,0,100,1,0
5631,-100,4,2,0,100,0,0
22285,-100,4,2,0,100,0,1
28947,-100,4,2,0,100,0,0
57259,-100,4,2,0,100,0,1
63921,-100,4,2,0,100,0,0

[HitObjects]
144,224,635,6,0,B|192:192|192:192|256:208|320:192|320:192|368:224,2,245.000002086161
256,112,3757,1,0,0:0:0:0:
256,112,3965,1,0,0:0:0:0:
256,192,4174,12,0,6880,0:0:0:0:
256,192,7088,5,0,0:0:0:0:
256,80,7296,2,0,L|304:96,1,35.000000298023
368,96,7713,2,8,L|416:112,1,35.000000298023
256,80,8129,2,0,L|304:96,1,35.000000298023
368,96,8545,2,8,L|416:112,1,35.000000298023
352,208,8962,6,0,L|320:224,1,35.000000298023
256,272,9378,2,8,L|224:288,1,35.000000298023
352,208,9795,2,0,L|320:224,1,35.000000298023
256,272,10211,2,8,L|224:288,1,35.000000298023
96,304,10627,5,0,0:0:0:0:
110,272,10835,1,0,0:0:0:0:
118,238,11043,1,8,0:0:0:0:
117,203,11251,1,8,0:0:0:0:
111,168,11459,1,0,0:0:0:0:
105,134,11667,1,0,0:0:0:0:
108,99,11876,1,8,0:0:0:0:
124,68,12084,1,8,0:0:0:0:
240,48,12293,6,0,L|256:80,1,35.000000298023
336,144,12709,2,8,L|352:176,1,35.000000298023
272,64,13125,2,0,L|288:96,1,35.000000298023
368,160,13542,2,8,L|384:192,1,35.000000298023
416,304,13958,5,0,0:0:0:0:
416,304,14166,1,0,0:0:0:0:
416,304,14374,1,8,0:0:0:0:
416,304,14582,1,8,0:0:0:0:
304,352,14791,2,0,L|256:336,1,35.000000298023
192,240,15207,2,8,L|224:256,1,35.000000298023
144,336,15623,5,0,0:0:0:0:
110,328,15831,1,0,0:0:0:0:
82,307,16039,1,8,0:0:0:0:
65,277,16247,1,8,0:0:0:0:
48,192,16456,2,0,L|48:144,1,35.000000298023
128,16,16872,2,8,L|128:64,1,35.000000298023
192,144,17289,5,0,0:0:0:0:
222,161,17497,1,0,0:0:0:0:
256,167,17705,1,8,0:0:0:0:
291,163,17913,1,8,0:0:0:0:
325,158,18121,1,0,0:0:0:0:
360,160,18329,1,0,0:0:0:0:
394,170,18538,1,8,0:0:0:0:
424,186,18746,1,8,0:0:0:0:
416,304,18954,6,0,L|384:320,1,35.000000298023
288,288,19371,2,8,L|256:304,1,35.000000298023
384,288,19787,2,0,L|352:304,1,35.000000298023
256,272,20203,2,8,L|224:288,1,35.000000298023
96,64,22285,6,0,B|144:144|240:64|288:144,1,210.000001788138
304,160,23742,1,0,0:0:0:0:
330,168,23951,2,2,P|367:202|375:214,1,52.5000004470345
346,249,24575,2,2,P|378:273|393:296,1,52.5000004470345
308,353,25200,1,0,0:0:0:0:
308,353,25408,1,0,0:0:0:0:
308,353,25616,6,0,P|203:323|167:231,1,210.000001788138
172,209,27073,1,0,0:0:0:0:
256,192,27281,12,0,28530,0:0:0:0:
256,192,28739,5,0,0:0:0:0:
256,80,28947,2,0,L|256:32,2,35.000000298023
256,192,29571,1,0,0:0:0:0:
368,192,29780,2,0,L|416:192,2,35.000000298023
256,192,30404,1,0,0:0:0:0:
256,304,30612,6,0,L|256:352,2,35.000000298023
256,192,31237,1,0,0:0:0:0:
144,192,31445,2,0,L|96:192,2,35.000000298023
256,192,32069,1,0,0:0:0:0:
336,96,32278,6,0,L|384:96,2,35.000000298023
208,96,32902,1,0,0:0:0:0:
128,208,33110,2,0,L|80:208,2,35.000000298023
256,208,33735,1,0,0:0:0:0:
400,208,33943,6,0,P|352:320|336:336,2,140.000001192092,0|0|4,0:0|0:0|0:0,0:0:0:0:
160,224,38939,5,0,0:0:0:0:
400,224,39356,1,0,0:0:0:0:
240,304,39772,1,0,0:0:0:0:
240,80,40188,1,0,0:0:0:0:
256,192,40397,12,0,41854,0:0:0:0:
256,192,42062,5,0,0:0:0:0:
320,96,42270,2,0,L|352:128,1,35.000000298023
416,128,42687,2,8,L|448:160,1,35.000000298023
352,208,43103,2,0,L|320:240,1,35.000000298023
352,304,43519,2,8,L|320:336,1,35.000000298023
224,304,43936,6,0,L|224:256,1,35.000000298023
160,224,44352,2,8,L|160:176,1,35.000000298023
224,304,44768,2,0,L|224:256,1,35.000000298023
160,224,45185,2,8,L|160:176,1,35.000000298023
93,116,45601,5,0,0:0:0:0:
121,95,45809,1,0,0:0:0:0:
149,75,46017,1,8,0:0:0:0:
180,83,46225,1,8,0:0:0:0:
211,100,46433,1,0,0:0:0:0:
242,109,46641,1,0,0:0:0:0:
272,91,46850,1,8,0:0:0:0:
302,73,47058,1,8,0:0:0:0:
416,128,47267,6,0,L|447:97,2,35.000000298023,0|0|8,0:0|0:0|0:0,0:0:0:0:
352,192,47891,1,8,0:0:0:0:
416,256,48099,2,0,L|448:288,2,35.000000298023,0|0|8,0:0|0:0|0:0,0:0:0:0:
352,192,48724,1,8,0:0:0:0:
272,272,48932,6,0,L|256:224,1,35.000000298023
176,240,49348,2,8,L|160:192,1,35.000000298023
272,272,49765,2,0,L|256:224,1,35.000000298023
176,240,50181,2,8,L|160:192,1,35.000000298023
96,128,50597,5,0,0:0:0:0:
114,98,50805,1,0,0:0:0:0:
144,82,51013,1,8,0:0:0:0:
179,80,51221,1,8,0:0:0:0:
214,76,51429,1,0,0:0:0:0:
248,67,51637,1,0,0:0:0:0:
282,67,51846,1,8,0:0:0:0:
311,86,52054,1,8,0:0:0:0:
432,64,52263,6,0,L|416:112,1,35.000000298023
368,144,52679,2,8,L|352:192,1,35.000000298023
432,64,53096,2,0,L|416:112,1,35.000000298023
368,144,53512,2,8,L|352:192,1,35.000000298023
432,256,53928,5,0,0:0:0:0:
432,256,54136,1,0,0:0:0:0:
368,336,54345,2,8,L|320:320,1,35.000000298023
272,256,54761,1,0,0:0:0:0:
272,256,54969,1,0,0:0:0:0:
208,336,55177,2,8,L|160:320,1,35.000000298023
416,48,57259,6,0,B|464:128|368:176|432:256,1,210.000001788138
432,272,58716,1,0,0:0:0:0:
444,297,58925,2,2,P|409:322|392:330,1,52.5000004470345
375,314,59549,2,2,P|322:338|316:343,1,52.5000004470345
206,298,60174,1,0,0:0:0:0:
206,298,60382,1,0,0:0:0:0:
206,298,60590,6,0,B|101:262|101:262|134:169,1,210.000001788138
144,142,62047,1,0,0:0:0:0:
256,192,62255,12,0,63504,0:0:0:0:
336,96,63713,5,0,0:0:0:0:
336,192,63921,2,0,L|336:240,2,35.000000298023
336,96,64545,1,0,0:0:0:0:
432,96,64754,2,0,L|480:96,2,35.000000298023
336,96,65378,1,0,0:0:0:0:
240,96,65586,6,0,L|240:48,2,35.000000298023
240,192,66211,1,0,0:0:0:0:
144,192,66419,2,0,L|96:192,2,35.000000298023
240,192,67043,1,0,0:0:0:0:
336,192,67252,6,0,L|336:240,1,35.000000298023
336,320,67668,1,0,0:0:0:0:
336,320,67876,1,0,0:0:0:0:
240,320,68084,2,0,L|240:272,1,35.000000298023
240,192,68501,1,0,0:0:0:0:
240,192,68709,1,0,0:0:0:0:
176,128,68917,6,0,B|208:96|208:96|258:96|258:96|294:60,2,140.000001192092,0|0|4,0:0|0:0|0:0,0:0:0:0:
160,176,73913,5,0,0:0:0:0:
384,176,74330,1,0,0:0:0:0:
288,80,74746,1,0,0:0:0:0:
288,288,75162,1,0,0:0:0:0:
256,192,75371,12,4,77244,0:0:0:0:
