osu file format v14

[General]
AudioFilename: audio.mp3
AudioLeadIn: 0
PreviewTime: 7140
Countdown: 1
SampleSet: Soft
StackLeniency: 0.7
Mode: 0
LetterboxInBreaks: 0
WidescreenStoryboard: 1

[Editor]
DistanceSpacing: 0.8
BeatDivisor: 4
GridSize: 16
TimelineZoom: 1.580001

[Metadata]
Title:Targets!
TitleUnicode:Targets!
Artist:Super Smash Bros. Melee
ArtistUnicode:Super Smash Bros. Melee
Creator:QuadroKiller
Version:Hard
Source:Super Smash Bros. Melee Nintendo Gamecube
Tags:nintendo gamecube super smash bros melee ssbm break the targets smash nintendo pal hal
BeatmapID:1268327
BeatmapSetID:598952

[Difficulty]
HPDrainRate:4
CircleSize:4
OverallDifficulty:6
ApproachRate:8.5
SliderMultiplier:2.00000000596046
SliderTickRate:1

[Events]
//Background and Video events
0,0,"Anime-super-smash-bros-15173.jpg",0,0
//Break Periods
2,35809,38264
//Storyboard Layer 0 (Background)
//Storyboard Layer 1 (Fail)
//Storyboard Layer 2 (Pass)
//Storyboard Layer 3 (Foreground)
//Storyboard Sound Samples

[TimingPoints]
635,416.357290069185,4,2,0,100,1,0
3965,-133.333333333333,4,2,0,100,0,0
5631,-100,4,2,0,100,0,0
22285,-100,4,2,0,100,0,1
28947,-100,4,2,0,100,0,0
57259,-100,4,2,0,100,0,1
63921,-100,4,2,0,100,0,0

[HitObjects]
160,48,635,6,0,L|208:80,1,50.0000001490115
80,128,947,2,0,L|128:160,1,50.0000001490115
144,240,1259,2,0,L|192:272,1,50.0000001490115
80,320,1571,2,0,L|128:352,1,50.0000001490115
336,320,1884,2,8,P|384:272|400:240,1,100.000000298023
417,44,2300,6,0,L|369:76,1,50.0000001490115
352,150,2612,2,0,L|304:182,1,50.0000001490115
436,199,2924,2,0,L|388:231,1,50.0000001490115
371,308,3237,2,0,L|323:340,1,50.0000001490115
256,240,3549,1,8,0:0:0:0:
176,288,3757,1,8,0:0:0:0:
144,192,3965,6,0,P|64:272|64:336,2,150.000000447035
64,128,5006,1,0,0:0:0:0:
128,48,5214,1,0,0:0:0:0:
208,112,5423,1,0,0:0:0:0:
304,48,5631,6,8,P|368:32|416:48,2,100.000000298023
400,144,6255,1,8,0:0:0:0:
400,144,6359,1,8,0:0:0:0:
288,224,6568,1,8,0:0:0:0:
288,224,6672,1,8,0:0:0:0:
416,272,6880,1,0,0:0:0:0:
320,336,7088,1,0,0:0:0:0:
176,336,7296,6,0,P|96:320|64:304,1,100.000000298023
64,224,7713,1,8,0:0:0:0:
128,160,7921,1,8,0:0:0:0:
64,96,8129,6,0,B|96:64|96:64|176:64,1,100.000000298023
240,96,8545,1,8,0:0:0:0:
320,64,8753,1,8,0:0:0:0:
320,160,8962,6,0,B|272:192|272:192|224:192,1,100.000000298023
272,272,9378,1,8,0:0:0:0:
368,272,9586,1,8,0:0:0:0:
432,192,9794,6,0,L|432:80,1,100.000000298023
368,32,10211,1,8,0:0:0:0:
272,32,10419,1,8,0:0:0:0:
192,80,10627,6,0,B|176:128|176:128|192:128|192:128|176:176,1,100.000000298023
128,224,11043,1,8,0:0:0:0:
224,224,11252,1,8,0:0:0:0:
176,304,11460,6,0,P|272:320|304:304,1,100.000000298023
352,272,11876,1,8,0:0:0:0:
416,336,12084,1,8,0:0:0:0:
464,256,12293,6,0,P|448:176|432:160,1,100.000000298023
352,160,12709,1,8,0:0:0:0:
320,80,12917,1,8,0:0:0:0:
224,112,13125,1,0,0:0:0:0:
256,192,13333,1,0,0:0:0:0:
160,224,13542,1,8,0:0:0:0:
128,128,13750,1,8,0:0:0:0:
32,160,13958,5,0,0:0:0:0:
32,160,14062,2,0,P|64:256|80:272,1,100.000000298023
32,320,14374,2,0,P|128:336|160:320,1,100.000000298023
140,248,14687,2,0,P|201:243|244:253,1,100.000000298023
295,321,14999,2,0,P|324:260|306:194,1,100.000000298023,0|8,0:0|0:0,0:0:0:0:
285,140,15415,1,8,0:0:0:0:
356,68,15623,5,0,0:0:0:0:
356,68,15727,2,0,P|383:137|382:165,1,100.000000298023
306,220,16040,2,0,L|410:270,1,100.000000298023
472,297,16352,2,0,P|411:338|370:335,1,100.000000298023
307,311,16664,2,0,L|204:364,2,100.000000298023,0|8|8,0:0|0:0|0:0,0:0:0:0:
471,226,17289,6,0,L|417:254,1,50.0000001490115
370,165,17601,2,0,L|313:193,1,50.0000001490115
452,55,17913,2,0,L|396:85,1,50.0000001490115
315,33,18226,2,0,L|256:58,1,50.0000001490115
265,162,18538,1,8,0:0:0:0:
173,106,18746,1,8,0:0:0:0:
67,171,18954,6,0,L|112:202,1,50.0000001490115
110,278,19266,2,0,L|155:303,1,50.0000001490115
206,236,19579,2,0,L|256:267,1,50.0000001490115
253,343,19891,2,0,L|306:372,1,50.0000001490115
359,300,20203,1,8,0:0:0:0:
449,345,20411,1,8,0:0:0:0:
426,238,20620,6,2,L|447:157,3,50.0000001490115
328,190,21140,1,2,0:0:0:0:
351,85,21348,1,2,0:0:0:0:
229,62,21556,2,0,L|202:5,2,50.0000001490115
269,124,21869,2,8,L|246:174,1,50.0000001490115
171,179,22077,2,8,L|196:228,1,50.0000001490115
257,269,22285,6,0,B|193:338|121:282|121:282|91:221,1,200.000000596046,0|8,0:0|0:0,0:0:0:0:
98,98,22910,1,8,0:0:0:0:
98,98,23014,2,0,B|146:56|146:56|201:110|261:111,1,150.000000447035,8|0,0:0|0:0,0:0:0:0:
256,111,23430,1,0,0:0:0:0:
295,111,23534,2,8,L|295:173,1,50.0000001490115
370,196,23742,2,8,L|327:239,1,50.0000001490115
245,226,23951,6,0,P|261:290|306:328,1,100.000000298023
195,334,24263,2,0,P|166:288|123:249,1,100.000000298023
165,190,24575,2,0,P|203:138|248:123,1,100.000000298023
182,57,24887,2,0,P|118:96|63:105,1,100.000000298023
94,102,25200,1,8,0:0:0:0:
41,201,25408,1,8,0:0:0:0:
41,201,25512,1,8,0:0:0:0:
41,201,25616,6,0,B|102:193|102:193|142:285|244:259,1,200.000000596046,0|8,0:0|0:0,0:0:0:0:
238,135,26240,1,8,0:0:0:0:
238,135,26345,2,0,B|290:129|290:129|282:142|282:142|342:138,1,100.000000298023,8|0,0:0|0:0,0:0:0:0:
353,129,26657,1,0,0:0:0:0:
391,116,26761,1,0,0:0:0:0:
429,106,26865,2,8,P|436:170|419:213,1,100.000000298023
371,334,27281,6,2,P|304:330|264:306,1,100.000000298023
254,217,27594,2,2,P|201:265|185:314,1,100.000000298023
117,235,27906,2,2,P|133:175|115:113,1,100.000000298023
186,76,28218,2,2,P|279:79|311:100,1,100.000000298023
283,80,28530,1,0,0:0:0:0:
384,40,28739,1,0,0:0:0:0:
432,128,28947,5,0,0:0:0:0:
432,128,29051,2,0,P|400:202|371:222,1,100.000000298023
314,164,29363,2,0,P|291:225|325:276,1,100.000000298023
384,297,29675,2,0,P|298:353|277:354,1,100.000000298023
221,293,29988,2,0,L|209:172,1,100.000000298023,0|8,0:0|0:0,0:0:0:0:
202,109,30404,1,8,0:0:0:0:
300,40,30612,6,0,L|341:80,1,50.0000001490115
445,100,30924,2,0,L|404:137,1,50.0000001490115
296,173,31237,2,0,L|344:203,1,50.0000001490115
453,237,31549,2,0,L|401:268,1,50.0000001490115
313,315,31861,2,8,P|227:321|195:305,1,100.000000298023
121,259,32278,5,0,0:0:0:0:
121,259,32382,2,0,L|215:191,1,100.000000298023
109,159,32694,2,0,P|113:97|149:60,1,100.000000298023
209,118,33006,2,0,L|315:52,1,100.000000298023
375,19,33319,2,0,P|387:98|378:138,1,100.000000298023,0|8,0:0|0:0,0:0:0:0:
357,201,33735,1,8,0:0:0:0:
412,279,33943,6,0,L|465:249,1,50.0000001490115
336,313,34255,2,0,L|277:341,1,50.0000001490115
262,243,34568,2,0,L|243:188,1,50.0000001490115
223,109,34880,2,0,L|166:127,1,50.0000001490115
106,181,35192,2,0,P|78:261|87:292,1,100.000000298023,8|8,0:0|0:0,0:0:0:0:
156,330,35609,1,4,0:0:0:0:
160,192,38939,5,0,0:0:0:0:
256,96,39356,1,0,0:0:0:0:
256,288,39772,1,0,0:0:0:0:
352,192,40188,1,0,0:0:0:0:
256,192,40397,12,0,41854,0:0:0:0:
208,272,42062,5,0,0:0:0:0:
304,272,42270,1,8,0:0:0:0:
256,192,42478,1,8,0:0:0:0:
256,96,42687,2,0,B|256:32|256:32|304:32,1,100.000000298023
384,32,43103,5,8,0:0:0:0:
480,32,43311,1,8,0:0:0:0:
480,128,43519,2,0,L|368:128,1,100.000000298023
384,224,43936,5,8,0:0:0:0:
464,288,44144,1,8,0:0:0:0:
384,352,44352,2,0,P|320:352|272:336,1,100.000000298023
272,256,44768,5,8,0:0:0:0:
176,288,44977,1,8,0:0:0:0:
144,208,45185,2,0,B|144:160|144:160|176:112,1,100.000000298023
256,176,45601,5,8,0:0:0:0:
352,176,45809,1,8,0:0:0:0:
352,80,46017,2,0,B|320:48|320:48|240:48,1,100.000000298023
176,48,46434,5,8,0:0:0:0:
80,48,46642,1,8,0:0:0:0:
80,144,46850,2,0,B|80:192|80:192|112:240,1,100.000000298023
48,304,47267,5,8,0:0:0:0:
128,368,47475,1,8,0:0:0:0:
208,304,47683,1,0,0:0:0:0:
288,368,47891,1,0,0:0:0:0:
368,304,48099,1,8,0:0:0:0:
288,240,48307,1,8,0:0:0:0:
368,176,48516,1,0,0:0:0:0:
288,112,48724,1,0,0:0:0:0:
368,48,48932,5,0,0:0:0:0:
368,48,49036,2,0,P|427:77|460:117,1,100.000000298023
376,151,49348,2,0,L|375:261,1,100.000000298023
457,289,49661,2,0,P|378:341|357:344,1,100.000000298023
268,341,49973,2,0,B|259:318|259:318|281:283|281:283|260:216,1,100.000000298023,0|8,0:0|0:0,0:0:0:0:
237,170,50389,1,8,0:0:0:0:
288,89,50597,5,0,0:0:0:0:
288,89,50701,2,0,B|255:51|255:51|191:51,1,100.000000298023
118,50,51014,2,0,B|67:50|67:50|66:119,1,100.000000298023
66,186,51326,2,0,P|84:237|120:278,1,100.000000298023
168,202,51638,2,0,L|282:203,2,100.000000298023,0|8|8,0:0|0:0|0:0,0:0:0:0:
170,109,52263,5,0,0:0:0:0:
170,109,52367,2,0,L|276:111,1,100.000000298023
375,110,52679,2,0,L|375:229,1,100.000000298023
374,296,52991,2,0,L|264:295,1,100.000000298023
189,293,53304,2,0,P|137:246|131:214,1,100.000000298023,0|8,0:0|0:0,0:0:0:0:
133,132,53720,1,8,0:0:0:0:
215,56,53928,6,0,L|265:104,1,50.0000001490115
371,116,54241,2,0,L|315:165,1,50.0000001490115
212,184,54553,2,0,L|261:215,1,50.0000001490115
371,250,54865,2,0,L|317:287,1,50.0000001490115
229,324,55177,1,8,0:0:0:0:
146,270,55385,1,8,0:0:0:0:
227,193,55594,6,2,L|185:156,3,50.0000001490115
120,87,56114,1,2,0:0:0:0:
195,24,56322,1,2,0:0:0:0:
273,87,56530,6,0,L|322:38,2,50.0000001490115
330,146,56843,2,8,L|377:189,1,50.0000001490115
427,234,57051,2,8,L|385:277,1,50.0000001490115
326,337,57259,6,0,P|264:315|230:270,1,100.000000298023
219,257,57571,1,0,0:0:0:0:
201,221,57675,2,8,P|118:174|92:176,1,100.000000298023
78,186,57988,1,8,0:0:0:0:
62,73,58196,6,0,L|23:24,2,50.0000001490115
139,42,58508,2,8,P|193:33|243:47,1,100.000000298023
273,59,58820,1,8,0:0:0:0:
307,80,58925,6,0,P|320:171|345:195,1,100.000000298023
394,127,59237,2,0,P|413:193|410:243,1,100.000000298023
333,259,59549,2,0,P|261:241|242:224,1,100.000000298023
225,137,59861,2,0,P|171:172|147:216,1,100.000000298023
145,241,60174,1,8,0:0:0:0:
176,328,60382,1,8,0:0:0:0:
176,328,60486,1,8,0:0:0:0:
176,328,60590,6,0,L|281:307,1,100.000000298023
312,298,60902,1,0,0:0:0:0:
346,278,61006,2,8,P|390:222|400:172,1,100.000000298023
399,154,61319,1,8,0:0:0:0:
384,64,61527,6,0,L|432:32,2,50.0000001490115
352,80,61839,2,8,P|256:112|224:112,1,100.000000298023
179,36,62255,6,2,P|134:85|123:138,1,100.000000298023
44,145,62568,2,2,L|117:229,1,100.000000298023
52,275,62880,2,2,P|119:301|168:273,1,100.000000298023
190,228,63192,2,2,P|229:289|220:341,1,100.000000298023
228,314,63504,1,0,0:0:0:0:
327,266,63713,1,0,0:0:0:0:
383,355,63921,5,0,0:0:0:0:
383,355,64025,2,0,P|437:273|436:251,1,100.000000298023
436,193,64337,2,0,L|313:160,1,100.000000298023
335,73,64649,2,0,L|227:104,1,100.000000298023
249,187,64962,2,0,P|176:158|158:123,1,100.000000298023,0|8,0:0|0:0,0:0:0:0:
161,51,65378,1,8,0:0:0:0:
81,108,65586,5,0,0:0:0:0:
81,108,65690,2,0,P|79:183|110:218,1,100.000000298023
167,235,66003,2,0,L|83:308,1,100.000000298023
166,346,66315,2,0,L|277:346,1,100.000000298023
267,262,66627,2,0,P|274:198|299:162,2,100.000000298023,0|8|8,0:0|0:0|0:0,0:0:0:0:
357,299,67252,6,0,L|410:333,1,50.0000001490115
429,220,67564,2,0,L|485:257,1,50.0000001490115
357,103,67876,2,0,L|414:142,1,50.0000001490115
329,207,68188,2,0,L|268:260,1,50.0000001490115
229,160,68501,1,8,0:0:0:0:
163,231,68709,1,8,0:0:0:0:
95,160,68917,5,0,0:0:0:0:
95,160,69021,2,0,P|129:93|160:66,1,100.000000298023
211,20,69333,2,0,L|310:82,1,100.000000298023
370,128,69646,2,0,P|329:171|263:200,1,100.000000298023
217,136,69958,2,0,P|186:230|199:262,2,100.000000298023,0|8|8,0:0|0:0|0:0,0:0:0:0:
297,76,70583,1,4,0:0:0:0:
297,76,70687,6,0,B|336:112|336:112|336:160,1,100.000000298023
416,160,70999,2,0,B|416:208|416:208|384:256,1,100.000000298023
304,240,71311,2,0,B|272:272|272:272|272:336,1,100.000000298023
352,352,71623,2,0,L|464:352,2,100.000000298023
192,352,72248,5,0,0:0:0:0:
192,352,72352,2,0,B|144:352|144:352|144:288,1,100.000000298023
144,208,72664,2,0,P|208:208|240:176,1,100.000000298023
183,114,72977,2,0,P|247:85|294:102,1,100.000000298023
330,162,73289,2,0,L|431:127,2,100.000000298023
160,256,73913,5,0,0:0:0:0:
256,96,74330,1,0,0:0:0:0:
352,256,74746,1,0,0:0:0:0:
256,192,75162,1,0,0:0:0:0:
256,192,75371,12,4,77244,0:0:0:0:
