osu file format v14

[General]
AudioFilename: audio.mp3
AudioLeadIn: 0
PreviewTime: 7140
Countdown: 1
SampleSet: Soft
StackLeniency: 0.7
Mode: 0
LetterboxInBreaks: 0
WidescreenStoryboard: 1

[Editor]
DistanceSpacing: 0.8
BeatDivisor: 4
GridSize: 16
TimelineZoom: 1.580001

[Metadata]
Title:Targets!
TitleUnicode:Targets!
Artist:Super Smash Bros. Melee
ArtistUnicode:Super Smash Bros. Melee
Creator:QuadroKiller
Version:Break the Targets!
Source:Super Smash Bros. Melee Nintendo Gamecube
Tags:nintendo gamecube super smash bros melee ssbm break the targets smash nintendo pal hal
BeatmapID:1266016
BeatmapSetID:598952

[Difficulty]
HPDrainRate:5
CircleSize:5
OverallDifficulty:8
ApproachRate:9.2
SliderMultiplier:2
SliderTickRate:1

[Events]
//Background and Video events
0,0,"59e50e3dcf3ebe79cea0a2b70915a123.jpg",0,0
//Break Periods
2,35809,38369
//Storyboard Layer 0 (Background)
//Storyboard Layer 1 (Fail)
//Storyboard Layer 2 (Pass)
//Storyboard Layer 3 (Foreground)
//Storyboard Sound Samples

[TimingPoints]
635,416.357290069185,4,2,0,100,1,0
22285,-100,4,2,0,100,0,1
28947,-100,4,2,0,100,0,0
57259,-100,4,2,0,100,0,1
63921,-100,4,2,0,100,0,0

[HitObjects]
43,62,635,5,0,0:0:0:0:
43,62,739,2,0,P|118:107|144:117,1,100
284,156,1051,2,0,P|192:203|160:206,1,100
93,310,1363,2,0,P|72:246|89:187,1,100
211,21,1675,2,0,P|223:86|206:141,1,100,0|8,0:0|0:0,0:0:0:0:
146,257,2092,1,8,0:0:0:0:
294,346,2300,5,0,0:0:0:0:
294,346,2404,2,0,P|385:309|394:300,1,100
319,134,2716,2,0,P|302:196|317:252,1,100
452,186,3029,2,0,P|458:126|436:73,1,100
199,160,3341,2,0,P|187:247|201:290,1,100,0|8,0:0|0:0,0:0:0:0:
46,190,3757,1,8,0:0:0:0:
219,42,3965,5,0,0:0:0:0:
219,42,4069,2,0,P|99:77|81:88,1,100
64,290,4382,2,0,P|117:230|133:177,1,100
303,231,4694,2,0,P|263:164|219:136,1,100
196,293,5006,2,0,B|187:294|250:339|304:347,2,100,0|8|8,0:0|0:0|0:0,0:0:0:0:
132,173,5631,5,0,0:0:0:0:
137,123,5735,1,0,0:0:0:0:
159,78,5839,1,0,0:0:0:0:
195,44,5943,1,0,0:0:0:0:
240,24,6047,1,0,0:0:0:0:
290,21,6151,1,0,0:0:0:0:
338,35,6255,1,0,0:0:0:0:
378,64,6359,1,0,0:0:0:0:
432,245,6568,1,8,0:0:0:0:
432,245,6672,2,0,P|353:280|304:280,1,100,8|8,0:0|0:0,0:0:0:0:
138,169,7088,5,0,0:0:0:0:
138,169,7296,1,0,0:0:0:0:
265,40,7504,1,0,0:0:0:0:
240,293,7713,1,8,0:0:0:0:
49,24,7921,1,0,0:0:0:0:
330,188,8129,1,0,0:0:0:0:
26,288,8337,1,0,0:0:0:0:
169,64,8545,1,8,0:0:0:0:
194,384,8753,1,0,0:0:0:0:
320,171,8962,5,0,0:0:0:0:
496,344,9170,1,0,0:0:0:0:
277,374,9378,1,8,0:0:0:0:
482,173,9586,1,0,0:0:0:0:
222,112,9794,1,0,0:0:0:0:
469,0,10003,1,0,0:0:0:0:
263,249,10211,1,8,0:0:0:0:
512,82,10419,1,0,0:0:0:0:
176,23,10627,5,0,0:0:0:0:
335,149,10835,1,0,0:0:0:0:
0,208,11043,1,8,0:0:0:0:
229,306,11252,1,0,0:0:0:0:
87,27,11460,1,0,0:0:0:0:
63,320,11668,1,0,0:0:0:0:
275,93,11876,1,8,0:0:0:0:
0,123,12084,1,0,0:0:0:0:
256,336,12293,5,0,0:0:0:0:
400,192,12501,1,0,0:0:0:0:
256,48,12709,1,8,0:0:0:0:
112,192,12917,1,0,0:0:0:0:
400,192,13125,1,0,0:0:0:0:
256,336,13333,1,0,0:0:0:0:
256,48,13542,1,8,0:0:0:0:
112,192,13750,1,0,0:0:0:0:
387,295,13958,5,0,0:0:0:0:
387,295,14062,2,0,P|394:230|378:198,1,100
333,52,14374,2,0,P|314:115|329:165,1,100
211,266,14687,2,0,P|291:234|307:218,1,100
155,113,14999,2,0,P|205:131|237:164,1,100,0|8,0:0|0:0,0:0:0:0:
373,337,15415,1,8,0:0:0:0:
136,340,15623,5,0,0:0:0:0:
136,340,15727,2,0,P|80:294|65:258,1,100
193,127,16040,2,0,P|178:195|153:227,1,100
59,86,16352,2,0,P|101:52|158:37,1,100
215,313,16664,2,0,P|268:274|289:231,1,100,0|8,0:0|0:0,0:0:0:0:
13,205,17081,1,8,0:0:0:0:
229,97,17289,5,0,0:0:0:0:
229,97,17393,2,0,P|292:49|314:9,1,100
422,143,17705,2,0,P|413:205|428:258,1,100
285,291,18017,2,0,P|249:252|190:235,1,100
131,34,18330,2,0,P|143:99|135:148,1,100,0|8,0:0|0:0,0:0:0:0:
27,329,18746,1,8,0:0:0:0:
326,305,18954,5,0,0:0:0:0:
326,305,19058,2,0,P|381:254|399:212,1,100
314,23,19371,2,0,P|274:91|265:132,1,100
457,87,19683,2,0,P|492:152|485:210,1,100
192,224,19995,2,0,P|140:243|73:299,2,100,0|8|8,0:0|0:0|0:0,0:0:0:0:
388,139,20620,5,0,0:0:0:0:
395,90,20724,1,0,0:0:0:0:
369,49,20828,1,0,0:0:0:0:
322,35,20932,1,0,0:0:0:0:
62,120,21140,1,8,0:0:0:0:
417,265,21348,1,8,0:0:0:0:
185,330,21556,6,8,P|214:370|235:384,2,50
158,289,21869,1,0,0:0:0:0:
141,242,21973,1,0,0:0:0:0:
136,192,22077,1,0,0:0:0:0:
145,143,22181,1,0,0:0:0:0:
206,59,22285,6,0,P|266:48|322:61,1,100
347,71,22597,1,0,0:0:0:0:
381,107,22701,2,0,P|395:161|383:206,1,100,8|8,0:0|0:0,0:0:0:0:
363,246,23014,1,8,0:0:0:0:
233,343,23222,5,0,0:0:0:0:
202,304,23326,1,0,0:0:0:0:
182,260,23430,1,0,0:0:0:0:
168,218,23534,2,8,P|169:163|172:157,1,50
296,43,23742,2,8,P|305:102|303:112,1,50
25,89,23951,6,0,P|66:161|100:184,1,100
205,104,24263,2,0,P|251:162|269:232,1,100
104,347,24575,2,0,P|133:271|166:236,1,100
376,330,24887,2,0,P|280:296|257:275,1,100
437,171,25200,2,8,P|401:115|375:93,1,100
328,81,25512,1,0,0:0:0:0:
280,87,25616,6,0,P|221:96|157:76,1,100
136,71,25928,1,0,0:0:0:0:
90,52,26032,2,8,P|63:113|60:161,1,100
64,194,26345,1,8,0:0:0:0:
166,313,26553,5,0,0:0:0:0:
172,267,26657,2,0,P|189:213|227:177,1,100,0|8,0:0|0:0,0:0:0:0:
263,170,26969,1,8,0:0:0:0:
306,151,27073,1,8,0:0:0:0:
334,111,27177,1,8,0:0:0:0:
367,77,27281,6,2,P|414:127|425:167,1,100
381,339,27594,2,2,P|326:307|294:268,1,100
52,108,27906,2,2,P|141:110|176:123,1,100
431,14,28218,2,2,P|344:104|328:112,1,100
366,89,28530,1,8,0:0:0:0:
474,310,28739,1,8,0:0:0:0:
64,190,28947,5,0,0:0:0:0:
64,190,29051,1,0,0:0:0:0:
429,172,29259,1,0,0:0:0:0:
429,172,29363,1,0,0:0:0:0:
121,46,29571,1,0,0:0:0:0:
121,46,29675,1,0,0:0:0:0:
327,346,29884,1,0,0:0:0:0:
327,346,29988,1,0,0:0:0:0:
330,16,30196,5,8,0:0:0:0:
73,262,30404,1,8,0:0:0:0:
396,124,30612,5,0,0:0:0:0:
396,124,30716,1,0,0:0:0:0:
181,350,30924,1,0,0:0:0:0:
181,350,31029,1,0,0:0:0:0:
90,91,31237,1,0,0:0:0:0:
90,91,31341,1,0,0:0:0:0:
437,302,31549,1,0,0:0:0:0:
437,302,31653,1,0,0:0:0:0:
50,295,31861,5,8,0:0:0:0:
392,62,32069,1,8,0:0:0:0:
206,329,32278,5,0,0:0:0:0:
206,329,32382,2,0,P|188:256|169:224,1,100
89,44,32694,2,0,P|158:49|221:29,1,100
457,50,33006,2,0,P|417:133|415:160,1,100
303,265,33319,2,0,P|388:325|409:329,2,100,0|8|8,0:0|0:0|0:0,0:0:0:0:
131,302,33943,5,0,0:0:0:0:
87,277,34047,1,0,0:0:0:0:
56,238,34151,1,0,0:0:0:0:
41,191,34255,1,0,0:0:0:0:
43,141,34359,1,0,0:0:0:0:
63,96,34464,1,0,0:0:0:0:
98,60,34568,1,0,0:0:0:0:
143,43,34672,1,0,0:0:0:0:
397,24,34880,5,8,0:0:0:0:
397,24,34984,2,8,P|409:110|397:136,1,100
32,336,35400,1,8,0:0:0:0:
496,224,35609,1,4,0:0:0:0:
512,48,38939,5,0,0:0:0:0:
0,112,39356,1,0,0:0:0:0:
512,272,39772,1,0,0:0:0:0:
0,336,40188,1,0,0:0:0:0:
256,192,40293,12,0,41856,0:0:0:0:
256,192,42062,5,0,0:0:0:0:
389,12,42270,1,0,0:0:0:0:
489,209,42478,1,0,0:0:0:0:
192,64,42687,1,8,0:0:0:0:
411,116,42895,1,0,0:0:0:0:
256,288,43103,1,0,0:0:0:0:
64,112,43311,1,0,0:0:0:0:
308,142,43519,1,8,0:0:0:0:
144,336,43727,1,0,0:0:0:0:
393,331,43936,5,0,0:0:0:0:
107,223,44144,1,0,0:0:0:0:
326,34,44352,1,8,0:0:0:0:
216,344,44560,1,0,0:0:0:0:
448,150,44768,1,0,0:0:0:0:
118,79,44977,1,0,0:0:0:0:
461,303,45185,1,8,0:0:0:0:
112,202,45393,1,0,0:0:0:0:
310,34,45601,5,0,0:0:0:0:
364,349,45809,1,0,0:0:0:0:
448,69,46017,1,8,0:0:0:0:
212,252,46226,1,0,0:0:0:0:
512,199,46434,1,0,0:0:0:0:
195,113,46642,1,0,0:0:0:0:
456,315,46850,1,8,0:0:0:0:
366,30,47058,1,0,0:0:0:0:
158,297,47267,5,0,0:0:0:0:
376,128,47475,1,0,0:0:0:0:
58,108,47683,1,8,0:0:0:0:
296,258,47891,1,0,0:0:0:0:
200,12,48099,1,0,0:0:0:0:
41,254,48307,1,0,0:0:0:0:
289,122,48516,1,8,0:0:0:0:
201,363,48724,1,0,0:0:0:0:
378,281,48932,5,0,0:0:0:0:
378,281,49036,2,0,P|416:232|427:189,1,100
201,35,49348,2,0,P|147:86|126:133,1,100
64,259,49661,2,0,P|159:268|192:253,1,100
308,119,49973,2,0,P|355:54|416:30,2,100,0|8|8,0:0|0:0|0:0,0:0:0:0:
345,343,50597,5,0,0:0:0:0:
345,343,50701,2,0,P|258:320|241:298,1,100
154,61,51014,2,0,P|209:129|216:166,1,100
4,337,51326,2,0,P|46:283|97:267,1,100
328,189,51638,2,0,P|392:156|421:117,2,100,0|8|8,0:0|0:0|0:0,0:0:0:0:
48,218,52263,5,0,0:0:0:0:
33,265,52367,1,0,0:0:0:0:
311,294,52575,5,0,0:0:0:0:
326,341,52679,1,0,0:0:0:0:
177,89,52887,5,0,0:0:0:0:
166,40,52991,1,0,0:0:0:0:
421,100,53200,5,0,0:0:0:0:
431,51,53304,1,0,0:0:0:0:
47,185,53512,5,8,0:0:0:0:
470,221,53720,1,8,0:0:0:0:
59,263,53928,5,0,0:0:0:0:
94,298,54032,1,0,0:0:0:0:
156,136,54241,5,0,0:0:0:0:
201,114,54345,1,0,0:0:0:0:
235,284,54553,5,0,0:0:0:0:
275,312,54657,1,0,0:0:0:0:
356,139,54865,5,0,0:0:0:0:
402,121,54969,1,0,0:0:0:0:
70,66,55177,5,8,0:0:0:0:
427,283,55385,1,8,0:0:0:0:
158,273,55594,5,0,0:0:0:0:
112,253,55698,1,0,0:0:0:0:
82,213,55802,1,0,0:0:0:0:
76,164,55906,1,0,0:0:0:0:
414,43,56114,1,0,0:0:0:0:
281,346,56322,1,0,0:0:0:0:
182,96,56530,6,8,P|137:63|127:51,2,50
225,114,56843,1,0,0:0:0:0:
272,129,56947,1,0,0:0:0:0:
316,153,57051,1,0,0:0:0:0:
355,184,57155,1,0,0:0:0:0:
433,267,57259,6,0,P|378:328|348:338,1,100
316,334,57571,1,0,0:0:0:0:
269,324,57675,2,8,P|208:295|181:258,1,100
163,227,57988,1,0,0:0:0:0:
392,52,58196,5,0,0:0:0:0:
388,101,58300,1,0,0:0:0:0:
375,149,58404,1,0,0:0:0:0:
353,188,58508,2,8,P|319:230|308:237,1,50
190,63,58716,2,8,P|223:114|229:120,1,50
257,221,58925,6,0,P|191:254|140:247,1,100
6,373,59237,2,0,P|57:311|89:291,1,100
30,114,59549,2,0,P|80:181|88:227,1,100
221,355,59861,2,0,P|178:289|178:234,1,100
177,223,60174,1,8,0:0:0:0:
188,177,60278,1,8,0:0:0:0:
210,134,60382,1,8,0:0:0:0:
246,100,60486,1,8,0:0:0:0:
291,84,60590,6,0,P|389:136|396:147,1,100
406,166,60902,1,0,0:0:0:0:
384,210,61006,2,8,P|332:245|310:279,1,100
315,318,61319,1,8,0:0:0:0:
122,258,61527,5,0,0:0:0:0:
99,216,61631,1,0,0:0:0:0:
97,168,61735,1,0,0:0:0:0:
112,123,61839,2,8,L|134:73,1,50
358,34,62047,2,8,L|335:93,1,50
461,274,62255,6,2,P|381:269|335:241,1,100
179,330,62568,2,2,P|203:236|237:211,1,100
244,34,62880,2,2,P|301:96|310:129,1,100
16,159,63192,2,2,P|121:140|133:144,1,100
110,137,63504,1,8,0:0:0:0:
449,235,63713,1,8,0:0:0:0:
45,343,63921,5,0,0:0:0:0:
45,343,64025,2,0,P|83:225|92:214,1,100
130,40,64337,2,0,P|161:149|161:167,1,100
205,349,64649,2,0,P|223:238|225:230,1,100
289,38,64962,2,0,P|313:116|318:153,1,100,0|8,0:0|0:0,0:0:0:0:
369,345,65378,1,8,0:0:0:0:
432,64,65586,5,0,0:0:0:0:
432,64,65690,2,0,P|319:121|306:135,1,100
64,304,66003,2,0,P|148:285|173:271,1,100
64,80,66315,2,0,P|177:107|183:110,1,100
432,320,66627,2,0,P|327:287|319:283,1,100,0|8,0:0|0:0,0:0:0:0:
42,144,67043,1,8,0:0:0:0:
400,48,67252,5,0,0:0:0:0:
400,98,67356,1,0,0:0:0:0:
128,112,67564,5,0,0:0:0:0:
128,162,67668,1,0,0:0:0:0:
352,176,67876,5,0,0:0:0:0:
352,226,67980,1,0,0:0:0:0:
208,224,68188,5,0,0:0:0:0:
208,274,68292,1,0,0:0:0:0:
336,320,68501,5,8,0:0:0:0:
256,384,68709,1,8,0:0:0:0:
220,298,68917,5,0,0:0:0:0:
196,254,69021,1,0,0:0:0:0:
195,205,69125,1,0,0:0:0:0:
213,158,69229,1,0,0:0:0:0:
219,109,69333,1,0,0:0:0:0:
191,68,69437,1,0,0:0:0:0:
146,49,69541,1,0,0:0:0:0:
96,49,69645,1,0,0:0:0:0:
18,211,69854,5,8,0:0:0:0:
18,211,69958,2,8,P|74:273|104:283,1,100
405,328,70374,1,8,0:0:0:0:
206,60,70583,1,4,0:0:0:0:
206,60,70687,6,0,P|255:88|281:131,1,100
225,336,70999,2,0,P|159:293|140:249,1,100
426,197,71311,2,0,P|360:218|332:246,1,100
65,118,71623,2,0,P|132:144|180:131,1,100
358,43,72040,1,0,0:0:0:0:
314,319,72248,5,0,0:0:0:0:
314,319,72352,2,0,P|251:286|199:284,1,100
63,57,72664,2,0,P|125:95|188:101,1,100
56,338,72977,2,0,P|65:285|101:228,1,100
265,71,73289,2,0,P|333:33|360:28,2,100
64,352,73913,5,0,0:0:0:0:
448,32,74330,1,0,0:0:0:0:
64,32,74746,1,0,0:0:0:0:
448,352,75162,1,8,0:0:0:0:
320,240,75371,1,8,0:0:0:0:
192,320,75579,5,0,0:0:0:0:
142,324,75683,1,0,0:0:0:0:
94,310,75787,1,0,0:0:0:0:
56,279,75891,1,0,0:0:0:0:
31,236,75995,1,0,0:0:0:0:
25,186,76099,1,0,0:0:0:0:
38,138,76203,1,0,0:0:0:0:
68,99,76307,1,0,0:0:0:0:
384,48,76516,5,8,0:0:0:0:
384,48,76620,1,8,0:0:0:0:
96,336,76828,1,8,0:0:0:0:
480,240,77036,1,8,0:0:0:0:
16,112,77244,1,4,0:0:0:0:
