osu file format v14

[General]
AudioFilename: audio.mp3
AudioLeadIn: 0
PreviewTime: 80852
Countdown: 0
SampleSet: Normal
StackLeniency: 0.7
Mode: 0
LetterboxInBreaks: 0
WidescreenStoryboard: 0

[Editor]
DistanceSpacing: 0.9
BeatDivisor: 4
GridSize: 4
TimelineZoom: 1

[Metadata]
Title:Mamacita (Ayaya)
TitleUnicode:Mamacita (아야야)
Artist:Super Junior
ArtistUnicode:슈퍼주니어
Creator:Kei
Version:Hard
Source:
Tags:sj suju kpop
BeatmapID:1585693
BeatmapSetID:753175

[Difficulty]
HPDrainRate:7
CircleSize:4.5
OverallDifficulty:7
ApproachRate:8
SliderMultiplier:1.9
SliderTickRate:1

[Events]
//Background and Video events
0,0,"super-junior-57c3c03aba4ff.jpg",0,0
//Break Periods
//Storyboard Layer 0 (Background)
//Storyboard Layer 1 (Fail)
//Storyboard Layer 2 (Pass)
//Storyboard Layer 3 (Foreground)
//Storyboard Sound Samples

[TimingPoints]
110.54081632653,400,4,1,1,85,1,0
33710,591.133004926108,4,1,1,85,1,0
81000,-100,4,1,1,95,0,1
99916,-100,4,1,1,85,0,0
128291,-100,4,1,1,95,0,1
147207,-100,4,1,1,85,0,0
201591,-100,4,1,1,95,0,1
210458,-100,4,1,1,85,0,0
211049,-100,4,1,1,95,0,1
220508,-100,4,1,1,85,0,0

[Colours]
Combo1 : 58,17,5
Combo2 : 244,203,117
Combo3 : 189,108,70
Combo4 : 128,64,64

[HitObjects]
356,104,33710,5,0,0:0:0:0:
360,188,34005,1,0,0:0:0:0:
444,208,34301,2,0,P|416:260|384:276,1,95
360,188,34892,2,0,P|400:136|464:132,1,95
464,112,35335,2,0,P|448:56|372:12,1,142.5,0|0,2:0|0:0,0:0:0:0:
336,88,36074,1,0,0:0:0:0:
212,144,36370,5,0,0:0:0:0:
136,180,36665,2,0,P|166:215|212:228,1,95
284,276,37256,2,0,P|260:316|212:336,1,95
180,316,37700,2,0,P|100:292|52:324,1,142.5,0|0,2:0|0:0,0:0:0:0:
120,376,38439,1,0,0:0:0:0:
92,228,38734,5,0,0:0:0:0:
76,144,39030,2,0,P|36:96|8:80,1,95
64,16,39621,2,0,P|108:36|172:40,1,95
196,56,40064,2,0,L|296:164,1,142.5,0|0,2:0|0:0,0:0:0:0:
256,192,40803,12,4,43168,0:2:0:0:
112,108,43759,5,8,0:0:0:0:
188,72,44054,1,0,0:0:0:0:
180,156,44350,2,0,P|152:224|136:240,1,95
72,292,44941,2,0,P|96:320|124:336,2,47.5,8|0|0,0:0|0:0|0:0,0:0:0:0:
24,148,45532,5,4,2:0:0:0:
84,84,45828,1,0,0:0:0:0:
168,88,46123,2,0,P|252:84|292:64,1,95,8|0,0:0|0:0,0:0:0:0:
340,52,46714,2,0,L|376:152,1,95
392,224,47306,1,8,0:0:0:0:
392,224,47453,1,0,0:0:0:0:
392,224,47601,1,0,0:0:0:0:
368,344,47897,6,0,P|456:328|508:244,1,190,4|8,2:0|0:0,0:0:0:0:
144,40,49079,2,0,P|56:56|4:140,1,190,4|8,2:0|0:0,0:0:0:0:
256,192,50261,12,0,52035,0:0:0:0:
360,244,52626,5,4,2:0:0:0:
344,160,52921,1,0,0:0:0:0:
268,120,53217,2,0,P|228:96|180:104,2,95
208,180,54104,2,0,P|152:184|120:160,1,95
108,80,54695,1,0,0:0:0:0:
160,260,54990,5,4,0:0:0:0:
224,316,55286,1,0,0:0:0:0:
308,316,55581,2,0,P|372:300|408:272,1,95
416,248,56025,1,0,0:0:0:0:
444,216,56173,2,0,P|484:236|516:292,2,95
360,200,57059,1,0,0:0:0:0:
216,312,57355,5,4,0:2:0:0:
300,316,57650,1,0,0:0:0:0:
292,232,57946,2,0,P|284:188|256:148,1,95
216,132,58389,1,0,0:0:0:0:
188,100,58537,2,0,P|196:28|240:0,2,95
272,76,59424,1,0,0:0:0:0:
392,96,59719,6,0,P|436:124|460:164,1,95,4|0,0:0|0:0,0:0:0:0:
396,220,60310,2,0,P|352:192|328:152,1,95,4|0,0:0|0:0,0:0:0:0:
304,120,60754,1,0,0:0:0:0:
260,112,60902,2,0,P|200:116|168:156,1,95
152,220,61493,2,0,P|198:223|240:191,1,95,4|0,0:0|0:0,0:0:0:0:
112,160,62084,6,0,P|65:156|23:188,1,95,4|0,2:0|0:0,0:0:0:0:
28,268,62675,2,0,P|66:294|112:291,1,95,8|0,0:0|0:0,0:0:0:0:
192,256,63266,2,0,L|236:164,1,95
260,140,63709,1,0,0:0:0:0:
300,128,63857,2,0,P|344:132|392:176,1,95,8|0,0:0|0:0,0:0:0:0:
288,300,64448,5,4,2:0:0:0:
288,300,64744,2,0,L|312:208,1,95,0|8,0:0|0:0,0:0:0:0:
260,140,65335,1,0,0:0:0:0:
232,220,65631,2,0,L|204:312,1,95
180,348,66074,1,0,0:0:0:0:
144,368,66222,2,0,P|84:360|48:320,1,95,8|0,0:0|0:0,0:0:0:0:
136,216,66813,5,4,0:2:0:0:
180,140,67109,1,0,0:0:0:0:
152,60,67404,2,0,P|92:36|44:48,1,95
28,64,67847,1,0,0:0:0:0:
8,104,67995,2,0,P|8:144|40:192,1,95
72,212,68439,1,0,0:0:0:0:
108,236,68586,2,0,P|128:288|120:344,1,95,8|0,0:0|0:0,0:0:0:0:
0,264,69177,5,4,0:2:0:0:
36,189,69473,1,0,0:0:0:0:
112,148,69769,2,0,P|176:120|196:100,1,95,8|0,0:0|0:0,0:0:0:0:
280,104,70360,2,0,P|300:140|352:168,1,95
384,180,70803,1,0,0:0:0:0:
424,192,70951,2,0,P|464:224|476:288,1,95,8|0,0:0|0:0,0:0:0:0:
360,96,71542,5,4,0:2:0:0:
384,180,71838,1,0,0:0:0:0:
396,264,72133,2,0,P|374:305|336:334,1,95,8|0,0:0|0:0,0:0:0:0:
296,348,72576,1,0,0:0:0:0:
252,344,72724,2,0,P|160:280|104:276,1,142.5
88,280,73315,2,0,L|64:176,1,95,8|0,0:0|0:0,0:0:0:0:
212,144,73907,5,4,2:0:0:0:
296,144,74202,1,0,0:0:0:0:
364,92,74498,2,0,P|300:60|252:76,1,95,8|0,0:0|0:0,0:0:0:0:
240,72,74941,1,0,0:0:0:0:
204,96,75089,2,0,P|136:128|64:108,1,142.5
32,108,75680,2,0,L|44:220,1,95,8|0,0:0|0:0,0:0:0:0:
128,32,76271,5,4,2:0:0:0:
212,52,76567,1,0,0:0:0:0:
260,124,76862,2,0,P|296:160|372:160,1,95,8|0,0:0|0:0,0:0:0:0:
376,152,77306,1,0,0:0:0:0:
388,112,77453,2,0,P|348:56|272:60,1,142.5
236,64,78044,2,0,L|124:24,1,95,8|0,0:0|0:0,0:0:0:0:
104,28,78488,1,0,0:0:0:0:
64,44,78636,5,4,0:0:0:0:
256,200,79227,1,4,0:0:0:0:
448,44,79818,1,4,0:0:0:0:
448,44,79966,1,0,0:0:0:0:
448,44,80113,1,4,0:0:0:0:
412,124,80409,1,0,0:0:0:0:
256,200,81000,5,4,0:2:0:0:
172,176,81296,1,0,0:0:0:0:
124,108,81591,2,0,P|96:68|48:56,1,95,8|0,0:0|0:0,0:0:0:0:
48,140,82182,2,0,L|44:240,1,95
60,320,82774,1,8,0:0:0:0:
96,340,82921,1,0,0:0:0:0:
136,348,83069,1,0,0:0:0:0:
256,280,83365,5,4,0:2:0:0:
248,168,83660,1,0,0:0:0:0:
360,192,83956,1,8,0:0:0:0:
344,80,84251,1,0,0:0:0:0:
456,96,84547,2,0,P|480:136|500:216,1,95
496,268,85138,1,8,0:0:0:0:
496,268,85286,1,0,0:0:0:0:
496,268,85434,1,0,0:0:0:0:
284,276,85729,5,4,0:2:0:0:
240,200,86025,1,0,0:0:0:0:
228,116,86320,2,0,P|200:64|152:32,1,95,8|0,0:0|0:0,0:0:0:0:
128,40,86764,1,0,0:0:0:0:
96,68,86911,2,0,P|100:128|116:160,1,95
196,192,87503,1,8,0:0:0:0:
228,116,87798,1,0,0:0:0:0:
376,112,88094,5,8,0:0:0:0:
404,224,88389,1,0,0:0:0:0:
292,192,88685,1,8,0:0:0:0:
296,304,88980,1,0,0:0:0:0:
192,256,89276,2,0,P|152:240|100:252,1,95,8|0,0:0|0:0,0:0:0:0:
148,356,89867,1,8,0:0:0:0:
148,356,90015,1,0,0:0:0:0:
148,356,90163,1,0,0:0:0:0:
152,164,90458,6,4,P|216:100|252:92,1,95,4|0,0:2|0:0,0:0:0:0:
300,84,91049,2,0,L|412:132,1,95,8|0,0:0|0:0,0:0:0:0:
420,148,91493,1,0,0:0:0:0:
448,180,91641,2,0,P|476:228|492:300,1,95
440,336,92232,2,0,L|300:340,1,95,8|0,0:0|0:0,0:0:0:0:
208,232,92823,5,0,0:0:0:0:
140,180,93118,1,0,0:0:0:0:
108,100,93414,2,0,P|92:72|20:44,1,95,8|0,0:0|0:0,0:0:0:0:
0,68,93857,1,0,0:0:0:0:
4,112,94005,2,0,L|28:224,1,95
56,284,94596,2,0,P|152:300|184:280,1,95,8|0,0:0|0:0,0:0:0:0:
120,156,95187,5,4,0:0:0:0:
184,96,95483,1,0,0:0:0:0:
216,68,95631,1,0,0:0:0:0:
256,60,95778,2,0,L|360:48,1,95,8|0,0:0|0:0,0:0:0:0:
372,132,96370,2,0,L|277:142,1,95
240,160,96813,1,0,0:0:0:0:
212,192,96961,2,0,P|192:244|196:288,1,95,8|0,0:0|0:0,0:0:0:0:
132,156,97552,6,0,L|96:60,1,95,4|0,0:2|0:0,0:0:0:0:
180,40,98143,2,0,L|213:128,1,95,8|0,0:0|0:0,0:0:0:0:
300,128,98734,2,0,L|333:39,1,95
412,68,99325,2,0,L|378:156,1,95,8|0,0:0|0:0,0:0:0:0:
364,196,99769,1,0,0:0:0:0:
352,236,99916,5,4,0:2:0:0:
