osu file format v14

[General]
AudioFilename: audio.ogg
AudioLeadIn: 0
PreviewTime: 54583
Countdown: 0
SampleSet: Soft
StackLeniency: 0.7
Mode: 0
LetterboxInBreaks: 0
WidescreenStoryboard: 1

[Editor]
Bookmarks: 25440,28440
DistanceSpacing: 0.6
BeatDivisor: 4
GridSize: 32
TimelineZoom: 1.4

[Metadata]
Title:Maid with Dragons <3 (TV Size)
TitleUnicode:めいど・うぃず・どらごんず❤︎ (TV Size)
Artist:Super Chorogons
ArtistUnicode:スーパーちょろゴンず
Creator:too
Version:Share's Easy
Source:小林さんちのメイドラゴンS
Tags:miss kobayashi's dragon maid s Kobayashi-san Chi no Maid Dragon season 2 maidragon kobayashis anime ed ending japanese pop jpop j-pop トール tohru 桑原由気 kuwahara yuuki カンナ kanna 長縄まりあ naganawa maria エルマ elma 高田憂希 takada ルコア lucoa 髙橋ミナミ takahashi minami イルル ilulu 嶺内ともみ mineuchi tomomi seiran- fu3ya_ fumiya light_u l1ght_u -hitomi share and
BeatmapID:4553757
BeatmapSetID:1536276

[Difficulty]
HPDrainRate:2
CircleSize:2.7
OverallDifficulty:2
ApproachRate:3
SliderMultiplier:1
SliderTickRate:1

[Events]
//Background and Video events
0,0,"000.jpg",0,0
Video,0,"video.mp4"
//Break Periods
//Storyboard Layer 0 (Background)
//Storyboard Layer 1 (Fail)
//Storyboard Layer 2 (Pass)
//Storyboard Layer 3 (Foreground)
//Storyboard Layer 4 (Overlay)
//Storyboard Sound Samples

[TimingPoints]
1012,428.571428571429,4,2,1,80,1,0
1012,-100,4,2,1,80,0,0
35351,-100,4,2,1,70,0,0
47726,-100,4,2,1,80,0,0
55869,-100,4,2,1,90,0,0
76440,-100,4,2,1,70,0,0
79869,-100,4,2,1,80,0,0

[Colours]
Combo1 : 237,255,104
Combo2 : 128,255,128
Combo3 : 255,128,231

[HitObjects]
16,98,1012,6,0,L|138:101,1,100,0|8,1:0|0:0,0:0:0:0:
198,43,1869,1,2,0:0:0:0:
396,20,2726,6,0,L|393:119,1,100,0|8,1:0|0:0,0:0:0:0:
444,205,3583,1,2,0:0:0:0:
413,333,4440,6,0,L|309:322,1,100,4|8,1:0|0:0,0:0:0:0:
230,266,5297,1,2,3:2:0:0:
42,334,6154,6,0,L|52:221,1,100,4|10,0:0|0:0,0:1:0:0:
42,134,7012,1,0,3:0:0:0:
112,63,7440,1,0,1:1:0:0:
201,107,7869,6,0,P|294:62|397:100,1,200,6|2,0:1|0:1,0:1:0:0:
449,162,9154,1,0,1:0:0:0:
437,261,9583,2,0,B|384:222|309:270|372:264|290:318|237:267,1,200,2|2,0:1|0:1,0:0:0:0:
72,292,11297,6,0,P|68:184|61:90,1,200,6|2,0:1|0:1,0:0:0:0:
152,30,12583,1,0,1:0:0:0:
250,80,13012,6,0,B|302:64|302:64|355:95,2,100,2|2|2,0:1|1:1|0:1,0:1:0:0:
72,177,14726,6,0,P|82:232|88:292,1,100,0|2,1:0|0:0,0:0:0:0:
143,358,15583,1,2,0:0:0:0:
226,302,16012,1,4,0:0:0:0:
314,347,16440,2,0,P|371:334|425:330,1,100,0|2,3:2|0:0,0:0:0:0:
473,251,17297,1,2,0:0:0:0:
422,164,17726,1,4,0:0:0:0:
480,82,18154,6,2,P|387:34|294:79,1,200,2|2,0:1|0:1,0:1:0:0:
104,50,19869,6,0,P|108:91|118:212,1,150,2|2,1:0|1:0,0:0:0:0:
332,337,21583,6,0,P|338:257|346:218,1,100,4|2,3:2|0:0,0:0:0:0:
395,141,22440,2,0,B|432:155|432:155|477:148,2,75,0|0|4,1:0|1:0|0:0,0:0:0:0:
81,36,24369,6,0,B|76:90|76:90|96:122|96:122|93:187,1,150,6|2,0:0|1:2,0:0:0:0:
48,280,25440,1,2,1:2:0:0:
157,270,25869,2,0,P|227:242|294:286,1,150,2|2,1:2|0:0,0:0:0:0:
431,357,27154,1,2,1:2:0:0:
500,271,27583,1,2,1:2:0:0:
464,166,28012,1,2,1:2:0:0:
354,172,28440,6,0,P|300:161|247:155,1,100,4|2,1:2|0:0,0:0:0:0:
151,118,29297,2,0,B|136:79|136:79|147:38,2,75,2|2|6,1:2|1:2|1:2,0:0:0:0:
283,216,30583,5,0,3:0:0:0:
179,324,31226,1,4,0:0:0:0:
85,207,31869,6,0,B|56:165|56:165|78:117,1,100,4|2,0:0|0:2,0:0:0:0:
169,61,32726,1,2,0:2:0:0:
302,128,33369,1,2,0:0:0:0:
416,31,34012,5,2,0:2:0:0:
479,120,34440,2,0,P|472:169|456:219,1,100,0|0,1:2|1:2,0:0:0:0:
379,295,35297,6,0,P|307:302|216:316,2,150,6|2|2,0:0|0:0|0:0,0:0:0:0:
457,217,37012,6,0,P|464:145|478:54,2,150,2|2|2,0:0|0:0|0:0,0:0:0:0:
379,295,38726,6,0,P|304:313|200:243,1,200,6|6,0:0|0:0,0:0:0:0:
73,79,40440,2,0,B|98:199|33:149|78:288,1,200,4|2,0:0|0:0,0:0:0:0:
148,355,41726,1,2,3:2:0:0:
235,286,42154,6,0,P|332:249|403:317,1,200,6|2,0:0|0:0,0:0:0:0:
496,253,43440,1,2,0:0:0:0:
499,142,43869,2,0,B|451:108|373:137|435:153|353:183|299:138,1,200,6|2,0:0|0:0,0:0:0:0:
237,65,45154,1,2,1:2:0:0:
157,141,45583,6,0,P|164:240|172:340,2,200,4|4|4,0:0|0:0|0:0,0:0:0:0:
237,65,47726,1,0,1:0:0:0:
325,129,48154,1,0,1:0:0:0:
406,54,48583,1,0,1:0:0:0:
480,135,49012,1,6,0:0:0:0:
256,192,49440,12,0,51583,1:2:0:0:
217,328,52440,6,0,P|131:298|44:354,2,200,0|0|0,1:0|1:0|1:0,0:0:0:0:
321,361,54583,5,0,3:0:0:0:
430,370,55012,1,4,3:0:0:0:
477,270,55440,1,2,0:0:0:0:
484,160,55869,6,0,B|436:122|362:146|415:164|333:189|296:146,1,200,6|2,0:0|0:0,0:0:0:0:
237,56,57154,1,2,1:2:0:0:
152,126,57583,2,0,P|162:197|169:278,1,150,2|2,0:0|1:2,0:0:0:0:
283,371,58869,1,2,0:0:0:0:
328,282,59297,5,6,0:0:0:0:
402,215,59726,1,6,0:2:0:0:
493,255,60155,2,0,P|464:295|418:309,1,100,6|6,0:0|1:2,0:0:0:0:
327,351,61012,6,0,B|318:289|318:289|299:265|299:265|292:192,1,150,6|6,0:0|0:0,0:0:0:0:
419,57,62512,6,0,P|409:130|405:213,1,150,2|2,1:2|0:0,0:0:0:0:
414,305,63583,1,2,0:0:0:0:
272,355,64226,2,0,B|188:339|214:395|118:371,1,150,2|2,1:2|0:0,0:0:0:0:
32,341,65297,1,2,0:0:0:0:
77,156,66154,6,0,P|72:101|67:50,1,100,6|0,0:0|1:0,0:0:0:0:
179,51,67012,2,0,P|183:100|188:150,1,100,6|0,0:0|1:0,0:0:0:0:
289,214,67869,6,0,B|361:179|361:179|434:214,2,150,4|4|0,0:0|0:0|3:2,0:0:0:0:
299,333,69583,6,0,B|242:295|179:329|232:334|159:369|108:328,1,200,4|2,0:0|0:0,0:0:0:0:
165,234,70869,1,2,1:2:0:0:
68,182,71297,2,0,P|78:111|85:30,1,150,2|2,0:0|1:2,0:0:0:0:
244,74,72583,1,2,3:2:0:0:
336,36,73012,5,6,0:0:0:0:
434,49,73440,1,6,0:2:0:0:
422,148,73869,2,0,P|364:153|317:128,1,100,6|0,3:2|3:2,0:0:0:0:
244,74,74726,6,0,B|207:114|207:114|235:210,1,150,2|6,1:2|0:0,0:0:0:0:
432,301,76226,2,0,P|363:301|269:322,1,150,2|2,1:2|0:2,0:0:0:0:
173,312,77297,1,0,1:0:0:0:
86,171,77940,2,0,B|67:115|67:115|93:82,2,100,2|2|4,0:2|0:0|0:0,0:0:0:0:
250,155,79440,1,0,3:2:0:0:
353,192,79869,6,0,P|383:165|413:143,2,75,6|6|6,0:0|0:0|0:0,0:0:0:0:
372,243,80726,2,0,B|280:222|323:285|213:256,1,150,6|6,0:0|0:0,0:0:0:0:
106,359,82012,5,4,0:0:0:0:
16,295,82440,1,4,0:0:0:0:
52,191,82869,1,4,1:2:0:0:
160,205,83297,6,0,P|244:202|282:202,1,100,4|2,1:2|3:2,0:0:0:0:
364,168,84154,2,0,L|378:15,2,150,2|2|2,3:2|0:0|3:2,0:0:0:0:
420,262,85869,1,2,0:0:0:0:
298,350,86512,1,0,1:2:0:0:
166,277,87154,6,0,B|69:192|173:53|266:148|216:204,1,283.333333333333,4|0,1:0|3:0,0:0:0:0:
