osu file format v14

[General]
AudioFilename: audio.ogg
AudioLeadIn: 0
PreviewTime: 54583
Countdown: 0
SampleSet: Soft
StackLeniency: 0.7
Mode: 0
LetterboxInBreaks: 0
WidescreenStoryboard: 1

[Editor]
Bookmarks: 25440,28440
DistanceSpacing: 0.8
BeatDivisor: 4
GridSize: 32
TimelineZoom: 2

[Metadata]
Title:Maid with Dragons <3 (TV Size)
TitleUnicode:めいど・うぃず・どらごんず❤︎ (TV Size)
Artist:Super Chorogons
ArtistUnicode:スーパーちょろゴンず
Creator:too
Version:Normal
Source:小林さんちのメイドラゴンS
Tags:miss kobayashi's dragon maid s Kobayashi-san Chi no Maid Dragon season 2 maidragon kobayashis anime ed ending japanese pop jpop j-pop トール tohru 桑原由気 kuwahara yuuki カンナ kanna 長縄まりあ naganawa maria エルマ elma 高田憂希 takada ルコア lucoa 髙橋ミナミ takahashi minami イルル ilulu 嶺内ともみ mineuchi tomomi seiran- fu3ya_ fumiya light_u l1ght_u -hitomi share and
BeatmapID:3167712
BeatmapSetID:1536276

[Difficulty]
HPDrainRate:4
CircleSize:3.4
OverallDifficulty:4
ApproachRate:5.8
SliderMultiplier:1.3
SliderTickRate:1

[Events]
//Background and Video events
0,0,"000.jpg",0,0
Video,0,"video.mp4"
//Break Periods
//Storyboard Layer 0 (Background)
//Storyboard Layer 1 (Fail)
//Storyboard Layer 2 (Pass)
//Storyboard Layer 3 (Foreground)
//Storyboard Layer 4 (Overlay)
//Storyboard Sound Samples

[TimingPoints]
1012,428.571428571429,4,2,1,80,1,0
35351,-100,4,2,1,70,0,0
47726,-100,4,2,1,80,0,0
55869,-90.9090909090909,4,2,1,90,0,0
58279,-90.9090909090909,4,2,1,90,0,0
58333,-90.9090909090909,4,2,1,90,0,0
71994,-90.9090909090909,4,2,1,90,0,0
72047,-90.9090909090909,4,2,1,90,0,0
76226,-100,4,2,1,70,0,0
79869,-100,4,2,1,80,0,0

[Colours]
Combo1 : 237,255,104
Combo2 : 128,255,128
Combo3 : 255,128,231

[HitObjects]
205,337,1012,5,0,1:0:0:0:
205,337,1226,2,0,L|274:347,1,65,8|8,0:2|0:0,0:0:0:0:
385,364,1869,2,0,L|488:378,2,97.5,2|2|2,0:2|0:0|0:0,0:0:0:0:
320,265,2940,6,0,L|251:255,1,65,8|8,0:2|0:0,0:0:0:0:
140,238,3583,2,0,L|36:223,2,97.5,2|2|2,0:2|0:0|0:0,0:0:0:0:
178,194,4440,6,0,L|160:56,1,130,4|8,1:0|0:0,0:0:0:0:
278,71,5297,2,0,L|290:167,2,97.5,2|2|2,0:0|0:0|0:0,0:0:0:0:
331,45,6154,2,0,P|462:199|359:232,1,390,4|0,0:0|1:1,0:1:0:0:
287,163,7869,6,2,L|137:169,1,130,6|0,0:1|1:0,0:1:0:0:
109,212,8512,1,2,0:1:0:0:
109,212,8726,2,0,P|112:261|133:313,2,97.5,2|2|2,0:1|0:1|0:1,0:0:0:0:
157,168,9583,2,0,L|287:163,1,130,2|0,0:1|1:0,0:0:0:0:
331,115,10226,1,2,0:1:0:0:
331,115,10440,2,2,P|359:63|436:83,1,130,2|0,0:1|1:0,0:1:0:0:
483,183,11297,6,0,L|467:327,1,130,6|0,0:1|1:0,0:0:0:0:
415,346,11940,1,2,0:1:0:0:
415,346,12154,2,0,L|395:239,2,97.5,2|2|2,0:1|0:1|0:1,0:0:0:0:
359,380,13012,2,2,B|308:371|307:308|245:305,1,130,2|2,0:1|1:1,0:1:0:0:
136,358,13869,2,2,P|130:276|160:211,1,130,2|0,0:1|1:0,0:1:0:0:
207,119,14726,5,0,1:0:0:0:
207,119,14940,2,0,P|160:105|115:112,1,65,2|2,0:0|0:0,0:0:0:0:
122,43,15369,2,0,P|74:54|38:82,1,65,2|2,0:0|0:0,0:0:0:0:
47,128,15797,1,6,0:0:0:0:
47,128,16012,1,4,0:0:0:0:
80,226,16440,5,0,0:0:0:0:
80,226,16654,2,0,P|64:260|42:280,2,65,2|2|2,0:0|0:0|0:0,0:0:0:0:
121,184,17297,1,2,0:0:0:0:
178,173,17512,1,6,0:0:0:0:
223,209,17726,1,4,0:0:0:0:
348,165,18154,6,2,L|369:23,1,130,2|0,0:1|1:0,0:1:0:0:
242,0,19012,2,2,L|261:128,1,130,2|0,0:1|1:0,0:1:0:0:
291,255,19869,6,0,L|410:272,2,97.5,2|2|2,1:0|1:0|1:0,0:0:0:0:
257,215,20726,2,0,L|182:228,1,65,0|0,3:0|3:0,0:0:0:0:
163,269,21154,2,0,L|88:256,1,65,0|0,3:0|3:0,0:0:0:0:
64,218,21583,5,4,3:2:0:0:
219,356,22440,5,0,1:0:0:0:
250,284,22762,1,0,1:0:0:0:
281,212,23083,1,4,0:0:0:0:
395,354,24369,6,0,P|450:362|486:297,1,130,4|0,0:0|0:0,0:0:0:0:
472,255,25012,5,0,1:0:0:0:
472,255,25226,2,0,L|406:243,2,65,2|2|2,0:0|1:2|0:2,0:0:0:0:
495,208,25869,2,0,P|472:153|401:127,1,130,2|2,1:2|1:2,0:0:0:0:
314,86,26726,6,0,L|232:107,2,65,2|2|2,1:2|0:2|1:2,0:0:0:0:
350,49,27369,1,2,0:2:0:0:
350,49,27583,2,0,P|404:35|463:43,2,97.5,2|2|2,1:2|0:2|0:0,0:0:0:0:
314,86,28440,1,4,1:2:0:0:
217,274,29297,5,0,1:2:0:0:
140,290,29619,1,0,1:2:0:0:
64,307,29940,1,4,1:2:0:0:
86,152,30583,5,0,3:0:0:0:
8,30,31226,1,4,0:0:0:0:
8,30,31440,1,4,0:0:0:0:
8,30,31654,2,0,L|83:46,1,65,0|4,3:0|0:0,0:0:0:0:
120,60,32083,6,0,L|190:53,1,65,2|2,3:2|0:2,0:0:0:0:
285,79,32726,2,0,P|292:121|270:197,2,97.5,2|2|2,0:2|0:2|3:2,0:0:0:0:
311,34,33583,2,0,L|383:23,1,65,2|2,0:2|3:2,0:2:0:0:
413,59,34012,1,2,0:0:0:0:
407,162,34440,5,0,1:2:0:0:
393,225,34654,1,0,1:2:0:0:
416,285,34869,2,0,L|483:297,1,65,0|0,1:2|1:2,0:0:0:0:
508,251,35297,6,0,L|492:123,1,97.5,6|2,0:0|0:0,0:0:0:0:
438,87,35940,2,0,P|380:86|327:138,1,130,2|2,0:0|0:0,0:0:0:0:
326,191,36583,1,2,1:2:0:0:
212,213,37012,6,0,L|110:193,1,97.5,2|2,0:0|0:0,0:0:0:0:
49,137,37654,2,0,P|49:95|123:35,1,130,2|2,0:0|0:0,0:0:0:0:
167,43,38297,1,2,1:2:0:0:
201,153,38726,6,0,L|213:254,2,97.5,6|2|2,0:0|0:0|0:0,0:0:0:0:
247,128,39583,2,0,L|259:27,2,97.5,6|2|2,0:0|0:0|0:0,0:0:0:0:
288,159,40440,6,0,L|418:140,1,130,4|0,0:0|0:0,0:0:0:0:
496,206,41297,1,2,0:0:0:0:
451,300,41726,1,2,1:2:0:0:
350,273,42154,6,0,P|306:269|243:332,1,130,6|0,0:0|0:0,0:0:0:0:
241,375,42797,1,2,0:0:0:0:
241,375,43012,1,2,0:0:0:0:
145,333,43440,1,2,0:0:0:0:
145,228,43869,6,0,P|106:194|24:201,1,130,6|0,0:0|0:0,0:0:0:0:
8,243,44512,1,2,0:0:0:0:
8,243,44726,1,2,0:0:0:0:
43,340,45154,5,2,1:2:0:0:
133,289,45583,2,0,P|151:244|148:180,2,97.5,4|4|4,0:0|0:0|0:0,0:0:0:0:
181,308,46440,2,0,P|225:288|268:241,2,97.5,4|4|4,0:0|0:0|0:0,0:0:0:0:
212,349,47297,1,4,0:0:0:0:
314,328,47726,6,0,P|344:285|335:196,1,130,0|0,1:0|1:0,0:0:0:0:
269,134,48583,1,0,1:0:0:0:
346,64,49012,6,0,L|423:40,1,65,6|2,0:0|0:0,0:0:0:0:
451,72,49440,2,0,L|475:149,1,65,2|2,0:0|1:2,0:0:0:0:
438,174,49869,2,0,L|361:198,1,65,2|2,0:0|1:2,0:0:0:0:
333,166,50297,2,0,L|309:89,1,65,2|2,0:0|1:2,0:0:0:0:
276,67,50726,5,2,0:0:0:0:
172,54,51154,2,0,L|160:131,1,65,2|2,1:2|1:2,0:0:0:0:
154,173,51583,1,2,1:2:0:0:
154,173,51797,2,0,L|234:185,1,65,0|0,1:0|1:0,0:0:0:0:
274,191,52226,1,0,1:0:0:0:
274,191,52440,5,0,1:0:0:0:
108,316,53297,1,0,1:0:0:0:
28,123,54154,1,0,1:0:0:0:
107,56,54583,6,0,P|128:99|112:183,1,130,2|2,3:2|3:2,0:0:0:0:
194,280,55440,1,2,0:0:0:0:
320,236,55869,6,0,B|334:177|270:165|286:91,1,143.000004364014,6|2,0:0|1:2,0:0:0:0:
345,40,56512,1,0,0:0:0:0:
405,102,56726,2,0,L|485:115,1,71.5000021820069,2|2,0:0|0:0,0:0:0:0:
512,187,57154,2,0,L|432:200,1,71.5000021820069,2|2,1:2|0:0,0:0:0:0:
395,271,57583,1,2,0:0:0:0:
324,223,57797,2,0,L|256:202,1,71.5000021820069,2|2,0:0|1:2,0:0:0:0:
173,177,58226,1,6,0:0:0:0:
238,342,58654,5,2,0:0:0:0:
238,342,58869,2,0,L|163:354,1,71.5000021820069,2|2,1:2|0:0,0:0:0:0:
95,320,59297,6,0,P|82:286|78:251,1,71.5000021820069,6|2,0:0|0:0,0:0:0:0:
48,178,59726,2,0,P|75:121|102:98,1,71.5000021820069,6|2,0:0|0:0,0:0:0:0:
117,46,60154,2,0,P|174:20|213:22,1,71.5000021820069,6|2,0:0|0:0,0:0:0:0:
259,30,60583,2,0,L|268:133,1,71.5000021820069,6|0,1:2|0:0,0:0:0:0:
272,179,61012,5,6,0:0:0:0:
412,115,61440,1,0,1:2:0:0:
412,115,61654,2,0,L|430:264,1,143.000004364014,2|0,0:0|0:0,0:0:0:0:
381,328,62297,1,0,1:0:0:0:
302,292,62512,1,2,0:0:0:0:
149,327,62940,5,2,0:2:0:0:
90,270,63154,2,0,L|86:181,2,71.5000021820069,2|2|2,1:2|0:0|0:0,0:0:0:0:
62,351,63797,1,2,0:1:0:0:
62,351,64012,1,2,1:1:0:0:
6,286,64226,6,0,L|-1:121,1,143.000004364014,2|2,0:0|0:0,0:0:0:0:
55,78,64869,2,0,L|51:-11,2,71.5000021820069,2|2|2,1:2|0:0|0:0,0:0:0:0:
123,130,65512,1,2,0:1:0:0:
186,72,65726,1,2,1:1:0:0:
268,222,66154,6,0,P|336:184|403:204,1,143.000004364014,6|0,0:0|0:0,0:0:0:0:
238,128,67012,2,0,P|170:90|103:110,1,143.000004364014,6|0,0:0|0:0,0:0:0:0:
269,41,67869,6,0,L|343:30,1,71.5000021820069,6|2,1:2|0:0,0:0:0:0:
422,51,68297,1,6,1:2:0:0:
460,127,68512,2,0,L|439:280,1,143.000004364014,6|2,1:2|0:0,0:0:0:0:
369,316,69154,1,2,1:2:0:0:
204,271,69583,6,0,P|161:269|119:298,1,71.5000021820069,4|0,0:0|0:0,0:0:0:0:
152,366,70012,2,0,P|194:367|236:338,1,71.5000021820069,2|0,1:2|0:0,0:0:0:0:
283,297,70440,1,2,0:0:0:0:
367,280,70654,1,2,0:0:0:0:
450,299,70869,2,0,P|485:279|503:230,1,71.5000021820069,2|2,1:2|0:0,0:0:0:0:
491,167,71297,6,0,L|484:86,2,71.5000021820069,2|2|2,0:0|0:0|1:2,0:0:0:0:
426,221,71940,1,6,0:0:0:0:
284,171,72369,1,2,0:0:0:0:
284,171,72583,2,0,P|270:214|279:250,1,71.5000021820069,2|2,1:2|0:0,0:0:0:0:
358,214,73012,6,0,P|366:169|351:121,1,71.5000021820069,6|2,3:2|3:2,0:0:0:0:
304,90,73440,2,0,P|282:44|240:23,1,71.5000021820069,6|2,3:2|3:2,0:0:0:0:
188,20,73869,2,0,P|140:2|97:19,1,71.5000021820069,6|2,3:2|3:2,0:0:0:0:
57,52,74297,1,6,3:2:0:0:
157,173,74726,6,0,P|194:250|167:320,1,143.000004364014,2|6,1:2|0:0,0:0:0:0:
99,330,75369,2,0,P|49:280|47:211,1,143.000004364014,6|0,0:0|1:0,0:0:0:0:
127,92,76226,6,0,L|259:110,1,130,2|2,1:2|0:2,0:0:0:0:
301,84,76869,2,0,L|379:73,1,65,2|2,0:2|0:2,0:0:0:0:
417,69,77297,1,2,0:2:0:0:
474,162,77726,1,2,0:0:0:0:
474,162,77940,2,0,L|329:184,1,130,2|2,0:0|0:0,0:0:0:0:
300,207,78583,1,2,0:0:0:0:
279,254,78797,1,2,0:0:0:0:
199,321,79226,6,0,L|123:308,1,65,2|2,0:3|0:3,0:0:0:0:
87,297,79654,1,2,0:3:0:0:
87,297,79869,6,0,P|77:253|91:189,2,97.5,6|6|6,0:0|0:0|0:0,0:0:0:0:
73,348,80726,2,0,P|33:328|-7:276,2,97.5,6|6|6,0:0|0:0|0:0,0:0:0:0:
207,268,82012,6,0,L|224:139,1,130,4|4,0:0|0:0,0:0:0:0:
316,89,82869,1,4,0:0:0:0:
398,160,83297,5,4,0:0:0:0:
398,160,83512,2,0,L|411:245,1,65,2|2,0:0|0:0,0:0:0:0:
326,288,84154,2,0,P|387:327|434:328,2,97.5,2|2|0,0:0|0:0|0:0,0:0:0:0:
270,199,85226,6,0,L|257:114,1,65,2|2,0:0|0:0,0:0:0:0:
342,71,85868,2,0,P|281:32|234:31,2,97.5,2|2|0,0:0|0:0|0:0,0:0:0:0:
398,160,86940,6,0,L|480:150,1,65,0|4,3:0|1:0,3:0:0:0:
256,192,87369,12,0,88369,3:2:0:0:
