osu file format v14

[General]
AudioFilename: audio.ogg
AudioLeadIn: 0
PreviewTime: 54583
Countdown: 0
SampleSet: Soft
StackLeniency: 0.8
Mode: 0
LetterboxInBreaks: 0
WidescreenStoryboard: 1

[Editor]
DistanceSpacing: 0.8
BeatDivisor: 4
GridSize: 32
TimelineZoom: 2

[Metadata]
Title:Maid with Dragons <3 (TV Size)
TitleUnicode:めいど・うぃず・どらごんず❤︎ (TV Size)
Artist:Super Chorogons
ArtistUnicode:スーパーちょろゴンず
Creator:too
Version:L1gHT's Hard
Source:小林さんちのメイドラゴンS
Tags:miss kobayashi's dragon maid s Kobayashi-san Chi no Maid Dragon season 2 maidragon kobayashis anime ed ending japanese pop jpop j-pop トール tohru 桑原由気 kuwahara yuuki カンナ kanna 長縄まりあ naganawa maria エルマ elma 高田憂希 takada ルコア lucoa 髙橋ミナミ takahashi minami イルル ilulu 嶺内ともみ mineuchi tomomi seiran- fu3ya_ fumiya light_u l1ght_u -hitomi share and
BeatmapID:3178314
BeatmapSetID:1536276

[Difficulty]
HPDrainRate:4.5
CircleSize:3.8
OverallDifficulty:6
ApproachRate:7.5
SliderMultiplier:1.6
SliderTickRate:1

[Events]
//Background and Video events
0,0,"000.jpg",0,0
Video,0,"video.mp4"
//Break Periods
//Storyboard Layer 0 (Background)
//Storyboard Layer 1 (Fail)
//Storyboard Layer 2 (Pass)
//Storyboard Layer 3 (Foreground)
//Storyboard Layer 4 (Overlay)
//Storyboard Sound Samples

[TimingPoints]
1012,428.571428571429,4,2,1,80,1,0
23137,-100,4,1,1,5,0,0
23512,-100,4,2,1,5,0,0
24369,-100,4,2,1,80,0,0
25012,-90.9090909090909,4,2,1,80,0,0
35297,-100,4,2,1,80,0,0
35351,-100,4,2,1,70,0,0
47726,-100,4,2,1,80,0,0
55869,-90.9090909090909,4,2,1,90,0,0
58279,-90.9090909090909,4,2,1,5,0,0
58333,-90.9090909090909,4,2,1,90,0,0
71994,-90.9090909090909,4,2,1,5,0,0
72047,-90.9090909090909,4,2,1,90,0,0
76440,-100,4,2,1,70,0,0
79869,-100,4,2,1,80,0,0
87154,-166.666666666667,4,2,1,80,0,0

[Colours]
Combo1 : 237,255,104
Combo2 : 128,255,128
Combo3 : 255,128,231

[HitObjects]
66,51,1012,5,0,1:0:0:0:
140,138,1226,1,8,0:0:0:0:
212,81,1440,2,0,B|252:57|252:57|352:70,1,120,8|0,0:0|0:0,0:0:0:0:
350,78,1869,2,0,L|381:108,1,40,2|2,0:0|0:0,0:0:0:0:
435,174,2190,2,0,B|425:257|425:257|404:258|386:273,1,120,2|2,0:0|0:0,0:0:0:0:
319,322,2726,5,0,1:0:0:0:
212,273,2940,1,8,0:0:0:0:
121,300,3154,2,0,B|101:267|101:267|115:176,1,120,8|0,0:0|0:0,0:0:0:0:
128,162,3583,2,0,L|152:126,1,40,2|2,0:0|0:0,0:0:0:0:
201,50,3904,2,0,P|159:31|80:32,1,120,2|2,0:0|0:0,0:0:0:0:
0,25,4440,5,4,1:0:0:0:
29,146,4654,1,8,0:0:0:0:
76,228,4869,2,0,B|113:247|113:247|229:229,1,120,8|0,0:0|0:0,0:0:0:0:
223,212,5297,2,0,L|263:204,2,40,0|0|0,3:0|3:0|3:0,0:0:0:0:
190,234,5619,2,0,P|204:288|228:359,1,120,0|0,3:0|3:0,0:0:0:0:
323,360,6154,5,4,0:0:0:0:
400,274,6369,1,8,0:0:0:0:
487,352,6583,2,0,P|497:312|492:217,1,120,8|0,0:0|0:0,0:0:0:0:
481,196,7012,2,0,L|435:190,2,40,0|0|0,3:0|3:0|3:0,0:0:0:0:
505,164,7333,2,0,P|494:116|491:39,1,120,0|0,3:0|1:0,0:0:0:0:
391,12,7869,6,2,B|363:59|285:37|285:37|303:16|330:13,1,160,6|0,0:1|1:0,0:1:0:0:
376,92,8512,1,2,0:1:0:0:
314,165,8726,2,0,P|318:209|331:298,2,120,2|2|2,0:1|0:1|0:1,0:0:0:0:
254,86,9583,2,0,B|212:109|212:109|88:99,1,160,2|0,0:1|1:0,0:0:0:0:
31,38,10226,1,2,0:1:0:0:
10,158,10440,1,2,0:1:0:0:
10,158,10869,2,0,P|34:194|77:207,1,80,0|0,1:2|0:0,0:0:0:0:
104,315,11297,6,0,P|152:329|252:271,1,160,6|0,0:1|1:0,0:0:0:0:
234,182,11940,1,2,0:1:0:0:
172,106,12154,2,0,P|207:63|271:49,2,120,2|2|2,0:1|0:1|0:1,0:0:0:0:
85,163,13012,6,2,P|97:230|121:293,1,120,2|0,0:1|0:0,0:1:0:0:
80,323,13440,2,2,B|115:294|115:294|222:291,1,120,2|0,1:1|0:0,0:1:0:0:
224,325,13869,2,2,P|200:365|193:319,1,120,2|0,0:1|0:0,0:1:0:0:
226,283,14297,1,0,1:2:0:0:
327,318,14512,1,0,3:0:0:0:
327,318,14619,1,0,3:0:0:0:
327,318,14726,6,0,P|340:270|340:231,1,80,0|2,1:0|0:0,0:0:0:0:
331,213,15047,1,2,0:0:0:0:
331,213,15154,2,0,P|318:165|318:126,1,80,2|2,0:0|0:0,0:0:0:0:
318,35,15583,2,0,L|344:0,2,40,2|2|6,0:0|0:0|0:0,0:0:0:0:
216,55,16012,2,0,L|136:78,1,80,4|0,0:0|0:0,0:0:0:0:
31,138,16440,6,0,P|59:181|54:275,1,120,2|0,0:0|0:0,0:0:0:0:
16,308,16869,2,0,P|64:326|98:315,1,80,2|2,0:0|0:0,0:0:0:0:
186,259,17297,2,0,P|185:237|189:213,2,40,2|2|6,0:0|0:0|0:0,0:0:0:0:
277,306,17726,2,0,L|364:296,1,80,4|0,0:0|0:0,0:0:0:0:
449,335,18154,6,2,P|439:277|441:209,1,120,2|0,0:1|0:0,0:1:0:0:
377,164,18583,2,0,P|419:137|463:140,1,80,0|0,1:0|0:0,0:0:0:0:
439,17,19012,6,2,P|449:75|447:143,1,120,2|0,0:1|0:0,0:1:0:0:
511,188,19441,2,0,P|469:215|425:212,1,80,0|0,1:0|0:0,0:0:0:0:
320,146,19869,6,0,L|297:20,2,120,2|2|2,1:0|1:0|1:0,0:0:0:0:
326,246,20726,1,2,3:2:0:0:
326,246,20833,2,0,P|278:237|234:210,1,80,2|0,3:2|3:0,0:0:0:0:
239,198,21154,1,2,3:2:0:0:
212,108,21369,1,2,3:2:0:0:
212,108,21476,1,0,3:0:0:0:
212,108,21583,5,4,3:2:0:0:
379,17,22440,1,0,1:0:0:0:
488,74,22762,1,0,1:0:0:0:
512,198,23083,2,0,B|498:311|498:311|473:259,1,160,4|0,0:0|0:0,0:0:0:0:
478,269,24369,2,0,B|407:303|395:229|311:278,1,160,4|0,0:0|0:0,0:0:0:0:
253,342,25012,5,0,1:0:0:0:
159,367,25226,1,2,0:0:0:0:
73,328,25440,2,0,L|68:275,2,44.0000013427735,2|2|2,1:2|0:2|0:2,0:0:0:0:
159,367,25869,2,0,L|162:268,1,88.000002685547,2|2,1:2|0:2,0:0:0:0:
175,251,26190,1,2,0:2:0:0:
175,251,26297,1,2,1:2:0:0:
239,170,26512,6,0,P|205:138|80:124,1,176.000005371094,2|2,0:0|0:2,0:0:0:0:
15,197,27154,1,2,1:2:0:0:
15,197,27262,1,2,0:2:0:0:
15,197,27369,1,2,0:2:0:0:
81,123,27583,2,0,L|69:34,1,88.000002685547,2|2,1:2|0:2,0:0:0:0:
59,11,27904,1,2,0:2:0:0:
59,11,28012,2,0,L|13:32,3,44.0000013427735,2|2|2|2,1:2|0:2|0:2|0:2,0:0:0:0:
0,40,28440,5,4,1:2:0:0:
290,107,29297,1,0,1:2:0:0:
401,44,29619,1,0,1:2:0:0:
500,129,29940,2,0,B|497:195|497:195|480:219|480:219|477:302,1,176.000005371094,4|2,1:2|0:0,0:0:0:0:
402,374,30583,6,0,L|357:369,3,29.3333342285157,0|0|0|0,3:0|3:0|3:0|3:0,3:0:0:0:
375,179,31226,1,4,0:0:0:0:
310,258,31440,1,4,0:0:0:0:
211,242,31654,1,0,3:0:0:0:
211,242,31762,1,0,3:0:0:0:
211,242,31869,5,4,0:0:0:0:
114,278,32083,2,0,P|64:262|32:221,1,88.000002685547,2|2,3:2|0:2,0:0:0:0:
128,182,32512,1,2,3:2:0:0:
128,182,32619,1,2,0:2:0:0:
128,182,32726,2,0,P|135:100|142:68,1,88.000002685547,2|2,0:2|3:2,0:0:0:0:
124,52,33047,1,2,0:2:0:0:
250,15,33369,6,0,B|345:8|337:90|435:70,1,176.000005371094,2|2,3:2|3:2,0:0:0:0:
496,23,34012,1,2,0:2:0:0:
496,23,34119,1,2,0:2:0:0:
496,23,34226,1,2,3:2:0:0:
410,73,34440,2,0,P|411:123|415:176,1,88.000002685547,0|0,1:2|1:2,0:0:0:0:
432,185,34762,1,0,1:2:0:0:
432,185,34869,2,0,L|476:168,3,44.0000013427735,0|0|0|0,1:2|1:2|1:2|1:2,0:0:0:0:
487,145,35297,5,6,0:0:0:0:
499,264,35619,1,2,0:0:0:0:
387,305,35940,2,0,L|262:295,1,120,2|0,0:0|0:0,0:0:0:0:
239,288,36369,5,2,0:0:0:0:
160,236,36583,1,2,0:0:0:0:
83,296,36797,1,2,0:0:0:0:
83,296,36904,1,0,0:0:0:0:
83,296,37012,5,2,0:0:0:0:
0,207,37333,1,2,0:0:0:0:
87,121,37654,2,0,B|87:75|85:32|85:32|56:-4,1,120,2|0,0:0|0:0,0:0:0:0:
58,11,38083,5,2,0:0:0:0:
154,0,38297,1,2,0:0:0:0:
243,39,38512,1,2,0:0:0:0:
291,130,38726,6,0,P|346:113|415:122,2,120,6|2|2,0:0|0:0|0:0,0:0:0:0:
188,201,39583,2,0,P|133:184|64:193,2,120,6|2|2,0:0|0:0|0:0,0:0:0:0:
315,240,40440,6,0,P|386:293|385:368,1,160,2|0,0:0|3:0,0:0:0:0:
294,384,41083,1,2,0:0:0:0:
195,361,41297,1,2,0:0:0:0:
111,306,41512,2,0,L|54:319,2,40,0|0|2,0:0|3:0|3:2,0:0:0:0:
177,231,41940,1,0,0:0:0:0:
177,231,42047,1,0,0:0:0:0:
177,231,42154,6,0,P|200:198|202:147,1,80,6|0,0:0|0:0,0:0:0:0:
187,120,42476,2,0,B|132:131|137:178|84:181,1,120,2|2,0:0|0:0,0:0:0:0:
0,217,43012,2,0,B|-4:158|-4:158|16:121|16:121|13:61,1,160,2|2,0:0|0:0,0:0:0:0:
108,27,43654,1,2,0:3:0:0:
196,76,43869,6,0,P|237:61|360:89,1,160,6|0,0:0|0:0,0:0:0:0:
428,147,44512,1,2,0:0:0:0:
348,212,44726,2,0,P|272:236|196:218,1,160,2|2,0:0|0:0,0:0:0:0:
117,153,45369,1,2,1:3:0:0:
196,218,45583,6,0,P|218:254|212:342,1,120,4|4,0:0|0:0,0:0:0:0:
67,262,46226,1,4,0:0:0:0:
105,346,46440,2,0,P|169:354|227:319,1,120,4|4,0:0|0:0,0:0:0:0:
226,166,47083,1,4,0:0:0:0:
319,180,47297,2,0,P|359:169|405:174,1,80,4|0,0:0|0:0,0:0:0:0:
504,150,47726,6,0,L|502:230,1,80,0|0,1:0|1:0,0:0:0:0:
397,171,48154,2,0,L|395:251,1,80,0|0,1:0|1:0,0:0:0:0:
288,192,48583,2,0,L|286:272,1,80,0|2,1:0|1:2,0:0:0:0:
196,320,49012,6,0,P|156:292|100:292,1,80,6|2,0:0|0:0,0:0:0:0:
99,297,49333,1,2,0:0:0:0:
99,297,49440,2,0,P|54:308|11:292,1,80,2|2,0:0|1:2,0:0:0:0:
62,209,49869,5,2,0:0:0:0:
1,135,50083,2,0,P|-1:88|82:18,1,160,2|2,1:2|1:2,0:0:0:0:
160,72,50726,5,2,0:0:0:0:
242,18,50940,2,0,P|308:58|319:135,1,160,2|2,1:2|1:2,0:0:0:0:
270,219,51583,1,2,1:2:0:0:
270,219,51690,1,2,0:0:0:0:
270,219,51797,1,2,1:2:0:0:
270,219,51904,1,2,1:2:0:0:
270,219,52012,2,0,L|220:243,2,40,2|0|0,1:2|1:0|1:0,0:0:0:0:
256,192,52440,12,0,54154,1:0:0:0:
256,239,54583,5,0,3:0:0:0:
157,213,54797,1,4,3:0:0:0:
157,213,54904,1,4,3:0:0:0:
157,213,55012,2,0,P|112:225|86:254,1,80,4|0,3:0|0:0,0:0:0:0:
0,310,55440,2,0,P|45:322|71:351,1,80,2|2,0:0|0:0,0:0:0:0:
190,368,55869,6,0,P|255:339|354:341,1,132.00000402832,6|0,0:0|0:0,0:0:0:0:
383,367,56297,2,0,P|368:319|370:273,1,88.000002685547,2|0,1:2|0:0,0:0:0:0:
386,256,56619,1,2,0:0:0:0:
386,256,56726,1,2,0:0:0:0:
471,167,56940,1,2,0:0:0:0:
401,66,57154,2,0,P|347:43|306:47,1,88.000002685547,2|2,1:2|0:0,0:0:0:0:
206,109,57583,6,0,P|166:111|111:81,2,88.000002685547,2|2|2,0:0|0:0|1:2,0:0:0:0:
338,128,58226,2,0,P|350:175|339:256,1,132.00000402832,6|0,0:0|0:0,0:0:0:0:
316,278,58654,1,2,0:0:0:0:
208,343,58869,2,0,P|162:343|109:337,1,88.000002685547,2|2,1:2|0:0,0:0:0:0:
20,248,59297,6,0,L|115:236,1,88.000002685547,6|0,0:0|0:0,0:0:0:0:
133,219,59619,1,2,0:0:0:0:
133,219,59726,6,0,L|228:207,1,88.000002685547,6|0,1:2|0:0,0:0:0:0:
246,190,60047,1,2,0:0:0:0:
246,190,60154,6,0,L|341:178,1,88.000002685547,6|0,0:0|0:0,0:0:0:0:
359,161,60476,1,2,0:0:0:0:
359,161,60583,6,0,P|425:157|457:76,1,132.00000402832,6|2,1:2|0:0,0:0:0:0:
455,75,61012,1,6,0:0:0:0:
363,31,61226,1,0,0:0:0:0:
270,53,61440,1,0,1:2:0:0:
193,118,61654,2,0,P|136:163|38:153,1,176.000005371094,2|0,0:0|0:0,0:0:0:0:
123,255,62297,1,0,1:0:0:0:
22,343,62512,1,2,0:0:0:0:
22,343,62619,1,2,0:0:0:0:
22,343,62726,6,0,L|139:371,1,88.000002685547,0|0,3:0|3:0,0:0:0:0:
201,329,63154,1,2,1:2:0:0:
297,297,63369,1,2,0:0:0:0:
390,323,63583,1,2,0:0:0:0:
297,297,63797,2,0,P|283:249|283:200,1,88.000002685547,2|2,0:1|1:1,0:0:0:0:
380,128,64226,6,0,B|392:5|392:5|345:64,1,176.000005371094,2|2,0:0|0:0,0:0:0:0:
277,105,64869,1,2,1:2:0:0:
178,116,65083,1,2,0:0:0:0:
96,62,65297,1,2,0:0:0:0:
178,116,65512,2,0,P|184:162|175:203,1,88.000002685547,2|2,0:1|1:1,0:0:0:0:
108,299,65940,1,2,0:0:0:0:
108,299,66047,1,0,0:0:0:0:
108,299,66154,6,0,P|162:326|228:306,1,132.00000402832,6|0,0:0|0:0,0:0:0:0:
242,279,66583,1,0,1:2:0:0:
341,192,66797,1,2,0:0:0:0:
341,192,66904,1,0,0:0:0:0:
341,192,67011,6,0,P|395:165|461:185,1,132.00000402832,6|0,0:0|0:0,0:0:0:0:
475,212,67440,1,0,1:2:0:0:
512,311,67654,1,2,0:0:0:0:
414,343,67869,6,0,P|404:279|408:238,1,88.000002685547,6|2,0:0|0:0,0:0:0:0:
411,123,68297,1,2,0:0:0:0:
297,46,68512,2,0,P|172:6|86:32,1,220.000006713867,2|0,0:0|0:0,0:0:0:0:
64,58,69154,2,0,L|70:114,3,44.0000013427735,2|2|2|2,0:0|0:0|0:0|0:0,0:0:0:0:
56,130,69583,6,0,B|71:189|71:189|67:191|67:191|88:273,1,132.00000402832,4|2,0:0|0:0,0:0:0:0:
31,311,70012,2,0,P|73:331|120:322,1,88.000002685547,2|0,1:2|0:0,0:0:0:0:
145,319,70333,1,2,0:0:0:0:
145,319,70440,1,2,0:0:0:0:
204,205,70654,1,2,0:0:0:0:
94,136,70868,2,0,P|142:103|183:99,1,88.000002685547,2|2,1:2|0:0,0:0:0:0:
294,141,71297,6,0,P|333:135|381:95,2,88.000002685547,2|2|2,0:0|0:0|1:2,0:0:0:0:
168,185,71940,2,0,P|165:233|191:310,1,132.00000402832,6|0,0:0|0:0,0:0:0:0:
218,328,72368,1,2,0:0:0:0:
336,371,72583,2,0,P|381:362|432:346,1,88.000002685547,2|2,1:2|0:0,0:0:0:0:
503,242,73011,6,0,L|407:248,1,88.000002685547,6|0,3:2|3:0,0:0:0:0:
386,235,73333,1,2,3:2:0:0:
386,235,73440,6,0,L|290:241,1,88.000002685547,6|0,3:2|3:0,0:0:0:0:
270,228,73761,1,2,3:2:0:0:
270,228,73868,6,0,L|174:234,1,88.000002685547,6|0,3:2|3:2,0:0:0:0:
154,221,74190,1,2,3:2:0:0:
154,221,74297,6,0,P|88:229|41:156,1,132.00000402832,6|2,3:2|0:0,0:0:0:0:
43,155,74726,1,2,1:2:0:0:
125,94,74940,1,0,3:0:0:0:
125,94,75047,1,0,3:0:0:0:
125,94,75154,5,6,0:0:0:0:
246,142,75369,2,0,L|381:135,1,132.00000402832,6|0,0:0|0:0,0:0:0:0:
396,110,75797,1,0,1:0:0:0:
494,194,76012,1,0,1:0:0:0:
424,297,76226,1,2,1:2:0:0:
424,297,76333,1,2,1:2:0:0:
424,297,76440,6,0,P|374:316|336:317,1,80,2|2,1:2|0:2,0:0:0:0:
249,279,76869,1,2,0:2:0:0:
163,324,77083,1,2,0:2:0:0:
69,302,77297,2,0,P|70:254|86:219,1,80,2|2,0:2|0:0,0:0:0:0:
144,151,77726,1,2,0:0:0:0:
247,147,77940,1,2,0:0:0:0:
247,147,78047,1,2,0:0:0:0:
247,147,78154,6,0,P|287:155|348:156,2,80,2|2|2,0:0|0:0|0:0,0:0:0:0:
192,25,78797,1,6,0:0:0:0:
35,122,79226,5,2,0:3:0:0:
35,122,79333,1,2,0:3:0:0:
35,122,79440,2,0,L|50:167,3,40,2|2|2|2,0:3|0:3|0:3|0:3,0:0:0:0:
74,166,79869,6,0,L|155:154,1,80,6|0,0:0|0:0,0:0:0:0:
177,167,80190,2,0,L|258:155,1,80,6|0,0:0|0:0,0:0:0:0:
282,165,80512,1,6,0:0:0:0:
393,82,80726,6,0,L|405:163,1,80,6|0,0:0|0:0,0:0:0:0:
392,185,81047,2,0,L|404:266,1,80,6|0,0:0|0:0,0:0:0:0:
394,290,81369,1,6,0:0:0:0:
224,359,82012,6,0,P|166:367|106:309,1,120,4|0,0:0|0:0,0:0:0:0:
89,336,82440,2,0,P|70:278|70:213,1,120,4|0,0:0|0:0,0:0:0:0:
89,199,82869,2,0,L|157:212,3,40,4|0|0|0,0:0|0:0|0:0|0:0,0:0:0:0:
154,216,83297,5,4,0:0:0:0:
275,263,83512,1,2,0:0:0:0:
405,248,83726,2,0,P|416:204|402:118,1,120,2|0,0:0|0:0,0:0:0:0:
385,112,84154,2,0,L|341:112,1,40,2|2,0:0|0:0,0:0:0:0:
228,171,84476,2,0,P|167:175|113:108,1,120,2|2,0:0|0:0,0:0:0:0:
92,11,85012,5,0,3:0:0:0:
198,85,85226,1,2,0:0:0:0:
314,25,85440,2,0,P|358:34|430:75,1,120,2|0,0:0|0:0,0:0:0:0:
435,94,85869,2,0,L|446:132,1,40,2|2,0:0|0:0,0:0:0:0:
373,235,86190,1,2,3:2:0:0:
373,235,86297,2,0,L|326:228,1,40,0|0,3:0|3:0,0:0:0:0:
297,181,86512,2,0,L|250:174,1,40,2|0,0:0|0:0,0:0:0:0:
230,122,86726,2,0,L|183:115,3,40,2|0|0|0,0:0|0:0|3:0|3:0,0:0:0:0:
251,80,87154,6,0,B|394:68|377:159|523:122,1,271.999991699219,4|0,1:0|3:0,0:0:0:0:
