osu file format v14

[General]
AudioFilename: audio.ogg
AudioLeadIn: 0
PreviewTime: 54583
Countdown: 0
SampleSet: Soft
StackLeniency: 0.7
Mode: 0
LetterboxInBreaks: 0
WidescreenStoryboard: 1

[Editor]
Bookmarks: 25440,28440
DistanceSpacing: 0.6
BeatDivisor: 4
GridSize: 32
TimelineZoom: 2.5

[Metadata]
Title:Maid with Dragons <3 (TV Size)
TitleUnicode:めいど・うぃず・どらごんず❤︎ (TV Size)
Artist:Super Chorogons
ArtistUnicode:スーパーちょろゴンず
Creator:too
Version:Insane
Source:小林さんちのメイドラゴンS
Tags:miss kobayashi's dragon maid s Kobayashi-san Chi no Maid Dragon season 2 maidragon kobayashis anime ed ending japanese pop jpop j-pop トール tohru 桑原由気 kuwahara yuuki カンナ kanna 長縄まりあ naganawa maria エルマ elma 高田憂希 takada ルコア lucoa 髙橋ミナミ takahashi minami イルル ilulu 嶺内ともみ mineuchi tomomi seiran- fu3ya_ fumiya light_u l1ght_u -hitomi share and
BeatmapID:4095894
BeatmapSetID:1536276

[Difficulty]
HPDrainRate:5
CircleSize:4
OverallDifficulty:7.5
ApproachRate:9
SliderMultiplier:2.2
SliderTickRate:1

[Events]
//Background and Video events
0,0,"000.jpg",0,0
Video,0,"video.mp4"
//Break Periods
//Storyboard Layer 0 (Background)
//Storyboard Layer 1 (Fail)
//Storyboard Layer 2 (Pass)
//Storyboard Layer 3 (Foreground)
//Storyboard Layer 4 (Overlay)
//Storyboard Sound Samples

[TimingPoints]
1012,428.571428571429,4,2,1,80,1,0
6154,-117.647058823529,4,2,1,80,0,0
7012,-125,4,2,1,80,0,0
7440,-100,4,2,1,80,0,0
7869,-83.3333333333333,4,2,1,80,0,0
19012,-66.6666666666667,4,2,1,80,0,0
20726,-100,4,2,1,80,0,0
21154,-76.9230769230769,4,2,1,80,0,0
22440,-66.6666666666667,4,2,1,80,0,0
23083,-200,4,2,1,80,0,0
23137,-200,4,1,1,5,0,0
24154,-200,4,2,1,5,0,0
24369,-500,4,2,1,80,0,0
25012,-100,4,2,1,80,0,0
35351,-100,4,2,1,70,0,0
42154,-83.3333333333333,4,2,1,70,0,0
43012,-133.333333333333,4,2,1,70,0,0
43869,-83.3333333333333,4,2,1,70,0,0
44726,-133.333333333333,4,2,1,70,0,0
45583,-76.9230769230769,4,2,1,70,0,0
47297,-133.333333333333,4,2,1,70,0,0
47726,-100,4,2,1,80,0,0
55869,-55.5555555555556,4,2,1,90,0,0
56297,-200,4,2,1,90,0,0
56726,-66.6666666666667,4,2,1,90,0,0
58279,-66.6666666666667,4,2,1,5,0,0
58333,-66.6666666666667,4,2,1,90,0,0
58869,-100,4,2,1,90,0,0
59726,-83.3333333333333,4,2,1,90,0,0
60154,-71.4285714285714,4,2,1,90,0,0
60583,-62.5,4,2,1,90,0,0
61012,-250,4,2,1,90,0,0
63154,-100,4,2,1,90,0,0
63797,-66.6666666666667,4,2,1,90,0,0
64226,-303.030303030303,4,2,1,90,0,0
64869,-100,4,2,1,90,0,0
65512,-66.6666666666667,4,2,1,90,0,0
65940,-133.333333333333,4,2,1,90,0,0
66154,-100,4,2,1,90,0,0
66797,-133.333333333333,4,2,1,90,0,0
67012,-100,4,2,1,90,0,0
67654,-133.333333333333,4,2,1,90,0,0
67869,-50,4,2,1,90,0,0
68512,-66.6666666666667,4,2,1,90,0,0
69154,-50,4,2,1,90,0,0
69583,-55.5555555555556,4,2,1,90,0,0
70440,-66.6666666666667,4,2,1,90,0,0
71994,-66.6666666666667,4,2,1,5,0,0
72047,-66.6666666666667,4,2,1,90,0,0
72583,-100,4,2,1,90,0,0
73869,-66.6666666666667,4,2,1,90,0,0
75369,-133.333333333333,4,2,1,90,0,0
76440,-133.333333333333,4,2,1,70,0,0
77512,-66.6666666666667,4,2,1,70,0,0
79869,-66.6666666666667,4,2,1,80,0,0
82012,-133.333333333333,4,2,1,80,0,0
83297,-83.3333333333333,4,2,1,80,0,0

[Colours]
Combo1 : 237,255,104
Combo2 : 128,255,128
Combo3 : 255,128,231

[HitObjects]
153,280,1012,5,0,1:0:0:0:
153,280,1226,2,0,P|126:292|83:293,1,55,8|0,0:0|0:0,0:0:0:0:
13,247,1440,2,0,P|71:225|157:297,1,165,8|0,0:0|0:0,0:0:0:0:
184,366,1869,1,2,0:0:0:0:
184,366,1976,1,2,0:0:0:0:
229,235,2190,2,0,P|295:188|376:186,1,165,2|2,0:0|0:0,0:0:0:0:
198,149,2726,5,0,1:0:0:0:
198,149,2940,2,0,P|171:161|128:162,1,55,8|0,0:0|0:0,0:0:0:0:
58,116,3154,2,0,P|116:94|202:166,1,165,8|0,0:0|0:0,0:0:0:0:
229,235,3583,1,2,0:0:0:0:
229,235,3690,1,2,0:0:0:0:
376,186,3904,2,0,P|451:215|497:282,1,165,2|2,0:0|0:0,0:0:0:0:
447,61,4440,5,4,1:0:0:0:
447,61,4654,2,0,L|433:125,1,55,8|0,0:0|0:0,0:0:0:0:
376,186,4869,2,0,L|352:78,1,110,8|0,0:0|0:0,0:0:0:0:
326,46,5190,1,0,0:0:0:0:
326,46,5297,2,0,L|268:38,3,55,0|0|0|0,3:0|3:0|3:0|3:0,0:0:0:0:
192,58,5726,2,0,P|206:87|241:116,1,55,0|0,3:0|3:0,3:0:0:0:
119,25,5940,2,0,P|85:22|43:38,1,55,0|0,3:0|0:0,0:0:0:0:
18,166,6154,6,0,B|100:220|188:174|156:131|258:95|337:153,1,327.250006241799,4|0,0:0|0:0,0:1:0:0:
324,145,7012,6,0,L|337:191,5,29.3333333333333,0|0|0|0|0|0,3:0|3:0|3:0|3:0|3:0|3:0,0:0:0:0:
271,233,7440,2,0,L|258:278,5,36.6666666666667,0|0|0|0|0|0,1:1|1:0|1:0|1:0|1:0|1:0,0:0:0:0:
307,361,7869,6,2,P|366:365|329:255,1,197.99999395752,6|0,0:1|0:0,0:1:0:0:
261,269,8297,1,0,1:0:0:0:
374,250,8512,2,0,P|388:220|387:163,1,65.9999979858399,2|0,0:1|0:0,0:0:0:0:
349,93,8726,6,0,B|287:106|308:159|240:177,1,131.99999597168,2|0,0:1|0:0,0:0:0:0:
220,103,9047,2,0,B|158:116|179:169|111:187,1,131.99999597168,2|0,0:1|0:0,0:0:0:0:
90,116,9369,2,0,P|64:131|43:170,1,65.9999979858399,2|0,0:1|0:0,0:0:0:0:
74,305,9583,6,0,L|358:326,1,263.99999194336,2|0,0:1|0:0,0:0:0:0:
338,325,10226,6,0,P|307:352|275:362,1,65.9999979858399,2|0,0:1|0:0,0:0:0:0:
205,260,10440,2,2,P|259:197|220:279,1,263.99999194336,2|0,0:1|0:0,0:1:0:0:
145,161,11083,1,0,0:0:0:0:
39,294,11297,6,0,B|2:344|96:362|146:286|43:228|30:166|69:113,1,263.99999194336,6|0,0:1|0:0,0:0:0:0:
196,88,11940,2,0,P|219:110|232:156,1,65.9999979858399,2|0,0:1|0:0,0:0:0:0:
126,36,12154,6,0,P|185:5|268:48,1,131.99999597168,2|0,0:1|0:0,0:0:0:0:
301,76,12476,2,0,P|360:45|443:88,1,131.99999597168,2|0,0:1|0:0,0:0:0:0:
457,135,12797,2,0,P|516:104|554:118,1,65.9999979858399,2|0,0:1|0:0,0:0:0:0:
396,187,13012,6,2,L|367:387,1,197.99999395752,2|0,0:1|0:0,0:1:0:0:
452,378,13440,2,2,P|415:317|297:337,1,197.99999395752,2|0,0:1|0:0,0:1:0:0:
270,349,13869,2,2,L|65:317,1,197.99999395752,2|0,0:1|0:0,0:1:0:0:
0,384,14297,1,0,1:0:0:0:
80,222,14512,1,0,3:0:0:0:
80,222,14619,1,0,3:0:0:0:
80,222,14726,1,0,1:0:0:0:
168,179,14940,5,2,0:0:0:0:
156,156,15047,1,2,0:0:0:0:
135,142,15154,1,2,0:0:0:0:
245,168,15369,5,2,0:0:0:0:
228,124,15476,1,2,0:0:0:0:
195,90,15583,1,2,0:0:0:0:
153,70,15690,1,2,0:0:0:0:
107,64,15797,6,0,L|26:80,1,65.9999979858399,6|0,0:0|0:0,0:0:0:0:
214,10,16012,2,0,L|408:48,1,197.99999395752,4|0,0:0|0:0,0:0:0:0:
506,0,16440,1,0,0:0:0:0:
413,61,16654,6,0,L|402:131,1,65.9999979858399,2|0,0:0|0:0,0:0:0:0:
512,183,16869,2,0,L|501:117,1,65.9999979858399,2|0,0:0|0:0,0:0:0:0:
392,204,17083,1,2,0:0:0:0:
386,243,17190,1,2,0:0:0:0:
378,281,17297,1,2,0:0:0:0:
402,290,17404,1,2,0:0:0:0:
427,296,17512,6,0,P|472:289|504:274,1,65.9999979858399,6|0,0:0|0:0,0:0:0:0:
312,219,17726,2,0,P|240:245|241:357,1,197.99999395752,4|0,0:0|0:0,0:0:0:0:
303,300,18154,6,2,B|108:242|108:242|14:266,1,263.99999194336,2|0,0:1|1:0,0:1:0:0:
49,256,19012,6,2,B|131:276|131:276|404:195,1,330.000012588501,2|0,0:1|1:0,0:1:0:0:
366,206,19869,6,0,L|384:109,1,82.5000031471254,2|0,1:0|0:0,0:0:0:0:
349,39,20083,1,0,1:0:0:0:
298,93,20190,2,0,L|373:157,1,82.5000031471254,2|0,1:0|0:0,0:0:0:0:
452,167,20404,1,0,1:0:0:0:
430,91,20512,2,0,L|336:123,1,82.5000031471254,2|0,1:0|0:0,0:0:0:0:
281,195,20726,6,0,L|272:245,5,36.6666666666667,0|0|0|0|0|0,3:2|3:2|3:0|3:0|3:0|3:0,0:0:0:0:
200,116,21154,2,0,L|191:69,2,47.6666644846599,0|0|0,3:2|3:2|3:0,0:0:0:0:
104,217,21369,2,0,L|112:170,2,47.6666644846599,0|0|0,3:2|3:2|3:0,0:0:0:0:
36,111,21583,5,4,3:2:0:0:
339,130,22440,5,0,1:0:0:0:
258,111,22762,1,0,1:0:0:0:
314,50,23083,6,0,L|289:331,1,275,4|0,0:0|0:0,0:0:0:0:
305,332,24369,6,0,L|308:377,1,44,8|0,0:0|0:0,0:0:0:0:
380,270,25012,6,0,L|435:260,1,55,0|0,1:0|0:0,0:0:0:0:
302,211,25226,2,0,L|247:201,1,55,2|0,0:0|0:0,0:0:0:0:
169,268,25440,1,2,1:2:0:0:
136,270,25547,1,2,0:2:0:0:
104,259,25654,1,2,0:2:0:0:
82,233,25762,1,2,0:2:0:0:
77,200,25869,2,0,L|83:143,1,55,2|2,1:2|0:2,0:0:0:0:
158,88,26083,2,0,L|152:31,3,55,2|2|2|2,0:2|0:2|1:2|0:2,0:0:0:0:
78,61,26512,6,0,P|52:68|29:83,1,55,2|0,0:0|0:0,0:0:0:0:
168,168,26726,2,0,P|194:160|217:146,1,55,2|2,1:2|0:2,0:0:0:0:
242,22,26940,6,0,P|215:15|188:15,1,55,2|2,0:2|0:2,0:0:0:0:
217,146,27154,2,0,P|243:152|270:152,1,55,2|2,1:2|0:2,0:0:0:0:
386,85,27369,6,0,P|366:65|342:52,1,55,2|2,0:2|0:2,0:0:0:0:
270,152,27583,2,0,P|289:171|313:184,1,55,2|2,1:2|0:2,0:0:0:0:
413,183,27797,1,2,0:2:0:0:
413,183,27904,1,2,0:2:0:0:
413,183,28012,5,2,1:2:0:0:
409,247,28119,1,2,0:2:0:0:
467,271,28226,1,2,0:2:0:0:
509,222,28333,1,2,0:2:0:0:
476,167,28440,1,4,1:2:0:0:
240,355,29297,5,0,1:2:0:0:
265,275,29619,1,0,1:2:0:0:
321,336,29940,1,4,1:2:0:0:
42,255,30476,6,0,L|38:222,1,27.5,2|0,0:0|0:0,0:0:0:0:
57,283,30583,2,0,L|50:333,3,36.6666666666667,0|0|0|0,3:0|3:0|3:0|3:0,3:0:0:0:
39,209,31226,5,4,0:0:0:0:
39,209,31440,1,4,0:0:0:0:
193,322,31654,1,0,3:0:0:0:
177,323,31761,1,0,3:0:0:0:
161,325,31869,1,4,0:0:0:0:
187,236,32083,5,2,3:2:0:0:
230,242,32190,1,2,0:2:0:0:
265,267,32297,1,2,0:2:0:0:
284,306,32404,1,2,0:2:0:0:
283,350,32512,2,0,L|343:361,1,55,2|2,3:2|0:2,0:0:0:0:
413,275,32726,2,0,L|358:284,3,55,2|2|2|2,0:2|0:2|3:2|0:2,0:0:0:0:
504,346,33154,2,0,P|498:369|492:348,1,55,2|2,0:2|0:2,0:0:0:0:
494,267,33369,2,0,P|488:241|451:201,1,55,2|2,3:2|0:2,0:0:0:0:
400,163,33583,5,2,0:2:0:0:
469,80,33797,2,0,L|479:145,1,55,2|0,3:2|0:2,0:2:0:0:
400,163,34012,5,2,0:2:0:0:
460,25,34226,2,0,L|470:90,1,55,2|0,3:2|0:2,0:2:0:0:
400,163,34440,5,0,1:2:0:0:
357,175,34547,1,0,1:2:0:0:
307,174,34654,1,0,1:2:0:0:
254,155,34762,1,0,1:2:0:0:
219,105,34869,1,0,1:2:0:0:
176,54,34976,1,0,1:2:0:0:
108,32,35083,1,0,1:2:0:0:
33,37,35190,1,0,1:2:0:0:
112,16,35297,6,0,P|179:31|216:70,1,110,6|0,0:0|0:0,0:0:0:0:
254,155,35619,2,0,P|321:140|358:101,1,110,2|0,0:0|0:0,0:0:0:0:
388,25,35940,2,0,P|455:40|509:123,1,165,2|0,0:0|0:0,0:0:0:0:
506,207,36369,6,0,P|469:200|434:173,1,55,2|0,0:0|0:0,0:0:0:0:
402,127,36583,2,0,P|377:115|350:112,1,55,2|0,0:0|0:0,0:0:0:0:
254,155,36797,1,2,0:0:0:0:
352,212,37012,6,0,L|370:330,1,110,2|0,0:0|0:0,0:0:0:0:
254,155,37333,2,0,L|236:273,1,110,2|0,0:0|0:0,0:0:0:0:
350,112,37654,2,0,L|377:289,1,165,2|0,0:0|0:0,0:0:0:0:
229,337,38083,6,0,P|190:329|169:301,1,55,2|0,0:0|0:0,0:0:0:0:
374,275,38297,2,0,P|412:282|433:310,1,55,2|0,0:0|0:0,0:0:0:0:
305,305,38512,1,2,0:0:0:0:
187,233,38726,6,0,P|120:252|93:303,1,110,6|0,0:0|0:0,0:0:0:0:
232,255,39047,2,0,P|174:215|117:227,1,110,6|0,0:0|0:0,0:0:0:0:
98,282,39369,2,0,P|63:298|27:282,1,55,2|0,0:0|0:0,0:0:0:0:
0,173,39583,6,0,B|57:137|57:137|99:161,1,110,6|0,0:0|0:0,0:0:0:0:
0,143,39904,2,0,B|57:179|57:179|99:155,1,110,6|0,0:0|0:0,0:0:0:0:
148,94,40226,2,0,B|167:118|167:118|177:165,1,55,2|0,0:0|0:0,0:0:0:0:
60,277,40440,6,0,B|82:328|145:330|145:330|385:321,1,330,4|0,0:0|0:0,0:0:0:0:
477,233,41297,6,0,P|399:247|367:320,1,165,2|0,0:0|3:0,0:0:0:0:
421,175,41726,2,0,P|399:251|452:311,1,165,2|0,3:2|0:0,0:0:0:0:
415,161,42154,6,0,L|262:137,1,131.99999597168,6|0,0:0|0:0,0:0:0:0:
268,170,42476,2,0,L|115:194,1,131.99999597168,2|0,0:0|0:0,0:0:0:0:
123,163,42797,2,0,L|15:146,1,65.9999979858399,2|0,0:0|0:0,0:0:0:0:
0,85,43012,5,2,0:0:0:0:
0,85,43226,2,0,L|8:32,1,41.2500015735627,2|0,0:3|0:0,0:0:0:0:
89,15,43440,5,2,0:0:0:0:
89,15,43654,2,0,L|97:68,1,41.2500015735627,2|0,0:3|0:0,0:0:0:0:
57,152,43869,6,0,P|75:242|137:292,1,131.99999597168,6|0,0:0|0:0,0:0:0:0:
160,366,44190,2,0,P|197:312|203:247,1,131.99999597168,2|0,0:0|0:0,0:0:0:0:
163,175,44512,2,0,P|208:163|252:175,1,65.9999979858399,2|0,0:0|0:0,0:0:0:0:
330,230,44726,5,2,0:0:0:0:
330,230,44940,2,0,L|321:288,1,41.2500015735627,2|0,0:3|0:0,0:0:0:0:
308,376,45154,5,2,0:0:0:0:
308,376,45369,2,0,L|366:385,1,41.2500015735627,2|0,1:3|0:0,0:0:0:0:
430,237,45583,6,0,B|428:152|377:162|374:52,1,142.99999345398,4|0,0:0|0:0,0:0:0:0:
430,19,45904,2,0,P|493:55|446:97,1,142.99999345398,4|0,0:0|0:0,0:0:0:0:
305,61,46226,2,0,P|259:53|220:69,1,71.4999967269899,4|0,0:0|0:0,0:0:0:0:
140,142,46440,6,0,L|109:286,1,142.99999345398,4|0,0:0|0:0,0:0:0:0:
265,199,46762,2,0,L|234:59,1,142.99999345398,4|0,0:0|0:0,0:0:0:0:
102,12,47083,2,0,L|86:84,1,71.4999967269899,4|0,0:0|0:0,0:0:0:0:
38,223,47297,6,0,P|-4:176|54:153,1,123.750004720688,4|0,0:0|0:0,0:0:0:0:
110,173,47726,6,0,L|163:158,1,55,0|0,1:0|0:0,0:0:0:0:
109,281,47940,2,0,L|166:298,1,55,0|0,1:0|0:0,0:0:0:0:
180,154,48154,6,0,L|232:138,1,55,0|0,1:0|0:0,0:0:0:0:
179,302,48368,2,0,L|236:319,1,55,0|0,1:0|0:0,0:0:0:0:
250,131,48583,6,0,L|302:115,1,55,0|0,1:0|0:0,0:0:0:0:
247,323,48797,2,0,L|304:340,1,55,2|2,1:2|0:0,0:0:0:0:
464,220,49012,5,6,0:0:0:0:
512,332,49226,5,2,0:0:0:0:
512,332,49333,1,2,0:0:0:0:
512,332,49440,2,0,L|440:317,1,55,2|0,0:0|0:0,0:0:0:0:
384,268,49654,5,2,1:2:0:0:
385,288,49761,1,2,0:0:0:0:
385,304,49868,2,0,L|313:289,1,55,2|0,0:0|0:0,0:0:0:0:
256,227,50083,5,2,1:2:0:0:
258,254,50190,1,2,0:0:0:0:
257,278,50297,2,0,L|185:263,1,55,2|0,0:0|0:0,0:0:0:0:
119,178,50512,5,2,1:2:0:0:
124,213,50619,1,2,0:0:0:0:
127,246,50726,2,0,L|55:231,1,55,2|0,0:0|0:0,0:0:0:0:
0,139,50940,2,0,L|53:127,1,55,2|2,1:2|0:0,0:0:0:0:
181,51,51154,6,0,P|209:77|221:110,1,55,2|0,0:0|0:0,0:0:0:0:
119,178,51369,2,0,P|127:140|150:113,1,55,2|2,1:2|0:0,0:0:0:0:
259,168,51583,2,0,P|222:179|187:173,1,55,2|0,1:2|0:0,0:0:0:0:
302,92,51797,5,0,1:0:0:0:
367,83,51904,1,0,1:0:0:0:
419,124,52012,2,0,P|432:154|433:192,1,55,0|0,1:2|0:0,0:0:0:0:
345,177,52226,1,0,1:0:0:0:
452,43,52440,5,0,1:0:0:0:
452,340,52762,1,0,1:0:0:0:
452,192,53083,1,0,1:0:0:0:
59,43,53297,5,0,1:0:0:0:
59,340,53619,1,0,1:0:0:0:
59,192,53940,1,0,1:0:0:0:
256,192,54154,5,0,1:0:0:0:
256,80,54369,5,0,3:0:0:0:
256,80,54476,1,0,3:0:0:0:
256,80,54583,1,0,3:0:0:0:
228,109,54797,5,4,3:0:0:0:
250,46,54904,5,4,3:0:0:0:
292,97,55012,6,0,L|326:92,6,27.5,4|0|0|0|0|0|0,3:3|3:0|3:0|3:0|3:0|3:0|3:0,0:0:0:0:
153,50,55440,6,0,L|119:45,6,27.5,2|2|2|2|2|2|2,0:0|0:0|0:0|0:0|0:0|0:0|0:0,0:0:0:0:
158,177,55869,6,0,B|207:295|131:355|25:323|34:225|96:207,1,296.99999093628,6|0,0:0|0:0,0:0:0:0:
94,207,56297,2,0,P|99:227|102:257,2,27.5,2|0|0,1:2|0:0|0:0,0:0:0:0:
18,146,56619,1,2,0:0:0:0:
18,146,56726,6,0,L|6:229,1,82.5000031471254,2|0,0:0|0:0,0:0:0:0:
100,233,56940,2,0,L|150:300,1,82.5000031471254,2|0,0:0|0:0,0:0:0:0:
219,236,57154,2,0,L|302:248,1,82.5000031471254,2|0,1:2|0:0,0:0:0:0:
306,154,57369,2,0,L|373:103,1,82.5000031471254,2|0,0:0|0:0,0:0:0:0:
406,17,57583,5,2,0:0:0:0:
437,178,57797,1,2,0:0:0:0:
468,340,58012,1,2,1:2:0:0:
437,178,58226,2,0,L|425:120,1,41.2500015735627,6|0,0:0|0:0,0:0:0:0:
428,137,58654,5,2,0:0:0:0:
333,122,58869,2,0,L|325:188,1,55,2|0,1:2|0:0,0:0:0:0:
235,106,59083,2,0,L|227:172,1,55,2|0,0:0|0:0,0:0:0:0:
194,286,59297,6,0,P|236:320|299:315,1,110,6|0,0:0|0:0,0:0:0:0:
264,240,59619,1,2,0:0:0:0:
176,288,59726,6,0,P|238:335|301:330,1,131.99999597168,6|0,1:2|0:0,0:0:0:0:
264,240,60047,1,2,0:0:0:0:
161,288,60154,6,0,P|231:351|300:345,1,153.999995300293,6|0,0:0|0:0,0:0:0:0:
264,240,60476,1,2,0:0:0:0:
365,295,60583,6,0,P|443:300|498:201,1,176,6|0,1:2|0:0,0:0:0:0:
475,120,60904,1,2,0:0:0:0:
412,169,61012,6,0,L|409:218,2,44,6|0|0,0:0|0:0|1:2,0:0:0:0:
461,33,61654,6,0,L|478:139,1,88,2|0,0:0|0:0,0:0:0:0:
412,169,62297,1,0,1:0:0:0:
296,48,62512,5,2,0:0:0:0:
317,40,62619,1,2,0:0:0:0:
339,40,62726,1,0,3:0:0:0:
334,128,62940,1,0,3:0:0:0:
169,80,63154,6,0,L|175:26,1,55,2|0,1:2|0:0,0:0:0:0:
157,160,63369,2,0,L|151:214,1,55,2|0,0:0|0:0,0:0:0:0:
141,292,63583,1,2,0:0:0:0:
45,197,63797,6,0,P|74:172|65:201,1,82.5000031471254,2|0,0:1|0:0,0:0:0:0:
52,77,64012,2,0,P|89:69|67:90,1,82.5000031471254,2|0,1:1|0:0,0:0:0:0:
169,80,64226,6,0,L|175:26,1,54.4499998338318,2|0,0:0|0:0,0:0:0:0:
157,160,64654,1,2,0:0:0:0:
157,160,64869,6,0,L|151:214,1,55,2|0,1:2|0:0,0:0:0:0:
141,292,65083,2,0,L|135:346,1,55,2|0,0:0|0:0,0:0:0:0:
169,80,65297,1,2,0:0:0:0:
272,177,65512,6,0,P|243:202|252:173,1,82.5000031471254,2|0,0:1|0:0,0:0:0:0:
265,297,65727,2,0,P|228:305|250:284,1,82.5000031471254,2|0,1:1|0:0,0:0:0:0:
387,239,65940,6,0,L|428:235,1,41.2500015735627,2|0,0:0|0:0,0:0:0:0:
362,152,66154,6,0,P|298:234|351:324,1,220,6|0,0:0|0:0,0:0:0:0:
387,239,66797,6,0,L|428:235,1,41.2500015735627,2|0,0:0|0:0,0:0:0:0:
362,152,67012,6,0,P|298:234|351:324,1,220,6|0,0:0|0:0,0:0:0:0:
428,235,67654,6,0,L|387:239,1,41.2500015735627,2|0,0:0|0:0,0:0:0:0:
362,152,67869,6,0,B|357:104|284:129|251:58|274:21|319:5|358:7|366:45|365:70|344:87,1,220,4|0,0:0|0:0,0:0:0:0:
362,152,68190,2,0,B|361:104|437:122|464:49|438:14|392:1|352:7|347:46|351:70|373:86,1,220,4|0,0:0|0:0,0:0:0:0:
388,223,68512,6,0,P|352:229|325:221,8,55.0000020980836,4|0|0|0|0|0|0|0|0,0:0|0:0|0:0|0:0|0:0|0:0|0:0|0:0|0:0,0:0:0:0:
326,152,69154,2,0,P|368:140|399:150,5,73.3333333333333,2|2|2|2|2|2,0:0|0:0|0:0|0:0|0:0|0:0,0:0:0:0:
260,195,69583,6,0,B|183:211|159:119|74:138,1,197.99999395752,4|0,0:0|0:0,0:0:0:0:
14,183,69904,1,2,0:0:0:0:
90,217,70012,2,0,B|174:215|175:119|253:117,1,197.99999395752,2|0,1:2|0:0,0:0:0:0:
326,152,70333,1,2,0:0:0:0:
389,105,70440,6,0,L|409:12,1,82.5000031471254,2|0,0:0|0:0,0:0:0:0:
394,200,70654,2,0,L|473:148,1,82.5000031471254,2|0,0:0|0:0,0:0:0:0:
330,270,70869,2,0,L|422:289,1,82.5000031471254,2|0,1:2|0:0,0:0:0:0:
234,275,71083,2,0,L|285:354,1,82.5000031471254,2|0,0:0|0:0,0:0:0:0:
147,369,71297,5,2,0:0:0:0:
179,206,71512,1,2,0:0:0:0:
211,44,71726,1,2,1:2:0:0:
179,206,71940,2,0,L|170:261,1,41.2500015735627,6|0,0:0|0:0,0:0:0:0:
172,246,72369,5,2,0:0:0:0:
291,242,72583,2,0,L|296:302,1,55,2|0,1:2|0:0,0:0:0:0:
403,238,72797,2,0,L|408:298,1,55,2|0,0:0|0:0,0:0:0:0:
344,158,73012,5,6,3:2:0:0:
313,145,73119,1,0,3:0:0:0:
280,142,73226,1,0,3:0:0:0:
248,153,73333,1,2,3:2:0:0:
223,175,73440,5,6,3:2:0:0:
244,136,73547,1,0,3:0:0:0:
282,115,73654,1,0,3:0:0:0:
325,108,73762,1,2,3:2:0:0:
368,115,73869,5,6,3:2:0:0:
323,82,73976,1,0,3:0:0:0:
269,71,74083,2,0,P|216:72|184:80,1,82.5000031471254,0|0,1:1|0:0,0:0:0:0:
99,151,74297,1,6,3:2:0:0:
99,151,74404,2,0,P|133:111|160:91,1,82.5000031471254,0|0,1:0|0:0,0:0:0:0:
214,161,74619,1,2,0:0:0:0:
214,161,74726,1,2,1:2:0:0:
336,43,74940,5,0,1:2:0:0:
409,33,75047,1,0,1:2:0:0:
482,23,75154,1,6,1:2:0:0:
336,43,75369,2,0,L|321:169,1,123.750004720688,6|0,0:0|0:0,0:0:0:0:
337,186,75797,6,0,L|342:231,1,41.2500015735627,0|0,1:0|0:0,0:0:0:0:
290,291,76012,2,0,L|295:336,1,41.2500015735627,0|0,1:0|0:0,0:0:0:0:
381,384,76226,1,2,1:2:0:0:
393,352,76333,1,2,1:2:0:0:
391,319,76440,5,2,1:2:0:0:
461,260,76654,1,2,0:2:0:0:
475,346,76869,1,2,0:2:0:0:
378,232,77083,1,2,0:2:0:0:
447,179,77297,1,2,0:2:0:0:
309,294,77512,6,0,B|284:291|264:234|309:244|318:281,1,82.5000031471254,2|0,0:0|0:0,0:0:0:0:
235,353,77726,2,0,B|212:363|166:323|210:309|236:337,1,82.5000031471254,2|0,0:0|0:0,0:0:0:0:
326,381,77940,1,2,0:0:0:0:
202,241,78154,6,0,P|162:249|115:287,1,82.5000031471254,2|0,0:0|0:0,0:0:0:0:
278,174,78369,2,0,P|244:151|204:143,1,82.5000031471254,2|0,0:0|0:0,0:0:0:0:
383,167,78583,2,0,P|374:127|336:80,1,82.5000031471254,2|0,0:0|0:0,0:0:0:0:
247,47,78797,2,0,L|110:32,1,82.5000031471254,2|0,0:0|0:0,0:0:0:0:
119,111,79012,1,2,0:0:0:0:
326,60,79226,5,2,0:3:0:0:
358,80,79333,1,2,0:3:0:0:
382,111,79440,1,2,0:3:0:0:
392,149,79547,1,2,0:3:0:0:
387,188,79654,1,2,0:3:0:0:
372,225,79762,1,2,0:3:0:0:
336,245,79869,6,0,L|199:230,1,82.5000031471254,6|0,0:0|0:0,0:0:0:0:
295,143,80190,2,0,L|158:128,1,82.5000031471254,6|0,0:0|0:0,0:0:0:0:
247,47,80512,2,0,L|110:32,1,82.5000031471254,6|0,0:0|0:0,0:0:0:0:
253,236,80726,6,0,L|116:221,1,82.5000031471254,6|0,0:0|0:0,0:0:0:0:
212,134,81047,2,0,L|75:119,1,82.5000031471254,6|0,0:0|0:0,0:0:0:0:
164,38,81369,2,0,L|27:23,1,82.5000031471254,6|0,0:0|0:0,0:0:0:0:
284,21,82012,6,0,L|299:170,1,123.750004720688,4|0,0:0|0:0,0:0:0:0:
275,162,82440,2,0,L|260:311,1,123.750004720688,4|0,0:0|0:0,0:0:0:0:
287,305,82869,2,0,L|294:379,3,41.2500015735627,4|0|0|0,0:0|0:0|0:0|0:0,0:0:0:0:
180,207,83297,5,4,0:0:0:0:
180,207,83512,2,0,P|153:195|106:193,1,65.9999979858399,2|0,0:0|0:0,0:0:0:0:
13,225,83726,2,0,P|101:260|179:206,1,197.99999395752,2|0,0:0|0:0,0:0:0:0:
199,103,84155,1,2,0:0:0:0:
199,103,84262,1,2,0:0:0:0:
284,245,84476,2,0,P|367:263|463:181,1,197.99999395752,2|2,0:0|0:0,0:0:0:0:
413,61,85012,5,0,3:0:0:0:
413,61,85226,2,0,P|382:46|343:48,1,65.9999979858399,2|0,0:0|0:0,0:0:0:0:
246,79,85440,2,0,P|334:114|412:60,1,197.99999395752,2|0,0:0|0:0,0:0:0:0:
483,0,85869,1,2,0:0:0:0:
483,0,85976,1,2,0:0:0:0:
416,164,86190,2,0,L|401:237,4,65.9999979858399,2|2|0|0|0,3:2|3:2|3:2|3:0|3:0,0:0:0:0:
504,111,86726,5,2,0:0:0:0:
402,228,86940,2,0,L|359:235,3,43.9999986572266,0|0|0|4,3:0|3:0|3:0|1:0,3:0:0:0:
256,192,87262,12,0,88154,0:0:0:0:
256,192,88297,5,0,3:0:0:0:
256,192,88369,1,0,3:0:0:0:
