osu file format v14

[General]
AudioFilename: audio.ogg
AudioLeadIn: 0
PreviewTime: 54583
Countdown: 0
SampleSet: Soft
StackLeniency: 0.2
Mode: 0
LetterboxInBreaks: 0
WidescreenStoryboard: 1

[Editor]
Bookmarks: 25440,28440
DistanceSpacing: 0.8
BeatDivisor: 6
GridSize: 32
TimelineZoom: 2

[Metadata]
Title:Maid with Dragons <3 (TV Size)
TitleUnicode:めいど・うぃず・どらごんず❤︎ (TV Size)
Artist:Super Chorogons
ArtistUnicode:スーパーちょろゴンず
Creator:too
Version:Fumiya's Expert
Source:小林さんちのメイドラゴンS
Tags:miss kobayashi's dragon maid s Kobayashi-san Chi no Maid Dragon season 2 maidragon kobayashis anime ed ending japanese pop jpop j-pop トール tohru 桑原由気 kuwahara yuuki カンナ kanna 長縄まりあ naganawa maria エルマ elma 高田憂希 takada ルコア lucoa 髙橋ミナミ takahashi minami イルル ilulu 嶺内ともみ mineuchi tomomi seiran- fu3ya_ fumiya light_u l1ght_u -hitomi share and
BeatmapID:4095893
BeatmapSetID:1536276

[Difficulty]
HPDrainRate:5.2
CircleSize:4.3
OverallDifficulty:8.5
ApproachRate:9.2
SliderMultiplier:2.2
SliderTickRate:1

[Events]
//Background and Video events
0,0,"000.jpg",0,0
Video,0,"video.mp4"
//Break Periods
//Storyboard Layer 0 (Background)
//Storyboard Layer 1 (Fail)
//Storyboard Layer 2 (Pass)
//Storyboard Layer 3 (Foreground)
//Storyboard Layer 4 (Overlay)
//Storyboard Sound Samples

[TimingPoints]
1012,428.571428571429,4,2,1,80,1,0
1012,-133.333333333333,4,2,1,80,0,0
4440,-100,4,2,1,80,0,0
7869,-79.9999999999999,4,2,1,80,0,0
21583,-133.333333333333,4,2,1,80,0,0
22440,-79.9999999999999,4,2,1,80,0,0
23083,-133.333333333333,4,2,1,80,0,0
25012,-79.9999999999999,4,2,1,80,0,0
28440,-133.333333333333,4,2,1,80,0,0
29297,-80,4,2,1,80,0,0
29940,-100,4,2,1,80,0,0
31226,-79.9999999999999,4,2,1,80,0,0
35297,-100,4,2,1,80,0,0
35351,-100,4,2,1,70,0,0
45583,-66.6666666666667,4,2,1,70,0,0
47297,-100,4,2,1,70,0,0
47726,-100,4,2,1,80,0,0
49012,-79.9999999999999,4,2,1,80,0,0
54154,-133.333333333333,4,2,1,80,0,0
55869,-79.9999999999999,4,2,1,90,0,0
58279,-79.9999999999999,4,2,1,90,0,0
58333,-79.9999999999999,4,2,1,90,0,0
71994,-79.9999999999999,4,2,1,90,0,0
72047,-79.9999999999999,4,2,1,90,0,0
74083,-66.6666666666667,4,2,1,90,0,0
74726,-79.9999999999999,4,2,1,90,0,0
76440,-133.333333333333,4,2,1,70,0,0
78797,-100,4,2,1,70,0,0
79869,-66.6666666666667,4,2,1,80,0,0
81369,-200,4,2,1,80,0,0
82012,-79.9999999999999,4,2,1,80,0,0
87154,-100,4,2,1,80,0,0

[Colours]
Combo1 : 237,255,104
Combo2 : 128,255,128
Combo3 : 255,128,231

[HitObjects]
81,73,1012,6,0,L|86:113,1,41.2500015735627,0|0,1:0|0:0,0:0:0:0:
181,168,1226,2,0,L|186:127,1,41.2500015735627,8|0,0:0|0:0,0:0:0:0:
254,47,1440,2,0,P|280:76|321:80,1,82.5000031471254,8|0,0:0|0:0,0:0:0:0:
380,34,1762,1,0,0:0:0:0:
444,83,1869,5,2,0:0:0:0:
441,100,1976,2,0,L|434:147,1,41.2500015735627,2|0,0:0|0:0,0:0:0:0:
366,206,2190,2,0,L|382:306,1,82.5000031471254,2|0,0:0|0:0,0:0:0:0:
441,355,2512,2,0,P|459:364|478:372,1,41.2500015735627,2|0,0:0|0:0,0:0:0:0:
366,206,2726,6,0,P|347:214|328:222,1,41.2500015735627,0|0,1:0|0:0,0:0:0:0:
274,317,2940,2,0,P|255:308|236:300,1,41.2500015735627,8|0,0:0|0:0,0:0:0:0:
161,219,3154,2,0,L|144:133,1,82.5000031471254,8|0,0:0|0:0,0:0:0:0:
85,90,3476,1,0,0:0:0:0:
29,143,3583,5,2,0:0:0:0:
26,159,3690,2,0,L|18:210,1,41.2500015735627,2|0,0:0|0:0,0:0:0:0:
72,293,3904,2,0,P|111:299|137:330,1,82.5000031471254,2|0,0:0|0:0,0:0:0:0:
219,384,4226,2,0,P|237:375|256:367,1,41.2500015735627,2|0,0:0|0:0,0:0:0:0:
306,182,4440,6,0,L|365:203,1,55,4|0,1:0|0:0,0:0:0:0:
477,320,4654,1,8,0:0:0:0:
477,320,4762,1,2,0:0:0:0:
447,343,4869,2,0,P|432:266|499:228,1,165,8|0,0:0|0:0,0:0:0:0:
460,133,5297,5,2,3:2:0:0:
447,149,5404,2,0,P|421:158|395:168,1,55,2|0,3:2|3:0,0:0:0:0:
251,48,5619,2,0,P|298:71|307:123,1,110,2|0,3:2|3:0,0:0:0:0:
259,204,5940,2,0,P|253:230|247:257,1,55,2|0,3:2|0:0,0:0:0:0:
65,96,6154,6,0,L|185:128,1,110,4|8,0:0|0:0,0:1:0:0:
259,204,6476,1,2,0:0:0:0:
192,244,6583,2,0,P|186:270|180:297,1,55,10|0,0:0|0:0,0:0:0:0:
369,378,6797,1,2,0:0:0:0:
366,364,6904,1,2,0:0:0:0:
364,350,7012,6,0,L|356:306,2,36.6666666666667,0|0|0,3:0|3:0|3:0,0:0:0:0:
455,246,7226,6,0,L|463:202,2,36.6666666666667,0|0|0,3:0|3:0|3:0,0:0:0:0:
346,127,7440,5,0,1:1:0:0:
348,151,7512,1,0,1:0:0:0:
342,174,7583,1,0,1:0:0:0:
327,193,7654,1,0,1:0:0:0:
307,206,7726,1,0,1:0:0:0:
283,210,7797,1,0,1:0:0:0:
258,204,7869,6,2,P|159:175|60:149,1,206.25,6|0,0:1|0:0,0:1:0:0:
15,75,8297,2,0,P|7:41|0:8,1,68.75,0|0,1:0|0:0,0:0:0:0:
117,202,8512,2,0,P|109:235|101:269,1,68.75,2|0,0:1|0:0,0:0:0:0:
211,79,8726,6,0,P|252:28|317:38,1,137.5,2|0,0:1|0:0,0:0:0:0:
397,136,9047,1,2,0:1:0:0:
447,75,9154,2,0,P|479:62|511:51,1,68.75,0|0,1:0|0:0,0:0:0:0:
405,224,9369,2,0,P|372:213|340:200,1,68.75,2|0,0:1|0:0,0:0:0:0:
512,348,9583,6,0,P|445:365|379:383,1,137.5,2|0,0:1|0:0,0:0:0:0:
300,295,9904,1,0,0:0:0:0:
300,295,10012,2,0,P|267:284|235:271,1,68.75,0|0,1:0|0:0,0:0:0:0:
382,98,10226,2,0,P|414:85|446:74,1,68.75,2|0,0:1|0:0,0:0:0:0:
202,18,10440,5,2,0:1:0:0:
205,38,10547,1,0,3:0:0:0:
208,58,10654,2,0,L|220:126,1,68.75,0|0,3:2|0:0,0:0:0:0:
70,284,10869,1,0,1:2:0:0:
67,233,10976,1,0,3:0:0:0:
97,192,11083,1,0,3:0:0:0:
146,180,11190,1,0,3:0:0:0:
192,201,11297,6,0,B|236:228|253:282|253:282|289:241|340:235,1,206.25,6|0,0:1|0:0,0:0:0:0:
364,148,11726,2,0,P|395:162|420:188,1,68.75,0|0,1:0|0:0,0:0:0:0:
507,163,11940,2,0,P|510:196|500:231,1,68.75,2|0,0:1|0:0,0:0:0:0:
385,324,12154,6,0,P|319:302|253:282,1,137.5,2|0,0:1|0:0,0:0:0:0:
146,180,12476,1,2,0:1:0:0:
90,238,12583,2,0,P|99:271|108:304,1,68.75,0|0,1:0|0:0,0:0:0:0:
244,191,12797,2,0,P|252:157|262:124,1,68.75,2|0,0:1|0:0,0:0:0:0:
60,19,13012,6,2,P|90:110|192:113,1,206.25,2|0,0:1|0:0,0:1:0:0:
331,24,13440,2,2,B|292:0|292:0|323:157,1,206.25,2|0,1:1|0:0,0:1:0:0:
472,255,13869,2,2,B|503:97|503:97|464:121,1,206.25,2|0,0:1|0:0,0:1:0:0:
386,218,14297,5,0,1:0:0:0:
325,245,14404,1,0,3:0:0:0:
263,222,14512,1,0,3:0:0:0:
235,161,14619,1,0,3:0:0:0:
258,98,14726,6,0,P|291:86|323:75,1,68.75,0|0,1:0|0:0,0:0:0:0:
184,281,14940,1,2,0:0:0:0:
184,281,15047,1,2,0:0:0:0:
184,281,15154,2,0,P|151:269|119:258,1,68.75,2|0,0:0|0:0,0:0:0:0:
23,89,15369,1,2,0:0:0:0:
23,89,15476,1,2,0:0:0:0:
23,89,15583,5,2,0:0:0:0:
28,122,15690,1,2,0:0:0:0:
34,156,15797,2,0,L|48:235,1,68.75,6|0,0:0|0:0,0:0:0:0:
252,24,16012,2,0,L|235:163,1,137.5,4|0,0:0|0:0,0:0:0:0:
315,247,16440,6,0,P|341:187|405:188,1,137.5,0|2,0:0|0:0,0:0:0:0:
508,222,16762,1,0,0:0:0:0:
508,222,16869,2,0,P|493:154|478:87,1,137.5,2|2,0:0|0:0,0:0:0:0:
373,13,17190,1,2,0:0:0:0:
324,74,17297,6,0,P|316:107|310:141,1,68.75,2|2,0:0|0:0,0:0:0:0:
139,27,17512,2,0,P|165:6|199:6,1,68.75,6|0,0:0|0:0,0:0:0:0:
51,212,17726,2,0,P|150:240|248:270,1,206.25,4|0,0:0|0:0,0:0:0:0:
319,183,18154,6,2,P|362:132|427:138,1,137.5,2|0,0:1|0:0,0:1:0:0:
507,213,18476,1,0,0:0:0:0:
507,213,18583,2,0,P|500:245|493:287,1,68.75,0|0,1:0|0:0,0:0:0:0:
345,364,18797,2,0,P|338:330|332:296,1,68.75
210,122,19012,5,2,0:1:0:0:
210,122,19119,1,0,0:0:0:0:
210,122,19226,2,0,P|177:109|145:98,1,68.75
7,308,19440,2,0,P|103:313|142:224,1,206.25,0|0,1:0|0:0,0:0:0:0:
34,153,19869,6,0,L|18:81,1,68.75,2|0,1:0|0:0,0:0:0:0:
224,277,20083,1,0,1:0:0:0:
247,201,20190,2,0,L|263:129,1,68.75,2|0,1:0|0:0,0:0:0:0:
52,375,20404,1,0,1:0:0:0:
34,301,20512,2,0,L|18:229,1,68.75,2|0,1:0|0:0,0:0:0:0:
253,357,20726,6,0,P|272:345|293:335,2,45.8333333333333,0|0|0,3:0|3:0|3:0,0:0:0:0:
353,248,20940,6,0,P|372:259|393:269,2,45.8333333333333,0|0|0,3:0|3:0|3:0,0:0:0:0:
466,351,21154,5,0,1:0:0:0:
489,331,21226,1,0,1:0:0:0:
504,304,21297,1,0,1:0:0:0:
510,275,21369,1,0,1:0:0:0:
505,245,21440,1,0,1:0:0:0:
492,218,21512,1,0,1:0:0:0:
469,196,21583,6,0,P|431:181|395:162,1,82.5000031471254,4|2,3:2|0:0,0:0:0:0:
327,322,22012,2,0,P|288:337|252:356,1,82.5000031471254,2|2,0:0|0:0,0:0:0:0:
131,200,22440,6,0,B|103:98|103:98|131:111,1,137.5,0|0,1:0|0:0,0:0:0:0:
235,247,22762,6,0,B|263:145|263:145|234:158,1,137.5,0|0,1:0|0:0,0:0:0:0:
145,308,23083,6,0,P|110:238|32:241,1,165.000006294251,4|2,0:0|0:0,0:0:0:0:
0,96,23726,2,0,P|38:110|76:125,1,82.5000031471254,2|2,0:0|0:0,0:0:0:0:
188,27,24154,1,2,0:0:0:0:
188,27,24369,6,0,L|216:197,1,165.000006294251,6|2,0:0|0:0,0:0:0:0:
349,78,25012,6,0,P|357:44|366:11,1,68.75,2|0,1:2|0:0,0:0:0:0:
494,201,25226,2,0,P|485:167|476:134,1,68.75,2|0,0:0|0:0,0:0:0:0:
359,308,25440,1,2,1:2:0:0:
358,274,25547,1,2,0:2:0:0:
339,245,25654,1,2,0:2:0:0:
309,231,25762,1,2,0:2:0:0:
275,234,25869,6,0,P|244:249|213:264,1,68.75,2|2,1:2|0:2,0:0:0:0:
89,158,26083,1,2,0:2:0:0:
40,217,26190,2,0,P|22:283|6:350,1,137.5,2|2,0:2|0:2,0:0:0:0:
213,264,26512,6,0,P|185:169|87:160,1,206.25,2|2,0:0|0:2,0:0:0:0:
15,47,26940,2,0,P|48:59|80:70,1,68.75,2|2,0:2|0:2,0:0:0:0:
176,182,27154,2,0,P|208:169|240:158,1,68.75,2|2,1:2|0:2,0:0:0:0:
314,36,27369,2,0,P|346:48|378:59,1,68.75,2|2,0:2|0:2,0:0:0:0:
476,219,27583,6,0,P|467:185|459:152,1,68.75,2|2,1:2|0:2,0:0:0:0:
367,325,27797,1,2,0:2:0:0:
367,325,27904,1,2,0:2:0:0:
367,325,28012,1,2,1:2:0:0:
366,274,28119,1,2,0:2:0:0:
335,233,28226,1,2,0:2:0:0:
287,218,28333,1,2,0:2:0:0:
239,233,28440,6,0,P|228:273|219:314,1,82.5000031471254,4|2,1:2|0:0,0:0:0:0:
95,76,28869,2,0,P|105:115|115:156,1,82.5000031471254,2|2,0:0|0:0,0:0:0:0:
24,305,29297,6,0,P|87:318|123:264,1,137.5,2|0,1:2|0:0,0:0:0:0:
221,132,29619,6,0,P|284:118|320:172,1,137.5,2|0,1:2|0:0,0:0:0:0:
427,311,29940,6,0,P|447:203|470:95,1,220,6|2,1:2|0:0,0:0:0:0:
338,4,30583,6,0,L|293:18,3,36.6666666666667,0|0|0|2,3:0|3:0|3:0|3:2,3:0:0:0:
221,132,31012,5,2,0:0:0:0:
221,132,31226,2,0,L|205:199,1,68.75,4|0,0:0|0:0,0:0:0:0:
58,93,31440,2,0,L|42:25,1,68.75,4|0,0:0|0:0,0:0:0:0:
12,286,31654,5,0,3:0:0:0:
78,267,31762,1,0,3:0:0:0:
144,248,31869,6,0,P|175:261|207:275,1,68.75,4|0,0:0|0:0,0:0:0:0:
279,384,32083,2,0,P|310:370|342:356,1,68.75,2|2,3:2|0:2,0:0:0:0:
237,200,32297,2,0,P|205:186|174:173,1,68.75,2|2,0:2|0:2,0:0:0:0:
376,68,32512,1,2,3:2:0:0:
376,68,32619,1,2,0:2:0:0:
376,67,32726,5,2,0:2:0:0:
379,112,32833,1,2,0:2:0:0:
412,143,32940,1,2,3:2:0:0:
456,144,33047,2,0,P|442:211|428:278,1,137.5,2|2,0:2|0:2,0:0:0:0:
342,356,33369,6,0,P|306:266|203:259,1,206.25,2|0,3:2|0:2,0:0:0:0:
125,315,33797,2,0,P|117:348|109:382,1,68.75,2|0,3:2|0:2,0:2:0:0:
316,244,34012,2,0,P|308:210|300:176,1,68.75,2|0,0:2|0:2,0:2:0:0:
117,98,34226,2,0,P|109:131|101:165,1,68.75,2|0,3:2|0:2,0:2:0:0:
262,302,34440,5,0,1:2:0:0:
287,318,34512,1,0,1:2:0:0:
317,323,34583,1,0,1:2:0:0:
347,317,34654,1,0,1:2:0:0:
372,300,34726,1,0,1:2:0:0:
388,275,34797,1,0,1:2:0:0:
394,245,34869,6,0,L|447:225,2,45.8333333333333,0|0|0,1:2|1:0|1:0,0:0:0:0:
300,176,35083,6,0,L|257:159,2,45.8333333333333,0|0|0,1:2|1:0|1:0,0:0:0:0:
414,126,35297,6,0,P|407:49|334:22,1,165,6|2,0:0|0:0,0:0:0:0:
274,67,35726,1,0,0:0:0:0:
109,0,35940,2,0,P|125:80|142:161,1,165,2|0,0:0|0:0,0:0:0:0:
89,219,36369,6,0,L|29:198,1,55,2|0,0:0|0:0,0:0:0:0:
198,280,36583,2,0,L|258:259,1,55,2|0,0:0|0:0,0:0:0:0:
92,350,36797,2,0,L|32:329,1,55,2|0,0:0|0:0,0:0:0:0:
230,190,37012,6,0,P|283:193|318:234,1,110,2|0,0:0|0:0,0:0:0:0:
375,313,37333,2,0,P|410:272|463:268,1,110,2|0,0:0|0:0,0:0:0:0:
511,199,37654,2,0,B|481:71|481:71|464:99,1,165,2|0,0:0|0:0,0:0:0:0:
416,181,38083,6,0,L|365:164,1,55,2|0,0:0|0:0,0:0:0:0:
252,34,38297,2,0,L|303:17,1,55,2|0,0:0|0:0,0:0:0:0:
179,177,38512,2,0,L|230:194,1,55,2|0,0:0|0:0,0:0:0:0:
96,29,38726,6,0,P|77:104|0:111,2,165,6|6|2,0:0|0:0|0:0,0:0:0:0:
179,177,39583,2,0,P|256:183|275:259,2,165,6|6|2,0:0|0:0|0:0,0:0:0:0:
51,287,40440,6,0,P|34:207|18:126,1,165,4|0,0:0|0:0,0:0:0:0:
90,38,40869,2,0,P|142:55|194:72,1,110,0|0,3:0|0:0,0:0:0:0:
318,250,41297,5,2,0:0:0:0:
308,195,41512,2,0,L|319:255,1,55,0|0,0:0|3:0,0:0:0:0:
455,358,41726,2,0,P|441:307|389:296,1,110,2|0,3:2|0:0,0:0:0:0:
317,333,42047,1,0,0:0:0:0:
317,333,42154,6,0,P|265:353|214:371,1,110,6|0,0:0|0:0,0:0:0:0:
167,308,42476,2,0,P|115:287|64:269,1,110,2|0,0:0|0:0,0:0:0:0:
2,320,42797,2,0,L|15:377,1,55,2|0,0:0|0:0,0:0:0:0:
156,196,43012,5,2,0:0:0:0:
44,154,43226,1,2,0:3:0:0:
198,84,43440,1,2,0:0:0:0:
86,42,43654,1,2,0:3:0:0:
156,196,43869,6,0,P|234:208|294:155,1,165,6|2,0:0|0:0,0:0:0:0:
372,153,44297,2,0,P|360:99|349:45,1,110,0|2,0:0|0:0,0:0:0:0:
501,242,44726,6,0,L|490:305,1,55,2|0,0:0|0:0,0:0:0:0:
422,224,44940,2,0,L|412:278,1,55,2|0,0:3|0:0,0:0:0:0:
500,72,45154,5,2,0:0:0:0:
412,278,45369,1,2,1:3:0:0:
375,316,45476,1,0,3:2:0:0:
322,314,45583,6,0,P|243:288|164:264,1,165.000006294251,4|0,0:0|0:0,0:0:0:0:
106,187,45904,6,0,P|184:162|263:137,1,165.000006294251,4|0,0:0|0:0,0:0:0:0:
346,83,46226,6,0,P|354:43|363:3,1,82.5000031471254,4|0,0:0|0:0,0:0:0:0:
486,300,46440,6,0,P|468:223|392:204,1,165.000006294251,4|0,0:0|0:0,0:0:0:0:
260,229,46762,6,0,P|277:305|354:325,1,165.000006294251,4|0,0:0|0:0,0:0:0:0:
486,299,47083,6,0,P|496:259|506:220,1,82.5000031471254,4|0,0:0|0:0,0:0:0:0:
346,82,47297,6,0,P|301:147|222:136,1,165,4|0,0:0|0:0,0:0:0:0:
152,81,47726,6,0,P|126:71|100:62,1,55,0|0,1:0|0:0,0:0:0:0:
203,255,47940,2,0,P|229:246|254:236,1,55,0|0,1:0|0:0,0:0:0:0:
143,64,48154,6,0,P|117:54|91:45,1,55,0|0,1:0|0:0,0:0:0:0:
211,270,48369,2,0,P|237:261|262:251,1,55,0|0,1:0|0:0,0:0:0:0:
346,82,48583,5,0,1:0:0:0:
384,69,48690,1,2,0:0:0:0:
423,80,48797,1,2,1:2:0:0:
449,112,48904,1,2,0:0:0:0:
453,152,49012,6,0,P|439:220|426:287,1,137.5,6|2,0:0|0:0,0:0:0:0:
323,346,49333,2,0,P|309:278|296:211,1,137.5,2|0,0:0|0:0,0:0:0:0:
204,137,49654,2,0,P|171:126|138:115,1,68.75,2|2,1:2|0:0,0:0:0:0:
45,310,49869,5,2,0:0:0:0:
48,265,49976,1,2,0:0:0:0:
81,235,50083,1,2,1:2:0:0:
126,236,50190,2,0,P|192:254|257:275,1,137.5,2|0,0:0|0:0,0:0:0:0:
323,346,50512,2,0,P|355:334|387:323,1,68.75,2|2,1:2|0:0,0:0:0:0:
480,215,50726,6,0,P|486:181|493:147,1,68.75,2|0,0:0|0:0,0:0:0:0:
334,36,50940,1,2,1:2:0:0:
334,36,51047,1,2,0:0:0:0:
334,36,51154,2,0,P|341:69|347:103,1,68.75,2|0,0:0|0:0,0:0:0:0:
243,238,51369,2,0,P|210:226|178:215,1,68.75,2|2,1:2|0:0,0:0:0:0:
34,30,51583,5,2,1:2:0:0:
74,37,51690,1,2,1:2:0:0:
104,64,51797,1,2,1:2:0:0:
115,103,51904,1,2,1:2:0:0:
103,142,52012,5,0,1:0:0:0:
56,190,52119,1,0,1:0:0:0:
54,257,52226,1,0,1:0:0:0:
98,307,52333,1,0,1:0:0:0:
165,314,52440,5,0,1:0:0:0:
365,86,52762,1,0,1:0:0:0:
462,373,53083,1,0,1:0:0:0:
365,86,53297,5,0,1:0:0:0:
165,314,53619,1,0,1:0:0:0:
462,373,53940,1,0,1:0:0:0:
365,86,54154,6,0,L|374:137,1,41.2500015735627,0|0,1:0|0:0,0:0:0:0:
438,184,54369,2,0,L|429:235,1,41.2500015735627,2|2,3:2|3:2,0:0:0:0:
260,333,54583,5,0,3:0:0:0:
149,192,54797,5,4,3:0:0:0:
149,192,54904,1,4,3:0:0:0:
149,192,55012,2,0,P|207:190|227:245,1,123.750004720688,4|0,3:0|0:0,0:0:0:0:
165,314,55440,5,2,0:0:0:0:
134,320,55547,1,2,0:0:0:0:
104,326,55654,1,2,0:0:0:0:
74,332,55762,1,2,0:0:0:0:
1,275,55869,6,0,L|210:228,1,206.25,6|0,0:0|0:0,0:0:0:0:
261,133,56297,2,0,P|195:128|167:68,1,137.5,2|0,1:2|0:0,0:0:0:0:
79,0,56619,1,2,0:0:0:0:
17,54,56726,6,0,P|9:87|1:121,1,68.75,2|0,0:0|0:0,0:0:0:0:
167,265,56940,2,0,P|159:231|151:197,1,68.75,2|0,0:0|0:0,0:0:0:0:
254,48,57154,2,0,L|387:85,1,137.5,2|2,1:2|0:0,0:0:0:0:
471,192,57476,1,0,0:0:0:0:
423,258,57583,6,0,P|396:279|362:281,1,68.75,2|0,0:0|0:0,0:0:0:0:
232,121,57797,1,2,0:0:0:0:
222,161,57904,1,0,0:0:0:0:
212,201,58012,1,2,1:2:0:0:
44,12,58226,6,0,B|16:79|16:79|52:133,1,137.5,6|0,0:0|0:0,0:0:0:0:
134,226,58547,1,0,0:0:0:0:
76,289,58654,2,0,P|43:301|11:313,1,68.75,2|0,0:0|0:0,0:0:0:0:
194,42,58869,6,0,L|271:62,1,68.75,2|0,1:2|0:0,0:0:0:0:
165,130,59083,2,0,L|242:150,1,68.75,2|0,0:0|0:0,0:0:0:0:
379,24,59297,6,0,P|390:88|452:107,1,137.5,6|0,0:0|0:0,0:0:0:0:
512,178,59619,1,2,0:0:0:0:
455,256,59726,6,0,P|388:274|322:293,1,137.5,6|0,1:2|0:0,0:0:0:0:
254,225,60047,1,2,0:0:0:0:
316,151,60154,5,6,0:0:0:0:
316,151,60262,2,0,L|325:76,1,68.75
190,298,60476,1,2,0:0:0:0:
161,214,60583,6,0,B|108:207|72:166|72:166|55:220|11:247,1,206.25,6|2,1:2|0:0,0:0:0:0:
0,327,61012,6,0,P|31:341|61:356,1,68.75,6|0,0:0|0:0,0:0:0:0:
215,141,61226,2,0,L|198:67,1,68.75
336,266,61440,2,0,L|353:192,1,68.75,0|0,1:2|0:0,0:0:0:0:
486,44,61654,1,6,0:0:0:0:
409,87,61762,6,0,P|424:153|438:221,1,137.5,0|0,3:2|0:0,0:0:0:0:
511,276,62083,2,0,P|488:301|456:311,1,68.75,0|0,3:2|0:0,0:0:0:0:
396,384,62297,2,0,P|370:361|360:329,1,68.75,0|0,1:0|0:0,0:0:0:0:
232,220,62512,1,2,0:0:0:0:
240,186,62619,1,2,0:0:0:0:
248,152,62726,6,0,P|221:92|156:79,1,137.5,0|0,3:0|3:0,0:0:0:0:
80,160,63047,1,0,0:0:0:0:
20,111,63154,2,0,P|12:77|5:44,1,68.75,2|0,1:2|0:0,0:0:0:0:
152,184,63369,2,0,P|143:217|136:250,1,68.75,2|0,0:0|0:0,0:0:0:0:
24,335,63583,1,2,0:0:0:0:
24,335,63797,6,0,B|58:344|58:344|83:322,1,68.75,2|0,0:1|0:0,0:0:0:0:
202,94,64012,2,0,B|168:85|168:85|142:106,1,68.75,2|0,1:1|0:0,0:0:0:0:
251,281,64226,6,0,P|274:188|369:191,1,206.25,2|0,0:0|0:0,0:0:0:0:
428,259,64654,2,0,P|420:292|412:326,1,68.75,2|0,0:0|0:0,0:0:0:0:
492,141,64869,2,0,P|499:174|507:208,1,68.75,2|0,1:2|0:0,0:0:0:0:
375,68,65083,2,0,P|367:101|359:135,1,68.75,2|0,0:0|0:0,0:0:0:0:
267,226,65297,1,2,0:0:0:0:
267,226,65512,6,0,B|233:235|233:235|207:213,1,68.75,2|0,0:1|0:0,0:0:0:0:
106,21,65726,2,0,B|140:12|140:12|165:33,1,68.75,2|0,1:1|0:0,0:0:0:0:
47,191,65940,6,0,P|39:157|31:124,1,68.75,2|0,0:0|0:0,0:0:0:0:
218,287,66154,5,6,0:0:0:0:
218,287,66262,1,0,0:0:0:0:
218,287,66369,2,0,P|225:253|233:220,1,68.75
399,99,66583,2,0,B|431:252|431:252|394:218,1,206.25,0|0,1:0|0:0,0:0:0:0:
270,116,67012,5,6,0:0:0:0:
270,116,67119,1,0,0:0:0:0:
270,116,67226,2,0,P|237:105|204:95,1,68.75
335,302,67440,2,0,P|235:329|136:359,1,206.25,0|0,1:0|0:0,0:0:0:0:
74,271,67869,6,0,P|41:260|8:250,1,68.75,6|0,0:0|0:0,0:0:0:0:
204,95,68083,1,2,0:0:0:0:
160,164,68190,1,0,0:0:0:0:
83,132,68297,2,0,P|74:98|65:65,1,68.75,6|0,0:0|0:0,0:0:0:0:
250,255,68512,2,0,P|258:221|267:188,1,68.75,6|0,0:0|0:0,0:0:0:0:
384,43,68726,6,0,L|434:26,2,45.8333333333333,0|0|0,3:2|3:2|3:2,3:2:0:0:
500,141,68940,6,0,L|456:126,2,45.8333333333333,0|0|0,3:2|3:2|3:2,3:2:0:0:
377,198,69154,5,2,1:2:0:0:
373,228,69226,1,0,1:2:0:0:
358,254,69297,1,0,1:2:0:0:
334,272,69369,1,2,1:2:0:0:
304,278,69440,1,0,1:2:0:0:
274,272,69512,1,0,1:2:0:0:
250,255,69583,6,0,P|183:239|115:224,1,137.5,4|0,0:0|0:0,0:0:0:0:
44,150,69904,1,2,0:0:0:0:
116,78,70012,2,0,B|234:89|180:-3|297:8,1,206.25,2|2,1:2|0:0,0:0:0:0:
365,97,70440,6,0,P|357:130|350:164,1,68.75,2|0,0:0|0:0,0:0:0:0:
491,0,70654,2,0,P|498:33|505:67,1,68.75,2|0,0:0|0:0,0:0:0:0:
395,219,70869,2,0,P|330:233|283:187,1,137.5,2|2,1:2|0:0,0:0:0:0:
198,88,71190,1,0,0:0:0:0:
144,152,71297,6,0,P|136:185|129:219,1,68.75,2|0,0:0|0:0,0:0:0:0:
247,363,71512,1,2,0:0:0:0:
279,351,71619,1,0,0:0:0:0:
312,340,71726,1,2,1:2:0:0:
418,173,71940,6,0,P|385:116|320:118,1,137.5,6|0,0:0|0:0,0:0:0:0:
231,217,72262,1,0,0:0:0:0:
292,273,72369,2,0,P|302:305|311:339,1,68.75,2|0,0:0|0:0,0:0:0:0:
483,193,72583,6,0,L|418:173,1,68.75,2|0,1:2|0:0,0:0:0:0:
460,278,72797,2,0,L|394:257,1,68.75,2|0,0:0|0:0,0:0:0:0:
346,60,73012,5,6,3:2:0:0:
301,33,73119,1,0,3:0:0:0:
250,38,73226,1,0,3:0:0:0:
212,73,73333,1,2,3:2:0:0:
183,153,73440,5,6,3:2:0:0:
151,194,73547,1,0,3:0:0:0:
102,207,73654,1,0,3:0:0:0:
53,189,73761,1,2,3:2:0:0:
13,129,73869,5,6,3:2:0:0:
13,129,73976,1,0,3:0:0:0:
13,129,74083,6,0,P|32:53|109:42,1,165.000006294251,0|0,1:1|3:2,0:0:0:0:
183,153,74404,6,0,P|202:228|279:239,1,165.000006294251,0|2,1:0|0:0,0:0:0:0:
368,175,74726,6,0,P|400:163|433:152,1,68.75,2|0,1:2|3:0,0:0:0:0:
264,377,74940,1,0,3:0:0:0:
264,377,75047,1,0,3:0:0:0:
264,377,75154,1,6,3:2:0:0:
155,127,75369,6,0,B|196:97|196:97|164:248,1,206.25,6|0,0:0|0:0,0:0:0:0:
105,329,75797,2,0,P|72:339|39:351,1,68.75,0|0,1:0|0:0,0:0:0:0:
269,168,76012,5,0,1:0:0:0:
263,219,76119,1,0,1:3:0:0:
289,262,76226,1,2,1:2:0:0:
337,279,76333,1,2,1:2:0:0:
385,263,76440,6,0,P|392:222|400:182,1,82.5000031471254,2|2,1:2|0:2,0:0:0:0:
512,133,76869,2,0,P|504:92|496:52,1,82.5000031471254,2|2,0:2|0:2,0:0:0:0:
364,0,77297,1,2,0:2:0:0:
364,0,77512,6,0,L|319:17,1,41.2500015735627,2|0,0:0|0:0,0:0:0:0:
256,119,77726,2,0,L|217:104,1,41.2500015735627,2|0,0:0|0:0,0:0:0:0:
98,11,77940,5,2,0:0:0:0:
98,11,78047,1,0,0:0:0:0:
98,11,78154,1,2,0:0:0:0:
132,198,78369,1,2,0:0:0:0:
247,33,78583,1,2,0:0:0:0:
18,170,78797,6,0,P|32:223|46:276,1,110,2|2,0:0|0:0,0:0:0:0:
166,359,79226,5,2,0:3:0:0:
164,331,79333,1,2,0:3:0:0:
174,305,79440,1,2,0:3:0:0:
192,285,79547,1,2,0:3:0:0:
216,273,79654,1,2,0:3:0:0:
244,271,79762,1,2,0:3:0:0:
270,279,79869,6,0,B|289:312|289:312|314:186,1,165.000006294251,6|0,0:0|0:0,0:0:0:0:
179,28,80190,6,0,P|166:104|236:132,1,165.000006294251,6|0,0:0|0:0,0:0:0:0:
395,55,80512,6,0,P|358:74|322:94,1,82.5000031471254,6|0,0:0|0:0,0:0:0:0:
191,285,80726,6,0,P|114:257|36:230,1,165.000006294251,6|0,0:0|0:0,0:0:0:0:
0,112,81047,6,0,P|28:41|103:54,1,165.000006294251,6|0,0:0|0:0,0:0:0:0:
193,173,81369,6,0,P|245:155|298:138,1,110,6|0,0:0|0:0,0:0:0:0:
332,69,81904,1,0,0:0:0:0:
332,69,82012,6,0,P|427:67|447:161,1,206.25,4|0,0:0|0:0,0:0:0:0:
384,241,82440,2,0,P|377:274|370:308,1,68.75,4|0,0:0|0:0,0:0:0:0:
149,61,82654,5,0,1:2:0:0:
134,126,82762,1,0,1:2:0:0:
170,182,82869,1,4,1:2:0:0:
235,195,82976,1,0,1:2:0:0:
293,161,83083,1,0,1:2:0:0:
357,181,83190,1,0,1:2:0:0:
384,241,83297,6,0,P|390:274|397:308,1,68.75,4|0,1:2|0:0,0:0:0:0:
512,106,83512,2,0,P|505:139|498:173,1,68.75,2|0,0:0|0:0,0:0:0:0:
394,26,83726,5,2,3:2:0:0:
322,65,83833,1,0,3:2:0:0:
265,132,83940,5,0,3:2:0:0:
193,93,84047,1,0,3:2:0:0:
138,29,84154,5,2,3:2:0:0:
138,29,84262,2,0,P|114:53|106:87,1,68.75,2|0,0:0|0:0,0:0:0:0:
0,256,84476,2,0,P|64:232|129:210,1,137.5,2|0,0:0|0:0,0:0:0:0:
222,294,84797,2,0,P|254:304|287:315,1,68.75,2|0,0:0|0:0,0:0:0:0:
431,197,85012,5,0,3:2:0:0:
431,197,85119,1,0,3:2:0:0:
431,197,85226,2,0,P|424:163|417:129,1,68.75,2|0,0:0|0:0,0:0:0:0:
287,315,85440,5,2,3:2:0:0:
301,249,85547,1,0,3:2:0:0:
266,192,85654,1,0,3:2:0:0:
201,174,85762,1,0,3:2:0:0:
142,207,85869,6,0,L|132:250,2,34.375,2|0|2,0:0|0:0|0:0,0:0:0:0:
46,116,86083,6,0,L|56:159,2,34.375,0|0|2,0:0|0:0|3:2,0:0:0:0:
128,30,86297,5,0,1:2:0:0:
201,61,86404,1,0,1:2:0:0:
269,22,86512,1,2,1:2:0:0:
344,51,86619,1,0,1:2:0:0:
413,9,86726,5,2,3:2:0:0:
413,9,86833,1,0,3:2:0:0:
413,9,86940,2,0,L|461:32,2,45.8333333333333,0|0|0,3:0|0:0|0:0,3:0:0:0:
500,144,87154,6,0,B|427:108|332:181|367:280|367:280|332:180|250:132|169:165,1,476.666666666667,4|0,1:0|0:0,0:0:0:0:
159,184,88154,6,0,L|149:229,3,36.6666666666667,0|0|0|0,3:2|3:0|3:0|3:0,0:0:0:0:
