osu file format v14

[General]
AudioFilename: audio.ogg
AudioLeadIn: 0
PreviewTime: 54583
Countdown: 0
SampleSet: Soft
StackLeniency: 0.7
Mode: 0
LetterboxInBreaks: 0
WidescreenStoryboard: 1

[Editor]
Bookmarks: 25440,28440
DistanceSpacing: 0.6
BeatDivisor: 4
GridSize: 32
TimelineZoom: 2.5

[Metadata]
Title:Maid with Dragons <3 (TV Size)
TitleUnicode:めいど・うぃず・どらごんず❤︎ (TV Size)
Artist:Super Chorogons
ArtistUnicode:スーパーちょろゴンず
Creator:too
Version:Extra
Source:小林さんちのメイドラゴンS
Tags:miss kobayashi's dragon maid s Kobayashi-san Chi no Maid Dragon season 2 maidragon kobayashis anime ed ending japanese pop jpop j-pop トール tohru 桑原由気 kuwahara yuuki カンナ kanna 長縄まりあ naganawa maria エルマ elma 高田憂希 takada ルコア lucoa 髙橋ミナミ takahashi minami イルル ilulu 嶺内ともみ mineuchi tomomi seiran- fu3ya_ fumiya light_u l1ght_u -hitomi share and
BeatmapID:3141191
BeatmapSetID:1536276

[Difficulty]
HPDrainRate:5.5
CircleSize:4
OverallDifficulty:8.7
ApproachRate:9.5
SliderMultiplier:2.6
SliderTickRate:1

[Events]
//Background and Video events
0,0,"000.jpg",0,0
Video,0,"video.mp4"
//Break Periods
//Storyboard Layer 0 (Background)
//Storyboard Layer 1 (Fail)
//Storyboard Layer 2 (Pass)
//Storyboard Layer 3 (Foreground)
//Storyboard Layer 4 (Overlay)
//Storyboard Sound Samples

[TimingPoints]
1012,428.571428571429,4,2,1,80,1,0
1226,-83.3333333333334,4,2,1,80,0,0
4440,-66.6666666666667,4,2,1,80,0,0
6154,-62.5,4,2,1,80,0,0
7012,-66.6666666666667,4,2,1,80,0,0
7869,-66.6666666666667,4,2,1,80,0,0
8297,-83.3333333333333,4,2,1,80,0,0
11297,-66.6666666666667,4,2,1,80,0,0
11726,-83.3333333333334,4,2,1,80,0,0
13012,-66.6666666666667,4,2,1,80,0,0
13440,-55.5555555555556,4,2,1,80,0,0
13869,-83.3333333333333,4,2,1,80,0,0
15797,-66.6666666666667,4,2,1,80,0,0
16012,-50,4,2,1,80,0,0
16654,-83.3333333333333,4,2,1,80,0,0
17512,-66.6666666666667,4,2,1,80,0,0
17726,-50,4,2,1,80,0,0
18154,-100,4,2,1,80,0,0
19012,-66.6666666666667,4,2,1,80,0,0
23083,-200,4,2,1,80,0,0
23137,-200,4,1,1,5,0,0
24154,-200,4,2,1,5,0,0
24369,-500,4,2,1,80,0,0
25012,-100,4,2,1,80,0,0
34654,-83.3333333333333,4,2,1,80,0,0
34869,-71.4285714285714,4,2,1,80,0,0
35083,-62.5,4,2,1,80,0,0
35297,-100,4,2,1,80,0,0
35351,-100,4,2,1,70,0,0
41297,-200,4,2,1,70,0,0
41726,-100,4,2,1,70,0,0
42154,-83.3333333333333,4,2,1,70,0,0
45583,-66.6666666666667,4,2,1,70,0,0
45904,-58.8235294117647,4,2,1,70,0,0
46762,-66.6666666666667,4,2,1,70,0,0
47083,-83.3333333333334,4,2,1,70,0,0
47297,-100,4,2,1,70,0,0
47726,-100,4,2,1,80,0,0
48797,-50,4,2,1,80,0,0
49012,-100,4,2,1,80,0,0
55012,-100,4,2,1,80,0,0
55869,-40,4,2,1,90,0,0
56297,-200,4,2,1,90,0,0
56726,-50,4,2,1,90,0,0
58279,-50,4,2,1,5,0,0
58333,-50,4,2,1,90,0,0
58654,-100,4,2,1,90,0,0
59297,-50,4,2,1,90,0,0
59726,-40,4,2,1,90,0,0
60154,-33.3333333333333,4,2,1,90,0,0
61012,-50,4,2,1,90,0,0
61654,-200,4,2,1,90,0,0
63154,-100,4,2,1,90,0,0
63797,-50,4,2,1,90,0,0
64012,-33.3333333333333,4,2,1,90,0,0
64226,-303.030303030303,4,2,1,90,0,0
64869,-100,4,2,1,90,0,0
65512,-50,4,2,1,90,0,0
65726,-33.3333333333333,4,2,1,90,0,0
65940,-100,4,2,1,90,0,0
66154,-66.6666666666667,4,2,1,90,0,0
66797,-100,4,2,1,90,0,0
67012,-50,4,2,1,90,0,0
67654,-100,4,2,1,90,0,0
67869,-40,4,2,1,90,0,0
68512,-50,4,2,1,90,0,0
69583,-50,4,2,1,90,0,0
70440,-50,4,2,1,90,0,0
71994,-50,4,2,1,5,0,0
72047,-50,4,2,1,90,0,0
72583,-100,4,2,1,90,0,0
73440,-100,4,2,1,90,0,0
73654,-200,4,2,1,90,0,0
73869,-100,4,2,1,90,0,0
74083,-66.6666666666667,4,2,1,90,0,0
75369,-66.6666666666667,4,2,1,90,0,0
76440,-66.6666666666667,4,2,1,70,0,0
79869,-66.6666666666667,4,2,1,80,0,0
82012,-133.333333333333,4,2,1,80,0,0
83297,-66.6666666666667,4,2,1,80,0,0
86940,-100,4,2,1,80,0,0

[Colours]
Combo1 : 237,255,104
Combo2 : 128,255,128
Combo3 : 255,128,231

[HitObjects]
79,316,1012,5,0,1:0:0:0:
78,316,1226,6,0,P|113:333|154:328,1,77.999997619629,8|0,0:0|0:0,0:0:0:0:
171,206,1440,2,0,P|67:212|79:316,1,233.999992858887,8|0,0:0|0:0,0:0:0:0:
247,277,1869,6,0,L|294:289,1,38.9999988098145,2|0,0:0|0:0,0:0:0:0:
302,322,1976,2,0,L|414:305,1,77.999997619629,2|0,0:0|0:0,0:0:0:0:
446,258,2190,2,0,P|402:233|402:320,1,155.999995239258,2|0,0:0|0:0,0:0:0:0:
455,344,2512,1,2,0:0:0:0:
417,144,2726,1,0,1:0:0:0:
417,144,2940,6,0,P|382:160|341:155,1,77.999997619629,8|0,0:0|0:0,0:0:0:0:
326,34,3154,2,0,P|430:40|418:143,1,233.999992858887,8|0,0:0|0:0,0:0:0:0:
248,104,3583,6,0,L|201:116,1,38.9999988098145,2|0,0:0|0:0,0:0:0:0:
193,149,3690,2,0,L|81:132,1,77.999997619629,2|0,0:0|0:0,0:0:0:0:
49,85,3904,2,0,P|93:60|93:147,1,155.999995239258,2|0,0:0|0:0,0:0:0:0:
33,267,4226,1,2,3:2:0:0:
128,288,4333,1,0,3:2:0:0:
225,317,4440,1,4,1:0:0:0:
225,317,4654,6,0,P|202:347|228:339,1,97.50000371933,8|0,0:0|0:0,0:0:0:0:
500,73,4869,2,0,P|506:118|450:175,1,97.50000371933,8|0,0:0|0:0,0:0:0:0:
370,138,5083,2,0,P|363:92|419:35,1,97.50000371933
412,233,5297,5,0,3:0:0:0:
353,237,5404,1,0,3:0:0:0:
298,213,5512,1,0,3:0:0:0:
267,163,5619,1,0,3:0:0:0:
212,141,5726,2,0,P|165:137|104:167,1,97.50000371933,0|0,3:0|3:0,3:0:0:0:
33,267,5940,1,0,3:0:0:0:
168,56,6154,6,0,B|176:294|176:294|177:396|337:393|335:290|335:290|327:26,1,728,4|0,0:0|0:0,0:1:0:0:
327,48,7012,6,0,P|363:66|385:99,1,65.0000024795533,0|0,1:2|0:0,1:0:0:0:
362,242,7154,6,0,P|359:201|377:167,1,65.0000024795533,0|0,1:2|0:0,1:0:0:0:
512,116,7297,6,0,P|478:138|439:140,1,65.0000024795533,0|0,1:2|0:0,1:0:0:0:
256,235,7440,5,0,1:0:0:0:
245,264,7512,5,0,1:0:0:0:
243,293,7583,5,0,1:0:0:0:
248,323,7654,6,0,P|264:347|305:372,2,65.0000024795533,0|0|0,1:0|1:0|1:0,0:0:0:0:
288,123,7869,6,2,B|146:108|171:221|16:196,1,292.50001115799,6|0,0:1|0:0,0:1:0:0:
73,103,8297,1,0,1:0:0:0:
72,287,8512,2,0,P|47:327|-23:329,1,77.999997619629,2|0,0:1|0:0,0:0:0:0:
121,215,8726,6,0,B|210:209|174:288|282:280,1,155.999995239258,2|0,0:1|0:0,0:0:0:0:
395,302,9047,2,0,B|306:296|342:375|234:367,1,155.999995239258,2|0,0:1|0:0,0:0:0:0:
263,197,9369,2,0,P|308:215|332:256,1,77.999997619629,2|0,0:1|0:0,0:0:0:0:
345,375,9583,6,0,L|374:17,1,311.999990478516,2|0,0:1|0:0,0:0:0:0:
370,64,10226,6,0,P|349:122|308:147,1,77.999997619629,2|0,0:1|0:0,0:0:0:0:
243,85,10440,2,2,P|300:16|248:96,1,311.999990478516,2|0,0:1|0:0,0:1:0:0:
473,7,11083,1,0,3:2:0:0:
272,225,11297,6,0,P|161:154|152:-3,1,292.50001115799,6|0,0:1|0:0,0:0:0:0:
148,4,11726,2,0,P|140:55|92:84,1,77.999997619629,0|0,3:0|0:0,0:0:0:0:
27,147,11940,2,0,P|3:116|1:78,1,77.999997619629,2|0,0:1|0:0,0:0:0:0:
115,158,12154,6,0,P|81:225|7:237,1,155.999995239258,2|0,0:1|0:0,0:0:0:0:
186,218,12476,2,0,P|145:154|172:84,1,155.999995239258,2|0,0:1|0:0,0:0:0:0:
99,249,12797,2,0,P|174:245|210:283,1,77.999997619629,2|0,0:1|0:0,0:0:0:0:
264,308,13012,6,2,P|370:296|253:254,1,292.50001115799,2|0,0:1|0:0,0:1:0:0:
183,365,13440,6,2,P|256:267|277:36,1,350.99998928833,2|0,0:1|0:0,0:1:0:0:
489,114,13869,6,2,B|403:51|371:149|264:48,1,233.999992858887,2|0,0:1|0:0,0:1:0:0:
364,0,14297,1,0,1:0:0:0:
427,175,14512,6,0,P|438:190|457:209,1,38.9999988098145,0|0,3:0|0:0,0:0:0:0:
387,259,14619,2,0,P|375:286|360:303,1,38.9999988098145,0|0,3:0|0:0,0:0:0:0:
456,348,14726,1,0,1:0:0:0:
218,270,14940,5,2,0:0:0:0:
234,193,15047,1,2,0:0:0:0:
296,147,15154,1,2,0:0:0:0:
203,274,15369,5,2,0:0:0:0:
218,183,15476,1,2,0:0:0:0:
295,130,15583,1,2,0:0:0:0:
380,143,15690,1,2,0:0:0:0:
432,209,15797,6,0,P|474:232|521:215,1,97.50000371933,6|0,0:0|0:0,0:0:0:0:
351,62,16012,2,0,P|178:98|202:273,1,390,4|0,0:0|0:0,0:0:0:0:
335,366,16440,1,0,0:0:0:0:
343,358,16654,6,0,P|342:289|305:258,1,77.999997619629,2|0,0:0|0:0,0:0:0:0:
202,273,16869,2,0,B|112:272|157:355|62:353,1,155.999995239258,2|2,0:0|0:0,0:0:0:0:
0,279,17190,1,2,0:0:0:0:
98,278,17297,1,2,0:0:0:0:
169,315,17404,1,2,0:0:0:0:
188,359,17512,6,0,B|166:381|166:381|170:290,1,97.50000371933,6|0,0:0|0:0,0:0:0:0:
258,165,17726,2,0,B|296:45|184:-33|84:49|96:157|169:225,1,390,4|0,0:0|0:0,0:0:0:0:
248,267,18154,6,2,B|486:242|486:242|516:210,1,260,2|0,0:1|1:0,0:1:0:0:
500,227,19012,6,2,B|165:173|165:173|113:206,1,390.00001487732,2|0,0:1|1:0,0:1:0:0:
122,200,19869,6,0,L|115:65,1,97.50000371933,2|0,1:0|0:0,0:0:0:0:
87,277,20083,1,0,1:0:0:0:
209,243,20190,2,0,L|202:108,1,97.50000371933,2|0,1:0|0:0,0:0:0:0:
52,355,20404,1,0,1:0:0:0:
293,299,20512,2,0,L|286:164,1,97.50000371933,2|0,1:0|0:0,0:0:0:0:
352,57,20726,6,0,P|384:29|438:21,1,65.0000024795533,0|0,3:2|3:2,3:0:0:0:
498,54,20869,6,0,P|506:95|486:146,1,65.0000024795533,0|0,3:2|3:2,3:0:0:0:
427,181,21012,6,0,P|386:167|352:124,1,65.0000024795533,0|0,3:2|3:2,3:0:0:0:
229,47,21154,5,0,3:0:0:0:
190,47,21226,5,0,3:0:0:0:
148,62,21297,5,0,3:0:0:0:
122,98,21369,6,0,P|115:135|122:176,2,65.0000024795533,0|0|0,3:2|3:2|3:0,0:0:0:0:
0,0,21583,5,4,3:2:0:0:
361,202,22440,6,0,L|487:183,1,97.50000371933,0|0,1:0|0:0,0:0:0:0:
111,128,22762,2,0,L|-15:109,1,97.50000371933,0|0,1:0|0:0,0:0:0:0:
224,0,23083,6,0,L|257:343,1,325,4|0,0:0|0:0,0:0:0:0:
242,330,24369,6,0,L|237:384,1,52,8|0,0:0|0:0,0:0:0:0:
361,187,25012,5,0,1:0:0:0:
437,303,25226,2,0,L|443:371,1,65,2|0,0:0|0:0,0:0:0:0:
361,187,25440,5,2,1:2:0:0:
297,172,25547,1,2,0:2:0:0:
232,182,25654,1,2,0:2:0:0:
183,226,25762,1,2,0:2:0:0:
161,287,25869,5,2,1:2:0:0:
225,244,25976,1,2,0:2:0:0:
245,168,26083,1,2,0:2:0:0:
234,84,26190,1,2,0:2:0:0:
172,17,26297,5,2,1:2:0:0:
152,50,26404,1,2,0:2:0:0:
147,89,26512,2,0,P|162:129|191:149,1,65,2|0,0:0|0:0,0:0:0:0:
352,141,26726,5,2,1:2:0:0:
403,122,26833,1,2,0:2:0:0:
403,66,26940,1,2,0:2:0:0:
352,48,27047,1,2,0:2:0:0:
317,93,27154,5,2,1:2:0:0:
358,148,27262,1,2,0:2:0:0:
421,127,27369,1,2,0:2:0:0:
421,60,27476,1,2,0:2:0:0:
358,38,27583,5,2,1:2:0:0:
312,104,27691,1,2,0:2:0:0:
360,170,27798,1,2,0:2:0:0:
435,145,27905,1,2,0:2:0:0:
436,63,28011,5,2,1:2:0:0:
345,35,28119,1,2,0:2:0:0:
288,115,28226,1,2,0:2:0:0:
345,191,28333,1,2,0:2:0:0:
438,162,28440,5,4,1:2:0:0:
56,332,29297,5,0,1:2:0:0:
100,267,29619,1,0,1:2:0:0:
135,336,29940,1,4,1:2:0:0:
460,246,30476,6,0,L|454:205,1,32.5,2|0,0:0|0:0,0:0:0:0:
446,268,30583,2,0,L|438:318,3,43.3333333333333,0|0|0|0,3:0|3:0|3:0|3:0,3:0:0:0:
304,128,31226,6,0,L|294:60,1,65,4|0,0:0|0:0,0:0:0:0:
257,202,31440,2,0,L|244:282,1,65,4|0,0:0|0:0,0:0:0:0:
329,332,31654,1,0,3:0:0:0:
329,332,31762,1,0,3:0:0:0:
373,244,31869,6,0,L|383:179,1,65,4|0,0:0|0:0,0:0:0:0:
454,71,32083,5,2,3:2:0:0:
454,71,32190,1,2,0:2:0:0:
454,71,32297,5,2,0:2:0:0:
406,93,32404,1,2,0:2:0:0:
348,103,32512,1,2,3:2:0:0:
284,89,32619,1,2,0:2:0:0:
230,41,32726,1,2,0:2:0:0:
155,18,32833,1,2,0:2:0:0:
72,34,32940,5,2,3:2:0:0:
14,104,33047,5,2,0:2:0:0:
12,201,33154,5,2,0:2:0:0:
63,193,33262,1,2,0:2:0:0:
99,156,33369,5,2,3:2:0:0:
166,201,33476,1,2,0:2:0:0:
245,196,33583,6,0,L|323:183,1,65,2|0,0:2|0:2,0:2:0:0:
429,100,33797,2,0,P|404:87|416:110,1,65,2|0,3:2|0:2,0:2:0:0:
403,262,34012,6,0,L|430:187,1,65,2|0,0:2|0:2,0:2:0:0:
429,100,34226,2,0,P|404:87|416:110,1,65,2|0,3:2|0:2,0:2:0:0:
46,368,34440,6,0,P|31:373|11:377,1,32.5,0|0,1:0|0:0,0:0:0:0:
61,355,34547,2,0,P|74:348|95:345,1,32.5,0|0,1:0|0:0,0:0:0:0:
37,264,34654,6,0,P|20:261|-1:253,1,38.9999988098145,0|0,1:0|0:0,0:0:0:0:
59,262,34761,2,0,P|74:263|97:272,1,38.9999988098145,0|0,1:0|0:0,0:0:0:0:
89,167,34869,6,0,P|73:154|55:133,1,45.4999986114502,0|0,1:0|0:0,0:0:0:0:
111,176,34976,2,0,P|126:186|144:209,1,45.4999986114502,0|0,1:0|0:0,0:0:0:0:
186,100,35083,6,0,P|177:79|172:49,1,52,0|0,1:0|0:0,0:0:0:0:
202,119,35190,2,0,P|211:138|215:169,1,52,0|0,1:0|0:0,0:0:0:0:
299,168,35297,6,0,P|314:99|255:5,1,130,6|0,0:0|0:0,0:0:0:0:
182,245,35619,2,0,P|234:292|345:288,1,130,2|0,0:0|0:0,0:0:0:0:
156,106,35940,2,0,P|88:127|36:249,1,195,2|0,0:0|0:0,0:0:0:0:
243,364,36369,6,0,P|271:379|303:380,1,65,2|0,0:0|0:0,0:0:0:0:
168,263,36583,2,0,P|135:264|107:279,1,65,2|0,0:0|0:0,0:0:0:0:
50,364,36797,2,0,P|78:379|110:380,1,65,2|0,0:0|0:0,0:0:0:0:
301,234,37012,6,0,L|319:74,1,130,2|0,0:0|0:0,0:0:0:0:
168,263,37333,2,0,L|150:103,1,130,2|0,0:0|0:0,0:0:0:0:
323,344,37654,2,0,L|346:136,1,195,2|0,0:0|0:0,0:0:0:0:
448,53,38083,6,0,L|523:33,1,65,2|0,0:0|0:0,0:0:0:0:
407,166,38297,2,0,L|332:146,1,65,2|0,0:0|0:0,0:0:0:0:
226,47,38512,2,0,B|251:26|251:26|280:39,1,65,2|0,0:0|0:0,0:0:0:0:
236,128,38726,6,0,L|77:153,1,130,6|0,0:0|0:0,0:0:0:0:
257,157,39047,2,0,L|98:132,1,130,6|0,0:0|0:0,0:0:0:0:
176,117,39369,2,0,L|200:187,1,65,2|0,0:0|0:0,0:0:0:0:
283,272,39583,6,0,L|192:372,1,130,6|0,0:0|0:0,0:0:0:0:
199,268,39904,2,0,L|290:368,1,130,6|0,0:0|0:0,0:0:0:0:
201,333,40226,2,0,L|291:311,1,65,2|0,0:0|0:0,0:0:0:0:
373,249,40440,6,0,B|497:282|497:282|227:342,1,390,4|0,0:0|0:0,0:0:0:0:
373,249,41297,6,0,B|388:274|388:274|386:320,1,65,2|0,0:0|3:0,0:0:0:0:
391,384,41619,1,0,3:2:0:0:
398,255,41726,6,0,L|391:385,1,130,2|0,3:2|0:0,0:0:0:0:
483,165,42047,5,0,0:0:0:0:
413,232,42154,2,0,L|251:252,1,155.999995239258,6|0,0:0|0:0,0:0:0:0:
195,165,42476,2,0,L|40:145,1,155.999995239258,2|0,0:0|0:0,0:0:0:0:
9,178,42797,2,0,L|127:138,1,77.999997619629,2|0,0:0|0:0,0:0:0:0:
186,87,43012,5,2,0:0:0:0:
186,87,43226,2,0,L|198:195,1,77.999997619629,2|0,0:3|0:0,0:0:0:0:
59,78,43440,5,2,0:0:0:0:
59,78,43654,2,0,L|71:-30,1,77.999997619629,2|0,0:3|0:0,0:0:0:0:
202,89,43869,6,0,L|216:263,1,155.999995239258,6|0,0:0|0:0,0:0:0:0:
328,342,44190,2,0,L|340:186,1,155.999995239258,2|0,0:0|0:0,0:0:0:0:
207,255,44512,2,0,L|214:342,1,77.999997619629,2|0,0:0|0:0,0:0:0:0:
308,367,44726,5,2,0:0:0:0:
308,367,44940,2,0,L|399:355,1,77.999997619629,2|0,0:3|0:0,0:0:0:0:
508,343,45154,5,2,0:0:0:0:
508,343,45369,2,0,L|496:252,1,77.999997619629,2|0,1:3|0:0,0:0:0:0:
453,129,45583,6,0,P|396:59|293:88,1,195.00000743866,4|0,0:0|0:0,0:0:0:0:
274,212,45904,6,0,P|217:282|97:250,1,221.000004215241,4|0,0:0|0:0,0:0:0:0:
57,154,46226,6,0,B|65:99|65:99|103:158,1,110.50000210762,4|0,0:0|0:0,0:0:0:0:
101,255,46440,6,0,P|201:287|274:212,1,221.000004215241,4|0,0:0|0:0,0:0:0:0:
302,77,46762,6,0,P|393:57|453:129,1,195.00000743866,4|0,0:0|0:0,0:0:0:0:
475,225,47083,6,0,P|438:229|399:214,1,77.999997619629,4|0,0:0|0:0,0:0:0:0:
302,77,47297,6,0,P|182:35|96:54,1,195,4|0,0:0|0:0,0:0:0:0:
66,126,47726,6,0,L|49:202,1,65,0|0,1:0|0:0,0:0:0:0:
236,239,47940,2,0,L|293:291,1,65,0|0,1:0|0:0,0:0:0:0:
136,205,48154,6,0,L|159:279,1,65,0|0,1:0|0:0,0:0:0:0:
339,217,48369,2,0,L|415:234,1,65,0|0,1:0|0:0,0:0:0:0:
236,239,48583,6,0,L|293:291,1,65,0|0,1:0|0:0,0:0:0:0:
418,148,48797,2,0,L|492:124,3,65,2|2|2|2,1:2|0:0|0:0|0:0,0:0:0:0:
317,111,49012,6,0,L|217:90,1,65,6|0,0:0|0:0,0:0:0:0:
302,28,49226,1,2,0:0:0:0:
242,108,49333,1,2,0:0:0:0:
187,22,49440,2,0,P|159:14|111:25,1,65,2|0,0:0|0:0,0:0:0:0:
38,101,49654,5,2,1:2:0:0:
23,100,49762,1,2,0:0:0:0:
12,89,49869,2,0,L|1:12,1,65,2|0,0:0|0:0,0:0:0:0:
81,193,50083,5,2,1:2:0:0:
118,195,50191,1,2,0:0:0:0:
137,162,50298,2,0,L|148:85,1,65,2|0,0:0|0:0,0:0:0:0:
103,285,50512,5,2,1:2:0:0:
51,296,50619,1,2,0:0:0:0:
9,258,50726,2,0,L|-2:181,1,65,2|0,0:0|0:0,0:0:0:0:
138,356,50940,6,0,L|215:367,1,65,2|2,1:2|0:0,0:0:0:0:
269,315,51154,2,0,L|346:304,1,65,2|0,0:0|0:0,0:0:0:0:
432,350,51369,1,2,1:2:0:0:
489,320,51476,1,2,0:0:0:0:
503,256,51583,2,0,L|514:179,1,65,2|0,1:2|0:0,0:0:0:0:
274,102,51797,5,0,1:0:0:0:
344,42,51905,1,0,1:0:0:0:
434,27,52012,2,0,P|468:33|509:55,1,65,0|0,1:2|0:0,0:0:0:0:
256,192,52226,1,0,1:0:0:0:
48,36,52440,5,0,1:0:0:0:
463,346,52762,5,0,1:0:0:0:
48,36,53083,5,0,1:0:0:0:
48,346,53297,5,0,1:0:0:0:
463,36,53619,5,0,1:0:0:0:
48,346,53940,5,0,1:0:0:0:
256,192,54154,5,0,1:0:0:0:
344,338,54369,5,0,3:0:0:0:
344,338,54476,1,0,3:0:0:0:
344,338,54583,1,0,3:0:0:0:
319,384,54797,5,4,3:0:0:0:
319,293,54904,5,4,3:0:0:0:
397,338,55012,6,0,L|436:342,6,32.5,4|0|0|0|0|0|0,3:0|3:0|3:0|3:0|3:0|3:0|3:0,0:0:0:0:
151,181,55440,6,0,L|102:185,7,32.5,2|2|2|2|2|2|2|2,0:0|0:0|0:0|0:0|0:0|0:0|0:0|0:0,0:0:0:0:
151,57,55869,6,0,B|283:27|469:49|538:228|465:306|362:285|290:241|316:164|339:146,1,568.75,6|0,0:0|0:0,0:0:0:0:
350,145,56297,6,0,L|392:141,2,32.5,2|0|0,1:2|0:0|0:0,0:0:0:0:
276,302,56619,1,2,0:0:0:0:
215,146,56726,6,0,P|155:112|80:113,1,130,2|0,0:0|0:0,0:0:0:0:
123,236,56940,2,0,P|54:236|-10:274,1,130,2|0,0:0|0:0,0:0:0:0:
350,145,57154,6,0,P|418:145|483:183,1,130,2|0,1:2|0:0,0:0:0:0:
258,55,57369,2,0,P|318:21|393:22,1,130,2|0,0:0|0:0,0:0:0:0:
123,236,57583,6,0,P|81:185|78:111,1,130,2|0,0:0|0:0,0:0:0:0:
295,150,57797,2,0,P|271:211|209:251,1,130,2|0,0:0|0:0,0:0:0:0:
136,40,58012,2,0,P|201:29|266:63,1,130,2|0,1:2|0:0,0:0:0:0:
93,345,58226,6,0,B|84:376|84:376|130:329,1,65,6|0,0:0|0:0,0:0:0:0:
93,345,58654,5,2,0:0:0:0:
240,311,58869,2,0,L|256:382,1,65,2|0,1:2|0:0,0:0:0:0:
391,277,59083,2,0,L|407:348,1,65,2|0,0:0|0:0,0:0:0:0:
192,250,59297,6,0,P|80:234|204:192,1,325,6|0,0:0|0:0,0:0:0:0:
303,196,59619,2,0,P|328:206|305:220,1,65,2|0,0:0|0:0,0:0:0:0:
206,255,59726,6,0,P|72:242|216:185,1,406.25,6|0,1:2|0:0,0:0:0:0:
299,200,60047,2,0,P|331:202|305:220,1,81.25,2|0,0:0|0:0,0:0:0:0:
224,257,60154,6,0,P|63:258|227:172,1,487.50001859665,6|0,0:0|0:0,0:0:0:0:
299,201,60476,2,0,P|335:200|305:220,1,97.50000371933,2|0,0:0|0:0,0:0:0:0:
295,302,60583,6,0,P|419:190|273:111,1,390.00001487732,6|0,1:2|0:0,0:0:0:0:
156,193,60904,2,0,P|122:213|160:225,1,97.50000371933,2|0,0:0|0:0,0:0:0:0:
182,265,61012,6,0,L|226:-60,2,260,6|0|0,0:0|0:0|1:2,0:0:0:0:
229,0,61654,6,0,L|236:145,1,130,2|0,0:0|0:0,0:0:0:0:
182,265,62297,1,0,1:0:0:0:
388,134,62512,5,2,0:0:0:0:
309,180,62619,1,2,0:0:0:0:
417,158,62726,1,0,3:0:0:0:
146,102,62940,1,0,3:0:0:0:
240,379,63154,6,0,L|251:294,1,65,2|0,1:2|0:0,0:0:0:0:
265,207,63369,2,0,L|276:122,1,65,2|0,0:0|0:0,0:0:0:0:
290,37,63583,1,2,0:0:0:0:
157,246,63797,6,0,B|137:258|137:258|100:243|100:243|128:214|128:214|157:225,1,130,2|0,0:1|0:0,0:0:0:0:
358,266,64012,6,0,B|407:293|407:293|481:247|481:247|409:195|409:195|351:230,1,292.50001115799,2|0,1:1|0:0,0:0:0:0:
248,315,64226,6,0,L|240:379,1,64.3499998036194,2|0,0:0|0:0,0:0:0:0:
265,207,64654,1,2,0:0:0:0:
240,379,64869,6,0,L|251:294,1,65,2|0,1:2|0:0,0:0:0:0:
265,207,65084,2,0,L|276:122,1,65,2|0,0:0|0:0,0:0:0:0:
290,37,65298,1,2,0:0:0:0:
114,238,65512,6,0,B|91:242|91:242|61:215|61:215|97:198|97:198|121:218,1,130,2|0,0:1|0:0,0:0:0:0:
369,295,65726,6,0,B|405:338|405:338|491:319|491:319|441:246|441:246|375:259,1,292.50001115799,2|0,1:1|0:0,0:0:0:0:
248,314,65940,6,0,L|240:379,1,65,2|0,0:0|0:0,0:0:0:0:
207,211,66154,2,0,P|239:78|283:233,1,390.00001487732,6|0,0:0|0:0,0:0:0:0:
248,314,66797,6,0,L|240:379,1,65,2|0,0:0|0:0,0:0:0:0:
207,211,67012,2,0,P|247:31|310:221,1,520,6|0,0:0|0:0,0:0:0:0:
240,379,67654,6,0,L|248:314,1,65,2|0,0:0|0:0,0:0:0:0:
261,203,67869,6,0,B|236:127|182:180|136:138|98:54|177:-43|286:-14|302:72|258:121,1,325,4|0,0:0|0:0,0:0:0:0:
261,203,68190,2,0,B|296:132|341:193|393:158|444:82|381:-28|269:-15|239:67|269:119,1,325,4|0,0:0|0:0,0:0:0:0:
247,314,68512,6,0,P|281:350|344:359,2,86.6666666666667,0|0|0,3:2|3:2|3:2,3:2:0:0:
374,287,68726,6,0,P|422:275|461:225,2,86.6666666666667,0|0|0,3:2|3:2|3:2,3:2:0:0:
423,169,68940,6,0,P|437:121|413:62,2,86.6666666666667,0|0|0,3:2|3:2|3:2,3:2:0:0:
271,52,69154,5,2,0:0:0:0:
248,74,69226,5,2,0:0:0:0:
227,111,69297,5,2,0:0:0:0:
212,156,69369,5,2,0:0:0:0:
208,213,69440,5,2,0:0:0:0:
230,274,69512,5,2,0:0:0:0:
275,319,69583,6,0,P|126:356|50:186,1,325,4|0,0:0|0:0,0:0:0:0:
62,224,69904,2,0,P|79:253|82:298,1,65,2|0,0:0|0:0,0:0:0:0:
22,384,70012,2,0,P|123:286|334:348,1,325,2|0,1:2|0:0,0:0:0:0:
303,339,70333,2,0,P|341:349|377:339,1,65,2|0,0:0|0:0,0:0:0:0:
484,267,70440,6,0,B|459:205|459:205|401:179,1,130,2|0,0:0|0:0,0:0:0:0:
484,116,70654,2,0,B|459:176|459:176|401:202,1,130,2|0,0:0|0:0,0:0:0:0:
304,234,70869,6,0,B|258:203|258:203|166:186,1,130,2|0,1:2|0:0,0:0:0:0:
304,150,71083,2,0,B|258:181|258:181|166:198,1,130,2|0,0:0|0:0,0:0:0:0:
76,197,71297,6,0,L|47:50,1,130,2|0,0:0|0:0,0:0:0:0:
125,288,71512,2,0,L|12:386,1,130,2|0,0:0|0:0,0:0:0:0:
186,199,71726,2,0,L|327:247,1,130,2|0,1:2|0:0,0:0:0:0:
475,331,71940,6,0,B|473:361|473:361|451:329,1,65,6|0,0:0|0:0,0:0:0:0:
475,331,72369,5,2,0:0:0:0:
449,204,72583,2,0,L|512:189,1,65,2|0,1:2|0:0,0:0:0:0:
415,80,72797,2,0,L|351:65,1,65,2|0,0:0|0:0,0:0:0:0:
260,220,73012,5,6,3:2:0:0:
207,225,73119,1,0,3:0:0:0:
162,195,73226,1,0,3:2:0:0:
225,144,73333,1,2,3:2:0:0:
269,232,73440,5,6,3:2:0:0:
203,241,73547,1,0,3:0:0:0:
147,203,73654,1,0,3:2:0:0:
225,144,73761,1,2,3:2:0:0:
276,247,73869,5,6,3:2:0:0:
198,252,73976,1,0,3:0:0:0:
138,208,74083,2,0,L|29:175,1,97.50000371933,0|0,1:1|0:0,0:0:0:0:
126,285,74297,5,6,3:2:0:0:
363,252,74404,1,0,1:0:0:0:
346,274,74619,5,2,1:2:0:0:
301,23,74726,2,0,P|348:28|383:62,1,97.50000371933,6|0,0:0|0:0,0:0:0:0:
373,143,74940,1,0,3:0:0:0:
357,178,75047,1,0,3:0:0:0:
320,192,75154,2,0,P|300:147|327:85,1,97.50000371933,6|0,0:0|0:0,0:0:0:0:
486,50,75369,6,0,B|463:73|463:73|137:99,1,292.50001115799,6|0,0:0|0:0,0:0:0:0:
80,22,75797,5,0,1:0:0:0:
418,0,76012,1,0,1:0:0:0:
425,331,76226,5,2,1:2:0:0:
369,277,76333,1,2,1:2:0:0:
449,256,76440,1,2,1:2:0:0:
284,298,76654,1,2,0:2:0:0:
346,350,76869,1,2,0:2:0:0:
390,197,77083,1,2,0:2:0:0:
309,219,77297,1,2,0:2:0:0:
76,307,77512,6,0,B|81:344|100:366|130:341|118:297,1,97.50000371933,2|0,0:0|0:0,0:0:0:0:
92,225,77726,2,0,B|87:188|68:166|38:191|76:260,1,97.50000371933,2|0,0:0|0:0,0:0:0:0:
179,241,77940,1,2,0:0:0:0:
152,129,78154,6,0,B|126:101|89:84|56:91,1,97.50000371933,2|0,0:0|0:0,0:0:0:0:
320,234,78369,2,0,B|358:232|396:246|414:275,1,97.50000371933,2|0,0:0|0:0,0:0:0:0:
283,95,78583,2,0,B|311:69|328:32|321:-1,1,97.50000371933,2|0,0:0|0:0,0:0:0:0:
167,274,78797,2,0,B|155:294|156:323|156:323|166:298|186:278,1,97.50000371933,2|0,0:0|0:0,0:0:0:0:
230,187,79012,1,2,0:0:0:0:
178,25,79226,5,2,0:3:0:0:
119,27,79333,1,2,0:3:0:0:
64,48,79440,1,2,0:3:0:0:
24,90,79547,1,2,0:3:0:0:
12,147,79654,1,2,0:3:0:0:
21,205,79762,1,2,0:3:0:0:
58,250,79869,6,0,P|141:251|187:236,1,97.50000371933,6|0,0:0|0:0,0:0:0:0:
302,374,80190,2,0,P|345:302|354:255,1,97.50000371933,6|0,0:0|0:0,0:0:0:0:
512,224,80512,2,0,P|471:150|435:119,1,97.50000371933,6|0,0:0|0:0,0:0:0:0:
459,104,80726,6,0,P|489:142|508:186,1,97.50000371933,6|0,0:0|0:0,0:0:0:0:
284,228,81047,2,0,P|266:273|237:312,1,97.50000371933,6|0,0:0|0:0,0:0:0:0:
97,124,81369,2,0,P|48:131|0:125,1,97.50000371933,6|0,0:0|0:0,0:0:0:0:
296,0,82012,6,0,L|316:182,1,170.625006508827,4|0,0:0|0:0,0:0:0:0:
294,149,82440,2,0,L|274:331,1,170.625006508827,4|0,0:0|0:0,0:0:0:0:
291,293,82869,2,0,L|296:354,3,48.750001859665,4|0|0|0,0:0|0:0|0:0|0:0,0:0:0:0:
161,176,83297,5,4,0:0:0:0:
161,176,83512,6,0,P|100:158|50:190,1,97.50000371933,2|0,0:0|0:0,0:0:0:0:
41,290,83726,2,0,P|168:305|162:177,1,292.50001115799,2|0,0:0|0:0,0:0:0:0:
62,69,84155,6,0,L|15:57,1,48.750001859665,2|0,0:0|0:0,0:0:0:0:
88,86,84262,2,0,L|200:69,1,97.50000371933,2|0,0:0|0:0,0:0:0:0:
264,32,84476,2,0,P|310:1|313:101,1,195.00000743866,2|0,0:0|0:0,0:0:0:0:
254,115,84798,1,2,0:0:0:0:
474,318,85012,1,0,3:0:0:0:
474,318,85226,6,0,P|413:336|363:304,1,97.50000371933,2|0,0:0|0:0,0:0:0:0:
354,204,85440,2,0,P|481:189|475:317,1,292.50001115799,2|0,0:0|0:0,0:0:0:0:
281,234,85869,6,0,L|234:246,1,48.750001859665,2|0,0:0|0:0,0:0:0:0:
201,267,85976,2,0,L|89:250,1,97.50000371933,2|0,0:0|0:0,0:0:0:0:
82,11,86190,1,2,3:2:0:0:
150,74,86297,1,0,3:0:0:0:
127,163,86404,1,0,3:0:0:0:
37,183,86512,2,0,P|11:234|22:300,1,97.50000371933,2|0,0:0|0:0,0:0:0:0:
173,322,86726,6,0,B|199:280|199:280|198:232,1,97.50000371933,2|0,0:0|0:0,0:0:0:0:
127,163,86940,2,0,L|142:102,2,43.3333333333333,0|0|0,3:0|3:0|3:0,3:0:0:0:
104,252,87154,1,4,1:0:0:0:
256,192,87262,12,0,88154,0:0:0:0:
256,192,88297,5,0,3:0:0:0:
256,192,88369,1,0,3:0:0:0:
