osu file format v14

[General]
AudioFilename: audio.mp3
AudioLeadIn: 0
PreviewTime: 54325
Countdown: 0
SampleSet: Soft
StackLeniency: 0.7
Mode: 3
LetterboxInBreaks: 0
SpecialStyle: 0
WidescreenStoryboard: 1

[Editor]
Bookmarks: 83049
DistanceSpacing: 0.9
BeatDivisor: 4
GridSize: 8
TimelineZoom: 2

[Metadata]
Title:Maid with Dragons (TV Size)
TitleUnicode:めいど・うぃず・どらごんず❤︎ (TV Size)
Artist:Super Chorogons
ArtistUnicode:スーパーちょろゴンず
Creator:Mirea
Version:Normal
Source:小林さんちのメイドラゴンS
Tags:miss kobayashi's dragon maid s Kobayashi-san Chi no Maid Dragon ed ending japanese pop jpop j-pop anime female vocal トール tohru 桑原由気 kuwahara yuuki カンナ kanna 長縄まりあ naganawa maria エルマ elma 高田憂希 takada yuuki ルコア lucoa 髙橋ミナミ takahashi minami イルル ilulu
BeatmapID:3334836
BeatmapSetID:1633866

[Difficulty]
HPDrainRate:7.5
CircleSize:4
OverallDifficulty:7.5
ApproachRate:5
SliderMultiplier:1.4
SliderTickRate:1

[Events]
//Background and Video events
0,0,"bg.jpg",0,0
//Break Periods
//Storyboard Layer 0 (Background)
//Storyboard Layer 1 (Fail)
//Storyboard Layer 2 (Pass)
//Storyboard Layer 3 (Foreground)
//Storyboard Layer 4 (Overlay)
//Storyboard Sound Samples

[TimingPoints]
325,428.571428571429,4,2,1,70,1,0
7618,428.571428571429,4,2,1,70,1,0
55618,-100,4,2,1,70,0,1
83046,-100,4,2,1,70,0,0

[HitObjects]
192,192,325,5,0,0:0:0:0:
64,192,467,1,0,0:0:0:0:
320,192,610,1,0,0:0:0:0:
64,192,753,1,0,0:0:0:0:
448,192,753,1,0,0:0:0:0:
192,192,967,1,0,0:0:0:0:
192,192,1182,1,0,0:0:0:0:
320,192,1396,1,0,0:0:0:0:
448,192,1610,128,0,1825:0:0:0:0:
64,192,1932,128,0,2253:0:0:0:0:
192,192,2253,1,0,0:0:0:0:
64,192,2467,1,0,0:0:0:0:
448,192,2467,1,0,0:0:0:0:
320,192,2682,1,0,0:0:0:0:
320,192,2896,1,0,0:0:0:0:
192,192,3110,1,0,0:0:0:0:
64,192,3325,128,0,3539:0:0:0:0:
448,192,3646,128,0,3860:0:0:0:0:
192,192,3967,128,0,4182:0:0:0:0:
448,192,4182,1,0,0:0:0:0:
64,192,4182,1,0,0:0:0:0:
320,192,4396,1,0,0:0:0:0:
320,192,4610,1,0,0:0:0:0:
64,192,4825,1,0,0:0:0:0:
192,192,5039,128,0,5253:0:0:0:0:
448,192,5360,128,0,5682:0:0:0:0:
64,192,5467,1,0,0:0:0:0:
320,192,5682,1,0,0:0:0:0:
192,192,5896,1,0,0:0:0:0:
64,192,6110,1,0,0:0:0:0:
64,192,6325,1,0,0:0:0:0:
320,192,6539,128,0,6753:0:0:0:0:
448,192,6753,128,0,6967:0:0:0:0:
192,192,6967,128,0,7182:0:0:0:0:
320,192,7182,128,0,7396:0:0:0:0:
64,192,7396,1,0,0:0:0:0:
448,192,7396,1,0,0:0:0:0:
320,192,7618,1,0,0:0:0:0:
64,192,7618,128,0,8475:0:0:0:0:
192,192,8046,1,0,0:0:0:0:
320,192,8260,1,0,0:0:0:0:
448,192,8475,1,0,0:0:0:0:
192,192,8582,1,0,0:0:0:0:
64,192,8903,1,0,0:0:0:0:
320,192,8903,1,0,0:0:0:0:
192,192,9118,1,0,0:0:0:0:
320,192,9332,1,0,0:0:0:0:
320,192,9653,1,0,0:0:0:0:
64,192,9760,1,0,0:0:0:0:
448,192,9760,1,0,0:0:0:0:
192,192,9975,1,0,0:0:0:0:
320,192,10189,1,0,0:0:0:0:
64,192,10296,1,0,0:0:0:0:
320,192,10618,1,0,0:0:0:0:
448,192,10618,1,0,0:0:0:0:
192,192,10832,1,0,0:0:0:0:
64,192,11046,1,0,0:0:0:0:
448,192,11046,128,0,11260:0:0:0:0:
192,192,11368,1,0,0:0:0:0:
64,192,11475,1,0,0:0:0:0:
320,192,11475,1,0,0:0:0:0:
448,192,11689,1,0,0:0:0:0:
64,192,11903,1,0,0:0:0:0:
320,192,12010,1,0,0:0:0:0:
192,192,12332,1,0,0:0:0:0:
448,192,12332,1,0,0:0:0:0:
320,192,12546,1,0,0:0:0:0:
192,192,12760,1,0,0:0:0:0:
64,192,12760,128,0,12975:0:0:0:0:
448,192,12975,1,0,0:0:0:0:
192,192,13189,1,0,0:0:0:0:
320,192,13189,128,0,13403:0:0:0:0:
64,192,13403,1,0,0:0:0:0:
448,192,13618,128,0,13832:0:0:0:0:
320,192,13618,1,0,0:0:0:0:
192,192,13832,1,0,0:0:0:0:
320,192,13939,1,0,0:0:0:0:
448,192,14046,1,0,0:0:0:0:
64,192,14046,1,0,0:0:0:0:
320,192,14260,1,0,0:0:0:0:
448,192,14368,1,0,0:0:0:0:
64,192,14475,1,0,0:0:0:0:
192,192,14475,1,0,0:0:0:0:
320,192,14689,1,0,0:0:0:0:
192,192,14796,1,0,0:0:0:0:
64,192,14903,1,0,0:0:0:0:
448,192,14903,1,0,0:0:0:0:
320,192,15118,1,0,0:0:0:0:
192,192,15225,1,0,0:0:0:0:
448,192,15332,1,0,0:0:0:0:
192,192,15439,1,0,0:0:0:0:
64,192,15546,1,0,0:0:0:0:
320,192,15760,1,0,0:0:0:0:
448,192,15760,1,0,0:0:0:0:
192,192,15975,1,0,0:0:0:0:
448,192,16189,1,0,0:0:0:0:
64,192,16403,1,0,0:0:0:0:
192,192,16618,1,0,0:0:0:0:
448,192,16618,128,0,16832:0:0:0:0:
320,192,16832,1,0,0:0:0:0:
192,192,16939,1,0,0:0:0:0:
64,192,17046,128,0,17260:0:0:0:0:
448,192,17260,1,0,0:0:0:0:
320,192,17368,1,0,0:0:0:0:
192,192,17475,128,0,17689:0:0:0:0:
64,192,17689,128,0,17903:0:0:0:0:
320,192,17903,1,0,0:0:0:0:
448,192,17903,128,0,18760:0:0:0:0:
192,192,18010,1,0,0:0:0:0:
64,192,18332,1,0,0:0:0:0:
192,192,18332,1,0,0:0:0:0:
64,192,18760,128,0,19618:0:0:0:0:
192,192,18760,1,0,0:0:0:0:
320,192,18868,1,0,0:0:0:0:
320,192,19189,1,0,0:0:0:0:
448,192,19189,1,0,0:0:0:0:
192,192,19618,1,0,0:0:0:0:
448,192,19618,1,0,0:0:0:0:
64,192,19939,1,0,0:0:0:0:
320,192,19939,1,0,0:0:0:0:
448,192,20260,1,0,0:0:0:0:
320,192,20260,128,0,20475:0:0:0:0:
64,192,20475,128,0,20689:0:0:0:0:
448,192,20689,128,0,20903:0:0:0:0:
64,192,20903,1,0,0:0:0:0:
320,192,21010,1,0,0:0:0:0:
448,192,21118,1,0,0:0:0:0:
192,192,21225,1,0,0:0:0:0:
64,192,21332,1,0,0:0:0:0:
320,192,21332,1,0,0:0:0:0:
448,192,22189,1,0,0:0:0:0:
192,192,22189,1,0,0:0:0:0:
192,192,22510,1,0,0:0:0:0:
448,192,22510,1,0,0:0:0:0:
64,192,22832,1,0,0:0:0:0:
320,192,22832,128,0,23153:0:0:0:0:
64,192,24118,128,0,24439:0:0:0:0:
192,192,24118,1,0,0:0:0:0:
320,192,24439,128,0,24760:0:0:0:0:
64,192,24760,1,0,0:0:0:0:
448,192,24760,1,0,0:0:0:0:
192,192,24975,1,0,0:0:0:0:
320,192,24975,1,0,0:0:0:0:
448,192,25189,1,0,0:0:0:0:
192,192,25403,1,0,0:0:0:0:
64,192,25403,1,0,0:0:0:0:
448,192,25618,1,0,0:0:0:0:
64,192,25832,1,0,0:0:0:0:
320,192,25939,1,0,0:0:0:0:
192,192,26153,1,0,0:0:0:0:
448,192,26260,1,0,0:0:0:0:
64,192,26260,1,0,0:0:0:0:
320,192,26475,1,0,0:0:0:0:
192,192,26689,1,0,0:0:0:0:
448,192,26689,1,0,0:0:0:0:
64,192,26903,1,0,0:0:0:0:
320,192,27118,1,0,0:0:0:0:
448,192,27118,1,0,0:0:0:0:
192,192,27332,1,0,0:0:0:0:
64,192,27546,1,0,0:0:0:0:
448,192,27546,1,0,0:0:0:0:
320,192,27760,1,0,0:0:0:0:
64,192,27975,1,0,0:0:0:0:
192,192,28082,1,0,0:0:0:0:
448,192,28189,1,0,0:0:0:0:
320,192,28189,1,0,0:0:0:0:
64,192,29046,1,0,0:0:0:0:
192,192,29046,1,0,0:0:0:0:
64,192,29368,1,0,0:0:0:0:
192,192,29368,1,0,0:0:0:0:
320,192,29689,1,0,0:0:0:0:
448,192,29689,128,0,30118:0:0:0:0:
64,192,30118,128,0,30332:0:0:0:0:
320,192,30332,1,0,0:0:0:0:
192,192,30475,1,0,0:0:0:0:
320,192,30975,1,0,0:0:0:0:
448,192,30975,1,0,0:0:0:0:
192,192,31189,1,0,0:0:0:0:
64,192,31189,1,0,0:0:0:0:
320,192,31403,1,0,0:0:0:0:
192,192,31510,1,0,0:0:0:0:
64,192,31618,1,0,0:0:0:0:
448,192,31618,1,0,0:0:0:0:
192,192,31832,1,0,0:0:0:0:
320,192,31832,1,0,0:0:0:0:
64,192,32046,1,0,0:0:0:0:
320,192,32260,1,0,0:0:0:0:
448,192,32260,1,0,0:0:0:0:
64,192,32475,1,0,0:0:0:0:
192,192,32689,1,0,0:0:0:0:
448,192,32796,1,0,0:0:0:0:
320,192,33010,1,0,0:0:0:0:
64,192,33118,1,0,0:0:0:0:
192,192,33118,1,0,0:0:0:0:
320,192,33332,1,0,0:0:0:0:
448,192,33546,1,0,0:0:0:0:
64,192,33546,1,0,0:0:0:0:
192,192,33760,1,0,0:0:0:0:
320,192,33975,1,0,0:0:0:0:
448,192,33975,1,0,0:0:0:0:
64,192,34189,128,0,34403:0:0:0:0:
192,192,34403,128,0,34618:0:0:0:0:
320,192,34618,128,0,34832:0:0:0:0:
448,192,34832,128,0,35046:0:0:0:0:
192,192,35046,1,0,0:0:0:0:
64,192,35046,1,0,0:0:0:0:
320,192,35368,1,0,0:0:0:0:
448,192,35689,128,0,36118:0:0:0:0:
192,192,36118,1,0,0:0:0:0:
64,192,36332,1,0,0:0:0:0:
320,192,36332,1,0,0:0:0:0:
448,192,36760,1,0,0:0:0:0:
320,192,37082,1,0,0:0:0:0:
192,192,37403,128,0,37832:0:0:0:0:
320,192,37832,1,0,0:0:0:0:
64,192,38046,1,0,0:0:0:0:
448,192,38046,1,0,0:0:0:0:
320,192,38260,128,0,38475:0:0:0:0:
64,192,38475,128,0,38796:0:0:0:0:
448,192,38475,1,0,0:0:0:0:
192,192,38796,1,0,0:0:0:0:
320,192,39118,1,0,0:0:0:0:
448,192,39332,128,0,39546:0:0:0:0:
64,192,39546,1,0,0:0:0:0:
320,192,39760,1,0,0:0:0:0:
192,192,39760,1,0,0:0:0:0:
448,192,39975,1,0,0:0:0:0:
64,192,40189,1,0,0:0:0:0:
64,192,40510,1,0,0:0:0:0:
320,192,40832,1,0,0:0:0:0:
448,192,41046,1,0,0:0:0:0:
64,192,41046,1,0,0:0:0:0:
192,192,41260,1,0,0:0:0:0:
448,192,41475,1,0,0:0:0:0:
64,192,41475,1,0,0:0:0:0:
320,192,41689,1,0,0:0:0:0:
192,192,41796,1,0,0:0:0:0:
448,192,41903,1,0,0:0:0:0:
64,192,41903,1,0,0:0:0:0:
64,192,42332,1,0,0:0:0:0:
320,192,42546,1,0,0:0:0:0:
64,192,42760,1,0,0:0:0:0:
448,192,42975,1,0,0:0:0:0:
64,192,43189,1,0,0:0:0:0:
320,192,43403,1,0,0:0:0:0:
448,192,43618,1,0,0:0:0:0:
192,192,43832,1,0,0:0:0:0:
448,192,44046,1,0,0:0:0:0:
64,192,44260,1,0,0:0:0:0:
448,192,44475,1,0,0:0:0:0:
192,192,44689,1,0,0:0:0:0:
448,192,44903,1,0,0:0:0:0:
64,192,44903,1,0,0:0:0:0:
320,192,45118,1,0,0:0:0:0:
448,192,45225,1,0,0:0:0:0:
64,192,45332,1,0,0:0:0:0:
192,192,45332,1,0,0:0:0:0:
320,192,45653,1,0,0:0:0:0:
448,192,45653,1,0,0:0:0:0:
192,192,45975,1,0,0:0:0:0:
64,192,46189,1,0,0:0:0:0:
448,192,46189,1,0,0:0:0:0:
192,192,46510,1,0,0:0:0:0:
320,192,46510,1,0,0:0:0:0:
448,192,46832,1,0,0:0:0:0:
192,192,47046,1,0,0:0:0:0:
64,192,47046,128,0,47475:0:0:0:0:
448,192,47475,1,0,0:0:0:0:
320,192,47475,1,0,0:0:0:0:
192,192,47689,1,0,0:0:0:0:
320,192,47903,1,0,0:0:0:0:
448,192,47903,1,0,0:0:0:0:
192,192,48118,1,0,0:0:0:0:
64,192,48332,1,0,0:0:0:0:
448,192,48332,1,0,0:0:0:0:
320,192,48546,1,0,0:0:0:0:
448,192,48760,1,0,0:0:0:0:
64,192,48760,1,0,0:0:0:0:
192,192,48975,1,0,0:0:0:0:
320,192,48975,1,0,0:0:0:0:
448,192,49189,1,0,0:0:0:0:
192,192,49403,1,0,0:0:0:0:
64,192,49403,1,0,0:0:0:0:
448,192,49618,1,0,0:0:0:0:
64,192,49832,1,0,0:0:0:0:
320,192,49939,1,0,0:0:0:0:
192,192,49939,1,0,0:0:0:0:
448,192,50260,1,0,0:0:0:0:
64,192,50260,1,0,0:0:0:0:
192,192,50475,1,0,0:0:0:0:
320,192,50689,1,0,0:0:0:0:
448,192,50689,1,0,0:0:0:0:
64,192,50903,1,0,0:0:0:0:
192,192,51118,1,0,0:0:0:0:
448,192,51118,1,0,0:0:0:0:
320,192,51332,1,0,0:0:0:0:
64,192,51439,1,0,0:0:0:0:
448,192,51546,1,0,0:0:0:0:
192,192,51653,1,0,0:0:0:0:
320,192,51760,128,0,51975:0:0:0:0:
448,192,51975,128,0,52189:0:0:0:0:
192,192,52189,1,0,0:0:0:0:
64,192,52189,1,0,0:0:0:0:
320,192,52510,1,0,0:0:0:0:
448,192,52510,1,0,0:0:0:0:
64,192,52832,1,0,0:0:0:0:
192,192,53046,1,0,0:0:0:0:
448,192,53046,1,0,0:0:0:0:
192,192,53368,1,0,0:0:0:0:
320,192,53368,1,0,0:0:0:0:
448,192,53689,1,0,0:0:0:0:
64,192,53903,1,0,0:0:0:0:
448,192,54010,1,0,0:0:0:0:
192,192,54118,1,0,0:0:0:0:
320,192,54225,1,0,0:0:0:0:
64,192,54332,1,0,0:0:0:0:
448,192,54332,1,0,0:0:0:0:
64,192,54546,1,0,0:0:0:0:
192,192,54653,1,0,0:0:0:0:
320,192,54760,128,0,54975:0:0:0:0:
448,192,54975,128,0,55189:0:0:0:0:
192,192,55189,5,0,0:0:0:0:
64,192,55332,1,0,0:0:0:0:
320,192,55475,1,0,0:0:0:0:
64,192,55618,1,0,0:0:0:0:
448,192,55618,1,0,0:0:0:0:
192,192,56046,1,0,0:0:0:0:
320,192,56046,1,0,0:0:0:0:
448,192,56475,1,0,0:0:0:0:
192,192,56582,1,0,0:0:0:0:
320,192,56903,1,0,0:0:0:0:
64,192,56903,1,0,0:0:0:0:
192,192,57118,1,0,0:0:0:0:
448,192,57332,1,0,0:0:0:0:
64,192,57546,1,0,0:0:0:0:
448,192,57760,1,0,0:0:0:0:
192,192,57760,1,0,0:0:0:0:
320,192,57975,1,0,0:0:0:0:
64,192,58189,1,0,0:0:0:0:
448,192,58296,1,0,0:0:0:0:
192,192,58618,1,0,0:0:0:0:
64,192,58618,1,0,0:0:0:0:
320,192,58832,1,0,0:0:0:0:
448,192,59046,1,0,0:0:0:0:
64,192,59046,1,0,0:0:0:0:
192,192,59260,1,0,0:0:0:0:
64,192,59475,1,0,0:0:0:0:
448,192,59475,1,0,0:0:0:0:
320,192,59689,1,0,0:0:0:0:
64,192,59903,1,0,0:0:0:0:
448,192,60010,1,0,0:0:0:0:
192,192,60332,1,0,0:0:0:0:
320,192,60332,1,0,0:0:0:0:
64,192,60546,1,0,0:0:0:0:
448,192,60760,128,0,61189:0:0:0:0:
320,192,60760,1,0,0:0:0:0:
64,192,61189,1,0,0:0:0:0:
448,192,61403,1,0,0:0:0:0:
192,192,61510,1,0,0:0:0:0:
448,192,61618,1,0,0:0:0:0:
64,192,61725,1,0,0:0:0:0:
320,192,62046,1,0,0:0:0:0:
448,192,62046,1,0,0:0:0:0:
192,192,62260,1,0,0:0:0:0:
320,192,62368,1,0,0:0:0:0:
64,192,62475,1,0,0:0:0:0:
448,192,62475,1,0,0:0:0:0:
192,192,62689,1,0,0:0:0:0:
320,192,62903,1,0,0:0:0:0:
64,192,62903,1,0,0:0:0:0:
448,192,63118,1,0,0:0:0:0:
192,192,63332,1,0,0:0:0:0:
448,192,63439,1,0,0:0:0:0:
64,192,63546,128,0,63760:0:0:0:0:
448,192,63760,128,0,63975:0:0:0:0:
192,192,63760,1,0,0:0:0:0:
320,192,63975,1,0,0:0:0:0:
64,192,64189,1,0,0:0:0:0:
320,192,64403,1,0,0:0:0:0:
192,192,64618,1,0,0:0:0:0:
64,192,64832,1,0,0:0:0:0:
320,192,65046,1,0,0:0:0:0:
64,192,65153,1,0,0:0:0:0:
448,192,65260,128,0,65475:0:0:0:0:
192,192,65475,1,0,0:0:0:0:
64,192,65475,128,0,65689:0:0:0:0:
320,192,65689,1,0,0:0:0:0:
64,192,65903,1,0,0:0:0:0:
448,192,65903,1,0,0:0:0:0:
192,192,66118,1,0,0:0:0:0:
448,192,66332,128,0,66760:0:0:0:0:
320,192,66332,1,0,0:0:0:0:
192,192,66760,1,0,0:0:0:0:
64,192,66760,1,0,0:0:0:0:
320,192,66975,1,0,0:0:0:0:
448,192,67189,1,0,0:0:0:0:
64,192,67189,128,0,67618:0:0:0:0:
192,192,67618,128,0,67832:0:0:0:0:
448,192,67618,1,0,0:0:0:0:
320,192,67832,128,0,68046:0:0:0:0:
448,192,68046,128,0,68260:0:0:0:0:
64,192,68260,128,0,68475:0:0:0:0:
320,192,68475,128,0,68689:0:0:0:0:
64,192,68689,128,0,68903:0:0:0:0:
448,192,68903,128,0,69118:0:0:0:0:
192,192,69118,1,0,0:0:0:0:
320,192,69225,1,0,0:0:0:0:
448,192,69332,1,0,0:0:0:0:
64,192,69332,1,0,0:0:0:0:
192,192,69760,1,0,0:0:0:0:
320,192,69760,1,0,0:0:0:0:
64,192,70189,1,0,0:0:0:0:
320,192,70296,1,0,0:0:0:0:
192,192,70618,1,0,0:0:0:0:
448,192,70618,1,0,0:0:0:0:
320,192,70832,1,0,0:0:0:0:
64,192,71046,1,0,0:0:0:0:
448,192,71260,1,0,0:0:0:0:
64,192,71475,1,0,0:0:0:0:
320,192,71475,1,0,0:0:0:0:
192,192,71689,1,0,0:0:0:0:
448,192,71903,1,0,0:0:0:0:
64,192,72010,1,0,0:0:0:0:
320,192,72332,1,0,0:0:0:0:
448,192,72332,1,0,0:0:0:0:
192,192,72546,1,0,0:0:0:0:
64,192,72760,1,0,0:0:0:0:
448,192,72760,1,0,0:0:0:0:
320,192,72975,1,0,0:0:0:0:
64,192,73082,1,0,0:0:0:0:
448,192,73189,1,0,0:0:0:0:
192,192,73296,1,0,0:0:0:0:
320,192,73403,1,0,0:0:0:0:
64,192,73618,1,0,0:0:0:0:
320,192,73725,1,0,0:0:0:0:
448,192,73832,1,0,0:0:0:0:
192,192,73832,1,0,0:0:0:0:
192,192,74046,1,0,0:0:0:0:
448,192,74153,1,0,0:0:0:0:
64,192,74153,1,0,0:0:0:0:
320,192,74475,1,0,0:0:0:0:
448,192,74475,1,0,0:0:0:0:
64,192,74689,1,0,0:0:0:0:
448,192,74796,1,0,0:0:0:0:
192,192,74903,1,0,0:0:0:0:
320,192,75118,1,0,0:0:0:0:
64,192,75118,128,0,75546:0:0:0:0:
448,192,75546,1,0,0:0:0:0:
320,192,75546,1,0,0:0:0:0:
64,192,75760,1,0,0:0:0:0:
448,192,75868,1,0,0:0:0:0:
192,192,75975,1,0,0:0:0:0:
320,192,76082,1,0,0:0:0:0:
448,192,76189,1,0,0:0:0:0:
64,192,76189,1,0,0:0:0:0:
192,192,76403,1,0,0:0:0:0:
448,192,76618,1,0,0:0:0:0:
320,192,76832,1,0,0:0:0:0:
64,192,77046,1,0,0:0:0:0:
192,192,77046,1,0,0:0:0:0:
448,192,77260,1,0,0:0:0:0:
64,192,77475,1,0,0:0:0:0:
320,192,77689,1,0,0:0:0:0:
448,192,77903,1,0,0:0:0:0:
192,192,77903,1,0,0:0:0:0:
64,192,78118,1,0,0:0:0:0:
320,192,78332,1,0,0:0:0:0:
448,192,78546,1,0,0:0:0:0:
64,192,78546,1,0,0:0:0:0:
192,192,78760,1,0,0:0:0:0:
448,192,78975,1,0,0:0:0:0:
320,192,79082,1,0,0:0:0:0:
192,192,79189,128,0,79403:0:0:0:0:
64,192,79403,128,0,79618:0:0:0:0:
320,192,79618,1,0,0:0:0:0:
448,192,79618,1,0,0:0:0:0:
192,192,79939,1,0,0:0:0:0:
64,192,79939,1,0,0:0:0:0:
448,192,80260,1,0,0:0:0:0:
64,192,80475,1,0,0:0:0:0:
320,192,80475,1,0,0:0:0:0:
448,192,80796,1,0,0:0:0:0:
192,192,80796,1,0,0:0:0:0:
192,192,81118,1,0,0:0:0:0:
64,192,81118,1,0,0:0:0:0:
320,192,81760,1,0,0:0:0:0:
448,192,81760,128,0,82189:0:0:0:0:
192,192,82189,1,0,0:0:0:0:
64,192,82189,128,0,82618:0:0:0:0:
448,192,82618,1,0,0:0:0:0:
320,192,82725,1,0,0:0:0:0:
192,192,82832,1,0,0:0:0:0:
64,192,82939,1,0,0:0:0:0:
448,192,83046,1,0,0:0:0:0:
320,192,83046,1,0,0:0:0:0:
192,192,83260,1,0,0:0:0:0:
64,192,83260,1,0,0:0:0:0:
448,192,83475,1,0,0:0:0:0:
320,192,83689,1,0,0:0:0:0:
64,192,83689,1,0,0:0:0:0:
192,192,83903,1,0,0:0:0:0:
448,192,84118,1,0,0:0:0:0:
192,192,84225,1,0,0:0:0:0:
320,192,84439,1,0,0:0:0:0:
64,192,84546,1,0,0:0:0:0:
448,192,84546,1,0,0:0:0:0:
192,192,84760,1,0,0:0:0:0:
320,192,84975,1,0,0:0:0:0:
448,192,84975,1,0,0:0:0:0:
64,192,85189,1,0,0:0:0:0:
192,192,85403,1,0,0:0:0:0:
320,192,85403,1,0,0:0:0:0:
448,192,85618,1,0,0:0:0:0:
64,192,85832,1,0,0:0:0:0:
320,192,85939,1,0,0:0:0:0:
192,192,86153,1,0,0:0:0:0:
64,192,86260,1,0,0:0:0:0:
448,192,86260,1,0,0:0:0:0:
448,192,86475,1,0,0:0:0:0:
192,192,86582,1,0,0:0:0:0:
320,192,86689,128,0,86903:0:0:0:0:
448,192,86903,1,0,0:0:0:0:
64,192,86903,128,0,87903:0:0:0:0:
448,192,87903,1,0,0:0:0:0:
320,192,87903,1,0,0:0:0:0:
192,192,88046,1,0,0:0:0:0:
