osu file format v14

[General]
AudioFilename: audio.mp3
AudioLeadIn: 0
PreviewTime: 44856
Countdown: 1
SampleSet: Normal
StackLeniency: 0.2
Mode: 0
LetterboxInBreaks: 0
WidescreenStoryboard: 0

[Editor]
DistanceSpacing: 0.8
BeatDivisor: 4
GridSize: 8
TimelineZoom: 2.399999

[Metadata]
Title:Phantasmal Interstellar-WAR!!!
TitleUnicode:Phantasmal Interstellar-WAR!!!
Artist:SunsetRay
ArtistUnicode:SunsetRay
Creator:Pencil-kun
Version:Leviathan
Source:
Tags:
BeatmapID:2020774
BeatmapSetID:965354

[Difficulty]
HPDrainRate:4
CircleSize:4
OverallDifficulty:8
ApproachRate:10
SliderMultiplier:1.4
SliderTickRate:1

[Events]
//Background and Video events
0,0,"515811.jpg",0,0
//Break Periods
//Storyboard Layer 0 (Background)
//Storyboard Layer 1 (Fail)
//Storyboard Layer 2 (Pass)
//Storyboard Layer 3 (Foreground)
//Storyboard Sound Samples

[TimingPoints]
3437,375,4,1,0,100,1,0
23687,428.571428571429,4,1,0,100,1,0
24544,500,4,1,0,100,1,0
25544,375,4,1,0,100,1,0
27325,-125,4,1,0,100,0,0
28169,375,4,1,0,100,1,0
38669,-83.3333333333333,4,1,0,100,0,0
39606,-133.333333333333,4,1,0,100,0,0
45419,375,4,1,0,100,1,0
66419,-83.3333333333333,4,1,0,100,0,0
66794,-71.4285714285714,4,1,0,100,0,0
67169,-62.5,4,1,0,100,0,0
67544,-55.5555555555556,4,1,0,100,0,0
69419,-50,4,1,0,100,0,1
91403,-45.4545454545455,4,1,0,100,0,1
101669,-100,4,1,0,100,0,0

[HitObjects]
94,46,4562,5,0,0:0:0:0:
88,80,4655,1,0,0:0:0:0:
82,115,4749,1,0,0:0:0:0:
76,149,4843,1,0,0:0:0:0:
108,220,4937,6,0,L|100:303,1,70
199,354,5312,2,0,L|192:284,1,70
191,132,5687,2,0,L|183:215,1,70
184,201,6062,1,0,0:0:0:0:
280,73,6249,1,0,0:0:0:0:
287,234,6437,6,0,P|300:200|338:173,1,70
382,311,6812,2,0,P|346:316|303:297,1,70
402,191,7187,2,0,P|424:219|429:265,1,70
363,120,7562,2,0,L|370:39,1,70
178,108,7937,6,0,P|187:143|187:184,1,70
56,307,8312,2,0,P|56:272|66:238,1,70
202,295,8687,2,0,L|291:300,1,70
271,298,9062,1,0,0:0:0:0:
137,229,9249,1,0,0:0:0:0:
320,228,9437,6,0,P|367:236|397:256,1,70
437,121,9812,2,0,P|406:157|374:173,1,70
471,275,10187,2,0,P|454:230|456:194,1,70
345,59,10562,2,0,P|342:93|328:125,1,70
125,43,10937,6,0,L|211:50,1,70
106,221,11312,2,0,L|20:228,1,70
212,144,11687,2,0,L|298:151,1,70
281,149,12062,1,0,0:0:0:0:
242,277,12249,1,0,0:0:0:0:
366,136,12437,6,0,P|376:95|369:47,1,70
475,221,12812,2,0,P|465:180|472:132,1,70
338,289,13187,2,0,P|348:248|341:200,1,70
501,322,13562,2,0,L|421:333,1,70
242,270,13937,6,0,L|172:260,1,70
62,351,14312,2,0,L|104:295,1,70
81,154,14687,2,0,L|107:218,1,70
107,218,15062,1,0,0:0:0:0:
8,86,15249,1,0,0:0:0:0:
212,58,15437,6,0,P|200:99|210:139,1,70
321,147,15812,2,0,P|333:188|323:228,1,70
215,334,16187,2,0,P|211:299|222:266,1,70
367,359,16562,2,0,L|286:364,1,70
475,202,16937,6,0,P|479:242|475:283,1,70
340,198,17312,2,0,P|372:174|410:157,1,70
405,317,17687,2,0,P|368:300|334:276,1,70
343,283,18062,1,0,0:0:0:0:
359,382,18249,1,0,0:0:0:0:
247,249,18437,6,0,P|202:240|165:244,1,70
120,331,18812,2,0,P|86:339|51:338,1,70
91,140,19187,2,0,L|99:221,1,70
22,46,19562,5,0,0:0:0:0:
57,49,19655,1,0,0:0:0:0:
92,51,19749,1,0,0:0:0:0:
127,54,19843,1,0,0:0:0:0:
215,27,19937,6,0,L|301:23,1,70
243,161,20312,2,0,L|157:157,1,70
330,104,20687,2,0,L|416:100,1,70
399,100,21062,1,0,0:0:0:0:
467,31,21249,1,0,0:0:0:0:
432,189,21437,6,0,P|381:206|359:222,1,70
418,348,21812,2,0,P|428:295|425:268,1,70
287,256,22187,2,0,P|327:291|352:302,1,70
296,170,22562,1,0,0:0:0:0:
261,169,22655,1,0,0:0:0:0:
226,169,22749,1,0,0:0:0:0:
191,169,22843,1,0,0:0:0:0:
113,211,22937,6,0,L|19:223,1,70
151,324,23312,2,0,L|57:312,1,70
276,189,23687,6,0,L|178:201,1,70
314,345,24115,2,0,L|220:334,1,70
442,163,24544,6,0,L|347:173,1,70
477,361,25044,2,0,L|407:353,1,70
470,56,25544,5,0,0:0:0:0:
470,56,25731,5,0,0:0:0:0:
479,70,25777,1,0,0:0:0:0:
485,86,25824,1,0,0:0:0:0:
486,104,25871,1,0,0:0:0:0:
483,121,25918,1,0,0:0:0:0:
475,136,25965,1,0,0:0:0:0:
463,149,26012,1,0,0:0:0:0:
448,158,26059,1,0,0:0:0:0:
431,163,26106,1,0,0:0:0:0:
414,163,26152,1,0,0:0:0:0:
397,158,26199,1,0,0:0:0:0:
382,149,26246,1,0,0:0:0:0:
370,136,26293,1,0,0:0:0:0:
362,120,26340,1,0,0:0:0:0:
358,103,26387,1,0,0:0:0:0:
383,18,26481,5,0,0:0:0:0:
280,95,26575,1,0,0:0:0:0:
139,36,26669,2,0,B|45:33|92:83|-2:77,1,140
198,179,27325,6,0,P|191:139|133:171,1,112
52,302,28169,5,0,0:0:0:0:
83,284,28262,1,0,0:0:0:0:
117,279,28356,1,0,0:0:0:0:
151,286,28450,1,0,0:0:0:0:
174,309,28544,1,0,0:0:0:0:
198,334,28637,1,0,0:0:0:0:
229,348,28731,1,0,0:0:0:0:
264,348,28825,1,0,0:0:0:0:
291,338,28919,5,0,0:0:0:0:
273,308,29012,1,0,0:0:0:0:
274,274,29106,1,0,0:0:0:0:
293,245,29200,1,0,0:0:0:0:
325,232,29294,1,0,0:0:0:0:
359,239,29387,1,0,0:0:0:0:
384,263,29481,1,0,0:0:0:0:
391,297,29575,1,0,0:0:0:0:
383,327,29669,5,0,0:0:0:0:
382,292,29762,1,0,0:0:0:0:
397,260,29856,1,0,0:0:0:0:
423,238,29950,1,0,0:0:0:0:
453,228,30044,1,0,0:0:0:0:
469,197,30137,1,0,0:0:0:0:
466,163,30231,1,0,0:0:0:0:
444,137,30325,1,0,0:0:0:0:
447,93,30419,5,0,0:0:0:0:
423,118,30512,1,0,0:0:0:0:
390,130,30606,1,0,0:0:0:0:
356,127,30700,1,0,0:0:0:0:
327,110,30794,1,0,0:0:0:0:
302,84,30887,1,0,0:0:0:0:
270,71,30981,1,0,0:0:0:0:
236,71,31075,1,0,0:0:0:0:
208,93,31169,5,0,0:0:0:0:
183,68,31262,1,0,0:0:0:0:
151,54,31356,1,0,0:0:0:0:
116,52,31450,1,0,0:0:0:0:
84,62,31544,1,0,0:0:0:0:
61,88,31637,1,0,0:0:0:0:
52,122,31731,1,0,0:0:0:0:
55,156,31825,1,0,0:0:0:0:
76,185,31919,5,0,0:0:0:0:
109,178,32012,1,0,0:0:0:0:
143,187,32106,1,0,0:0:0:0:
168,210,32200,1,0,0:0:0:0:
180,243,32294,1,0,0:0:0:0:
176,277,32387,1,0,0:0:0:0:
156,306,32481,1,0,0:0:0:0:
126,322,32575,1,0,0:0:0:0:
105,254,32669,5,0,0:0:0:0:
129,257,32762,1,0,0:0:0:0:
154,261,32856,1,0,0:0:0:0:
179,265,32950,1,0,0:0:0:0:
203,269,33044,1,0,0:0:0:0:
228,273,33137,1,0,0:0:0:0:
253,277,33231,1,0,0:0:0:0:
277,281,33325,1,0,0:0:0:0:
299,307,33419,5,0,0:0:0:0:
296,272,33512,1,0,0:0:0:0:
308,239,33606,1,0,0:0:0:0:
332,215,33700,1,0,0:0:0:0:
365,203,33794,1,0,0:0:0:0:
400,207,33887,1,0,0:0:0:0:
429,225,33981,1,0,0:0:0:0:
449,253,34075,1,0,0:0:0:0:
437,289,34169,5,0,0:0:0:0:
422,257,34262,1,0,0:0:0:0:
418,222,34356,1,0,0:0:0:0:
424,188,34450,1,0,0:0:0:0:
446,163,34544,1,0,0:0:0:0:
465,134,34637,1,0,0:0:0:0:
464,100,34731,1,0,0:0:0:0:
442,74,34825,1,0,0:0:0:0:
416,43,34919,5,0,0:0:0:0:
394,70,35012,1,0,0:0:0:0:
362,83,35106,1,0,0:0:0:0:
328,79,35200,1,0,0:0:0:0:
300,56,35294,1,0,0:0:0:0:
265,49,35387,1,0,0:0:0:0:
231,54,35481,1,0,0:0:0:0:
201,73,35575,1,0,0:0:0:0:
164,56,35669,5,0,0:0:0:0:
179,87,35762,1,0,0:0:0:0:
176,121,35856,1,0,0:0:0:0:
156,149,35950,1,0,0:0:0:0:
121,158,36044,1,0,0:0:0:0:
94,180,36137,1,0,0:0:0:0:
83,212,36231,1,0,0:0:0:0:
89,246,36325,1,0,0:0:0:0:
70,321,36419,5,0,0:0:0:0:
102,307,36512,1,0,0:0:0:0:
136,306,36606,1,0,0:0:0:0:
169,319,36700,1,0,0:0:0:0:
191,345,36794,1,0,0:0:0:0:
245,362,36887,1,0,0:0:0:0:
298,341,36981,1,0,0:0:0:0:
324,290,37075,1,0,0:0:0:0:
266,234,37169,5,0,0:0:0:0:
256,200,37262,1,0,0:0:0:0:
265,167,37356,1,0,0:0:0:0:
288,141,37450,1,0,0:0:0:0:
321,131,37544,1,0,0:0:0:0:
355,139,37637,1,0,0:0:0:0:
381,162,37731,1,0,0:0:0:0:
392,195,37825,1,0,0:0:0:0:
387,228,37919,5,0,0:0:0:0:
375,195,38012,1,0,0:0:0:0:
379,160,38106,1,0,0:0:0:0:
397,131,38200,1,0,0:0:0:0:
428,119,38294,1,0,0:0:0:0:
436,85,38387,1,0,0:0:0:0:
425,53,38481,1,0,0:0:0:0:
398,31,38575,1,0,0:0:0:0:
364,30,38669,6,0,B|310:29|310:29|285:42|285:42|215:40,1,125.999996154785
151,40,39044,2,0,P|140:80|141:144,1,83.9999974365235
275,347,39419,6,0,L|270:265,1,41.9999987182618
65,190,39606,6,0,B|277:138|196:367|447:292,1,420.000016021729
409,19,45044,5,0,0:0:0:0:
381,244,45231,1,0,0:0:0:0:
457,120,45419,5,0,0:0:0:0:
445,132,45465,1,0,0:0:0:0:
430,142,45512,1,0,0:0:0:0:
413,147,45559,1,0,0:0:0:0:
396,148,45606,1,0,0:0:0:0:
379,145,45653,1,0,0:0:0:0:
363,138,45700,1,0,0:0:0:0:
349,127,45747,1,0,0:0:0:0:
339,112,45794,1,0,0:0:0:0:
330,96,45840,1,0,0:0:0:0:
318,83,45887,1,0,0:0:0:0:
304,73,45934,1,0,0:0:0:0:
288,66,45981,1,0,0:0:0:0:
271,62,46028,1,0,0:0:0:0:
254,62,46075,1,0,0:0:0:0:
237,65,46122,1,0,0:0:0:0:
223,73,46169,5,0,0:0:0:0:
233,87,46215,1,0,0:0:0:0:
240,103,46262,1,0,0:0:0:0:
244,120,46309,1,0,0:0:0:0:
244,137,46356,1,0,0:0:0:0:
241,154,46403,1,0,0:0:0:0:
234,170,46450,1,0,0:0:0:0:
224,185,46497,1,0,0:0:0:0:
212,197,46544,1,0,0:0:0:0:
197,206,46590,1,0,0:0:0:0:
181,212,46637,1,0,0:0:0:0:
163,215,46684,1,0,0:0:0:0:
146,214,46731,1,0,0:0:0:0:
129,210,46778,1,0,0:0:0:0:
113,202,46825,1,0,0:0:0:0:
100,191,46872,1,0,0:0:0:0:
91,178,46919,5,0,0:0:0:0:
106,186,46965,1,0,0:0:0:0:
119,198,47012,1,0,0:0:0:0:
129,212,47059,1,0,0:0:0:0:
138,227,47106,1,0,0:0:0:0:
143,244,47153,1,0,0:0:0:0:
145,261,47200,1,0,0:0:0:0:
144,279,47247,1,0,0:0:0:0:
136,294,47294,1,0,0:0:0:0:
134,311,47340,1,0,0:0:0:0:
137,328,47387,1,0,0:0:0:0:
145,344,47434,1,0,0:0:0:0:
157,357,47481,1,0,0:0:0:0:
172,366,47528,1,0,0:0:0:0:
188,371,47575,1,0,0:0:0:0:
206,371,47622,1,0,0:0:0:0:
219,365,47669,5,0,0:0:0:0:
212,348,47715,1,0,0:0:0:0:
210,331,47762,1,0,0:0:0:0:
213,314,47809,1,0,0:0:0:0:
221,298,47856,1,0,0:0:0:0:
232,285,47903,1,0,0:0:0:0:
247,275,47950,1,0,0:0:0:0:
263,270,47997,1,0,0:0:0:0:
276,272,48044,1,0,0:0:0:0:
292,278,48090,1,0,0:0:0:0:
309,281,48137,1,0,0:0:0:0:
326,279,48184,1,0,0:0:0:0:
343,273,48231,1,0,0:0:0:0:
357,263,48278,1,0,0:0:0:0:
368,250,48325,1,0,0:0:0:0:
376,234,48372,1,0,0:0:0:0:
373,222,48419,5,0,0:0:0:0:
389,227,48465,1,0,0:0:0:0:
407,227,48512,1,0,0:0:0:0:
424,223,48559,1,0,0:0:0:0:
439,215,48606,1,0,0:0:0:0:
452,203,48653,1,0,0:0:0:0:
461,188,48700,1,0,0:0:0:0:
466,172,48747,1,0,0:0:0:0:
466,154,48794,1,0,0:0:0:0:
462,137,48840,1,0,0:0:0:0:
454,122,48887,1,0,0:0:0:0:
441,109,48934,1,0,0:0:0:0:
426,101,48981,1,0,0:0:0:0:
410,96,49028,1,0,0:0:0:0:
392,96,49075,1,0,0:0:0:0:
375,100,49122,1,0,0:0:0:0:
361,108,49169,5,0,0:0:0:0:
352,92,49215,1,0,0:0:0:0:
340,79,49262,1,0,0:0:0:0:
326,69,49309,1,0,0:0:0:0:
310,62,49356,1,0,0:0:0:0:
293,59,49403,1,0,0:0:0:0:
276,59,49450,1,0,0:0:0:0:
259,63,49497,1,0,0:0:0:0:
247,75,49544,1,0,0:0:0:0:
234,87,49590,1,0,0:0:0:0:
220,96,49637,1,0,0:0:0:0:
203,103,49684,1,0,0:0:0:0:
186,106,49731,1,0,0:0:0:0:
169,106,49778,1,0,0:0:0:0:
152,102,49825,1,0,0:0:0:0:
136,94,49872,1,0,0:0:0:0:
122,83,49919,5,0,0:0:0:0:
136,94,49965,1,0,0:0:0:0:
147,108,50012,1,0,0:0:0:0:
156,123,50059,1,0,0:0:0:0:
162,139,50106,1,0,0:0:0:0:
165,156,50153,1,0,0:0:0:0:
166,174,50200,1,0,0:0:0:0:
164,191,50247,1,0,0:0:0:0:
157,206,50294,1,0,0:0:0:0:
147,220,50340,1,0,0:0:0:0:
140,236,50387,1,0,0:0:0:0:
136,253,50434,1,0,0:0:0:0:
135,270,50481,1,0,0:0:0:0:
137,288,50528,1,0,0:0:0:0:
143,304,50575,1,0,0:0:0:0:
151,320,50622,1,0,0:0:0:0:
163,332,50669,5,0,0:0:0:0:
167,315,50715,1,0,0:0:0:0:
175,299,50762,1,0,0:0:0:0:
186,286,50809,1,0,0:0:0:0:
200,275,50856,1,0,0:0:0:0:
216,268,50903,1,0,0:0:0:0:
233,264,50950,1,0,0:0:0:0:
250,264,50997,1,0,0:0:0:0:
264,268,51044,1,0,0:0:0:0:
277,279,51090,1,0,0:0:0:0:
292,286,51137,1,0,0:0:0:0:
310,288,51184,1,0,0:0:0:0:
327,285,51231,1,0,0:0:0:0:
342,277,51278,1,0,0:0:0:0:
354,264,51325,1,0,0:0:0:0:
362,249,51372,1,0,0:0:0:0:
359,232,51419,5,0,0:0:0:0:
364,248,51465,1,0,0:0:0:0:
373,263,51512,1,0,0:0:0:0:
386,274,51559,1,0,0:0:0:0:
402,282,51606,1,0,0:0:0:0:
419,285,51653,1,0,0:0:0:0:
436,283,51700,1,0,0:0:0:0:
453,276,51747,1,0,0:0:0:0:
466,265,51794,1,0,0:0:0:0:
477,251,51840,1,0,0:0:0:0:
483,235,51887,1,0,0:0:0:0:
484,218,51934,1,0,0:0:0:0:
480,201,51981,1,0,0:0:0:0:
472,185,52028,1,0,0:0:0:0:
460,172,52075,1,0,0:0:0:0:
445,164,52122,1,0,0:0:0:0:
428,157,52169,5,0,0:0:0:0:
413,166,52215,1,0,0:0:0:0:
396,170,52262,1,0,0:0:0:0:
379,169,52309,1,0,0:0:0:0:
363,162,52356,1,0,0:0:0:0:
350,150,52403,1,0,0:0:0:0:
341,135,52450,1,0,0:0:0:0:
338,118,52497,1,0,0:0:0:0:
344,105,52544,1,0,0:0:0:0:
345,87,52590,1,0,0:0:0:0:
340,70,52637,1,0,0:0:0:0:
330,56,52684,1,0,0:0:0:0:
316,45,52731,1,0,0:0:0:0:
300,40,52778,1,0,0:0:0:0:
282,40,52825,1,0,0:0:0:0:
266,46,52872,1,0,0:0:0:0:
255,57,52919,5,0,0:0:0:0:
239,48,52965,1,0,0:0:0:0:
222,44,53012,1,0,0:0:0:0:
205,43,53059,1,0,0:0:0:0:
187,45,53106,1,0,0:0:0:0:
171,51,53153,1,0,0:0:0:0:
156,60,53200,1,0,0:0:0:0:
143,72,53247,1,0,0:0:0:0:
133,86,53294,1,0,0:0:0:0:
126,102,53340,1,0,0:0:0:0:
124,119,53387,1,0,0:0:0:0:
125,136,53434,1,0,0:0:0:0:
130,153,53481,1,0,0:0:0:0:
138,168,53528,1,0,0:0:0:0:
150,181,53575,1,0,0:0:0:0:
164,192,53622,1,0,0:0:0:0:
177,198,53669,5,0,0:0:0:0:
194,198,53715,1,0,0:0:0:0:
210,204,53762,1,0,0:0:0:0:
225,214,53809,1,0,0:0:0:0:
235,227,53856,1,0,0:0:0:0:
242,244,53903,1,0,0:0:0:0:
243,261,53950,1,0,0:0:0:0:
240,278,53997,1,0,0:0:0:0:
231,293,54044,1,0,0:0:0:0:
219,306,54090,1,0,0:0:0:0:
204,314,54137,1,0,0:0:0:0:
187,317,54184,1,0,0:0:0:0:
169,316,54231,1,0,0:0:0:0:
153,309,54278,1,0,0:0:0:0:
139,299,54325,1,0,0:0:0:0:
129,284,54372,1,0,0:0:0:0:
126,270,54419,5,0,0:0:0:0:
140,259,54465,1,0,0:0:0:0:
156,253,54512,1,0,0:0:0:0:
173,249,54559,1,0,0:0:0:0:
190,249,54606,1,0,0:0:0:0:
208,252,54653,1,0,0:0:0:0:
224,259,54700,1,0,0:0:0:0:
238,269,54747,1,0,0:0:0:0:
248,282,54794,1,0,0:0:0:0:
255,297,54840,1,0,0:0:0:0:
266,311,54887,1,0,0:0:0:0:
280,321,54934,1,0,0:0:0:0:
297,327,54981,1,0,0:0:0:0:
314,330,55028,1,0,0:0:0:0:
331,328,55075,1,0,0:0:0:0:
347,321,55122,1,0,0:0:0:0:
357,315,55169,5,0,0:0:0:0:
342,304,55215,1,0,0:0:0:0:
331,291,55262,1,0,0:0:0:0:
321,277,55309,1,0,0:0:0:0:
314,261,55356,1,0,0:0:0:0:
311,243,55403,1,0,0:0:0:0:
310,226,55450,1,0,0:0:0:0:
312,209,55497,1,0,0:0:0:0:
318,192,55544,1,0,0:0:0:0:
326,177,55590,1,0,0:0:0:0:
337,163,55637,1,0,0:0:0:0:
350,152,55684,1,0,0:0:0:0:
365,143,55731,1,0,0:0:0:0:
382,137,55778,1,0,0:0:0:0:
399,133,55825,1,0,0:0:0:0:
416,133,55872,1,0,0:0:0:0:
432,138,55919,5,0,0:0:0:0:
420,151,55965,1,0,0:0:0:0:
407,162,56012,1,0,0:0:0:0:
392,171,56059,1,0,0:0:0:0:
375,176,56106,1,0,0:0:0:0:
358,179,56153,1,0,0:0:0:0:
340,178,56200,1,0,0:0:0:0:
323,174,56247,1,0,0:0:0:0:
307,166,56294,1,0,0:0:0:0:
293,156,56340,1,0,0:0:0:0:
281,144,56387,1,0,0:0:0:0:
271,129,56434,1,0,0:0:0:0:
265,113,56481,1,0,0:0:0:0:
261,96,56528,1,0,0:0:0:0:
261,79,56575,1,0,0:0:0:0:
263,61,56622,1,0,0:0:0:0:
271,50,56669,5,0,0:0:0:0:
254,43,56715,1,0,0:0:0:0:
237,39,56762,1,0,0:0:0:0:
220,39,56809,1,0,0:0:0:0:
203,43,56856,1,0,0:0:0:0:
187,50,56903,1,0,0:0:0:0:
173,60,56950,1,0,0:0:0:0:
161,72,56997,1,0,0:0:0:0:
156,90,57044,1,0,0:0:0:0:
149,106,57090,1,0,0:0:0:0:
139,120,57137,1,0,0:0:0:0:
126,131,57184,1,0,0:0:0:0:
110,138,57231,1,0,0:0:0:0:
93,141,57278,1,0,0:0:0:0:
75,139,57325,1,0,0:0:0:0:
59,133,57372,1,0,0:0:0:0:
45,121,57419,5,0,0:0:0:0:
59,130,57465,1,0,0:0:0:0:
73,141,57512,1,0,0:0:0:0:
83,155,57559,1,0,0:0:0:0:
92,170,57606,1,0,0:0:0:0:
97,187,57653,1,0,0:0:0:0:
100,204,57700,1,0,0:0:0:0:
99,221,57747,1,0,0:0:0:0:
94,241,57794,1,0,0:0:0:0:
82,254,57840,1,0,0:0:0:0:
75,270,57887,1,0,0:0:0:0:
73,287,57934,1,0,0:0:0:0:
75,304,57981,1,0,0:0:0:0:
83,320,58028,1,0,0:0:0:0:
95,333,58075,1,0,0:0:0:0:
110,342,58122,1,0,0:0:0:0:
126,352,58169,5,0,0:0:0:0:
128,334,58215,1,0,0:0:0:0:
134,318,58262,1,0,0:0:0:0:
144,304,58309,1,0,0:0:0:0:
158,293,58356,1,0,0:0:0:0:
174,286,58403,1,0,0:0:0:0:
191,284,58450,1,0,0:0:0:0:
209,286,58497,1,0,0:0:0:0:
223,297,58544,1,0,0:0:0:0:
238,305,58590,1,0,0:0:0:0:
255,309,58637,1,0,0:0:0:0:
272,309,58684,1,0,0:0:0:0:
289,305,58731,1,0,0:0:0:0:
305,297,58778,1,0,0:0:0:0:
318,285,58825,1,0,0:0:0:0:
327,270,58872,1,0,0:0:0:0:
332,257,58919,5,0,0:0:0:0:
316,250,58965,1,0,0:0:0:0:
302,240,59012,1,0,0:0:0:0:
291,226,59059,1,0,0:0:0:0:
283,211,59106,1,0,0:0:0:0:
279,194,59153,1,0,0:0:0:0:
278,176,59200,1,0,0:0:0:0:
282,159,59247,1,0,0:0:0:0:
290,143,59294,1,0,0:0:0:0:
301,130,59340,1,0,0:0:0:0:
314,119,59387,1,0,0:0:0:0:
330,111,59434,1,0,0:0:0:0:
347,107,59481,1,0,0:0:0:0:
364,108,59528,1,0,0:0:0:0:
381,112,59575,1,0,0:0:0:0:
397,119,59622,1,0,0:0:0:0:
410,129,59669,5,0,0:0:0:0:
407,111,59715,1,0,0:0:0:0:
401,95,59762,1,0,0:0:0:0:
390,81,59809,1,0,0:0:0:0:
376,70,59856,1,0,0:0:0:0:
360,64,59903,1,0,0:0:0:0:
343,61,59950,1,0,0:0:0:0:
326,64,59997,1,0,0:0:0:0:
313,69,60044,1,0,0:0:0:0:
298,78,60090,1,0,0:0:0:0:
282,84,60137,1,0,0:0:0:0:
264,88,60184,1,0,0:0:0:0:
247,87,60231,1,0,0:0:0:0:
230,84,60278,1,0,0:0:0:0:
214,77,60325,1,0,0:0:0:0:
199,67,60372,1,0,0:0:0:0:
190,54,60419,5,0,0:0:0:0:
196,70,60465,1,0,0:0:0:0:
199,87,60512,1,0,0:0:0:0:
199,104,60559,1,0,0:0:0:0:
195,121,60606,1,0,0:0:0:0:
187,137,60653,1,0,0:0:0:0:
177,151,60700,1,0,0:0:0:0:
163,162,60747,1,0,0:0:0:0:
146,169,60794,1,0,0:0:0:0:
129,174,60840,1,0,0:0:0:0:
114,184,60887,1,0,0:0:0:0:
103,197,60934,1,0,0:0:0:0:
95,212,60981,1,0,0:0:0:0:
91,229,61028,1,0,0:0:0:0:
92,247,61075,1,0,0:0:0:0:
97,263,61122,1,0,0:0:0:0:
106,279,61169,5,0,0:0:0:0:
117,265,61215,1,0,0:0:0:0:
131,255,61262,1,0,0:0:0:0:
147,248,61309,1,0,0:0:0:0:
164,245,61356,1,0,0:0:0:0:
181,246,61403,1,0,0:0:0:0:
198,251,61450,1,0,0:0:0:0:
213,259,61497,1,0,0:0:0:0:
223,276,61544,1,0,0:0:0:0:
235,288,61590,1,0,0:0:0:0:
249,297,61637,1,0,0:0:0:0:
266,304,61684,1,0,0:0:0:0:
283,307,61731,1,0,0:0:0:0:
300,308,61778,1,0,0:0:0:0:
317,304,61825,1,0,0:0:0:0:
334,298,61872,1,0,0:0:0:0:
344,289,61919,5,0,0:0:0:0:
332,275,61965,1,0,0:0:0:0:
324,260,62012,1,0,0:0:0:0:
318,243,62059,1,0,0:0:0:0:
317,226,62106,1,0,0:0:0:0:
319,209,62153,1,0,0:0:0:0:
325,192,62200,1,0,0:0:0:0:
334,177,62247,1,0,0:0:0:0:
345,168,62294,1,0,0:0:0:0:
361,163,62340,1,0,0:0:0:0:
376,154,62387,1,0,0:0:0:0:
388,142,62434,1,0,0:0:0:0:
396,126,62481,1,0,0:0:0:0:
399,109,62528,1,0,0:0:0:0:
397,91,62575,1,0,0:0:0:0:
391,75,62622,1,0,0:0:0:0:
377,61,62669,5,0,0:0:0:0:
359,61,62715,1,0,0:0:0:0:
342,62,62762,1,0,0:0:0:0:
324,63,62809,1,0,0:0:0:0:
307,64,62856,1,0,0:0:0:0:
289,65,62903,1,0,0:0:0:0:
272,66,62950,1,0,0:0:0:0:
254,67,62997,1,0,0:0:0:0:
237,68,63044,1,0,0:0:0:0:
219,69,63090,1,0,0:0:0:0:
202,70,63137,1,0,0:0:0:0:
184,71,63184,1,0,0:0:0:0:
167,72,63231,1,0,0:0:0:0:
149,73,63278,1,0,0:0:0:0:
132,74,63325,1,0,0:0:0:0:
114,74,63372,1,0,0:0:0:0:
100,75,63419,5,0,0:0:0:0:
90,89,63465,1,0,0:0:0:0:
84,106,63512,1,0,0:0:0:0:
81,123,63559,1,0,0:0:0:0:
82,140,63606,1,0,0:0:0:0:
87,157,63653,1,0,0:0:0:0:
95,173,63700,1,0,0:0:0:0:
105,187,63747,1,0,0:0:0:0:
117,196,63794,1,0,0:0:0:0:
131,205,63840,1,0,0:0:0:0:
143,218,63887,1,0,0:0:0:0:
152,233,63934,1,0,0:0:0:0:
158,249,63981,1,0,0:0:0:0:
160,266,64028,1,0,0:0:0:0:
159,284,64075,1,0,0:0:0:0:
154,300,64122,1,0,0:0:0:0:
143,312,64169,5,0,0:0:0:0:
155,300,64215,1,0,0:0:0:0:
170,290,64262,1,0,0:0:0:0:
186,284,64309,1,0,0:0:0:0:
203,280,64356,1,0,0:0:0:0:
221,280,64403,1,0,0:0:0:0:
238,283,64450,1,0,0:0:0:0:
255,289,64497,1,0,0:0:0:0:
268,298,64544,1,0,0:0:0:0:
283,305,64590,1,0,0:0:0:0:
301,308,64637,1,0,0:0:0:0:
318,308,64684,1,0,0:0:0:0:
335,304,64731,1,0,0:0:0:0:
351,297,64778,1,0,0:0:0:0:
365,287,64825,1,0,0:0:0:0:
377,273,64872,1,0,0:0:0:0:
374,257,64919,5,0,0:0:0:0:
358,248,64965,1,0,0:0:0:0:
345,236,65012,1,0,0:0:0:0:
335,222,65059,1,0,0:0:0:0:
328,206,65106,1,0,0:0:0:0:
325,189,65153,1,0,0:0:0:0:
326,171,65200,1,0,0:0:0:0:
330,154,65247,1,0,0:0:0:0:
338,139,65294,1,0,0:0:0:0:
349,125,65340,1,0,0:0:0:0:
363,115,65387,1,0,0:0:0:0:
379,107,65434,1,0,0:0:0:0:
396,103,65481,1,0,0:0:0:0:
413,103,65528,1,0,0:0:0:0:
430,107,65575,1,0,0:0:0:0:
446,114,65622,1,0,0:0:0:0:
460,124,65669,1,0,0:0:0:0:
472,138,65715,1,0,0:0:0:0:
480,153,65762,1,0,0:0:0:0:
484,170,65809,1,0,0:0:0:0:
485,187,65856,1,0,0:0:0:0:
471,202,65903,5,0,0:0:0:0:
460,196,65949,1,0,0:0:0:0:
449,189,65996,1,0,0:0:0:0:
440,181,66043,1,0,0:0:0:0:
432,172,66090,1,0,0:0:0:0:
425,162,66137,1,0,0:0:0:0:
420,151,66184,1,0,0:0:0:0:
416,139,66231,1,0,0:0:0:0:
413,127,66278,1,0,0:0:0:0:
413,115,66324,1,0,0:0:0:0:
413,103,66371,1,0,0:0:0:0:
419,89,66419,5,0,0:0:0:0:
400,99,66465,1,0,0:0:0:0:
381,106,66512,1,0,0:0:0:0:
360,109,66559,1,0,0:0:0:0:
339,107,66606,1,0,0:0:0:0:
319,101,66653,1,0,0:0:0:0:
301,91,66700,1,0,0:0:0:0:
285,77,66747,1,0,0:0:0:0:
276,57,66794,5,0,0:0:0:0:
259,75,66840,1,0,0:0:0:0:
240,89,66887,1,0,0:0:0:0:
217,99,66934,1,0,0:0:0:0:
193,105,66981,1,0,0:0:0:0:
169,105,67028,1,0,0:0:0:0:
145,100,67075,1,0,0:0:0:0:
122,90,67122,1,0,0:0:0:0:
105,73,67169,5,0,0:0:0:0:
121,95,67215,1,0,0:0:0:0:
132,121,67262,1,0,0:0:0:0:
135,148,67309,1,0,0:0:0:0:
132,176,67356,1,0,0:0:0:0:
121,202,67403,1,0,0:0:0:0:
105,224,67450,1,0,0:0:0:0:
83,242,67497,1,0,0:0:0:0:
57,254,67544,5,0,0:0:0:0:
86,241,67590,1,0,0:0:0:0:
117,237,67637,1,0,0:0:0:0:
148,240,67684,1,0,0:0:0:0:
177,250,67731,1,0,0:0:0:0:
204,267,67778,1,0,0:0:0:0:
225,290,67825,1,0,0:0:0:0:
312,179,67919,6,0,B|301:240|301:240|313:283|313:283|306:337,1,157.499995193482
461,159,68294,6,0,L|381:169,1,62.9999980773926
144,109,68481,2,0,L|206:101,1,62.9999980773926
461,159,68669,6,0,B|450:98|450:98|462:55|462:55|455:1,1,157.499995193482
391,229,69044,2,0,P|395:275|427:356,1,125.999996154785
429,359,69325,1,0,0:0:0:0:
303,285,69419,2,0,B|266:275|266:275|224:281,1,70
181,348,69606,1,0,0:0:0:0:
53,277,69699,5,0,0:0:0:0:
62,243,69746,1,0,0:0:0:0:
88,223,69794,1,0,0:0:0:0:
120,210,69840,1,0,0:0:0:0:
140,183,69887,1,0,0:0:0:0:
143,148,69934,1,0,0:0:0:0:
126,118,69981,1,0,0:0:0:0:
95,102,70028,1,0,0:0:0:0:
61,105,70075,1,0,0:0:0:0:
34,127,70122,1,0,0:0:0:0:
28,160,70169,5,0,0:0:0:0:
62,160,70215,1,0,0:0:0:0:
95,148,70262,1,0,0:0:0:0:
120,124,70309,1,0,0:0:0:0:
134,92,70356,1,0,0:0:0:0:
151,68,70403,1,0,0:0:0:0:
181,51,70449,1,0,0:0:0:0:
215,52,70496,1,0,0:0:0:0:
279,103,70544,6,0,B|269:166|269:166|254:185|254:185|244:251,1,140
384,180,70825,1,0,0:0:0:0:
333,288,70919,2,0,P|339:335|350:369,1,70
223,297,71106,5,0,0:0:0:0:
193,278,71152,1,0,0:0:0:0:
177,247,71199,1,0,0:0:0:0:
177,213,71246,1,0,0:0:0:0:
197,188,71294,1,0,0:0:0:0:
221,163,71340,1,0,0:0:0:0:
231,130,71387,1,0,0:0:0:0:
223,96,71434,1,0,0:0:0:0:
200,70,71481,1,0,0:0:0:0:
167,59,71528,1,0,0:0:0:0:
133,65,71575,1,0,0:0:0:0:
106,87,71622,1,0,0:0:0:0:
97,117,71669,5,0,0:0:0:0:
131,110,71715,1,0,0:0:0:0:
163,96,71762,1,0,0:0:0:0:
190,74,71809,1,0,0:0:0:0:
215,63,71856,1,0,0:0:0:0:
249,64,71902,1,0,0:0:0:0:
281,79,71949,1,0,0:0:0:0:
304,105,71996,1,0,0:0:0:0:
349,175,72044,6,0,B|364:282|364:282|334:337,1,140
265,224,72325,1,0,0:0:0:0:
438,245,72419,2,0,L|509:256,1,70
436,148,72605,5,0,0:0:0:0:
412,123,72652,1,0,0:0:0:0:
410,89,72699,1,0,0:0:0:0:
428,60,72746,1,0,0:0:0:0:
458,51,72794,1,0,0:0:0:0:
423,57,72840,1,0,0:0:0:0:
388,55,72887,1,0,0:0:0:0:
356,43,72934,1,0,0:0:0:0:
333,25,72981,1,0,0:0:0:0:
301,11,73027,1,0,0:0:0:0:
266,9,73074,1,0,0:0:0:0:
233,20,73121,1,0,0:0:0:0:
205,41,73168,1,0,0:0:0:0:
187,71,73215,1,0,0:0:0:0:
188,102,73262,5,0,0:0:0:0:
218,119,73308,1,0,0:0:0:0:
240,145,73355,1,0,0:0:0:0:
252,178,73402,1,0,0:0:0:0:
252,213,73449,1,0,0:0:0:0:
239,245,73496,1,0,0:0:0:0:
207,269,73544,6,0,B|268:270|268:270|292:283|292:283|373:285,1,140
249,351,73825,1,0,0:0:0:0:
423,315,73919,5,0,0:0:0:0:
423,315,74012,1,0,0:0:0:0:
207,269,74106,1,0,0:0:0:0:
207,269,74199,1,0,0:0:0:0:
253,53,74294,5,0,0:0:0:0:
253,53,74387,1,0,0:0:0:0:
469,99,74481,1,0,0:0:0:0:
469,99,74574,1,0,0:0:0:0:
234,144,74669,5,0,0:0:0:0:
199,149,74715,1,0,0:0:0:0:
165,143,74762,1,0,0:0:0:0:
135,126,74809,1,0,0:0:0:0:
112,100,74856,1,0,0:0:0:0:
107,66,74903,1,0,0:0:0:0:
123,96,74949,1,0,0:0:0:0:
129,131,74996,1,0,0:0:0:0:
123,165,75043,1,0,0:0:0:0:
107,196,75090,1,0,0:0:0:0:
100,225,75137,1,0,0:0:0:0:
92,258,75183,1,0,0:0:0:0:
101,292,75230,1,0,0:0:0:0:
124,318,75277,1,0,0:0:0:0:
156,330,75324,1,0,0:0:0:0:
191,327,75371,1,0,0:0:0:0:
222,343,75419,5,0,0:0:0:0:
210,305,75465,1,0,0:0:0:0:
214,266,75512,1,0,0:0:0:0:
233,232,75559,1,0,0:0:0:0:
264,208,75606,1,0,0:0:0:0:
302,198,75653,1,0,0:0:0:0:
341,204,75700,1,0,0:0:0:0:
374,224,75747,1,0,0:0:0:0:
423,298,75794,6,0,L|417:141,1,140
499,79,76075,1,0,0:0:0:0:
370,45,76169,2,0,P|336:34|290:34,1,70
178,177,76356,5,0,0:0:0:0:
155,203,76402,1,0,0:0:0:0:
121,209,76449,1,0,0:0:0:0:
91,193,76496,1,0,0:0:0:0:
77,162,76543,1,0,0:0:0:0:
85,129,76590,1,0,0:0:0:0:
113,108,76637,1,0,0:0:0:0:
147,108,76684,1,0,0:0:0:0:
173,127,76731,1,0,0:0:0:0:
194,154,76777,1,0,0:0:0:0:
225,170,76824,1,0,0:0:0:0:
259,172,76871,1,0,0:0:0:0:
293,157,76919,5,0,0:0:0:0:
278,188,76965,1,0,0:0:0:0:
279,223,77012,1,0,0:0:0:0:
295,253,77059,1,0,0:0:0:0:
324,273,77106,1,0,0:0:0:0:
358,279,77153,1,0,0:0:0:0:
391,269,77200,1,0,0:0:0:0:
416,245,77247,1,0,0:0:0:0:
423,162,77294,6,0,B|407:64|378:27,1,140
304,72,77575,1,0,0:0:0:0:
189,21,77669,2,0,L|114:12,1,70
39,159,77856,5,0,0:0:0:0:
69,174,77902,1,0,0:0:0:0:
104,172,77949,1,0,0:0:0:0:
133,153,77996,1,0,0:0:0:0:
146,127,78044,1,0,0:0:0:0:
137,160,78090,1,0,0:0:0:0:
142,195,78137,1,0,0:0:0:0:
161,224,78184,1,0,0:0:0:0:
189,244,78231,1,0,0:0:0:0:
223,252,78278,1,0,0:0:0:0:
257,246,78325,1,0,0:0:0:0:
286,226,78372,1,0,0:0:0:0:
304,202,78419,5,0,0:0:0:0:
296,168,78465,1,0,0:0:0:0:
302,133,78512,1,0,0:0:0:0:
321,104,78559,1,0,0:0:0:0:
350,85,78606,1,0,0:0:0:0:
384,79,78653,1,0,0:0:0:0:
418,87,78700,1,0,0:0:0:0:
446,108,78747,1,0,0:0:0:0:
416,187,78794,6,0,B|418:239|418:239|408:279|408:279|411:338,1,140
500,269,79075,1,0,0:0:0:0:
304,202,79169,2,0,P|259:191|210:192,1,70
75,324,79356,5,0,0:0:0:0:
41,321,79402,1,0,0:0:0:0:
19,294,79449,1,0,0:0:0:0:
22,261,79496,1,0,0:0:0:0:
48,239,79543,1,0,0:0:0:0:
82,243,79590,1,0,0:0:0:0:
112,239,79637,1,0,0:0:0:0:
136,214,79683,1,0,0:0:0:0:
144,181,79730,1,0,0:0:0:0:
133,148,79777,1,0,0:0:0:0:
106,126,79824,1,0,0:0:0:0:
72,122,79871,1,0,0:0:0:0:
44,127,79919,5,0,0:0:0:0:
78,127,79965,1,0,0:0:0:0:
110,114,80012,1,0,0:0:0:0:
135,89,80059,1,0,0:0:0:0:
151,60,80106,1,0,0:0:0:0:
179,39,80152,1,0,0:0:0:0:
213,31,80199,1,0,0:0:0:0:
247,34,80246,1,0,0:0:0:0:
301,99,80294,6,0,B|353:101|353:101|386:117|386:117|449:119,1,140
405,33,80575,1,0,0:0:0:0:
318,182,80669,5,0,0:0:0:0:
302,212,80715,1,0,0:0:0:0:
311,245,80762,1,0,0:0:0:0:
340,262,80809,1,0,0:0:0:0:
348,294,80856,1,0,0:0:0:0:
346,328,80902,1,0,0:0:0:0:
326,356,80949,1,0,0:0:0:0:
294,369,80996,1,0,0:0:0:0:
260,362,81043,1,0,0:0:0:0:
242,332,81090,1,0,0:0:0:0:
225,301,81136,1,0,0:0:0:0:
200,277,81183,1,0,0:0:0:0:
168,262,81230,1,0,0:0:0:0:
134,259,81277,1,0,0:0:0:0:
100,267,81324,1,0,0:0:0:0:
70,285,81371,1,0,0:0:0:0:
59,313,81419,5,0,0:0:0:0:
80,285,81465,1,0,0:0:0:0:
93,253,81512,1,0,0:0:0:0:
97,218,81559,1,0,0:0:0:0:
91,184,81606,1,0,0:0:0:0:
70,157,81653,1,0,0:0:0:0:
52,127,81699,1,0,0:0:0:0:
52,92,81746,1,0,0:0:0:0:
69,62,81793,1,0,0:0:0:0:
99,45,81840,1,0,0:0:0:0:
134,45,81887,1,0,0:0:0:0:
164,62,81934,1,0,0:0:0:0:
181,92,81981,1,0,0:0:0:0:
187,126,82028,1,0,0:0:0:0:
211,150,82074,1,0,0:0:0:0:
245,156,82121,1,0,0:0:0:0:
276,148,82169,5,0,0:0:0:0:
265,114,82215,1,0,0:0:0:0:
269,80,82262,1,0,0:0:0:0:
288,51,82309,1,0,0:0:0:0:
318,33,82356,1,0,0:0:0:0:
352,29,82403,1,0,0:0:0:0:
385,41,82450,1,0,0:0:0:0:
410,65,82497,1,0,0:0:0:0:
414,97,82544,1,0,0:0:0:0:
397,127,82590,1,0,0:0:0:0:
393,162,82637,1,0,0:0:0:0:
403,195,82684,1,0,0:0:0:0:
430,218,82731,1,0,0:0:0:0:
446,248,82777,1,0,0:0:0:0:
441,282,82824,1,0,0:0:0:0:
417,306,82871,1,0,0:0:0:0:
405,338,82919,5,0,0:0:0:0:
388,307,82965,1,0,0:0:0:0:
359,289,83012,1,0,0:0:0:0:
324,286,83059,1,0,0:0:0:0:
293,301,83106,1,0,0:0:0:0:
273,330,83153,1,0,0:0:0:0:
241,345,83199,1,0,0:0:0:0:
207,349,83246,1,0,0:0:0:0:
173,341,83293,1,0,0:0:0:0:
143,323,83340,1,0,0:0:0:0:
121,296,83387,1,0,0:0:0:0:
110,263,83434,1,0,0:0:0:0:
110,228,83481,1,0,0:0:0:0:
132,199,83528,1,0,0:0:0:0:
138,168,83574,1,0,0:0:0:0:
136,131,83621,1,0,0:0:0:0:
112,97,83669,5,0,0:0:0:0:
138,119,83715,1,0,0:0:0:0:
171,130,83762,1,0,0:0:0:0:
206,129,83809,1,0,0:0:0:0:
237,115,83856,1,0,0:0:0:0:
259,94,83903,1,0,0:0:0:0:
289,77,83949,1,0,0:0:0:0:
324,73,83996,1,0,0:0:0:0:
392,118,84044,6,0,P|412:185|409:278,1,140
505,137,84325,1,0,0:0:0:0:
317,215,84419,2,0,L|232:220,1,70
26,299,84606,5,0,0:0:0:0:
53,319,84652,1,0,0:0:0:0:
87,328,84699,1,0,0:0:0:0:
122,322,84746,1,0,0:0:0:0:
153,312,84794,1,0,0:0:0:0:
184,297,84840,1,0,0:0:0:0:
219,295,84887,1,0,0:0:0:0:
252,305,84934,1,0,0:0:0:0:
275,325,84981,1,0,0:0:0:0:
306,339,85027,1,0,0:0:0:0:
341,341,85074,1,0,0:0:0:0:
374,331,85121,1,0,0:0:0:0:
398,304,85169,5,0,0:0:0:0:
364,296,85215,1,0,0:0:0:0:
335,276,85262,1,0,0:0:0:0:
314,249,85309,1,0,0:0:0:0:
304,215,85356,1,0,0:0:0:0:
306,180,85403,1,0,0:0:0:0:
320,149,85450,1,0,0:0:0:0:
344,124,85497,1,0,0:0:0:0:
418,69,85544,6,0,L|432:230,1,140
501,88,85825,1,0,0:0:0:0:
347,16,85919,2,0,P|304:8|260:7,1,70
178,113,86106,5,0,0:0:0:0:
150,134,86152,1,0,0:0:0:0:
116,141,86199,1,0,0:0:0:0:
83,131,86246,1,0,0:0:0:0:
58,107,86294,1,0,0:0:0:0:
84,130,86340,1,0,0:0:0:0:
102,159,86387,1,0,0:0:0:0:
110,193,86434,1,0,0:0:0:0:
102,228,86481,1,0,0:0:0:0:
84,256,86528,1,0,0:0:0:0:
77,289,86574,1,0,0:0:0:0:
91,321,86621,1,0,0:0:0:0:
119,335,86669,5,0,0:0:0:0:
110,301,86715,1,0,0:0:0:0:
113,266,86762,1,0,0:0:0:0:
127,234,86809,1,0,0:0:0:0:
150,208,86856,1,0,0:0:0:0:
181,191,86903,1,0,0:0:0:0:
215,184,86950,1,0,0:0:0:0:
249,189,86997,1,0,0:0:0:0:
324,239,87044,6,0,B|318:185|318:185|329:160|329:160|323:81,1,140
406,208,87325,1,0,0:0:0:0:
233,106,87419,2,0,L|152:100,1,70
56,231,87606,5,0,0:0:0:0:
90,230,87652,1,0,0:0:0:0:
124,220,87699,1,0,0:0:0:0:
154,203,87746,1,0,0:0:0:0:
186,188,87794,1,0,0:0:0:0:
219,177,87840,1,0,0:0:0:0:
254,174,87887,1,0,0:0:0:0:
288,180,87934,1,0,0:0:0:0:
320,193,87981,1,0,0:0:0:0:
349,213,88028,1,0,0:0:0:0:
372,239,88075,1,0,0:0:0:0:
388,270,88122,1,0,0:0:0:0:
392,306,88169,5,0,0:0:0:0:
364,284,88215,1,0,0:0:0:0:
344,255,88262,1,0,0:0:0:0:
333,222,88309,1,0,0:0:0:0:
331,187,88356,1,0,0:0:0:0:
338,153,88403,1,0,0:0:0:0:
355,123,88450,1,0,0:0:0:0:
379,98,88497,1,0,0:0:0:0:
464,64,88544,6,0,B|453:131|453:131|436:150|436:150|428:226,1,140
485,262,88825,1,0,0:0:0:0:
379,98,88919,5,0,0:0:0:0:
379,98,89012,1,0,0:0:0:0:
396,321,89106,1,0,0:0:0:0:
396,321,89200,1,0,0:0:0:0:
187,34,89294,5,0,0:0:0:0:
187,34,89387,1,0,0:0:0:0:
170,256,89481,1,0,0:0:0:0:
170,256,89575,1,0,0:0:0:0:
254,85,89669,5,0,0:0:0:0:
236,103,89715,1,0,0:0:0:0:
215,115,89762,1,0,0:0:0:0:
190,120,89809,1,0,0:0:0:0:
166,118,89856,1,0,0:0:0:0:
142,109,89903,1,0,0:0:0:0:
123,93,89950,1,0,0:0:0:0:
109,73,89997,1,0,0:0:0:0:
104,51,90044,5,0,0:0:0:0:
125,78,90090,1,0,0:0:0:0:
133,111,90137,1,0,0:0:0:0:
128,146,90184,1,0,0:0:0:0:
108,174,90231,1,0,0:0:0:0:
84,198,90278,1,0,0:0:0:0:
71,230,90324,1,0,0:0:0:0:
76,264,90371,1,0,0:0:0:0:
98,288,90419,5,0,0:0:0:0:
127,261,90465,1,0,0:0:0:0:
163,243,90512,1,0,0:0:0:0:
202,235,90559,1,0,0:0:0:0:
242,238,90606,1,0,0:0:0:0:
279,252,90653,1,0,0:0:0:0:
312,275,90700,1,0,0:0:0:0:
337,306,90747,1,0,0:0:0:0:
421,346,90794,6,0,B|421:295|421:295|406:261|406:261|407:209,1,140
498,265,91075,1,0,0:0:0:0:
332,137,91169,2,0,P|294:121|254:121,1,70
53,194,91356,5,0,0:0:0:0:
87,196,91402,1,0,0:0:0:0:
119,184,91449,1,0,0:0:0:0:
143,158,91496,1,0,0:0:0:0:
158,132,91544,1,0,0:0:0:0:
191,113,91590,1,0,0:0:0:0:
229,108,91637,1,0,0:0:0:0:
265,119,91684,1,0,0:0:0:0:
295,143,91731,1,0,0:0:0:0:
313,177,91778,1,0,0:0:0:0:
317,215,91825,1,0,0:0:0:0:
305,251,91872,1,0,0:0:0:0:
278,274,91919,5,0,0:0:0:0:
267,237,91965,1,0,0:0:0:0:
270,198,92012,1,0,0:0:0:0:
284,163,92059,1,0,0:0:0:0:
310,134,92106,1,0,0:0:0:0:
343,116,92153,1,0,0:0:0:0:
381,109,92200,1,0,0:0:0:0:
419,116,92247,1,0,0:0:0:0:
471,176,92294,6,0,P|429:220|415:329,1,154.000004699707
505,363,92575,1,0,0:0:0:0:
343,248,92669,2,0,P|312:239|263:237,1,77.0000023498536
104,344,92856,5,0,0:0:0:0:
118,308,92902,1,0,0:0:0:0:
117,270,92949,1,0,0:0:0:0:
100,236,92996,1,0,0:0:0:0:
65,217,93044,1,0,0:0:0:0:
49,181,93090,1,0,0:0:0:0:
52,143,93137,1,0,0:0:0:0:
71,110,93184,1,0,0:0:0:0:
103,89,93231,1,0,0:0:0:0:
140,85,93278,1,0,0:0:0:0:
176,98,93325,1,0,0:0:0:0:
203,125,93372,1,0,0:0:0:0:
218,160,93419,5,0,0:0:0:0:
222,121,93465,1,0,0:0:0:0:
239,87,93512,1,0,0:0:0:0:
267,61,93559,1,0,0:0:0:0:
302,46,93606,1,0,0:0:0:0:
341,44,93653,1,0,0:0:0:0:
377,55,93700,1,0,0:0:0:0:
408,78,93747,1,0,0:0:0:0:
439,154,93794,6,0,B|432:210|432:210|415:246|415:246|409:312,1,154.000004699707
510,204,94075,1,0,0:0:0:0:
339,256,94169,2,0,P|297:264|245:259,1,77.0000023498536
59,130,94356,5,0,0:0:0:0:
92,112,94402,1,0,0:0:0:0:
130,113,94449,1,0,0:0:0:0:
163,133,94496,1,0,0:0:0:0:
183,161,94544,1,0,0:0:0:0:
214,182,94590,1,0,0:0:0:0:
252,183,94637,1,0,0:0:0:0:
284,163,94684,1,0,0:0:0:0:
301,129,94731,1,0,0:0:0:0:
297,91,94778,1,0,0:0:0:0:
273,62,94825,1,0,0:0:0:0:
237,49,94872,1,0,0:0:0:0:
202,59,94919,5,0,0:0:0:0:
235,77,94965,1,0,0:0:0:0:
273,81,95012,1,0,0:0:0:0:
310,70,95059,1,0,0:0:0:0:
339,46,95106,1,0,0:0:0:0:
371,35,95153,1,0,0:0:0:0:
407,46,95199,1,0,0:0:0:0:
431,75,95246,1,0,0:0:0:0:
401,146,95294,6,0,P|386:212|393:312,1,154.000004699707
481,202,95575,1,0,0:0:0:0:
295,311,95669,5,0,0:0:0:0:
257,317,95715,1,0,0:0:0:0:
219,313,95762,1,0,0:0:0:0:
183,298,95809,1,0,0:0:0:0:
155,273,95856,1,0,0:0:0:0:
119,259,95902,1,0,0:0:0:0:
81,265,95949,1,0,0:0:0:0:
52,290,95996,1,0,0:0:0:0:
45,328,96044,1,0,0:0:0:0:
65,360,96090,1,0,0:0:0:0:
99,375,96137,1,0,0:0:0:0:
136,367,96184,1,0,0:0:0:0:
162,340,96231,1,0,0:0:0:0:
168,302,96278,1,0,0:0:0:0:
152,268,96325,1,0,0:0:0:0:
123,246,96372,1,0,0:0:0:0:
99,216,96418,5,0,0:0:0:0:
95,178,96465,1,0,0:0:0:0:
111,143,96512,1,0,0:0:0:0:
143,123,96559,1,0,0:0:0:0:
181,129,96606,1,0,0:0:0:0:
216,143,96652,1,0,0:0:0:0:
254,144,96699,1,0,0:0:0:0:
289,129,96746,1,0,0:0:0:0:
300,96,96794,1,0,0:0:0:0:
309,59,96840,1,0,0:0:0:0:
335,31,96887,1,0,0:0:0:0:
371,18,96934,1,0,0:0:0:0:
408,25,96981,1,0,0:0:0:0:
438,48,97028,1,0,0:0:0:0:
453,83,97075,1,0,0:0:0:0:
449,121,97122,1,0,0:0:0:0:
430,160,97169,5,0,0:0:0:0:
392,154,97215,1,0,0:0:0:0:
360,173,97262,1,0,0:0:0:0:
348,209,97309,1,0,0:0:0:0:
361,244,97356,1,0,0:0:0:0:
394,262,97403,1,0,0:0:0:0:
431,266,97450,1,0,0:0:0:0:
457,293,97496,1,0,0:0:0:0:
462,330,97543,1,0,0:0:0:0:
444,364,97590,1,0,0:0:0:0:
409,380,97637,1,0,0:0:0:0:
372,373,97684,1,0,0:0:0:0:
344,345,97731,1,0,0:0:0:0:
312,323,97777,1,0,0:0:0:0:
274,315,97824,1,0,0:0:0:0:
236,321,97871,1,0,0:0:0:0:
196,351,97919,5,0,0:0:0:0:
193,313,97965,1,0,0:0:0:0:
172,281,98012,1,0,0:0:0:0:
138,263,98059,1,0,0:0:0:0:
101,265,98106,1,0,0:0:0:0:
65,252,98152,1,0,0:0:0:0:
43,221,98199,1,0,0:0:0:0:
44,183,98246,1,0,0:0:0:0:
63,151,98294,1,0,0:0:0:0:
99,141,98340,1,0,0:0:0:0:
137,149,98387,1,0,0:0:0:0:
164,175,98434,1,0,0:0:0:0:
201,181,98480,1,0,0:0:0:0:
232,160,98527,1,0,0:0:0:0:
241,123,98574,1,0,0:0:0:0:
222,91,98621,1,0,0:0:0:0:
183,75,98669,5,0,0:0:0:0:
216,92,98715,1,0,0:0:0:0:
254,96,98762,1,0,0:0:0:0:
291,85,98809,1,0,0:0:0:0:
321,61,98856,1,0,0:0:0:0:
361,61,98903,1,0,0:0:0:0:
397,71,98949,1,0,0:0:0:0:
421,100,98996,1,0,0:0:0:0:
425,138,99043,1,0,0:0:0:0:
408,172,99090,1,0,0:0:0:0:
375,190,99137,1,0,0:0:0:0:
336,188,99184,1,0,0:0:0:0:
306,210,99230,1,0,0:0:0:0:
299,247,99277,1,0,0:0:0:0:
319,279,99324,1,0,0:0:0:0:
355,288,99371,1,0,0:0:0:0:
390,282,99419,5,0,0:0:0:0:
357,262,99465,1,0,0:0:0:0:
319,257,99512,1,0,0:0:0:0:
282,268,99559,1,0,0:0:0:0:
254,293,99606,1,0,0:0:0:0:
228,323,99653,1,0,0:0:0:0:
195,343,99699,1,0,0:0:0:0:
158,348,99746,1,0,0:0:0:0:
121,336,99793,1,0,0:0:0:0:
93,310,99840,1,0,0:0:0:0:
80,275,99887,1,0,0:0:0:0:
83,236,99933,1,0,0:0:0:0:
102,204,99980,1,0,0:0:0:0:
134,183,100027,1,0,0:0:0:0:
172,178,100074,1,0,0:0:0:0:
208,190,100121,1,0,0:0:0:0:
231,225,100169,5,0,0:0:0:0:
210,192,100215,1,0,0:0:0:0:
204,154,100262,1,0,0:0:0:0:
215,118,100309,1,0,0:0:0:0:
239,88,100356,1,0,0:0:0:0:
273,72,100403,1,0,0:0:0:0:
312,70,100450,1,0,0:0:0:0:
347,85,100497,1,0,0:0:0:0:
371,117,100544,1,0,0:0:0:0:
385,152,100590,1,0,0:0:0:0:
384,190,100637,1,0,0:0:0:0:
367,224,100684,1,0,0:0:0:0:
353,256,100731,1,0,0:0:0:0:
350,293,100777,1,0,0:0:0:0:
368,327,100824,1,0,0:0:0:0:
401,344,100871,1,0,0:0:0:0:
438,328,100919,5,0,0:0:0:0:
408,303,100965,1,0,0:0:0:0:
371,292,101012,1,0,0:0:0:0:
333,295,101059,1,0,0:0:0:0:
299,312,101106,1,0,0:0:0:0:
272,332,101153,1,0,0:0:0:0:
228,339,101199,1,0,0:0:0:0:
185,332,101246,1,0,0:0:0:0:
147,310,101293,1,0,0:0:0:0:
119,277,101340,1,0,0:0:0:0:
103,236,101387,1,0,0:0:0:0:
103,192,101434,1,0,0:0:0:0:
117,151,101481,1,0,0:0:0:0:
137,127,101528,1,0,0:0:0:0:
180,107,101574,1,0,0:0:0:0:
228,112,101621,1,0,0:0:0:0:
279,160,101669,5,0,0:0:0:0:
