osu file format v14

[General]
AudioFilename: audio.mp3
AudioLeadIn: 0
PreviewTime: 27313
Countdown: 0
SampleSet: Soft
StackLeniency: 0.4
Mode: 0
LetterboxInBreaks: 0
WidescreenStoryboard: 1

[Editor]
DistanceSpacing: 0.5
BeatDivisor: 4
GridSize: 4
TimelineZoom: 2.578537

[Metadata]
Title:Seven
TitleUnicode:Seven
Artist:Sunny Day Real Estate
ArtistUnicode:Sunny Day Real Estate
Creator:zglock
Version:Insane
Source:
Tags:diary SDRE midwest emo post hardcore alternative rock english punk 7
BeatmapID:2933355
BeatmapSetID:1300102

[Difficulty]
HPDrainRate:4.7
CircleSize:3.1
OverallDifficulty:7.4
ApproachRate:9
SliderMultiplier:2.79999990463257
SliderTickRate:1

[Events]
//Background and Video events
0,0,"funorange.jpg",0,0
//Break Periods
2,27499,31529
2,34615,38521
2,83271,87485
2,90579,94475
2,183367,187682
2,190738,194819
//Storyboard Layer 0 (Background)
//Storyboard Layer 1 (Fail)
//Storyboard Layer 2 (Pass)
//Storyboard Layer 3 (Foreground)
//Storyboard Layer 4 (Overlay)
//Storyboard Sound Samples

[TimingPoints]
1162,451.127819548873,4,2,1,65,1,0
1162,-66.6666666666667,4,2,1,65,0,0
1613,436.363636363637,4,2,1,65,1,0
1613,-66.6666666666667,4,2,1,65,0,0
1831,-80,4,2,1,65,0,0
2267,-80,4,2,1,65,0,0
2485,383.386581469649,4,2,1,65,1,0
2868,451.127819548873,4,2,1,65,1,0
2868,-66.6666666666667,4,2,1,65,0,0
3319,430.107526881721,4,2,1,65,1,0
3319,-66.6666666666667,4,2,1,65,0,0
3534,-80,4,2,1,65,0,0
3964,-80,4,2,1,65,0,0
4179,405.405405405406,4,2,1,65,1,0
4584,441.176470588236,4,2,1,65,1,0
4584,-66.6666666666667,4,2,1,65,0,0
5025,419.58041958042,4,2,1,65,1,0
5025,-66.6666666666667,4,2,1,65,0,0
5234,-80,4,2,1,65,0,0
5549,-80,4,2,1,5,0,0
5654,-80,4,2,1,65,0,0
5864,405.405405405406,4,2,1,65,1,0
6269,410.958904109589,4,2,1,65,1,0
6269,-66.6666666666667,4,2,1,65,0,0
6577,-66.6666666666667,4,2,1,5,0,0
6679,-66.6666666666667,4,2,1,65,0,0
6885,-80,4,2,1,65,0,0
7090,393.44262295082,4,2,1,65,1,0
7090,-80,4,2,1,65,0,0
7483,-100,4,2,1,65,0,0
7876,431.654676258993,4,2,1,65,1,0
7876,-66.6666666666667,4,2,1,65,0,0
8307,413.793103448276,4,2,1,65,1,0
8307,-66.6666666666667,4,2,1,65,0,0
8513,-80,4,2,1,65,0,0
8927,-80,4,2,1,65,0,0
9134,-100,4,2,1,65,0,0
9548,-66.6666666666667,4,2,1,65,0,0
10169,-80,4,2,1,65,0,0
10582,-80,4,2,1,65,0,0
10789,-100,4,2,1,65,0,0
11203,428.571428571429,4,2,1,65,1,0
11203,-66.6666666666667,4,2,1,65,0,0
11631,410.958904109589,4,2,1,65,1,0
11631,-66.6666666666667,4,2,1,65,0,0
11836,-80,4,2,1,65,0,0
12144,-80,4,2,1,5,0,0
12247,-80,4,2,1,65,0,0
12452,-100,4,2,1,65,0,0
12863,408.163265306123,4,2,1,65,1,0
12863,-66.6666666666667,4,2,1,65,0,0
13271,375,4,2,1,65,1,0
13271,-66.6666666666667,4,2,1,65,0,0
14021,394.736842105264,4,2,1,65,1,0
14021,-66.6666666666667,4,2,1,65,0,0
14415,408.163265306122,4,2,1,74,1,0
14415,-80,4,2,1,74,0,0
16047,402.684563758389,4,2,1,74,1,0
16047,-80,4,2,1,74,0,0
18261,377.358490566038,4,2,1,74,1,0
18261,-80,4,2,1,74,0,0
18638,420.31523642732,4,2,1,74,1,0
18638,-80,4,2,1,74,0,0
19268,400,4,2,1,74,1,0
19268,-80,4,2,1,74,0,0
20868,406.779661016949,4,2,1,74,1,0
20868,-80,4,2,1,74,0,0
21478,380.952380952381,4,2,1,74,1,0
21478,-80,4,2,1,74,0,0
21763,485.82995951417,4,2,1,74,1,0
21763,-80,4,2,1,74,0,0
21884,407.470288624788,4,2,1,74,1,0
21884,-80,4,2,1,74,0,0
22495,402.684563758389,4,2,1,74,1,0
22495,-80,4,2,1,74,0,0
24105,408.163265306122,4,2,1,74,1,0
24105,-80,4,2,1,74,0,0
24411,387.096774193548,4,2,1,74,1,0
24411,-80,4,2,1,74,0,0
24701,441.176470588235,4,2,1,74,1,0
24701,-80,4,2,1,74,0,0
24921,370.37037037037,4,2,1,74,1,0
24921,-80,4,2,1,74,0,0
25291,408.163265306122,4,2,1,74,1,0
25291,-80,4,2,1,74,0,0
25699,389.61038961039,4,2,1,73,1,0
25699,-80,4,2,1,73,0,0
26499,397.350993377483,4,2,1,73,1,0
26499,-100,4,2,1,73,0,0
27299,402.549480040255,4,2,1,70,1,0
32129,461.538461538461,4,2,1,60,1,0
32129,-200,4,2,1,60,0,0
32590,459.770114942529,4,2,1,71,1,0
32590,-80,4,2,1,71,0,0
34415,470.698987997176,4,2,1,70,1,0
39121,422.535211267605,4,2,1,65,1,0
39121,-133.333333333333,4,2,1,65,0,0
39543,444.444444444444,4,2,1,65,1,0
39543,-133.333333333333,4,2,1,65,0,0
39765,478.087649402389,4,2,1,71,1,0
39765,-80,4,2,1,71,0,0
41199,462.427745664739,4,2,1,71,1,0
41199,-80,4,2,1,71,0,0
41661,442.80442804428,4,2,1,71,1,0
41993,-100,4,2,1,5,0,0
42103,-100,4,2,1,71,0,0
42657,-100,4,2,1,5,0,0
42768,-100,4,2,1,71,0,0
43764,-100,4,2,1,5,0,0
43875,-100,4,2,1,71,0,0
44317,433.212996389891,4,2,1,71,1,0
44750,394.736842105263,4,2,1,71,1,0
44947,451.127819548872,4,2,1,71,1,0
45172,430.10752688172,4,2,1,71,1,0
45494,-100,4,2,1,5,0,0
45602,-100,4,2,1,71,0,0
46139,-100,4,2,1,5,0,0
46247,-100,4,2,1,71,0,0
46462,387.096774193548,4,2,1,71,1,0
46655,458.015267175572,4,2,1,71,1,0
46884,431.654676258992,4,2,1,71,1,0
47315,392.156862745098,4,2,1,71,1,0
48491,425.531914893616,4,2,1,71,1,0
48810,-100,4,2,1,5,0,0
48916,-100,4,2,1,71,0,0
49448,-100,4,2,1,5,0,0
49554,-100,4,2,1,71,0,0
49767,387.096774193548,4,2,1,71,1,0
49960,441.176470588234,4,2,1,71,1,0
50180,428.571428571428,4,2,1,71,1,0
50501,-100,4,2,1,5,0,0
50608,-100,4,2,1,71,0,0
51037,419.580419580419,4,2,1,71,1,0
51456,394.736842105263,4,2,1,71,1,0
51653,463.320463320463,4,2,1,71,1,0
51884,428.571428571428,4,2,1,71,1,0
52205,-100,4,2,1,5,0,0
52312,-100,4,2,1,71,0,0
52526,-99.009900990099,4,2,1,71,0,0
52741,416.666666666666,4,2,1,71,1,0
52845,-100,4,2,1,5,0,0
52949,-100,4,2,1,71,0,0
53157,389.610389610389,4,2,1,71,1,0
53351,447.76119402985,4,2,1,71,1,0
53574,394.736842105263,4,2,1,71,1,0
53968,399.999999999999,4,2,1,71,1,0
54368,374.999999999999,4,2,1,71,1,0
54930,428.571428571427,4,2,1,71,1,0
55168,437.956204379561,4,2,1,71,1,0
55496,-100,4,2,1,5,0,0
55605,-100,4,2,1,71,0,0
56153,-100,4,2,1,5,0,0
56262,-100,4,2,1,71,0,0
56481,374.999999999999,4,2,1,71,1,0
56668,458.01526717557,4,2,1,71,1,0
56897,441.176470588234,4,2,1,71,1,0
57227,-100,4,2,1,5,0,0
57338,-100,4,2,1,71,0,0
57779,419.580419580418,4,2,1,71,1,0
58198,361.445783132529,4,2,1,71,1,0
58378,461.538461538461,4,2,1,71,1,0
58608,410.958904109588,4,2,1,71,1,0
61074,389.610389610389,4,2,1,71,1,0
61463,408.163265306121,4,2,1,71,1,0
61871,444.444444444443,4,2,1,71,1,0
62204,-100,4,2,1,5,0,0
62315,-100,4,2,1,71,0,0
62537,-99.009900990099,4,2,1,71,0,0
62759,428.571428571427,4,2,1,71,1,0
62866,-100,4,2,1,5,0,0
62973,-100,4,2,1,71,0,0
63187,392.156862745097,4,2,1,71,1,0
63383,447.761194029849,4,2,1,71,1,0
63606,419.580419580418,4,2,1,71,1,0
63920,-100,4,2,1,5,0,0
64026,428.571428571427,4,2,1,71,1,0
64883,365.853658536584,4,2,1,71,1,0
65065,487.804878048778,4,2,1,71,1,0
65308,425.531914893615,4,2,1,71,1,0
65627,-100,4,2,1,5,0,0
65733,-100,4,2,1,71,0,0
66265,-100,4,2,1,5,0,0
66371,-100,4,2,1,71,0,0
66585,397.350993377482,4,2,1,71,1,0
67777,413.793103448274,4,2,1,71,1,0
68604,472.440944881888,4,2,1,71,1,0
68604,-117.647058823529,4,2,1,71,0,0
68958,-117.647058823529,4,2,1,5,0,0
69076,-117.647058823529,4,2,1,71,0,0
69312,-114.942528735632,4,2,1,71,0,0
69548,444.444444444443,4,2,1,71,1,0
69548,-117.647058823529,4,2,1,71,0,0
69659,-117.647058823529,4,2,1,5,0,0
69770,-117.647058823529,4,2,1,71,0,0
69992,422.535211267604,4,2,1,71,1,0
69992,-117.647058823529,4,2,1,71,0,0
70837,458.015267175571,4,2,1,71,1,0
70837,-117.647058823529,4,2,1,71,0,0
71066,431.654676258991,4,2,1,71,1,0
71066,-117.647058823529,4,2,1,71,0,0
71389,-117.647058823529,4,2,1,5,0,0
71497,-117.647058823529,4,2,1,71,0,0
71713,444.444444444443,4,2,1,71,1,0
71713,-117.647058823529,4,2,1,71,0,0
72157,461.53846153846,4,2,1,71,1,0
72157,-117.647058823529,4,2,1,71,0,0
72503,-117.647058823529,4,2,1,5,0,0
72618,-117.647058823529,4,2,1,71,0,0
72849,-115.740740740741,4,2,1,71,0,0
73080,437.95620437956,4,2,1,71,1,0
73080,-117.647058823529,4,2,1,71,0,0
73189,-117.647058823529,4,2,1,5,0,0
73298,-117.647058823529,4,2,1,71,0,0
73955,474.308300395255,4,2,1,71,1,0
73955,-80,4,2,1,71,0,0
75852,461.53846153846,4,2,1,71,1,0
75852,-117.647058823529,4,2,1,71,0,0
76890,-117.647058823529,4,2,1,5,0,0
77005,-117.647058823529,4,2,1,71,0,0
77236,425.531914893616,4,2,1,71,1,0
77236,-117.647058823529,4,2,1,71,0,0
78299,-119.760479041916,4,2,1,71,0,0
78512,451.127819548871,4,2,1,71,1,0
78512,-117.647058823529,4,2,1,71,0,0
78624,-117.647058823529,4,2,1,5,0,0
78737,-117.647058823529,4,2,1,71,0,0
79414,468.749999999998,4,2,1,71,1,0
79414,-117.647058823529,4,2,1,71,0,0
79765,-117.647058823529,4,2,1,5,0,0
79882,441.176470588234,4,2,1,71,1,0
79882,-117.647058823529,4,2,1,71,0,0
80433,-117.647058823529,4,2,1,5,0,0
80543,-117.647058823529,4,2,1,71,0,0
80764,444.444444444443,4,2,1,71,1,0
80764,-117.647058823529,4,2,1,71,0,0
81214,465.116279069766,4,2,1,71,1,0
81214,-80,4,2,1,71,0,0
81562,-84.0336134453781,4,2,1,71,0,0
81679,508.474576271184,4,2,1,71,1,0
81679,-80,4,2,1,71,0,0
82187,447.761194029849,4,2,1,71,1,0
82187,-80,4,2,1,71,0,0
82634,437.956204379561,4,2,1,71,1,0
82634,-80,4,2,1,71,0,0
83071,455.857772375019,4,2,1,70,1,0
88085,434.782608695651,4,2,1,60,1,0
88085,-200,4,2,1,60,0,0
88519,469.667318982386,4,2,1,71,1,0
88519,-80,4,2,1,71,0,0
90379,469.667318982386,4,2,1,70,1,0
95075,428.571428571427,4,2,1,65,1,0
95075,-133.333333333333,4,2,1,65,0,0
95503,441.176470588234,4,2,1,65,1,0
95503,-133.333333333333,4,2,1,65,0,0
95723,478.087649402389,4,2,1,71,1,0
95723,-80,4,2,1,71,0,0
96440,495.867768595039,4,2,1,71,1,0
96440,-80,4,2,1,71,0,0
96811,453.68620037807,4,2,1,71,1,0
96811,-80,4,2,1,71,0,0
97151,454.545454545453,4,2,1,71,1,0
97151,-80,4,2,1,71,0,0
97605,472.440944881888,4,2,1,71,1,0
97959,-100,4,2,1,5,0,0
98077,436.363636363635,4,2,1,71,1,0
98622,-100,4,2,1,5,0,0
98731,-100,4,2,1,71,0,0
98949,384.615384615384,4,2,1,71,1,0
99141,466.926070038909,4,2,1,71,1,0
99374,447.76119402985,4,2,1,71,1,0
99709,-100,4,2,1,5,0,0
99821,428.571428571428,4,2,1,71,1,0
100678,382.165605095541,4,2,1,71,1,0
100869,434.782608695651,4,2,1,71,1,0
101086,451.127819548871,4,2,1,71,1,0
101424,-100,4,2,1,5,0,0
101537,422.535211267605,4,2,1,71,1,0
102065,-100,4,2,1,5,0,0
102170,-100,4,2,1,71,0,0
102382,410.958904109588,4,2,1,71,1,0
103203,397.350993377483,4,2,1,71,1,0
103600,408.163265306122,4,2,1,71,1,0
104008,419.580419580419,4,2,1,71,1,0
104427,431.654676258992,4,2,1,71,1,0
104750,-100,4,2,1,5,0,0
104858,-100,4,2,1,71,0,0
105398,-100,4,2,1,5,0,0
105506,-100,4,2,1,71,0,0
105721,405.405405405404,4,2,1,71,1,0
106126,454.545454545453,4,2,1,71,1,0
106466,-100,4,2,1,5,0,0
106580,425.531914893616,4,2,1,71,1,0
107431,397.350993377483,4,2,1,71,1,0
107629,454.545454545453,4,2,1,71,1,0
107856,425.531914893616,4,2,1,71,1,0
108175,-100,4,2,1,5,0,0
108282,422.535211267605,4,2,1,71,1,0
108810,-100,4,2,1,5,0,0
108915,-100,4,2,1,71,0,0
109127,408.163265306122,4,2,1,71,1,0
109943,363.636363636363,4,2,1,71,1,0
110306,410.958904109588,4,2,1,71,1,0
111127,428.571428571428,4,2,1,71,1,0
111448,-100,4,2,1,5,0,0
111555,437.956204379561,4,2,1,71,1,0
112102,-100,4,2,1,5,0,0
112211,-100,4,2,1,71,0,0
112430,370.37037037037,4,2,1,71,1,0
112615,447.76119402985,4,2,1,71,1,0
112838,447.76119402985,4,2,1,71,1,0
113173,-100,4,2,1,5,0,0
113285,425.531914893616,4,2,1,71,1,0
113905,463.320463320462,4,2,1,71,1,0
114136,397.350993377483,4,2,1,71,1,0
114533,408.163265306122,4,2,1,71,1,0
114941,427.046263345195,4,2,1,71,1,0
115795,408.163265306122,4,2,1,71,1,0
116203,416.666666666666,4,2,1,71,1,0
116619,397.350993377483,4,2,1,71,1,0
117413,441.176470588234,4,2,1,71,1,0
117854,422.535211267605,4,2,1,71,1,0
118170,-100,4,2,1,5,0,0
118276,-100,4,2,1,71,0,0
118804,-100,4,2,1,5,0,0
118910,-100,4,2,1,71,0,0
119121,387.096774193548,4,2,1,71,1,0
119314,441.176470588234,4,2,1,71,1,0
119534,444.444444444443,4,2,1,71,1,0
119867,-100,4,2,1,5,0,0
119978,413.793103448275,4,2,1,71,1,0
120805,394.736842105263,4,2,1,71,1,0
121002,451.127819548871,4,2,1,71,1,0
121227,454.545454545453,4,2,1,71,1,0
121567,-100,4,2,1,5,0,0
121681,405.405405405404,4,2,1,71,1,0
122187,-100,4,2,1,5,0,0
122289,-100,4,2,1,71,0,0
122491,408.163265306122,4,2,1,71,1,0
122899,389.610389610389,4,2,1,71,1,0
123288,427.807486631015,4,2,1,71,1,0
123715,419.580419580419,4,2,1,71,1,0
124134,444.444444444443,4,2,1,71,1,0
124578,451.127819548872,4,2,1,71,1,0
124578,-117.647058823529,4,2,1,71,0,0
124916,-117.647058823529,4,2,1,5,0,0
125029,468.749999999999,4,2,1,71,1,0
125029,-117.647058823529,4,2,1,71,0,0
125614,-117.647058823529,4,2,1,5,0,0
125732,-117.647058823529,4,2,1,71,0,0
125966,392.156862745098,4,2,1,71,1,0
125966,-117.647058823529,4,2,1,71,0,0
126162,447.76119402985,4,2,1,71,1,0
126162,-117.647058823529,4,2,1,71,0,0
126385,410.958904109589,4,2,1,71,1,0
126385,-117.647058823529,4,2,1,71,0,0
126795,476.190476190475,4,2,1,71,1,0
126795,-117.647058823529,4,2,1,71,0,0
127033,-114.942528735632,4,2,1,71,0,0
127271,444.444444444444,4,2,1,71,1,0
127271,-117.647058823529,4,2,1,71,0,0
127382,-117.647058823529,4,2,1,5,0,0
127493,-117.647058823529,4,2,1,71,0,0
128159,465.116279069767,4,2,1,71,1,0
128159,-117.647058823529,4,2,1,71,0,0
128507,-117.647058823529,4,2,1,5,0,0
128624,447.76119402985,4,2,1,71,1,0
128624,-117.647058823529,4,2,1,71,0,0
129183,-117.647058823529,4,2,1,5,0,0
129295,-117.647058823529,4,2,1,71,0,0
129519,434.782608695652,4,2,1,71,1,0
129519,-117.647058823529,4,2,1,71,0,0
129953,470.588235294117,4,2,1,71,1,0
129953,-80,4,2,1,71,0,0
131835,454.545454545454,4,2,1,71,1,0
131835,-117.647058823529,4,2,1,71,0,0
132289,468.749999999999,4,2,1,71,1,0
132289,-117.647058823529,4,2,1,71,0,0
132523,-115.606936416185,4,2,1,71,0,0
132757,451.127819548872,4,2,1,71,1,0
132757,-117.647058823529,4,2,1,71,0,0
132869,-117.647058823529,4,2,1,5,0,0
132982,-117.647058823529,4,2,1,71,0,0
133208,434.782608695652,4,2,1,71,1,0
133208,-117.647058823529,4,2,1,71,0,0
134077,465.116279069767,4,2,1,71,1,0
134077,-117.647058823529,4,2,1,71,0,0
134309,-110.497237569061,4,2,1,71,0,0
134542,377.358490566037,4,2,1,71,1,0
134542,-117.647058823529,4,2,1,71,0,0
134636,-117.647058823529,4,2,1,5,0,0
134730,468.749999999999,4,2,1,71,1,0
134730,-117.647058823529,4,2,1,71,0,0
134964,451.127819548872,4,2,1,71,1,0
134964,-117.647058823529,4,2,1,71,0,0
135415,479.999999999999,4,2,1,71,1,0
135415,-117.647058823529,4,2,1,71,0,0
135775,-117.647058823529,4,2,1,5,0,0
135895,444.444444444444,4,2,1,71,1,0
135895,-117.647058823529,4,2,1,71,0,0
136117,-116.279069767442,4,2,1,71,0,0
136339,425.531914893616,4,2,1,71,1,0
136339,-117.647058823529,4,2,1,71,0,0
136445,-117.647058823529,4,2,1,5,0,0
136551,-117.647058823529,4,2,1,71,0,0
136764,441.176470588235,4,2,1,71,1,0
136764,-117.647058823529,4,2,1,71,0,0
137205,452.830188679245,4,2,1,71,1,0
137205,-80,4,2,1,71,0,0
139016,468.749999999999,4,2,1,71,1,0
139016,-80,4,2,1,71,0,0
139953,451.127819548872,4,2,1,71,1,0
139953,-80,4,2,1,71,0,0
140404,423.280423280423,4,2,1,71,1,0
140404,-80,4,2,1,71,0,0
140827,397.350993377484,4,2,1,71,1,0
141125,458.015267175573,4,2,1,71,1,0
141468,397.350993377484,4,2,1,71,1,0
141468,-200,4,2,1,71,0,0
141766,439.56043956044,4,2,1,71,1,0
141766,-200,4,2,1,71,0,0
142315,-100,4,2,1,71,0,0
142535,454.545454545454,4,2,1,80,1,1
142535,-86.9565217391304,4,2,1,80,0,1
143557,-86.9565217391304,4,2,1,5,0,1
143671,-86.9565217391304,4,2,1,80,0,1
143898,384.615384615384,4,2,1,80,1,1
143898,-86.9565217391304,4,2,1,80,0,1
144090,498.960498960499,4,2,1,80,1,1
144090,-86.9565217391304,4,2,1,80,0,1
144339,454.545454545454,4,2,1,80,1,1
144339,-86.9565217391304,4,2,1,80,0,1
144679,-86.9565217391304,4,2,1,5,0,1
144793,-86.9565217391304,4,2,1,80,0,1
145020,-83.1946755407654,4,2,1,80,0,1
145248,394.736842105263,4,2,1,80,1,1
145248,-86.9565217391304,4,2,1,80,0,1
145346,-86.9565217391304,4,2,1,5,0,1
145445,-86.9565217391304,4,2,1,80,0,1
145642,444.444444444444,4,2,1,80,1,1
145642,-86.9565217391304,4,2,1,80,0,1
146086,437.956204379562,4,2,1,80,1,1
146086,-86.9565217391304,4,2,1,80,0,1
146414,-86.9565217391304,4,2,1,80,0,1
146523,428.571428571428,4,2,1,80,1,1
146523,-86.9565217391304,4,2,1,80,0,1
147058,-86.9565217391304,4,2,1,5,0,1
147165,-86.9565217391304,4,2,1,80,0,1
147380,408.163265306122,4,2,1,80,1,1
147380,-86.9565217391304,4,2,1,80,0,1
147571,434.782608695652,4,2,1,80,1,1
147571,-86.9565217391304,4,2,1,80,0,1
147788,431.654676258992,4,2,1,80,1,1
147788,-86.9565217391304,4,2,1,80,0,1
148651,400,4,2,1,80,1,1
148651,-86.9565217391304,4,2,1,80,0,1
149051,394.736842105263,4,2,1,80,1,1
149051,-86.9565217391304,4,2,1,80,0,1
149473,434.782608695652,4,2,1,80,1,1
149473,-86.9565217391304,4,2,1,80,0,1
150342,425.531914893617,4,2,1,80,1,1
150342,-86.9565217391304,4,2,1,80,0,1
151193,444.444444444444,4,2,1,80,1,1
151193,-86.9565217391304,4,2,1,80,0,1
151637,413.793103448276,4,2,1,80,1,1
151637,-86.9565217391304,4,2,1,80,0,1
152464,437.956204379562,4,2,1,80,1,1
152464,-86.9565217391304,4,2,1,80,0,1
153230,-86.9565217391304,4,2,1,5,0,1
153339,425.531914893617,4,2,1,80,1,1
153339,-86.9565217391304,4,2,1,80,0,1
153870,-86.9565217391304,4,2,1,5,0,1
153977,-86.9565217391304,4,2,1,80,0,1
154190,361.44578313253,4,2,1,80,1,1
154190,-86.9565217391304,4,2,1,80,0,1
154370,461.538461538461,4,2,1,80,1,1
154370,-86.9565217391304,4,2,1,80,0,1
154600,424.028268551237,4,2,1,80,1,1
154600,-86.9565217391304,4,2,1,80,0,1
155024,402.684563758389,4,2,1,80,1,1
155024,-86.9565217391304,4,2,1,80,0,1
155829,419.58041958042,4,2,1,80,1,1
155829,-86.9565217391304,4,2,1,80,0,1
156563,-86.9565217391304,4,2,1,5,0,1
156668,431.654676258993,4,2,1,80,1,1
156668,-86.9565217391304,4,2,1,80,0,1
157207,-86.9565217391304,4,2,1,5,0,1
157315,-86.9565217391304,4,2,1,80,0,1
157531,400,4,2,1,80,1,1
157531,-86.9565217391304,4,2,1,80,0,1
157731,463.320463320464,4,2,1,80,1,1
157731,-86.9565217391304,4,2,1,80,0,1
157962,432.432432432433,4,2,1,80,1,1
157962,-86.9565217391304,4,2,1,80,0,1
158286,-86.9565217391304,4,2,1,5,0,1
158394,422.535211267606,4,2,1,80,1,1
158394,-86.9565217391304,4,2,1,80,0,1
158922,-86.9565217391304,4,2,1,5,0,1
159027,-86.9565217391304,4,2,1,80,0,1
160612,-86.9565217391304,4,2,1,5,0,1
160717,-86.9565217391304,4,2,1,80,0,1
160929,384.615384615385,4,2,1,80,1,1
160929,-86.9565217391304,4,2,1,80,0,1
161121,436.363636363637,4,2,1,80,1,1
161121,-86.9565217391304,4,2,1,80,0,1
161339,434.782608695652,4,2,1,80,1,1
161339,-86.9565217391304,4,2,1,80,0,1
161773,397.350993377483,4,2,1,80,1,1
161773,-86.9565217391304,4,2,1,80,0,1
162170,410.958904109589,4,2,1,80,1,1
162170,-86.9565217391304,4,2,1,80,0,1
162580,384.615384615385,4,2,1,80,1,1
162580,-86.9565217391304,4,2,1,80,0,1
162991,441.176470588235,4,2,1,80,1,1
162991,-86.9565217391304,4,2,1,80,0,1
163432,416.666666666667,4,2,1,80,1,1
163432,-86.9565217391304,4,2,1,80,0,1
164265,419.58041958042,4,2,1,80,1,1
164265,-86.9565217391304,4,2,1,80,0,1
165523,416.666666666667,4,2,1,80,1,1
165523,-86.9565217391304,4,2,1,80,0,1
166356,419.58041958042,4,2,1,80,1,1
166356,-86.9565217391304,4,2,1,80,0,1
166670,-86.9565217391304,4,2,1,5,0,1
166775,-86.9565217391304,4,2,1,80,0,1
167300,-86.9565217391304,4,2,1,5,0,1
167404,-86.9565217391304,4,2,1,80,0,1
168034,434.782608695652,4,2,1,80,1,1
168034,-86.9565217391304,4,2,1,80,0,1
168468,441.176470588235,4,2,1,80,1,1
168468,-86.9565217391304,4,2,1,80,0,1
168909,419.58041958042,4,2,1,80,1,1
168909,-86.9565217391304,4,2,1,80,0,1
169643,419.58041958042,4,2,1,80,1,1
169643,-86.9565217391304,4,2,1,80,0,1
170901,387.096774193549,4,2,1,80,1,1
170901,-86.9565217391304,4,2,1,80,0,1
171288,425.531914893617,4,2,1,80,1,1
171288,-86.9565217391304,4,2,1,80,0,1
171607,-86.9565217391304,4,2,1,5,0,1
171713,419.58041958042,4,2,1,80,1,1
171713,-86.9565217391304,4,2,1,80,0,1
172971,410.958904109589,4,2,1,80,1,1
172971,-86.9565217391304,4,2,1,80,0,1
173792,400,4,2,1,80,1,1
173792,-86.9565217391304,4,2,1,80,0,1
174192,372.670807453416,4,2,1,80,1,1
174192,-86.9565217391304,4,2,1,80,0,1
174378,472.44094488189,4,2,1,80,1,1
174378,-86.9565217391304,4,2,1,80,0,1
174614,411.663807890223,4,2,1,80,1,1
174614,-86.9565217391304,4,2,1,80,0,1
175025,392.156862745098,4,2,1,80,1,1
175025,-86.9565217391304,4,2,1,80,0,1
176201,408.163265306123,4,2,1,80,1,1
176201,-86.9565217391304,4,2,1,80,0,1
177833,451.127819548873,4,2,1,80,1,1
177833,-86.9565217391304,4,2,1,80,0,1
178171,-86.9565217391304,4,2,1,5,0,1
178284,416.666666666667,4,2,1,80,1,1
178284,-86.9565217391304,4,2,1,80,0,1
178804,-86.9565217391304,4,2,1,5,0,1
178909,-86.9565217391304,4,2,1,80,0,1
179117,402.684563758389,4,2,1,80,1,1
179117,-86.9565217391304,4,2,1,80,0,1
179318,433.996383363472,4,2,1,80,1,1
179318,-86.9565217391304,4,2,1,80,0,1
179534,405.405405405406,4,2,1,80,1,1
179939,437.956204379563,4,2,1,80,1,1
180376,451.127819548873,4,2,1,80,1,1
181278,472.44094488189,4,2,1,80,1,1
181278,-80,4,2,1,80,0,1
183167,426.287744227354,4,2,1,70,1,0
188282,392.156862745098,4,2,1,60,1,0
188282,-200,4,2,1,60,0,0
188674,476.190476190476,4,2,1,71,1,0
188674,-80,4,2,1,71,0,0
189626,446.096654275093,4,2,1,71,1,0
189626,-80,4,2,1,71,0,0
190072,466.019417475728,4,2,1,71,1,0
190072,-80,4,2,1,71,0,0
190538,406.779661016949,4,2,1,70,1,0
195419,-133.333333333333,4,2,1,65,0,0
195826,476.190476190477,4,2,1,65,1,0
195826,-133.333333333333,4,2,1,65,0,0
196064,480,4,2,1,71,1,0
196064,-80,4,2,1,71,0,0
197024,455.698509865873,4,2,1,71,1,0
197024,-80,4,2,1,71,0,0
197137,428.571428571429,4,2,1,71,1,0
197137,-80,4,2,1,71,0,0
197351,512.820512820513,4,2,1,71,1,0
197351,-80,4,2,1,71,0,0
197479,445.269016697588,4,2,1,71,1,0
197479,-80,4,2,1,71,0,0
197924,458.015267175573,4,2,1,71,1,0
198267,-100,4,2,1,5,0,0
198382,442.804428044281,4,2,1,71,1,0
198935,-100,4,2,1,5,0,0
199046,-100,4,2,1,71,0,0
199267,375,4,2,1,71,1,0
199454,427.046263345196,4,2,1,71,1,0
199667,444.444444444445,4,2,1,71,1,0
200000,-100,4,2,1,5,0,0
200111,-100,4,2,1,71,0,0
200555,425.531914893617,4,2,1,71,1,0
200980,372.670807453416,4,2,1,71,1,0
201166,480,4,2,1,71,1,0
201406,441.176470588236,4,2,1,71,1,0
201736,-100,4,2,1,5,0,0
201847,-100,4,2,1,71,0,0
202067,-99.009900990099,4,2,1,71,0,0
202288,422.535211267606,4,2,1,71,1,0
202393,-100,4,2,1,5,0,0
202499,-100,4,2,1,71,0,0
202710,377.358490566038,4,2,1,71,1,0
202898,451.127819548872,4,2,1,71,1,0
203123,425.531914893617,4,2,1,71,1,0
203548,338.983050847458,4,2,1,71,1,0
203717,427.046263345196,4,2,1,71,1,0
203930,397.350993377484,4,2,1,71,1,0
204724,422.535211267606,4,2,1,71,1,0
205040,-100,4,2,1,5,0,0
205146,-100,4,2,1,71,0,0
205674,-100,4,2,1,5,0,0
205780,-100,4,2,1,71,0,0
205991,389.61038961039,4,2,1,71,1,0
206185,458.015267175573,4,2,1,71,1,0
206414,454.545454545455,4,2,1,71,1,0
206754,-100,4,2,1,5,0,0
206868,434.782608695653,4,2,1,71,1,0
207737,375,4,2,1,71,1,0
207924,452.830188679246,4,2,1,71,1,0
208150,441.176470588235,4,2,1,71,1,0
208480,-100,4,2,1,5,0,0
208591,428.571428571429,4,2,1,71,1,0
209126,-100,4,2,1,5,0,0
209233,-100,4,2,1,71,0,0
209448,372.670807453416,4,2,1,71,1,0
209634,454.545454545455,4,2,1,71,1,0
209861,425.531914893617,4,2,1,71,1,0
210286,392.156862745098,4,2,1,71,1,0
211462,444.444444444445,4,2,1,71,1,0
211795,-100,4,2,1,5,0,0
211906,-100,4,2,1,71,0,0
212462,-100,4,2,1,5,0,0
212573,-100,4,2,1,71,0,0
212795,375,4,2,1,71,1,0
212982,415.22491349481,4,2,1,71,1,0
213189,441.176470588235,4,2,1,71,1,0
213519,-100,4,2,1,5,0,0
213630,433.212996389891,4,2,1,71,1,0
214496,375,4,2,1,71,1,0
214683,427.046263345196,4,2,1,71,1,0
214896,422.535211267605,4,2,1,71,1,0
215318,419.580419580419,4,2,1,71,1,0
216157,415.224913494809,4,2,1,71,1,0
216987,397.350993377483,4,2,1,71,1,0
217384,404.040404040404,4,2,1,71,1,0
217788,384.615384615384,4,2,1,71,1,0
217980,425.531914893617,4,2,1,71,1,0
218192,441.176470588235,4,2,1,71,1,0
218522,-100,4,2,1,5,0,0
218633,442.80442804428,4,2,1,71,1,0
219186,-100,4,2,1,5,0,0
219297,-100,4,2,1,71,0,0
219518,365.853658536585,4,2,1,71,1,0
219700,480,4,2,1,71,1,0
219940,431.654676258993,4,2,1,71,1,0
220263,-100,4,2,1,5,0,0
220371,-100,4,2,1,71,0,0
221234,392.156862745098,4,2,1,71,1,0
221430,447.761194029851,4,2,1,71,1,0
221653,451.127819548872,4,2,1,71,1,0
221991,-100,4,2,1,5,0,0
222104,416.666666666666,4,2,1,71,1,0
222312,-101.317122593718,4,2,1,71,0,0
222520,437.956204379562,4,2,1,71,1,0
222629,-100,4,2,1,5,0,0
222738,-100,4,2,1,71,0,0
222957,408.163265306122,4,2,1,71,1,0
223365,382.165605095541,4,2,1,71,1,0
223747,405.405405405405,4,2,1,71,1,0
224557,441.176470588235,4,2,1,71,1,0
224998,476.190476190475,4,2,1,71,1,0
224998,-117.647058823529,4,2,1,71,0,0
225355,-117.647058823529,4,2,1,5,0,0
225474,444.444444444444,4,2,1,71,1,0
225474,-117.647058823529,4,2,1,71,0,0
226029,-117.647058823529,4,2,1,5,0,0
226140,-117.647058823529,4,2,1,71,0,0
226362,441.176470588235,4,2,1,71,1,0
226362,-117.647058823529,4,2,1,71,0,0
227464,-116.279069767442,4,2,1,71,0,0
227685,422.535211267605,4,2,1,71,1,0
227685,-117.647058823529,4,2,1,71,0,0
227790,-117.647058823529,4,2,1,5,0,0
227896,-117.647058823529,4,2,1,71,0,0
228107,454.545454545454,4,2,1,71,1,0
228107,-117.647058823529,4,2,1,71,0,0
228561,479.999999999999,4,2,1,71,1,0
228561,-117.647058823529,4,2,1,71,0,0
228921,-117.647058823529,4,2,1,5,0,0
229041,441.176470588235,4,2,1,71,1,0
229041,-117.647058823529,4,2,1,71,0,0
229592,-117.647058823529,4,2,1,5,0,0
229702,-117.647058823529,4,2,1,71,0,0
230364,466.92607003891,4,2,1,71,1,0
230364,-80,4,2,1,71,0,0
232231,476.190476190475,4,2,1,71,1,0
232231,-117.647058823529,4,2,1,71,0,0
232707,451.127819548871,4,2,1,71,1,0
232707,-117.647058823529,4,2,1,71,0,0
233270,-117.647058823529,4,2,1,5,0,0
233383,-117.647058823529,4,2,1,71,0,0
233609,444.444444444444,4,2,1,71,1,0
233609,-117.647058823529,4,2,1,71,0,0
234053,437.956204379561,4,2,1,71,1,0
234053,-117.647058823529,4,2,1,71,0,0
235038,-117.647058823529,4,2,1,5,0,0
235147,-117.647058823529,4,2,1,71,0,0
235366,458.015267175572,4,2,1,71,1,0
235366,-117.647058823529,4,2,1,71,0,0
235824,476.190476190475,4,2,1,71,1,0
235824,-117.647058823529,4,2,1,71,0,0
236181,-117.647058823529,4,2,1,5,0,0
236300,437.956204379561,4,2,1,71,1,0
236300,-117.647058823529,4,2,1,71,0,0
236847,-117.647058823529,4,2,1,5,0,0
236956,-117.647058823529,4,2,1,71,0,0
237613,470.588235294117,4,2,1,71,1,0
237613,-80,4,2,1,71,0,0
239495,461.538461538461,4,2,1,71,1,0
239495,-80,4,2,1,71,0,0
240418,499.999999999999,4,2,1,71,1,0
240418,-80,4,2,1,71,0,0
240543,479.999999999999,4,2,1,71,1,0
240543,-80,4,2,1,71,0,0
240783,387.096774193548,4,2,1,71,1,0
240783,-80,4,2,1,71,0,0
240879,461.538461538461,4,2,1,71,1,0
240879,-80,4,2,1,71,0,0
241341,411.663807890223,4,2,1,71,1,0
241855,-200,4,2,1,71,0,0
242164,423.280423280423,4,2,1,71,1,0
242164,-200,4,2,1,71,0,0
242587,405.405405405405,4,2,1,71,1,0
242789,515.021459227467,4,2,1,71,1,0
243046,441.176470588236,4,2,1,80,1,1
243046,-86.9565217391304,4,2,1,80,0,1
243487,454.545454545455,4,2,1,80,1,1
243487,-86.9565217391304,4,2,1,80,0,1
244055,-86.9565217391304,4,2,1,5,0,1
244168,-86.9565217391304,4,2,1,80,0,1
244396,392.156862745098,4,2,1,80,1,1
244396,-86.9565217391304,4,2,1,80,0,1
244592,465.116279069768,4,2,1,80,1,1
244592,-86.9565217391304,4,2,1,80,0,1
244824,428.571428571429,4,2,1,80,1,1
244824,-86.9565217391304,4,2,1,80,0,1
245146,-86.9565217391304,4,2,1,5,0,1
245253,419.58041958042,4,2,1,80,1,1
245253,-86.9565217391304,4,2,1,80,0,1
245777,-86.9565217391304,4,2,1,5,0,1
245882,-86.9565217391304,4,2,1,80,0,1
246092,441.176470588236,4,2,1,80,1,1
246092,-86.9565217391304,4,2,1,80,0,1
246974,431.654676258994,4,2,1,80,1,1
246974,-86.9565217391304,4,2,1,80,0,1
247513,-86.9565217391304,4,2,1,5,0,1
247621,-86.9565217391304,4,2,1,80,0,1
247837,382.165605095542,4,2,1,80,1,1
247837,-86.9565217391304,4,2,1,80,0,1
248028,463.320463320464,4,2,1,80,1,1
248028,-86.9565217391304,4,2,1,80,0,1
248259,422.535211267606,4,2,1,80,1,1
248259,-86.9565217391304,4,2,1,80,0,1
248576,-86.9565217391304,4,2,1,5,0,1
248682,410.95890410959,4,2,1,80,1,1
248682,-86.9565217391304,4,2,1,80,0,1
249503,387.096774193549,4,2,1,80,1,1
249503,-86.9565217391304,4,2,1,80,0,1
249890,441.176470588236,4,2,1,80,1,1
249890,-86.9565217391304,4,2,1,80,0,1
250331,416.666666666667,4,2,1,80,1,1
250331,-86.9565217391304,4,2,1,80,0,1
251164,422.535211267606,4,2,1,80,1,1
251164,-86.9565217391304,4,2,1,80,0,1
251586,437.956204379562,4,2,1,80,1,1
251586,-86.9565217391304,4,2,1,80,0,1
252023,408.163265306123,4,2,1,80,1,1
252023,-86.9565217391304,4,2,1,80,0,1
252839,451.127819548873,4,2,1,80,1,1
252839,-86.9565217391304,4,2,1,80,0,1
253290,441.176470588236,4,2,1,80,1,1
253290,-86.9565217391304,4,2,1,80,0,1
253620,-86.9565217391304,4,2,1,5,0,1
253731,434.782608695653,4,2,1,80,1,1
253731,-86.9565217391304,4,2,1,80,0,1
254274,-86.9565217391304,4,2,1,5,0,1
254383,-86.9565217391304,4,2,1,80,0,1
254600,363.636363636364,4,2,1,80,1,1
254600,-86.9565217391304,4,2,1,80,0,1
254781,465.116279069768,4,2,1,80,1,1
254781,-86.9565217391304,4,2,1,80,0,1
255013,434.782608695653,4,2,1,80,1,1
255013,-86.9565217391304,4,2,1,80,0,1
255447,394.736842105263,4,2,1,80,1,1
255447,-86.9565217391304,4,2,1,80,0,1
256236,441.176470588236,4,2,1,80,1,1
256236,-86.9565217391304,4,2,1,80,0,1
257008,-86.9565217391304,4,2,1,5,0,1
257118,-86.9565217391304,4,2,1,80,0,1
257669,-86.9565217391304,4,2,1,5,0,1
257780,-86.9565217391304,4,2,1,80,0,1
258000,379.746835443039,4,2,1,80,1,1
258000,-86.9565217391304,4,2,1,80,0,1
258189,449.438202247191,4,2,1,80,1,1
258189,-86.9565217391304,4,2,1,80,0,1
258413,444.444444444445,4,2,1,80,1,1
258413,-86.9565217391304,4,2,1,80,0,1
258746,-86.9565217391304,4,2,1,5,0,1
258857,408.163265306123,4,2,1,80,1,1
258857,-86.9565217391304,4,2,1,80,0,1
259367,-86.9565217391304,4,2,1,5,0,1
259469,-86.9565217391304,4,2,1,80,0,1
259673,444.444444444445,4,2,1,80,1,1
259673,-86.9565217391304,4,2,1,80,0,1
260561,434.782608695653,4,2,1,80,1,1
260561,-86.9565217391304,4,2,1,80,0,1
261104,-86.9565217391304,4,2,1,5,0,1
261213,-86.9565217391304,4,2,1,80,0,1
261430,357.142857142858,4,2,1,80,1,1
261430,-86.9565217391304,4,2,1,80,0,1
261608,454.545454545455,4,2,1,80,1,1
261608,-86.9565217391304,4,2,1,80,0,1
261835,428.571428571429,4,2,1,80,1,1
261835,-86.9565217391304,4,2,1,80,0,1
262156,-86.9565217391304,4,2,1,5,0,1
262263,405.405405405406,4,2,1,80,1,1
262263,-86.9565217391304,4,2,1,80,0,1
263073,413.793103448277,4,2,1,80,1,1
263073,-86.9565217391304,4,2,1,80,0,1
263486,434.782608695653,4,2,1,80,1,1
263486,-86.9565217391304,4,2,1,80,0,1
263920,413.793103448277,4,2,1,80,1,1
263920,-86.9565217391304,4,2,1,80,0,1
265575,419.58041958042,4,2,1,80,1,1
265575,-86.9565217391304,4,2,1,80,0,1
265994,405.405405405406,4,2,1,80,1,1
265994,-86.9565217391304,4,2,1,80,0,1
266804,444.444444444445,4,2,1,80,1,1
266804,-86.9565217391304,4,2,1,80,0,1
267137,-86.9565217391304,4,2,1,5,0,1
267248,-86.9565217391304,4,2,1,80,0,1
267470,-84.8176420695505,4,2,1,80,0,1
267692,408.163265306123,4,2,1,80,1,1
267692,-86.9565217391304,4,2,1,80,0,1
267794,-86.9565217391304,4,2,1,5,0,1
267896,-86.9565217391304,4,2,1,80,0,1
268916,384.615384615385,4,2,1,80,1,1
268916,-86.9565217391304,4,2,1,80,0,1
269685,434.782608695653,4,2,1,80,1,1
269685,-86.9565217391304,4,2,1,80,0,1
270119,422.535211267606,4,2,1,80,1,1
270119,-86.9565217391304,4,2,1,80,0,1
272126,-86.9565217391304,4,2,1,5,0,1
272231,-86.9565217391304,4,2,1,80,0,1
272654,413.793103448276,4,2,1,80,1,1
272654,-86.9565217391304,4,2,1,80,0,1
272757,-86.9565217391304,4,2,1,5,0,1
272860,-86.9565217391304,4,2,1,80,0,1
273067,434.782608695653,4,2,1,80,1,1
273067,-86.9565217391304,4,2,1,80,0,1
273936,422.535211267606,4,2,1,80,1,1
273936,-86.9565217391304,4,2,1,80,0,1
274781,379.746835443038,4,2,1,80,1,1
274781,-86.9565217391304,4,2,1,80,0,1
274970,442.804428044281,4,2,1,80,1,1
274970,-86.9565217391304,4,2,1,80,0,1
275191,454.545454545455,4,2,1,80,1,1
275191,-86.9565217391304,4,2,1,80,0,1
275645,385.852090032155,4,2,1,80,1,1
275645,-86.9565217391304,4,2,1,80,0,1
276416,422.535211267606,4,2,1,80,1,1
276416,-86.9565217391304,4,2,1,80,0,1
277261,408.163265306123,4,2,1,80,1,1
277261,-86.9565217391304,4,2,1,80,0,1
278077,359.281437125749,4,2,1,80,1,1
278077,-86.9565217391304,4,2,1,80,0,1
278256,458.015267175573,4,2,1,80,1,1
278256,-86.9565217391304,4,2,1,80,0,1
278485,446.096654275093,4,2,1,80,1,1
278485,-86.9565217391304,4,2,1,80,0,1
278819,-86.9565217391304,4,2,1,5,0,1
278931,422.535211267606,4,2,1,80,1,1
278931,-86.9565217391304,4,2,1,80,0,1
279459,-86.9565217391304,4,2,1,5,0,1
279564,-86.9565217391304,4,2,1,80,0,1
279776,422.535211267606,4,2,1,80,1,1
279776,-86.9565217391304,4,2,1,80,0,1
280198,-100,4,2,1,80,0,1
280621,442.804428044281,4,2,1,80,1,1
281949,491.803278688525,4,2,1,80,1,1
281949,-80,4,2,1,80,0,1
282932,439.56043956044,4,2,1,80,1,1
282932,-80,4,2,1,80,0,1
283371,468.75,4,2,1,80,1,1
283371,-80,4,2,1,80,0,1
283839,-66.6666666666667,4,2,1,80,0,0

[Colours]
Combo1 : 235,232,118
Combo2 : 197,216,243
Combo3 : 203,188,196
Combo4 : 255,215,179
Combo5 : 214,213,201
Combo6 : 240,191,251

[HitObjects]
201,21,1162,6,0,B|143:-14|70:23|141:139|-54:108,2,210.000000858307,4|0|8,1:2|0:0|0:0,0:0:0:0:
234,178,1831,2,0,B|224:71|300:117|295:8,2,174.999994039536,0|0|0,1:0|0:0|1:0,0:0:0:0:
388,189,2485,2,0,P|354:179|326:158,1,69.9999976158143,8|0,0:0|0:0,0:0:0:0:
395,96,2676,1,0,1:0:0:0:
494,245,2868,6,0,B|419:200|344:233|318:271|331:332,2,210.000000858307,4|0|8,1:2|0:0|0:0,0:0:0:0:
230,359,3534,2,0,P|319:329|405:362,2,174.999994039536,0|0|0,1:0|0:0|1:0,0:0:0:0:
193,205,4179,2,0,P|213:233|215:284,1,69.9999976158143,8|0,0:0|0:0,0:0:0:0:
204,378,4381,1,0,1:0:0:0:
36,187,4584,6,0,B|145:184|102:148|156:83|255:134,1,210.000000858307,4|0,1:2|0:0,0:0:0:0:
249,138,4914,1,0,1:0:0:0:
272,161,5025,1,8,0:0:0:0:
53,100,5234,2,0,P|126:45|296:66,1,262.499991059303,0|0,1:0|0:0,0:0:0:0:
311,47,5654,1,0,1:0:0:0:
454,115,5864,2,0,P|404:126|379:152,1,69.9999976158143,8|0,0:0|0:0,0:0:0:0:
451,208,6066,1,0,1:0:0:0:
237,292,6269,6,0,B|204:207|425:190|339:351|509:291,1,315.000001287461,4|0,1:2|0:0,0:0:0:0:
511,320,6679,1,8,0:0:0:0:
319,373,6885,1,0,1:0:0:0:
319,373,7090,1,0,1:0:0:0:
451,208,7286,1,8,0:0:0:0:
273,147,7483,1,0,1:0:0:0:
258,132,7581,1,8,0:0:0:0:
279,104,7680,1,8,0:0:0:0:
281,69,7778,1,8,0:0:0:0:
254,7,7876,38,0,B|171:-11|146:43|177:144|24:118,2,210.000000858307,4|0|8,1:2|0:0|0:0,0:0:0:0:
16,171,8513,2,0,P|6:87|67:29,2,174.999994039536,0|0|0,1:0|0:0|1:0,0:0:0:0:
145,165,9134,2,0,P|125:137|95:117,1,69.9999976158143,8|0,0:0|0:0,0:0:0:0:
85,253,9341,1,0,1:0:0:0:
240,104,9548,6,0,B|151:184|150:250|228:287,2,210.000000858307,4|0|8,1:2|0:0|0:0,0:0:0:0:
327,289,10169,2,0,P|230:300|179:373,2,174.999994039536,0|0|0,1:0|0:0|1:0,0:0:0:0:
512,245,10789,2,0,P|487:272|437:285,1,69.9999976158143,8|0,0:0|0:0,0:0:0:0:
352,267,10996,1,0,1:0:0:0:
336,34,11203,6,0,B|445:19|493:78|475:148,1,210.000000858307,4|0,1:2|0:0,0:0:0:0:
453,158,11524,1,0,0:0:0:0:
421,167,11631,1,8,0:0:0:0:
220,12,11836,2,0,B|135:-16|68:44|139:124|36:162,1,262.499991059303,0|0,1:0|0:0,0:0:0:0:
16,156,12247,1,0,1:0:0:0:
200,252,12452,2,0,P|210:217|210:168,1,69.9999976158143,8|0,0:0|0:0,0:0:0:0:
190,96,12658,1,0,1:0:0:0:
109,330,12863,6,0,B|229:345|190:242|314:259,1,210.000000858307,4|0,1:2|0:0,0:0:0:0:
326,262,13169,1,0,1:0:0:0:
356,277,13271,2,0,L|371:386,1,105.000000429154,8|0,0:0|0:0,0:0:0:0:
480,218,13458,2,0,L|466:317,2,70.0000002861023,8|8|8,0:0|0:0|0:0,0:0:0:0:
506,180,13646,5,8,0:0:0:0:
454,186,13739,1,8,0:0:0:0:
411,153,13833,1,8,0:0:0:0:
360,146,13926,1,8,0:0:0:0:
327,103,14021,1,8,0:0:0:0:
279,82,14119,1,8,0:0:0:0:
257,31,14218,1,8,0:0:0:0:
216,0,14317,1,8,0:0:0:0:
168,20,14415,22,0,B|115:3|67:51|57:162,1,174.999994039536,4|0,1:2|0:0,0:0:0:0:
179,167,14721,2,0,B|141:125|76:143|11:234,1,174.999994039536,8|0,0:0|0:0,0:0:0:0:
130,260,15027,2,0,B|141:314|207:331|308:285,1,174.999994039536,0|0,1:0|0:0,0:0:0:0:
392,345,15333,1,8,0:0:0:0:
414,308,15435,2,0,L|488:295,2,58.3333313465119,0|0|0,1:0|0:0|0:0,0:0:0:0:
349,230,15639,1,8,0:0:0:0:
335,170,15741,1,8,0:0:0:0:
359,133,15843,1,0,1:0:0:0:
360,89,15945,1,0,1:0:0:0:
393,61,16047,6,0,B|300:26|314:110|211:74,1,174.999994039536,4|0,1:2|0:0,0:0:0:0:
79,126,16349,2,0,B|175:108|147:188|255:170,1,174.999994039536,8|0,0:0|0:0,0:0:0:0:
100,217,16651,2,0,B|117:313|37:285|55:393,1,174.999994039536,0|0,1:2|0:0,0:0:0:0:
164,372,16953,1,8,0:0:0:0:
198,345,17053,2,0,L|287:325,2,58.3333313465119,0|0|0,1:0|0:0|0:0,0:0:0:0:
290,249,17255,1,8,0:0:0:0:
347,270,17355,1,8,0:0:0:0:
382,244,17456,1,0,1:0:0:0:
425,239,17557,1,0,1:0:0:0:
477,268,17657,6,0,B|498:173|409:204|429:97,1,174.999994039536,4|0,1:2|0:0,0:0:0:0:
479,34,17959,1,8,0:0:0:0:
479,34,18060,1,2,0:0:0:0:
223,56,18261,2,0,P|298:127|340:86,1,174.999994039536,0|0,1:0|0:0,0:0:0:0:
386,24,18544,1,8,0:0:0:0:
386,24,18638,2,0,P|345:9|303:18,1,87.4999970197678,0|0,1:0|0:0,0:0:0:0:
138,127,18848,1,8,0:0:0:0:
119,185,18953,1,8,0:0:0:0:
80,205,19058,1,0,1:0:0:0:
89,247,19163,1,0,1:0:0:0:
64,306,19268,6,0,B|16:295|-27:234|3:149,1,174.999994039536,4|0,1:2|0:0,0:0:0:0:
52,89,19568,1,8,0:0:0:0:
52,89,19668,1,2,0:0:0:0:
179,253,19868,2,0,B|189:301|250:344|335:314,1,174.999994039536,0|0,1:0|0:0,0:0:0:0:
395,263,20168,1,8,0:0:0:0:
395,263,20268,2,0,P|413:308|402:362,1,87.4999970197678,0|0,1:0|0:0,0:0:0:0:
280,211,20468,1,8,0:0:0:0:
306,155,20568,1,8,0:0:0:0:
286,115,20668,1,0,1:0:0:0:
278,71,20768,1,0,1:0:0:0:
302,16,20868,38,0,B|353:-2|407:32|364:114|485:123,1,174.999994039536,4|0,1:2|0:0,0:0:0:0:
383,226,21173,2,0,B|436:202|422:142|462:118|512:132,1,174.999994039536,8|0,0:0|0:0,0:0:0:0:
337,311,21478,2,0,B|283:287|297:227|257:203|207:217,1,174.999994039536,0|0,1:0|0:0,0:0:0:0:
149,295,21763,1,8,0:0:0:0:
119,322,21884,2,0,L|22:330,2,58.3333313465119,0|0|0,1:0|0:0|0:0,0:0:0:0:
79,230,22087,1,8,0:0:0:0:
52,174,22189,1,8,0:0:0:0:
70,134,22291,1,0,1:0:0:0:
65,90,22393,1,0,1:0:0:0:
106,44,22495,6,0,B|219:29|262:77|264:154,1,174.999994039536,4|0,1:2|0:0,0:0:0:0:
327,172,22797,2,0,B|353:164|374:103|307:17,1,174.999994039536,8|0,0:0|0:0,0:0:0:0:
261,236,23099,2,0,B|281:255|344:242|385:142,1,174.999994039536,0|0,1:0|0:0,0:0:0:0:
425,33,23401,1,8,0:0:0:0:
464,15,23501,2,0,L|531:2,2,58.3333313465119,0|0|0,1:0|0:0|0:0,0:0:0:0:
484,120,23703,1,8,0:0:0:0:
470,179,23803,1,8,0:0:0:0:
496,214,23904,1,0,1:0:0:0:
506,256,24005,1,0,1:0:0:0:
487,313,24105,6,0,B|459:301|406:313|443:371|388:389|336:373,1,174.999994039536,4|0,1:2|0:0,0:0:0:0:
254,335,24411,1,8,0:0:0:0:
254,335,24507,2,0,P|204:352|154:339,1,87.4999970197678,2|0,0:0|0:0,0:0:0:0:
12,244,24701,2,0,B|73:246|105:194|64:94,1,174.999994039536,0|0,1:0|0:0,0:0:0:0:
34,22,25013,1,8,0:0:0:0:
34,22,25106,2,0,P|82:13|121:28,1,87.4999970197678,0|0,1:0|0:0,0:0:0:0:
190,203,25291,1,8,0:0:0:0:
295,77,25495,2,0,L|304:14,2,58.3333313465119,0|0|0,1:0|0:0|0:0,0:0:0:0:
372,126,25699,21,8,0:0:0:0:
394,158,25796,1,8,0:0:0:0:
436,162,25893,1,8,0:0:0:0:
444,205,25990,1,8,0:0:0:0:
480,227,26088,1,8,0:0:0:0:
470,267,26185,1,8,0:0:0:0:
493,303,26283,1,8,0:0:0:0:
467,335,26380,1,8,0:0:0:0:
472,379,26499,22,0,L|399:363,1,69.9999976158143,8|0,1:2|1:0,0:0:0:0:
277,302,26697,2,0,L|204:318,1,69.9999976158143,0|0,1:0|1:0,0:0:0:0:
113,265,26896,2,0,L|98:196,1,69.9999976158143,0|0,1:2|1:0,0:0:0:0:
147,126,27095,2,0,L|161:57,1,69.9999976158143,0|0,1:0|1:0,0:0:0:0:
142,29,27299,5,4,1:2:0:0:
454,309,32129,70,0,L|462:384,1,69.9999976158143,2|0,0:0|0:0,0:0:0:0:
352,287,32475,1,0,1:0:0:0:
352,287,32590,54,0,B|358:248|389:227|389:227|408:168|355:115,1,174.999994039536,12|0,0:2|1:0,0:0:0:0:
289,76,32934,2,0,P|361:33|441:62,1,174.999994039536,10|0,0:2|1:0,0:0:0:0:
283,173,33279,2,0,B|224:190|224:190|197:125|118:127,1,174.999994039536,10|0,0:0|1:0,0:0:0:0:
135,225,33624,2,0,B|61:291|59:360|118:398,1,174.999994039536,10|0,0:0|1:0,0:0:0:0:
50,175,33969,5,8,0:0:0:0:
18,122,34084,1,8,0:0:0:0:
41,85,34199,1,0,1:0:0:0:
51,41,34314,1,0,1:0:0:0:
11,16,34415,5,4,1:2:0:0:
304,255,39121,86,0,L|353:244,1,26.2500001072884,8|8,0:0|0:0,0:0:0:0:
414,142,39332,1,8,0:0:0:0:
361,139,39437,1,8,0:0:0:0:
309,136,39543,2,0,L|216:156,1,52.5000002145768,2|0,1:2|0:0,0:0:0:0:
56,40,39765,54,0,B|97:-9|158:20|141:103|248:55,1,174.999994039536,8|0,0:2|1:0,0:0:0:0:
97,129,40123,2,0,B|53:159|53:159|17:222|69:288,1,174.999994039536,10|0,0:0|1:0,0:0:0:0:
217,324,40482,2,0,B|122:342|149:253|47:276,1,174.999994039536,10|0,0:0|1:0,0:0:0:0:
201,236,40840,2,0,P|290:270|307:342,1,174.999994039536,10|0,0:0|1:0,0:0:0:0:
444,380,41199,5,8,0:0:0:0:
484,333,41314,1,8,0:0:0:0:
464,293,41430,1,0,1:0:0:0:
460,249,41545,1,0,1:0:0:0:
411,229,41661,6,0,B|352:197|346:119|443:130|391:25,1,209.999992847443,4|0,1:2|0:0,0:0:0:0:
374,18,42103,1,8,0:0:0:0:
162,50,42325,2,0,B|132:11|183:-28|287:-12|283:93,1,209.999992847443,0|0,1:0|0:0,0:0:0:0:
273,111,42768,1,0,1:0:0:0:
92,129,42989,2,0,B|36:135|4:177|4:177|0:142|37:115,1,139.999995231629,8|0,0:0|1:0,0:0:0:0:
12,141,43432,6,0,B|110:188|125:252|72:329,1,209.999992847443,0|0,1:0|0:0,0:0:0:0:
61,333,43875,1,8,0:0:0:0:
188,185,44096,1,0,1:0:0:0:
188,185,44533,1,0,1:0:0:0:
304,287,44750,2,0,B|322:381|322:381|292:365|296:326,1,139.999995231629,8|0,0:0|1:0,0:0:0:0:
296,346,45172,6,0,B|378:300|385:351|444:394|518:331,1,209.999992847443,0|0,1:0|0:0,0:0:0:0:
512,317,45602,1,8,0:0:0:0:
487,128,45817,2,0,B|439:101|439:101|367:161|420:250,1,209.999992847443,0|0,1:0|0:0,0:0:0:0:
440,265,46247,2,0,P|449:223|438:191,1,69.9999976158143,0|0,1:0|0:0,0:0:0:0:
321,116,46462,2,0,B|283:81|236:90|236:90|218:120|173:126,1,139.999995231629,8|0,0:0|1:0,0:0:0:0:
199,119,46884,6,0,B|157:96|157:96|144:45|192:11,1,139.999995231629,0|0,1:0|0:0,0:0:0:0:
283,8,47207,1,0,1:0:0:0:
320,3,47315,2,0,P|360:17|399:12,1,69.9999976158143,8|0,0:0|0:0,0:0:0:0:
437,99,47511,2,0,P|465:77|482:46,1,69.9999976158143,0|0,1:0|0:0,0:0:0:0:
486,12,47707,1,0,1:0:0:0:
321,116,47903,1,8,0:0:0:0:
394,208,48099,1,0,1:0:0:0:
404,241,48197,1,8,0:0:0:0:
390,273,48295,1,8,0:0:0:0:
400,306,48393,1,8,0:0:0:0:
386,338,48491,38,0,B|276:360|310:253|186:271,1,209.999992847443,4|0,1:2|0:0,0:0:0:0:
172,292,48916,1,8,0:0:0:0:
19,204,49129,2,0,B|42:153|42:153|102:215|58:296,1,209.999992847443,0|0,1:0|0:0,0:0:0:0:
34,319,49554,1,0,1:0:0:0:
143,137,49767,2,0,B|184:116|184:116|211:166|270:159,1,139.999995231629,8|0,0:0|1:0,0:0:0:0:
260,159,50180,6,0,B|287:107|278:38|217:11|151:32,1,209.999992847443,0|0,1:0|0:0,0:0:0:0:
134,45,50608,1,8,0:0:0:0:
106,221,50822,1,0,1:0:0:0:
106,221,51246,1,0,1:0:0:0:
244,333,51456,2,0,B|289:359|337:338|337:338|367:294,1,139.999995231629,8|0,0:0|1:0,0:0:0:0:
361,302,51884,6,0,B|340:242|340:242|260:200|183:258,1,209.999992847443,0|0,1:0|0:0,0:0:0:0:
177,273,52312,1,8,0:0:0:0:
296,138,52526,2,0,B|367:113|422:142|384:244|521:226,1,209.999992847443,0|0,1:0|0:0,0:0:0:0:
501,220,52949,2,0,P|510:178|513:139,1,69.9999976158143,0|0,1:0|0:0,0:0:0:0:
463,0,53157,2,0,B|429:40|450:97|450:97|476:49,1,139.999995231629,8|0,0:0|1:0,0:0:0:0:
467,64,53574,6,0,B|431:22|376:13|314:29,1,139.999995231629,0|0,1:0|0:0,0:0:0:0:
243,65,53870,1,0,1:0:0:0:
219,90,53968,2,0,P|179:108|138:113,1,69.9999976158143,10|0,0:0|0:0,0:0:0:0:
68,53,54168,2,0,L|57:-1,2,46.6666650772095,8|8|8,0:0|0:0|0:0,0:0:0:0:
16,134,54368,5,0,1:0:0:0:
11,161,54461,1,0,1:0:0:0:
29,181,54555,1,0,1:0:0:0:
34,208,54648,1,8,0:0:0:0:
10,251,54743,5,8,0:0:0:0:
0,298,54836,1,8,0:0:0:0:
23,314,54930,1,0,1:0:0:0:
28,341,55037,1,0,1:0:0:0:
78,370,55168,6,0,B|142:328|142:328|190:390|273:373,1,209.999992847443,4|0,1:2|0:0,0:0:0:0:
290,359,55605,1,8,0:0:0:0:
325,136,55824,2,0,B|285:94|207:118|212:257,1,209.999992847443,0|0,1:0|0:0,0:0:0:0:
230,277,56262,1,0,1:0:0:0:
126,152,56481,2,0,B|91:116|103:72|103:72|131:51|134:10,1,139.999995231629,8|0,0:0|1:0,0:0:0:0:
131,28,56897,6,0,B|57:3|-9:67|17:155,1,209.999992847443,0|0,1:0|0:0,0:0:0:0:
31,181,57338,1,8,0:0:0:0:
221,107,57558,1,0,1:0:0:0:
221,107,57988,1,0,1:0:0:0:
336,243,58198,2,0,B|384:262|384:262|411:223|464:224,1,139.999995231629,8|0,0:0|1:0,0:0:0:0:
459,223,58608,6,0,B|486:243|500:255|474:358,1,139.999995231629,0|0,1:0|0:0,0:0:0:0:
442,361,58916,1,0,1:0:0:0:
408,371,59018,1,8,0:0:0:0:
216,292,59224,2,0,B|246:305|264:311|340:237,1,139.999995231629,0|0,1:0|0:0,0:0:0:0:
379,162,59532,1,8,0:0:0:0:
364,130,59635,1,0,1:0:0:0:
199,38,59840,2,0,B|154:68|156:123|156:123|183:166,1,139.999995231629,8|0,0:0|1:0,0:0:0:0:
177,156,60251,6,0,B|165:211|108:230|32:196,1,139.999995231629,0|0,1:0|0:0,0:0:0:0:
38,184,60560,1,0,1:0:0:0:
38,184,60662,2,0,B|60:219|57:288|43:350,1,139.999995231629,8|0,0:0|0:0,0:0:0:0:
127,362,60971,1,0,1:0:0:0:
151,337,61073,1,8,0:0:0:0:
184,326,61171,1,0,1:0:0:0:
332,351,61366,1,0,1:0:0:0:
317,377,61463,1,0,1:0:0:0:
313,357,61565,1,0,1:0:0:0:
338,372,61667,1,8,0:0:0:0:
453,217,61871,38,0,B|416:189|345:190|351:293|249:261,1,209.999992847443,4|0,1:2|0:0,0:0:0:0:
235,245,62315,1,8,0:0:0:0:
96,98,62537,2,0,B|159:59|159:59|233:59|267:130,1,209.999992847443,0|0,1:0|0:0,0:0:0:0:
278,160,62973,1,0,1:0:0:0:
75,197,63187,2,0,B|17:188|13:132|13:132|23:157|48:168,1,139.999995231629,8|0,0:0|1:0,0:0:0:0:
39,163,63606,6,0,B|9:183|-29:237|35:369,1,209.999992847443,0|0,1:0|0:0,0:0:0:0:
60,370,64025,1,8,0:0:0:0:
166,181,64240,1,0,1:0:0:0:
166,181,64668,1,0,1:0:0:0:
52,0,64883,2,0,B|-5:8|-9:64|-9:64|0:39|25:28,1,139.999995231629,8|0,0:0|1:0,0:0:0:0:
16,33,65308,6,0,B|25:84|134:85|98:-8|225:35,1,209.999992847443,0|0,1:0|0:0,0:0:0:0:
222,56,65733,1,8,0:0:0:0:
275,257,65946,2,0,B|220:330|110:250|170:172,1,209.999992847443,0|0,1:0|0:0,0:0:0:0:
190,156,66371,2,0,P|230:157|262:179,1,69.9999976158143,0|0,1:0|0:0,0:0:0:0:
329,328,66585,2,0,B|368:358|409:343|409:343|433:320|473:325,1,139.999995231629,8|0,0:0|1:0,0:0:0:0:
458,324,66982,6,0,B|498:264|494:225|449:182,1,139.999995231629,0|0,1:0|0:0,0:0:0:0:
406,122,67280,1,0,1:0:0:0:
400,87,67379,1,8,0:0:0:0:
258,2,67578,2,0,L|245:70,1,69.9999976158143
173,140,67777,37,0,1:0:0:0:
141,156,67880,1,0,1:0:0:0:
109,143,67983,1,0,1:0:0:0:
77,159,68086,1,0,1:0:0:0:
42,151,68190,5,0,1:0:0:0:
50,167,68294,1,0,1:0:0:0:
43,183,68397,1,0,1:0:0:0:
51,199,68501,1,0,1:0:0:0:
19,241,68604,70,0,P|82:252|86:360,1,178.499997324944,4|0,1:2|0:0,0:0:0:0:
70,369,69076,2,0,P|42:373|4:368,1,59.4999991083145,0|0,1:0|0:0,0:0:0:0:
182,230,69312,2,0,B|215:250|215:250|273:248|301:194|279:130,1,178.499997324944,12|0,0:0|0:0,0:0:0:0:
274,124,69770,2,0,P|253:94|229:75,1,59.4999991083145,0|0,1:0|0:0,0:0:0:0:
365,244,69992,2,0,B|380:261|409:260|409:260|436:226|491:235,1,118.999998216629,8|0,0:0|1:0,0:0:0:0:
496,9,70414,6,0,P|471:22|452:48,1,59.4999991083145,0|0,1:0|0:0,0:0:0:0:
360,35,70625,2,0,P|358:63|371:92,1,59.4999991083145,2|0,0:0|1:0,0:0:0:0:
449,138,70837,1,2,0:0:0:0:
478,143,70951,1,0,1:0:0:0:
510,150,71066,2,0,P|493:213|478:331,1,178.499997324944,8|0,0:0|0:0,0:0:0:0:
488,353,71497,1,0,1:0:0:0:
365,244,71713,1,8,0:0:0:0:
317,233,71824,1,8,0:0:0:0:
286,250,71935,1,0,1:0:0:0:
251,253,72046,1,0,1:0:0:0:
210,228,72157,6,0,P|192:157|313:156,1,178.499997324944,4|0,1:2|0:0,0:0:0:0:
291,142,72618,1,0,1:0:0:0:
184,316,72849,2,0,B|108:315|146:261|85:191|-6:211,1,178.499997324944,12|0,0:0|0:0,0:0:0:0:
26,225,73298,1,0,1:0:0:0:
17,20,73517,2,0,P|58:34|49:126,1,118.999998216629,8|0,0:0|1:0,0:0:0:0:
58,117,73809,2,0,L|7:121,1,39.6666660722097,0|0,1:0|1:0,0:0:0:0:
142,159,73955,22,0,B|149:124|188:117|188:117|221:186|325:168,1,174.999994039536,8|0,0:0|1:0,0:0:0:0:
429,134,74310,2,0,B|395:146|357:124|357:124|334:80|274:75,1,174.999994039536,8|0,0:0|1:0,0:0:0:0:
274,171,74666,2,0,B|304:218|304:218|254:271|294:352,1,174.999994039536,8|0,0:0|1:0,0:0:0:0:
455,301,75022,2,0,B|491:259|491:259|374:286,1,174.999994039536,8|0,0:0|1:0,0:0:0:0:
284,328,75377,5,8,0:0:0:0:
228,302,75496,1,8,0:0:0:0:
195,331,75615,1,0,1:0:0:0:
151,337,75733,1,0,1:0:0:0:
108,310,75852,6,0,P|45:271|-8:323,1,118.999998216629,4|0,1:2|0:0,0:0:0:0:
41,377,76313,1,0,1:0:0:0:
165,216,76544,2,0,B|224:197|216:119|121:159|155:28,1,178.499997324944,12|0,0:0|0:0,0:0:0:0:
165,44,77005,2,0,P|200:44|241:69,1,59.4999991083145,0|0,1:0|0:0,0:0:0:0:
273,123,77236,2,0,P|308:122|349:98,1,59.4999991083145,8|0,0:0|0:0,0:0:0:0:
307,29,77448,1,0,1:0:0:0:
493,6,77661,6,0,P|508:27|511:78,1,59.4999991083145,0|0,1:0|0:0,0:0:0:0:
437,122,77874,2,0,P|422:143|419:194,1,59.4999991083145,2|0,0:0|1:0,0:0:0:0:
493,238,78087,1,2,0:0:0:0:
498,267,78193,1,0,1:0:0:0:
504,295,78299,2,0,B|407:272|433:353|316:315,1,178.499997324944,8|0,0:0|0:0,0:0:0:0:
265,374,78737,2,0,L|209:381,2,39.6666660722097,0|8|8,1:0|0:0|0:0,0:0:0:0:
166,315,78963,1,8,0:0:0:0:
178,275,79075,1,8,0:0:0:0:
162,249,79188,1,0,1:0:0:0:
147,223,79301,1,0,1:0:0:0:
169,190,79414,6,0,P|203:107|210:2,1,178.499997324944,4|0,1:2|0:0,0:0:0:0:
184,3,79882,2,0,P|188:39|181:76,1,59.4999991083145,0|0,1:0|0:0,0:0:0:0:
58,239,80102,2,0,P|24:156|17:51,1,178.499997324944,12|0,0:0|0:0,0:0:0:0:
43,52,80543,2,0,P|39:88|46:125,1,59.4999991083145,0|0,1:0|0:0,0:0:0:0:
169,190,80764,2,0,B|237:180|220:228|286:218,1,118.999998216629,8|0,0:0|1:0,0:0:0:0:
298,211,81060,2,0,L|354:201,1,39.6666660722097,0|0,1:0|1:0,0:0:0:0:
404,267,81214,22,0,B|440:220|419:169|419:169|432:129|485:121,1,174.999994039536,8|0,0:0|1:0,0:0:0:0:
458,38,81562,2,0,B|394:29|394:29|337:48|344:121,1,174.999994039536,8|0,0:0|1:0,0:0:0:0:
186,58,81933,2,0,B|286:52|258:119|351:118,1,174.999994039536,8|0,0:0|1:0,0:0:0:0:
204,156,82298,2,0,B|129:171|96:260|149:312,1,174.999994039536,8|0,0:0|1:0,0:0:0:0:
161,381,82634,5,8,0:0:0:0:
209,344,82743,1,8,0:0:0:0:
247,366,82852,1,0,1:0:0:0:
290,367,82962,1,0,1:0:0:0:
331,344,83071,5,4,1:2:0:0:
111,253,88085,86,0,B|81:235|81:235|36:242,1,69.9999976158143,2|0,0:0|1:0,0:0:0:0:
198,213,88411,1,0,1:0:0:0:
198,213,88519,54,0,B|230:317|152:284|185:392,1,174.999994039536,8|0,0:0|1:0,0:0:0:0:
265,348,88871,2,0,B|325:383|379:339|379:339|414:342|447:377,1,174.999994039536,8|0,0:0|1:0,0:0:0:0:
316,267,89223,2,0,B|296:203|338:147|338:147|332:178|367:222,1,174.999994039536,8|0,0:0|1:0,0:0:0:0:
428,152,89575,2,0,P|387:72|307:64,1,174.999994039536,8|0,0:0|1:0,0:0:0:0:
99,84,89928,5,8,0:0:0:0:
161,97,90045,1,8,0:0:0:0:
179,56,90162,1,0,1:0:0:0:
222,48,90280,1,0,1:0:0:0:
241,4,90379,5,4,1:2:0:0:
362,285,95075,86,0,L|367:260,1,26.2500001072884,8|8,0:0|0:0,0:0:0:0:
286,165,95289,1,8,0:0:0:0:
234,154,95396,1,8,0:0:0:0:
183,144,95503,2,0,L|128:134,1,52.5000002145768,2|0,1:2|0:0,0:0:0:0:
36,287,95723,54,0,B|36:319|58:329|58:329|101:259|62:202,1,174.999994039536,8|0,0:0|1:0,0:0:0:0:
145,348,96081,2,0,B|183:383|183:383|228:328|313:347,1,174.999994039536,8|0,0:0|1:0,0:0:0:0:
445,294,96440,2,0,B|399:270|353:267|372:357|276:341,1,174.999994039536,8|0,0:0|1:0,0:0:0:0:
442,201,96811,2,0,B|468:170|464:140|464:140|410:107|419:44,1,174.999994039536,8|0,0:0|1:0,0:0:0:0:
328,5,97151,5,8,0:0:0:0:
289,52,97264,1,8,0:0:0:0:
313,88,97378,1,0,1:0:0:0:
296,128,97491,1,0,1:0:0:0:
307,173,97605,6,0,B|252:201|201:182|130:78,1,209.999992847443,4|0,1:2|0:0,0:0:0:0:
134,50,98077,1,8,0:0:0:0:
7,258,98295,2,0,B|96:176|200:254|129:320,1,209.999992847443,0|0,1:0|0:0,0:0:0:0:
117,322,98731,1,0,1:0:0:0:
321,374,98949,2,0,B|363:333|356:284|356:284|349:309|325:330,1,139.999995231629,8|0,0:0|1:0,0:0:0:0:
336,318,99374,6,0,B|401:366|461:362|515:304|500:210,1,209.999992847443,0|0,1:0|0:0,0:0:0:0:
497,232,99821,1,8,0:0:0:0:
307,173,100035,1,0,1:0:0:0:
307,173,100463,1,0,1:0:0:0:
448,15,100678,2,0,B|482:56|464:107|464:107|425:137,1,139.999995231629,8|0,0:0|1:0,0:0:0:0:
431,133,101086,6,0,B|321:124|382:35|234:29,1,209.999992847443,0|0,1:0|0:0,0:0:0:0:
220,37,101537,1,8,0:0:0:0:
93,210,101748,2,0,B|151:237|151:237|204:176|161:100,1,209.999992847443,0|0,1:0|0:0,0:0:0:0:
140,74,102170,2,0,L|66:62,1,69.9999976158143,0|0,1:0|0:0,0:0:0:0:
5,197,102382,2,0,B|-25:237|-13:291|-13:291|31:251,1,139.999995231629,8|0,0:0|1:0,0:0:0:0:
17,263,102792,6,0,B|60:284|65:329|65:329|84:360|122:364,1,139.999995231629,0|0,1:0|0:0,0:0:0:0:
196,323,103101,1,0,1:0:0:0:
220,296,103203,2,0,P|232:260|234:225,1,69.9999976158143,8|0,0:0|0:0,0:0:0:0:
272,130,103401,2,0,P|301:149|324:177,1,69.9999976158143,0|0,1:0|0:0,0:0:0:0:
332,208,103600,1,0,1:0:0:0:
138,246,103804,1,8,0:0:0:0:
278,37,104008,1,8,0:0:0:0:
430,102,104217,1,8,0:0:0:0:
441,171,104322,1,8,0:0:0:0:
453,237,104427,38,0,B|453:260|422:291|422:291|333:277|293:378,1,209.999992847443,4|0,1:2|0:0,0:0:0:0:
270,368,104858,1,8,0:0:0:0:
46,270,105074,2,0,B|14:190|43:123|117:100|152:141,1,209.999992847443,0|0,1:0|0:0,0:0:0:0:
152,153,105506,1,0,1:0:0:0:
148,327,105721,2,0,B|113:369|67:363|67:363|99:356|117:323,1,139.999995231629,8|0,0:0|1:0,0:0:0:0:
107,338,106126,6,0,B|171:354|250:314|244:222,1,209.999992847443,0|0,1:0|0:0,0:0:0:0:
266,193,106580,1,8,0:0:0:0:
151,41,106792,1,0,1:0:0:0:
151,41,107218,1,0,1:0:0:0:
341,125,107431,2,0,B|381:147|416:135|416:135|436:103|486:107,1,139.999995231629,8|0,0:0|1:0,0:0:0:0:
468,106,107856,6,0,B|516:153|501:215|421:179|468:329,1,209.999992847443,0|0,1:0|0:0,0:0:0:0:
477,329,108281,1,8,0:0:0:0:
272,305,108493,2,0,B|248:283|219:285|219:285|301:243|364:312,1,209.999992847443,0|0,1:0|0:0,0:0:0:0:
382,330,108915,2,0,P|375:358|339:386,1,69.9999976158143,0|0,1:0|0:0,0:0:0:0:
144,312,109127,2,0,B|130:259|165:226|165:226|169:170,1,139.999995231629,8|0,0:0|1:0,0:0:0:0:
168,179,109535,6,0,B|120:153|79:176|79:176|60:203|29:209,1,139.999995231629,0|0,1:0|0:0,0:0:0:0:
49,92,109841,1,0,1:0:0:0:
79,68,109943,2,0,L|155:78,1,69.9999976158143,8|0,0:0|0:0,0:0:0:0:
224,23,110124,2,0,L|300:13,2,46.6666650772095,0|8|8,1:0|0:0|0:0,0:0:0:0:
369,25,110306,5,8,0:0:0:0:
406,56,110408,2,0,L|416:132,1,69.9999976158143,0|0,0:2|1:0,0:0:0:0:
352,284,110614,1,8,0:0:0:0:
330,240,110716,5,8,0:0:0:0:
341,206,110819,1,0,1:0:0:0:
336,171,110922,1,0,1:0:0:0:
331,136,111025,1,0,1:0:0:0:
326,102,111127,6,0,B|280:82|242:104|276:247|132:235,1,209.999992847443,4|0,1:2|0:0,0:0:0:0:
152,220,111555,1,8,0:0:0:0:
60,61,111773,2,0,B|49:1|49:1|148:0|166:109,1,209.999992847443,0|0,1:0|0:0,0:0:0:0:
149,115,112211,1,0,1:0:0:0:
36,274,112430,2,0,B|10:359|10:359|26:330|61:324,1,139.999995231629,8|0,0:0|1:0,0:0:0:0:
48,327,112838,6,0,B|69:355|108:350|108:350|169:293|245:333,1,209.999992847443,0|0,1:0|0:0,0:0:0:0:
255,363,113285,1,8,0:0:0:0:
419,232,113497,1,0,1:0:0:0:
419,232,113905,1,0,1:0:0:0:
217,113,114136,2,0,B|175:129|175:129|143:168|150:218,1,139.999995231629,8|0,0:0|1:0,0:0:0:0:
149,217,114533,6,0,B|239:252|217:163|332:187,1,139.999995231629,0|0,1:0|0:0,0:0:0:0:
311,195,114839,1,0,1:0:0:0:
327,224,114941,1,8,0:0:0:0:
169,313,115154,2,0,B|130:342|90:330|55:230,1,139.999995231629,0|0,1:0|0:0,0:0:0:0:
31,177,115474,1,8,0:0:0:0:
40,143,115581,2,0,L|56:70,1,69.9999976158143,0|0,1:0|1:0,0:0:0:0:
212,0,115795,2,0,B|247:24|247:24|256:73|206:126,1,139.999995231629,8|0,0:0|1:0,0:0:0:0:
217,113,116203,6,0,B|253:60|318:55|345:93,1,139.999995231629,0|0,1:0|0:0,0:0:0:0:
359,112,116515,1,0,1:0:0:0:
359,112,116619,2,0,B|388:140|338:172|350:257,1,139.999995231629,8|0,0:0|0:0,0:0:0:0:
405,326,116917,1,0,1:0:0:0:
433,345,117016,1,8,0:0:0:0:
467,342,117115,1,0,1:0:0:0:
474,181,117314,1,0,1:0:0:0:
459,207,117413,1,0,1:0:0:0:
480,202,117523,1,0,1:0:0:0:
455,187,117633,1,8,0:0:0:0:
315,330,117854,38,0,B|226:352|250:271|181:239|123:273,1,209.999992847443,4|0,1:2|0:0,0:0:0:0:
111,297,118276,1,8,0:0:0:0:
30,94,118487,2,0,B|6:62|83:15|147:114|78:213,1,209.999992847443,0|0,1:0|0:0,0:0:0:0:
64,215,118910,1,0,1:0:0:0:
187,78,119121,2,0,B|201:57|229:52|229:52|254:99|324:87,1,139.999995231629,8|0,0:0|1:0,0:0:0:0:
304,89,119534,6,0,B|267:104|259:146|259:146|323:197|294:282,1,209.999992847443,0|0,1:0|0:0,0:0:0:0:
274,294,119978,1,8,0:0:0:0:
75,378,120184,1,0,1:0:0:0:
75,378,120598,1,0,1:0:0:0:
157,200,120805,2,0,B|183:207|199:234|199:234|164:276|189:335,1,139.999995231629,8|0,0:0|1:0,0:0:0:0:
181,313,121227,6,0,B|42:301|30:194|50:133,1,209.999992847443,0|0,1:0|0:0,0:0:0:0:
59,149,121681,1,8,0:0:0:0:
213,37,121883,2,0,B|256:21|251:141|137:73|157:203,1,209.999992847443,0|0,1:0|0:0,0:0:0:0:
183,222,122289,2,0,P|233:212|252:156,1,69.9999976158143,0|0,1:0|0:0,0:0:0:0:
325,32,122491,1,8,0:0:0:0:
432,88,122695,2,0,L|447:165,2,46.6666650772095
368,183,122899,5,0,0:0:0:0:
389,208,122996,1,0,0:0:0:0:
363,230,123093,1,0,0:0:0:0:
384,257,123191,1,0,0:0:0:0:
358,279,123288,1,0,0:0:0:0:
379,304,123394,1,0,0:0:0:0:
353,326,123501,1,0,0:0:0:0:
374,353,123608,1,0,0:0:0:0:
331,379,123715,38,0,L|257:368,1,69.9999976158143,8|8,0:0|0:0,0:0:0:0:
132,370,123924,5,0,0:0:0:0:
162,356,124029,1,0,0:0:0:0:
148,326,124134,1,0,1:0:0:0:
177,309,124245,1,0,1:0:0:0:
163,279,124356,1,0,1:0:0:0:
193,265,124467,1,0,1:0:0:0:
149,211,124578,70,0,P|91:171|44:264,1,178.499997324944,4|0,1:2|0:0,0:0:0:0:
22,273,125029,2,0,P|29:304|57:331,1,59.4999991083145,0|0,1:0|0:0,0:0:0:0:
246,359,125263,2,0,B|342:386|317:290|442:326,1,178.499997324944,12|0,0:2|0:0,0:0:0:0:
439,306,125732,2,0,P|458:334|463:372,1,59.4999991083145,0|0,1:0|0:0,0:0:0:0:
266,266,125966,2,0,B|242:239|242:239|233:189|284:144,1,118.999998216629,8|0,0:0|1:0,0:0:0:0:
472,22,126385,6,0,P|458:92|443:115,1,59.4999991083145,0|0,1:0|0:0,0:0:0:0:
369,38,126590,2,0,P|301:62|274:59,1,59.4999991083145,2|0,0:0|1:0,0:0:0:0:
229,12,126795,1,2,0:0:0:0:
199,14,126914,1,0,1:0:0:0:
169,16,127033,2,0,P|132:83|100:188,1,178.499997324944,8|0,0:0|0:0,0:0:0:0:
116,203,127493,1,0,1:0:0:0:
19,384,127715,1,8,0:0:0:0:
11,335,127826,1,8,0:0:0:0:
36,310,127937,1,0,1:0:0:0:
46,276,128048,1,0,1:0:0:0:
29,233,128159,6,0,P|85:217|132:344,1,178.499997324944,4|0,1:2|0:0,0:0:0:0:
178,315,128624,2,0,P|178:350|168:378,1,59.4999991083145,0|0,1:0|0:0,0:0:0:0:
391,290,128847,2,0,B|414:251|312:197|325:321|211:241,1,178.499997324944,12|0,0:2|0:0,0:0:0:0:
226,238,129295,2,0,P|227:200|242:173,1,59.4999991083145,0|0,1:0|0:0,0:0:0:0:
322,20,129519,2,0,P|259:74|211:46,1,118.999998216629,8|0,0:0|0:0,0:0:0:0:
219,51,129808,2,0,L|158:33,1,39.6666660722097,0|0,1:0|1:0,0:0:0:0:
83,48,129953,22,0,B|92:113|148:133|148:133|119:149|114:189,1,174.999994039536,8|0,0:0|1:0,0:0:0:0:
60,324,130305,2,0,B|90:302|83:270|83:270|16:243|23:161,1,174.999994039536,8|0,0:0|1:0,0:0:0:0:
115,182,130658,2,0,B|171:209|171:209|183:255|183:255|299:315,1,174.999994039536,8|0,0:0|1:0,0:0:0:0:
382,326,131011,2,0,B|291:307|315:390|214:369,1,174.999994039536,8|0,0:0|1:0,0:0:0:0:
240,284,131364,5,8,0:0:0:0:
276,234,131482,1,8,0:0:0:0:
256,194,131600,1,0,1:0:0:0:
276,155,131717,1,0,1:0:0:0:
260,114,131835,6,0,P|296:80|372:109,1,118.999998216629,4|0,1:2|0:0,0:0:0:0:
414,194,132289,1,0,1:0:0:0:
510,0,132523,2,0,B|459:4|495:105|534:82|515:195,1,178.499997324944,12|0,0:2|0:0,0:0:0:0:
508,198,132982,2,0,P|499:236|505:297,1,59.4999991083145,0|0,1:0|0:0,0:0:0:0:
412,291,133208,2,0,P|421:329|415:390,1,59.4999991083145,8|0,0:0|0:0,0:0:0:0:
512,381,133425,1,0,1:0:0:0:
328,247,133642,6,0,P|293:244|259:262,1,59.4999991083145,0|0,1:0|0:0,0:0:0:0:
199,189,133860,2,0,P|178:217|177:256,1,59.4999991083145,2|0,0:0|1:0,0:0:0:0:
213,328,134077,1,2,0:0:0:0:
226,354,134193,1,0,1:0:0:0:
240,380,134309,2,0,P|114:349|55:350,1,178.499997324944,8|0,0:0|0:0,0:0:0:0:
6,283,134730,2,0,L|-1:242,2,39.6666660722097,0|8|8,1:0|0:0|0:0,0:0:0:0:
61,179,134964,1,8,0:0:0:0:
82,143,135076,1,8,0:0:0:0:
69,115,135189,1,0,1:0:0:0:
65,85,135302,1,0,1:0:0:0:
89,54,135415,6,0,P|160:31|219:129,1,178.499997324944,4|0,1:2|0:0,0:0:0:0:
245,139,135895,2,0,L|255:65,1,59.4999991083145,0|0,1:0|0:0,0:0:0:0:
421,203,136117,2,0,P|350:180|291:278,1,178.499997324944,12|0,0:0|0:0,0:0:0:0:
265,288,136551,2,0,L|255:214,1,59.4999991083145,0|0,1:0|0:0,0:0:0:0:
383,96,136764,2,0,B|441:83|434:137|493:124,1,118.999998216629,8|0,0:0|0:0,0:0:0:0:
510,134,137058,2,0,L|509:175,1,39.6666660722097,0|0,1:0|1:0,0:0:0:0:
494,260,137205,22,0,B|486:306|434:327|434:327|344:292,1,174.999994039536,8|0,0:0|1:0,0:0:0:0:
265,288,137544,2,0,P|160:317|153:393,1,174.999994039536,8|0,0:0|1:0,0:0:0:0:
5,281,137884,2,0,B|98:290|53:365|159:371,1,174.999994039536,8|0,0:0|1:0,0:0:0:0:
117,235,138223,2,0,B|81:210|78:138|141:71,1,174.999994039536,8|0,0:0|1:0,0:0:0:0:
272,193,138563,2,0,P|229:190|188:176,1,87.4999970197678,8|0,0:0|1:0,0:0:0:0:
213,16,138789,2,0,P|254:1|297:0,1,87.4999970197678,8|0,0:0|1:0,0:0:0:0:
429,114,139016,6,0,B|454:75|454:75|306:113,1,174.999994039536,8|0,0:0|1:0,0:0:0:0:
374,193,139367,2,0,B|439:228|489:188|489:188|512:242,1,174.999994039536,8|0,0:0|1:0,0:0:0:0:
336,355,139719,2,0,B|319:261|400:286|372:185,1,174.999994039536,8|0,0:0|1:0,0:0:0:0:
284,216,140065,2,0,P|203:191|191:103,1,174.999994039536,8|0,0:0|1:0,0:0:0:0:
317,17,140404,2,0,P|322:60|305:100,1,87.4999970197678,8|0,0:0|1:0,0:0:0:0:
187,110,140615,2,0,P|152:136|109:141,1,87.4999970197678,8|0,0:0|1:0,0:0:0:0:
13,23,140827,69,8,0:0:0:0:
22,5,141125,1,0,1:0:0:0:
24,116,141468,2,0,L|16:179,2,34.9999988079071,0|0|0,1:0|1:0|1:0,0:0:0:0:
74,217,141766,2,0,L|81:280,2,34.9999988079071,0|0|0,1:0|1:0|1:0,0:0:0:0:
14,345,142095,5,10,0:0:0:0:
185,247,142315,1,8,0:0:0:0:
236,256,142425,1,8,0:0:0:0:
288,264,142535,6,0,B|294:200|241:148|174:158,1,160.999997587204,4|0,1:2|0:0,0:0:0:0:
132,321,142989,1,8,0:0:0:0:
353,356,143216,2,0,B|474:277|349:220|387:144|482:127,1,241.499996380806,0|0,1:0|0:0,0:0:0:0:
441,58,143671,2,0,P|490:74|510:108,1,80.499998793602,0|0,1:0|0:0,0:0:0:0:
284,166,143898,1,8,0:0:0:0:
243,76,144090,1,0,1:0:0:0:
52,18,144339,6,0,B|6:49|6:49|-34:148|47:248,1,241.499996380806,4|0,1:2|0:0,0:0:0:0:
101,281,144793,2,0,P|119:240|116:195,1,80.499998793602,8|0,0:0|0:0,0:0:0:0:
282,295,145020,2,0,B|234:272|189:311|189:311|174:341|174:341|134:390|58:369,1,241.499996380806,0|0,1:0|0:0,0:0:0:0:
78,374,145445,2,0,L|37:363,1,40.249999396801,8|8,0:0|0:0,0:0:0:0:
164,120,145642,1,0,1:0:0:0:
205,210,145864,1,2,1:2:0:0:
369,314,146086,6,0,B|380:379|512:367|470:225|363:217,1,241.499996380806,4|0,1:2|0:0,0:0:0:0:
320,160,146523,2,0,P|354:140|393:133,1,80.499998793602,8|0,0:0|0:0,0:0:0:0:
512,0,146737,2,0,B|382:-34|430:93|259:38,1,241.499996380806,0|0,1:0|0:0,0:0:0:0:
198,37,147165,2,0,P|205:76|226:111,1,80.499998793602,0|0,1:0|0:0,0:0:0:0:
387,222,147380,1,8,0:0:0:0:
473,167,147571,1,0,1:0:0:0:
228,217,147788,6,0,B|176:231|176:231|113:224|91:164,1,160.999997587204,4|0,1:2|0:0,0:0:0:0:
59,162,148111,1,0,1:0:0:0:
59,162,148219,2,0,L|40:72,1,80.499998793602,8|0,0:0|0:0,0:0:0:0:
108,301,148435,2,0,L|91:379,1,80.499998793602,0|0,1:0|0:0,0:0:0:0:
153,110,148651,2,0,L|231:126,1,80.499998793602,0|0,1:0|0:0,0:0:0:0:
226,313,148851,1,8,0:0:0:0:
4,259,149051,1,8,0:0:0:0:
228,217,149248,1,8,0:0:0:0:
281,234,149347,1,8,0:0:0:0:
333,252,149473,38,0,B|380:232|380:232|434:259|418:325,1,160.999997587204,4|0,1:2|0:0,0:0:0:0:
383,346,149799,1,0,1:0:0:0:
383,346,149907,2,0,P|341:361|296:350,1,80.499998793602,8|0,0:0|0:0,0:0:0:0:
279,140,150125,2,0,B|330:153|330:153|353:88|439:93,1,160.999997587204,0|0,1:0|0:0,0:0:0:0:
499,137,150448,1,8,0:0:0:0:
499,137,150554,2,0,P|507:95|495:43,1,80.499998793602,0|0,1:0|0:0,0:0:0:0:
366,9,150767,2,0,P|325:23|286:59,1,80.499998793602,8|0,0:0|1:0,0:0:0:0:
228,217,150980,1,8,0:0:0:0:
174,224,151086,1,8,0:0:0:0:
120,231,151193,6,0,B|86:191|107:136|121:162|143:116|102:62,1,160.999997587204,4|0,1:2|0:0,0:0:0:0:
78,58,151526,1,0,1:0:0:0:
78,58,151637,2,0,L|0:41,1,80.499998793602,8|0,0:0|0:0,0:0:0:0:
7,188,151843,2,0,L|24:266,1,80.499998793602,0|0,1:0|0:0,0:0:0:0:
139,384,152050,2,0,L|156:306,1,80.499998793602,0|0,1:0|0:0,0:0:0:0:
310,213,152257,1,8,0:0:0:0:
256,206,152361,1,8,0:0:0:0:
202,199,152464,1,0,1:0:0:0:
254,306,152682,1,2,1:0:0:0:
475,245,152901,6,0,B|474:304|343:252|454:136|304:123,1,241.499996380806,4|0,1:2|0:0,0:0:0:0:
251,71,153339,2,0,P|288:43|334:36,1,80.499998793602,8|0,0:0|0:0,0:0:0:0:
131,254,153551,2,0,B|91:239|94:185|94:185|169:126|121:36,1,241.499996380806,0|0,1:0|0:0,0:0:0:0:
33,22,153977,2,0,P|32:62|47:100,1,80.499998793602,0|0,1:0|0:0,0:0:0:0:
202,199,154190,1,8,0:0:0:0:
293,166,154370,1,0,1:0:0:0:
433,306,154600,6,0,B|346:326|369:252|268:270,1,160.999997587204,4|0,1:2|0:0,0:0:0:0:
255,297,154918,1,0,1:0:0:0:
255,297,155024,2,0,L|239:383,1,80.499998793602,8|0,0:0|0:0,0:0:0:0:
140,368,155225,2,0,L|77:374,2,53.6666658624013,0|8|8,1:0|0:0|0:0,0:0:0:0:
33,298,155426,5,8,0:0:0:0:
21,259,155527,1,8,0:0:0:0:
55,238,155628,1,8,0:0:0:0:
67,199,155729,1,8,0:0:0:0:
44,194,155829,5,0,1:0:0:0:
56,155,155933,1,8,0:0:0:0:
22,134,156038,1,8,0:0:0:0:
10,95,156143,1,8,0:0:0:0:
32,61,156248,6,0,B|134:13|136:113|214:145|254:98,1,241.499996380806,4|0,1:2|0:0,0:0:0:0:
332,89,156668,2,0,P|318:52|287:28,1,80.499998793602,8|0,0:0|0:0,0:0:0:0:
163,196,156883,2,0,B|110:291|171:389|259:316|223:263,1,241.499996380806,0|0,1:0|0:0,0:0:0:0:
260,192,157315,2,0,P|300:224|312:264,1,80.499998793602,0|0,1:0|0:0,0:0:0:0:
115,384,157531,1,8,0:0:0:0:
66,300,157731,1,0,1:0:0:0:
308,338,157962,6,0,B|384:356|384:356|462:300|421:205,1,241.499996380806,4|0,1:2|0:0,0:0:0:0:
432,128,158394,2,0,P|392:129|359:151,1,80.499998793602,8|0,0:0|0:0,0:0:0:0:
167,104,158605,2,0,B|193:139|282:100|237:8|376:0,1,241.499996380806,0|0,1:0|0:0,0:0:0:0:
362,1,159027,2,0,L|351:66,1,40.249999396801,8|8,0:0|0:0,0:0:0:0:
338,235,159239,1,0,1:0:0:0:
260,188,159450,1,2,1:2:0:0:
73,207,159661,6,0,B|25:215|8:276|59:366,1,160.999997587204,4|0,1:2|0:0,0:0:0:0:
81,364,159978,1,0,1:0:0:0:
81,364,160084,2,0,P|113:320|114:289,1,80.499998793602,8|0,0:0|0:0,0:0:0:0:
56,104,160295,2,0,B|161:82|157:174|207:221|261:186,1,241.499996380806,0|0,1:0|0:0,0:0:0:0:
324,126,160717,2,0,P|286:103|242:103,1,80.499998793602,0|0,1:0|0:0,0:0:0:0:
73,207,160929,1,8,0:0:0:0:
114,295,161121,1,0,1:0:0:0:
318,355,161339,6,0,B|351:311|351:311|317:264|344:205,1,160.999997587204,4|0,1:2|0:0,0:0:0:0:
383,201,161665,1,0,1:0:0:0:
383,201,161773,2,0,L|464:192,1,80.499998793602,8|0,0:0|0:0,0:0:0:0:
409,0,161971,2,0,L|400:81,1,80.499998793602,0|0,1:0|0:0,0:0:0:0:
259,181,162170,2,0,L|250:100,1,80.499998793602,0|0,1:0|0:0,0:0:0:0:
184,19,162375,1,8,0:0:0:0:
0,166,162580,1,8,0:0:0:0:
150,268,162772,1,8,0:0:0:0:
156,211,162868,1,8,0:0:0:0:
162,155,162991,38,0,B|106:163|60:195|54:280,1,160.999997587204,4|0,1:2|0:0,0:0:0:0:
64,301,163321,1,0,1:0:0:0:
64,301,163432,2,0,P|37:329|2:351,1,80.499998793602,8|0,0:0|0:0,0:0:0:0:
232,308,163640,2,0,B|323:283|296:359|391:332,1,160.999997587204,0|0,1:0|0:0,0:0:0:0:
442,272,163952,1,8,0:0:0:0:
442,272,164057,2,0,P|467:313|455:379,1,80.499998793602,0|0,1:0|0:0,0:0:0:0:
288,219,164265,2,0,P|292:179|314:146,1,80.499998793602,8|0,0:0|1:0,0:0:0:0:
468,30,164474,1,8,0:0:0:0:
414,46,164579,1,8,0:0:0:0:
359,63,164684,6,0,B|305:37|258:71|258:71|228:52|175:64,1,160.999997587204,4|0,1:2|0:0,0:0:0:0:
173,83,164999,1,0,1:0:0:0:
173,83,165104,2,0,P|134:166|157:255,1,160.999997587204,8|0,0:0|0:0,0:0:0:0:
154,318,165418,1,0,1:0:0:0:
114,311,165522,1,8,0:0:0:0:
81,289,165627,1,0,1:0:0:0:
23,142,165835,1,0,1:0:0:0:
37,117,165939,1,0,1:0:0:0:
42,136,166043,1,0,1:0:0:0:
17,123,166147,1,8,0:0:0:0:
248,175,166356,6,0,B|292:216|381:155|308:90|448:58,1,241.499996380806,4|0,1:2|0:0,0:0:0:0:
512,41,166775,2,0,P|514:81|496:117,1,80.499998793602,8|0,0:0|0:0,0:0:0:0:
403,239,166985,2,0,B|403:165|507:178|528:291|405:330,1,241.499996380806,0|0,1:0|0:0,0:0:0:0:
358,382,167404,2,0,P|339:346|337:307,1,80.499998793602,0|0,1:0|0:0,0:0:0:0:
355,117,167614,2,0,B|268:122|291:52|199:55,1,160.999997587204,8|0,0:0|0:0,0:0:0:0:
194,74,167894,1,0,1:0:0:0:
194,74,167981,22,0,L|185:133,1,40.249999396801,8|8,0:0|0:0,0:0:0:0:
139,319,168305,2,0,L|130:260,1,40.249999396801,8|0,0:0|0:0,0:0:0:0:
102,152,168578,2,0,L|95:191,1,40.249999396801,8|8,0:0|0:0,0:0:0:0:
83,137,168687,1,0,1:0:0:0:
63,121,168798,1,8,0:0:0:0:
48,63,168909,5,2,0:0:0:0:
84,46,169013,1,0,1:0:0:0:
108,14,169118,1,8,0:0:0:0:
144,31,169222,1,8,0:0:0:0:
165,65,169328,1,8,0:0:0:0:
201,48,169432,1,0,1:0:0:0:
225,16,169537,1,0,1:0:0:0:
276,39,169643,6,0,B|303:43|316:65|316:65|252:106|282:205,1,160.999997587204,4|0,1:2|0:0,0:0:0:0:
300,190,169957,1,0,1:0:0:0:
300,190,170062,2,0,P|343:177|397:181,1,80.499998793602,8|0,0:0|0:0,0:0:0:0:
455,314,170272,2,0,B|368:330|391:259|301:280,1,160.999997587204,0|0,1:0|0:0,0:0:0:0:
228,245,170587,1,8,0:0:0:0:
194,265,170691,1,0,1:0:0:0:
174,231,170796,1,0,1:0:0:0:
140,251,170901,1,8,0:0:0:0:
243,336,171094,1,0,1:0:0:0:
50,363,171288,6,0,B|-21:381|-11:216|72:309|45:116,1,241.499996380806,4|0,1:2|0:0,0:0:0:0:
62,68,171713,2,0,P|98:80|135:128,1,80.499998793602,8|0,0:0|0:0,0:0:0:0:
140,251,171922,1,0,1:0:0:0:
304,279,172132,1,0,1:0:0:0:
258,132,172342,2,0,P|222:144|185:192,1,80.499998793602,8|0,0:0|0:0,0:0:0:0:
332,371,172552,1,0,1:0:0:0:
398,301,172761,1,2,1:2:0:0:
417,63,172971,6,0,B|375:84|375:84|348:144|395:202,1,160.999997587204,4|0,1:2|0:0,0:0:0:0:
421,213,173279,1,0,1:0:0:0:
421,213,173381,2,0,P|467:216|500:232,1,80.499998793602,8|0,0:0|0:0,0:0:0:0:
304,279,173587,2,0,B|265:276|221:290|187:384,1,160.999997587204,0|0,1:0|0:0,0:0:0:0:
116,323,173892,1,8,0:0:0:0:
105,282,173992,1,0,1:0:0:0:
145,272,174092,1,0,1:0:0:0:
134,232,174192,1,8,0:0:0:0:
37,364,174378,1,0,1:0:0:0:
0,182,174614,6,0,B|85:194|64:126|155:144,1,160.999997587204,4|0,1:2|0:0,0:0:0:0:
183,118,174922,1,0,1:0:0:0:
183,118,175025,2,0,P|192:70|186:28,1,80.499998793602,8|0,0:0|0:0,0:0:0:0:
0,0,175221,1,0,1:0:0:0:
16,91,175417,1,0,1:0:0:0:
218,199,175613,1,8,0:0:0:0:
289,140,175809,1,0,1:0:0:0:
326,154,175907,1,8,0:0:0:0:
353,124,176005,1,8,0:0:0:0:
390,110,176103,1,8,0:0:0:0:
417,140,176201,38,0,B|453:110|460:51|393:-2,1,160.999997587204,4|0,1:2|0:0,0:0:0:0:
357,0,176507,1,0,1:0:0:0:
357,0,176609,2,0,P|318:29|300:59,1,80.499998793602,8|0,0:0|0:0,0:0:0:0:
506,161,176813,2,0,B|487:208|487:208|437:247|364:218,1,160.999997587204,0|0,1:0|0:0,0:0:0:0:
316,276,177119,1,8,0:0:0:0:
298,312,177221,1,0,1:0:0:0:
334,330,177323,1,0,1:0:0:0:
316,366,177425,1,8,0:0:0:0:
245,228,177629,1,0,1:0:0:0:
204,39,177833,6,0,B|139:68|139:68|88:160|175:245,1,241.499996380806,4|0,1:2|0:0,0:0:0:0:
176,315,178284,2,0,P|120:310|92:285,1,80.499998793602,8|0,0:0|0:0,0:0:0:0:
0,147,178492,2,0,B|72:110|53:272|-24:226|21:361,1,241.499996380806,0|0,1:0|0:0,0:0:0:0:
109,374,178909,2,0,P|113:334|101:295,1,80.499998793602,0|0,1:0|0:0,0:0:0:0:
219,137,179117,1,8,0:0:0:0:
245,228,179318,1,0,1:2:0:0:
410,347,179534,5,0,0:0:0:0:
421,321,179635,1,0,0:0:0:0:
395,310,179736,1,0,0:0:0:0:
384,284,179837,1,0,0:0:0:0:
410,273,179939,1,0,0:0:0:0:
421,247,180048,1,0,0:0:0:0:
395,236,180157,1,0,0:0:0:0:
384,210,180266,1,0,0:0:0:0:
410,199,180376,5,0,1:0:0:0:
365,178,180488,1,0,1:0:0:0:
317,189,180601,1,0,1:0:0:0:
288,148,180713,1,0,1:0:0:0:
241,133,180827,1,0,1:0:0:0:
236,83,180939,1,0,1:0:0:0:
203,46,181052,2,0,L|193:-4,2,46.6666650772095,0|0|0,1:0|1:0|1:0,0:0:0:0:
156,118,181278,6,0,B|91:112|60:163|60:163|15:170|-3:129,1,174.999994039536,12|0,0:0|1:0,0:0:0:0:
141,212,181632,2,0,B|115:253|144:308|234:341,1,174.999994039536,12|0,0:0|1:0,0:0:0:0:
297,288,181986,2,0,B|396:266|371:359|468:335,1,174.999994039536,12|0,0:0|1:0,0:0:0:0:
412,203,182340,2,0,B|354:196|354:196|292:225|296:287,1,174.999994039536,12|0,0:0|1:0,0:0:0:0:
226,338,182695,5,8,0:0:0:0:
168,359,182813,1,8,0:0:0:0:
134,330,182931,1,0,1:0:0:0:
87,318,183049,1,0,1:0:0:0:
67,284,183167,5,0,1:0:0:0:
67,89,188282,86,0,L|74:168,1,69.9999976158143,2|0,0:0|1:0,0:0:0:0:
120,20,188576,1,0,1:0:0:0:
120,20,188674,54,0,B|169:42|201:23|201:23|224:36|224:36|267:29|297:63,1,174.999994039536,8|0,0:0|1:0,0:0:0:0:
233,120,189031,2,0,B|209:158|209:158|285:199|249:298|249:298,1,174.999994039536,8|0,0:0|1:0,0:0:0:0:
133,349,189388,2,0,B|89:323|89:323|85:254|170:242,1,174.999994039536,8|0,0:0|1:0,0:0:0:0:
230,361,189737,2,0,B|323:384|299:306|400:331,1,174.999994039536,8|0,0:0|1:0,0:0:0:0:
502,237,190072,5,8,0:0:0:0:
448,263,190188,1,8,0:0:0:0:
415,235,190305,1,0,1:0:0:0:
375,220,190421,1,0,1:0:0:0:
341,241,190538,5,0,1:0:0:0:
214,97,195419,86,0,L|262:92,1,26.2500001072884,8|8,0:0|0:0,0:0:0:0:
135,0,195622,1,8,0:0:0:0:
125,57,195724,1,8,0:0:0:0:
116,108,195826,2,0,L|122:169,1,52.5000002145768,2|0,1:2|0:0,0:0:0:0:
257,223,196064,54,0,B|200:211|200:211|156:271|79:244,1,174.999994039536,8|0,0:0|1:0,0:0:0:0:
226,312,196424,2,0,P|320:295|352:226,1,174.999994039536,8|0,0:0|1:0,0:0:0:0:
345,141,196784,2,0,B|412:146|431:196|431:196|462:172|499:187,1,174.999994039536,8|0,0:0|1:0,0:0:0:0:
357,55,197137,2,0,B|268:42|293:126|189:101,1,174.999994039536,8|0,0:0|1:0,0:0:0:0:
125,57,197479,5,8,0:0:0:0:
87,106,197590,1,8,0:0:0:0:
109,143,197701,1,0,1:0:0:0:
116,186,197812,1,0,1:0:0:0:
149,210,197924,6,0,B|207:200|152:331|100:270|87:382,1,209.999992847443,4|0,1:2|0:0,0:0:0:0:
67,346,198382,1,8,0:0:0:0:
258,245,198603,2,0,B|387:203|349:321|508:301,1,209.999992847443,0|0,1:0|0:0,0:0:0:0:
479,284,199046,1,0,1:0:0:0:
469,74,199267,2,0,B|432:104|425:158|425:158|449:204,1,139.999995231629,8|0,0:0|1:0,0:0:0:0:
444,195,199667,6,0,B|372:129|318:108|258:140,1,209.999992847443,0|0,1:0|0:0,0:0:0:0:
233,164,200111,1,8,0:0:0:0:
303,351,200333,1,0,1:0:0:0:
303,351,200767,1,0,1:0:0:0:
98,367,200980,2,0,B|37:369|5:329|5:329|27:340|63:337,1,139.999995231629,8|0,0:0|1:0,0:0:0:0:
39,337,201406,6,0,B|87:282|87:282|101:192|25:160,1,209.999992847443,0|0,1:0|0:0,0:0:0:0:
1,162,201847,1,8,0:0:0:0:
195,91,202067,2,0,B|120:128|7:88|39:5,1,209.999992847443,0|0,1:0|0:0,0:0:0:0:
64,9,202499,2,0,P|111:16|146:26,1,69.9999976158143,0|0,1:0|0:0,0:0:0:0:
280,68,202710,2,0,B|291:122|256:155|256:155|266:201,1,139.999995231629,8|0,0:0|1:0,0:0:0:0:
265,199,203123,6,0,B|308:222|308:222|360:219|392:177,1,139.999995231629,0|0,1:0|0:0,0:0:0:0:
428,106,203442,1,0,1:0:0:0:
466,126,203548,2,0,P|482:164|481:208,1,69.9999976158143,8|0,0:0|0:0,0:0:0:0:
512,319,203717,2,0,P|471:310|436:284,1,69.9999976158143,0|0,1:0|0:0,0:0:0:0:
431,259,203930,1,0,1:0:0:0:
484,40,204128,1,8,0:0:0:0:
365,34,204327,1,0,1:0:0:0:
332,19,204426,1,8,0:0:0:0:
307,44,204526,1,8,0:0:0:0:
276,29,204625,1,8,0:0:0:0:
250,54,204724,38,0,B|233:105|167:143|28:4,1,209.999992847443,4|0,1:2|0:0,0:0:0:0:
56,17,205146,1,8,0:0:0:0:
0,213,205357,2,0,B|57:164|137:201|110:222|145:255|195:248,1,209.999992847443,0|0,1:0|0:0,0:0:0:0:
214,225,205780,1,0,1:0:0:0:
62,366,205991,2,0,B|41:322|59:275|59:275|26:293|29:375,1,139.999995231629,8|0,0:0|1:0,0:0:0:0:
34,312,206414,6,0,B|109:371|219:371|279:325,1,209.999992847443,0|0,1:0|0:0,0:0:0:0:
263,328,206868,1,8,0:0:0:0:
342,144,207085,1,0,1:0:0:0:
342,144,207520,1,0,1:0:0:0:
505,285,207737,2,0,B|412:295|412:295|427:263|472:255,1,139.999995231629,8|0,0:0|1:0,0:0:0:0:
444,263,208150,6,0,B|475:253|485:221|485:221|409:161|454:72,1,209.999992847443,0|0,1:0|0:0,0:0:0:0:
478,73,208591,1,8,0:0:0:0:
283,27,208805,2,0,B|350:78|335:167|284:134|301:244,1,209.999992847443,0|0,1:0|0:0,0:0:0:0:
273,242,209233,2,0,P|287:276|288:323,1,69.9999976158143,0|0,1:0|0:0,0:0:0:0:
80,309,209448,2,0,B|152:337|152:337|187:328|198:293,1,139.999995231629,8|0,0:0|1:0,0:0:0:0:
197,297,209861,6,0,B|149:270|159:206|167:167,1,139.999995231629,0|0,1:0|0:0,0:0:0:0:
235,124,210180,1,0,1:0:0:0:
207,99,210286,2,0,L|196:26,1,69.9999976158143,8|0,0:0|0:0,0:0:0:0:
116,0,210482,2,0,L|105:69,2,46.6666650772095,8|8|8,0:0|0:0|0:0,0:0:0:0:
28,0,210678,5,8,0:0:0:0:
12,31,210776,2,0,L|22:100,1,69.9999976158143,8|0,0:0|1:0,0:0:0:0:
109,210,210972,1,8,0:0:0:0:
77,247,211070,5,8,0:0:0:0:
93,277,211168,1,0,1:0:0:0:
80,309,211266,1,0,1:0:0:0:
74,343,211364,1,0,1:0:0:0:
94,366,211462,6,0,B|169:383|146:330|226:285|309:369,1,209.999992847443,4|0,1:2|0:0,0:0:0:0:
305,379,211906,1,8,0:0:0:0:
391,154,212128,2,0,B|323:174|323:174|287:249|359:300,1,209.999992847443,0|0,1:0|0:0,0:0:0:0:
390,295,212573,1,0,1:0:0:0:
505,167,212795,2,0,B|482:216|442:225|442:225|473:205|477:162,1,139.999995231629,8|0,0:0|1:0,0:0:0:0:
472,185,213189,6,0,B|470:266|515:248|512:341|454:382,1,209.999992847443,0|0,1:0|0:0,0:0:0:0:
422,378,213630,1,8,0:0:0:0:
281,239,213846,1,0,1:0:0:0:
281,239,214279,1,0,1:0:0:0:
411,37,214496,2,0,B|444:78|426:127|426:127|372:167,1,139.999995231629,8|0,0:0|1:0,0:0:0:0:
390,153,214896,6,0,B|319:171|338:97|243:126,1,139.999995231629,0|0,1:0|0:0,0:0:0:0:
232,141,215212,1,0,1:0:0:0:
203,161,215318,1,8,0:0:0:0:
4,207,215527,2,0,B|34:176|34:176|88:169|127:229,1,139.999995231629,0|0,1:0|0:0,0:0:0:0:
154,294,215842,1,8,0:0:0:0:
146,328,215947,1,0,1:0:0:0:
313,362,216157,2,0,B|357:391|401:377|401:377|438:333,1,139.999995231629,8|0,0:0|1:0,0:0:0:0:
432,342,216572,6,0,B|390:330|380:288|412:204,1,139.999995231629,0|0,1:0|0:0,0:0:0:0:
439,211,216883,1,0,1:0:0:0:
439,211,216987,2,0,P|444:143|431:60,1,139.999995231629,8|0,0:0|0:0,0:0:0:0:
391,0,217285,1,0,1:0:0:0:
363,20,217384,1,8,0:0:0:0:
351,53,217485,1,0,1:0:0:0:
285,167,217687,1,0,1:0:0:0:
279,139,217788,1,0,1:0:0:0:
295,151,217884,1,0,1:0:0:0:
267,158,217980,1,8,0:0:0:0:
75,64,218192,38,0,B|38:117|170:110|132:13|252:34,1,209.999992847443,4|0,1:2|0:0,0:0:0:0:
265,52,218633,1,8,0:0:0:0:
116,198,218854,2,0,B|41:203|-13:148|-13:148|-13:190|21:220,1,209.999992847443,0|0,1:0|0:0,0:0:0:0:
37,230,219297,1,0,1:0:0:0:
213,355,219518,2,0,B|236:314|236:266|236:266|195:217,1,139.999995231629,8|0,0:0|1:0,0:0:0:0:
205,229,219940,6,0,B|234:274|341:241|270:134|407:142,1,209.999992847443,0|0,1:0|0:0,0:0:0:0:
394,166,220371,1,8,0:0:0:0:
236,31,220587,1,0,1:0:0:0:
236,31,221019,1,0,1:0:0:0:
101,189,221234,2,0,B|68:228|71:286|71:286|96:247,1,139.999995231629,8|0,0:0|1:0,0:0:0:0:
90,255,221653,6,0,B|36:237|16:160|72:60,1,209.999992847443,0|0,1:0|0:0,0:0:0:0:
97,50,222104,1,8,0:0:0:0:
327,53,222312,2,0,B|328:100|288:121|288:121|243:64|167:91,1,209.999992847443,0|0,1:0|0:0,0:0:0:0:
164,122,222738,2,0,P|174:156|215:172,1,69.9999976158143,0|0,1:0|0:0,0:0:0:0:
286,217,222957,2,0,L|331:203,2,46.6666650772095,10|0|0,0:0|0:0|0:0,0:0:0:0:
221,288,223161,2,0,L|176:274,2,46.6666650772095,8|0|0,0:0|0:0|0:0,0:0:0:0:
293,351,223365,21,8,0:0:0:0:
340,340,223460,1,8,0:0:0:0:
369,358,223556,5,2,1:2:0:0:
400,324,223651,1,8,0:2:0:0:
445,338,223746,1,8,0:0:0:0:
489,318,223848,1,8,0:0:0:0:
508,274,223949,1,0,1:0:0:0:
493,229,224051,1,8,0:0:0:0:
452,204,224152,69,8,0:0:0:0:
440,157,224253,2,0,L|445:77,1,69.9999976158143,8|0,0:0|1:0,0:0:0:0:
350,17,224456,1,8,0:0:0:0:
318,48,224557,5,8,0:0:0:0:
287,31,224667,1,0,1:0:0:0:
265,58,224777,1,0,1:0:0:0:
234,75,224887,1,0,1:0:0:0:
197,47,224998,6,0,P|113:31|97:117,1,178.499997324944,4|0,1:2|0:0,0:0:0:0:
115,124,225474,2,0,P|129:158|130:188,1,59.4999991083145,0|0,1:0|0:0,0:0:0:0:
276,227,225696,2,0,B|188:214|206:293|105:276,1,178.499997324944,12|0,0:2|0:0,0:0:0:0:
83,268,226140,2,0,P|69:302|68:332,1,59.4999991083145,0|0,1:0|0:0,0:0:0:0:
242,380,226362,2,0,B|260:309|260:309|235:325|236:358,1,118.999998216629,8|0,0:0|1:0,0:0:0:0:
443,361,226803,6,0,P|467:351|494:322,1,59.4999991083145,0|0,1:0|0:0,0:0:0:0:
412,264,227023,2,0,P|415:238|404:200,1,59.4999991083145,2|0,0:0|1:0,0:0:0:0:
492,81,227244,1,2,0:0:0:0:
499,108,227354,1,0,1:0:0:0:
507,136,227464,2,0,P|388:171|312:160,1,178.499997324944,8|0,0:0|0:0,0:0:0:0:
314,146,227896,1,0,1:0:0:0:
163,25,228107,1,8,0:0:0:0:
190,55,228220,1,8,0:0:0:0:
178,82,228334,1,0,1:0:0:0:
183,110,228447,1,0,1:0:0:0:
154,137,228561,6,0,P|70:168|39:93,1,178.499997324944,4|0,1:2|0:0,0:0:0:0:
32,70,229041,2,0,P|4:98|0:132,1,59.4999991083145,0|0,1:0|0:0,0:0:0:0:
96,258,229261,2,0,B|149:293|149:293|215:277|220:215,1,178.499997324944,12|0,0:2|0:0,0:0:0:0:
228,186,229702,2,0,P|245:219|238:254,1,59.4999991083145,0|0,1:0|0:0,0:0:0:0:
326,344,229923,2,0,P|388:368|440:357,1,118.999998216629,8|0,0:0|0:0,0:0:0:0:
453,345,230217,2,0,L|465:295,1,39.6666660722097,0|0,1:0|1:0,0:0:0:0:
499,227,230364,22,0,B|472:206|436:213|436:213|422:228|422:228|372:208|331:247,1,174.999994039536,8|0,0:0|1:0,0:0:0:0:
393,133,230714,2,0,B|412:99|442:90|442:90|437:14|356:4,1,174.999994039536,8|0,0:0|1:0,0:0:0:0:
217,47,231064,2,0,B|266:90|329:75|329:75|302:104|308:140,1,174.999994039536,8|0,0:0|1:0,0:0:0:0:
222,152,231414,2,0,B|163:194|168:252|168:252|194:276|194:323,1,174.999994039536,8|0,0:0|1:0,0:0:0:0:
69,360,231764,5,8,0:0:0:0:
107,312,231881,1,8,0:0:0:0:
79,276,231998,1,0,1:0:0:0:
84,233,232114,1,0,1:0:0:0:
51,205,232231,6,0,P|19:154|28:92,1,118.999998216629,4|0,1:2|0:0,0:0:0:0:
144,0,232707,1,0,1:0:0:0:
293,136,232932,2,0,B|259:165|219:150|219:150|180:101|118:123,1,178.499997324944,12|0,0:2|0:0,0:0:0:0:
107,137,233383,2,0,P|147:146|183:168,1,59.4999991083145,0|0,1:0|0:0,0:0:0:0:
203,235,233609,2,0,P|215:274|214:316,1,59.4999991083145,8|0,0:0|0:0,0:0:0:0:
166,367,233831,1,0,1:0:0:0:
303,253,234053,6,0,P|332:269|369:267,1,59.4999991083145,0|0,1:0|0:0,0:0:0:0:
399,356,234271,2,0,P|427:339|444:306,1,59.4999991083145,2|0,0:0|1:0,0:0:0:0:
439,225,234490,1,2,0:0:0:0:
434,195,234600,1,0,1:0:0:0:
429,165,234709,2,0,P|343:149|242:98,1,178.499997324944,8|0,0:0|0:0,0:0:0:0:
205,49,235147,2,0,L|201:8,2,39.6666660722097,0|8|8,1:0|0:0|0:0,0:0:0:0:
148,114,235366,1,8,0:0:0:0:
108,101,235480,1,8,0:0:0:0:
84,119,235595,1,0,1:0:0:0:
56,130,235709,1,0,1:0:0:0:
22,107,235824,6,0,P|0:173|-13:295,1,178.499997324944,4|0,1:2|0:0,0:0:0:0:
8,304,236300,2,0,P|11:258|19:231,1,59.4999991083145,0|0,1:0|0:0,0:0:0:0:
197,221,236518,2,0,P|144:267|72:366,1,178.499997324944,12|0,0:2|0:0,0:0:0:0:
85,384,236956,2,0,P|110:345|131:326,1,59.4999991083145,0|0,1:0|0:0,0:0:0:0:
248,328,237175,2,0,B|241:262|292:286|282:196,1,118.999998216629,8|0,0:0|0:0,0:0:0:0:
291,199,237467,2,0,L|278:149,1,39.6666660722097,0|0,1:0|1:0,0:0:0:0:
255,74,237613,22,0,B|358:53|330:142|439:118,1,174.999994039536,8|0,0:0|1:0,0:0:0:0:
499,67,237965,2,0,B|519:26|496:-10|496:-10|409:26,1,174.999994039536,8|0,0:0|1:0,0:0:0:0:
499,162,238318,2,0,B|478:196|455:206|455:206|435:273|484:340,1,174.999994039536,8|0,0:0|1:0,0:0:0:0:
404,366,238671,2,0,B|369:348|330:370|330:370|299:322|235:327,1,174.999994039536,8|0,0:0|1:0,0:0:0:0:
134,216,239024,2,0,P|178:244|243:240,1,87.4999970197678,8|0,0:0|1:0,0:0:0:0:
281,119,239260,2,0,P|238:125|203:151,1,87.4999970197678,8|0,0:0|1:0,0:0:0:0:
46,192,239495,6,0,B|30:283|105:264|78:363,1,174.999994039536,8|0,0:0|1:0,0:0:0:0:
134,216,239841,2,0,B|171:183|180:149|167:11,1,174.999994039536,8|0,0:0|1:0,0:0:0:0:
245,8,240187,2,0,B|299:-7|331:31|331:31|349:24|349:24|369:56|408:55,1,174.999994039536,8|0,0:0|1:0,0:0:0:0:
444,209,240543,2,0,B|490:162|472:96|472:96|455:126|426:136,1,174.999994039536,8|0,0:0|1:0,0:0:0:0:
360,178,240879,2,0,P|356:229|385:277,1,87.4999970197678,8|0,0:0|1:0,0:0:0:0:
369,367,241109,2,0,P|326:361|292:335,1,87.4999970197678,8|0,0:0|1:0,0:0:0:0:
495,286,241341,69,8,0:0:0:0:
486,313,241649,1,0,1:0:0:0:
444,209,241855,1,0,1:0:0:0:
452,193,241958,2,0,L|457:139,2,34.9999988079071,0|0|0,1:0|1:0|1:0,0:0:0:0:
396,96,242269,2,0,L|391:42,2,34.9999988079071,0|0|0,1:0|1:0|1:0,0:0:0:0:
488,0,242587,5,10,0:0:0:0:
309,94,242789,1,0,1:0:0:0:
94,0,243046,6,0,B|149:31|154:71|155:157,1,160.999997587204,4|0,1:2|0:0,0:0:0:0:
99,318,243487,1,8,0:0:0:0:
293,322,243714,2,0,B|208:353|167:288|202:256|141:209|82:230,1,241.499996380806,0|0,1:0|0:0,0:0:0:0:
23,174,244168,2,0,P|5:221|18:270,1,80.499998793602,0|0,1:0|0:0,0:0:0:0:
232,188,244396,1,8,0:0:0:0:
154,139,244592,1,0,1:0:0:0:
359,68,244824,6,0,B|416:87|416:87|478:172|390:255,1,241.499996380806,4|0,1:2|0:0,0:0:0:0:
383,333,245253,2,0,P|418:333|459:308,1,80.499998793602,8|0,0:0|0:0,0:0:0:0:
232,188,245462,2,0,B|167:205|97:293|190:376,1,241.499996380806,0|0,1:0|0:0,0:0:0:0:
188,374,245882,2,0,L|141:382,1,40.249999396801,8|8,0:0|0:0,0:0:0:0:
23,174,246092,1,0,1:0:0:0:
66,89,246312,1,2,1:2:0:0:
300,135,246533,6,0,B|374:156|379:103|450:89,1,160.999997587204,4|0,1:2|0:0,0:0:0:0:
489,76,246864,1,0,1:0:0:0:
489,76,246974,2,0,P|472:40|434:10,1,80.499998793602,8|0,0:0|0:0,0:0:0:0:
217,95,247189,2,0,B|194:134|210:191|249:213|249:213|198:250|217:312,1,241.499996380806,0|0,1:0|0:0,0:0:0:0:
283,356,247621,2,0,P|299:320|296:280,1,80.499998793602,0|0,1:0|0:0,0:0:0:0:
119,166,247837,1,8,0:0:0:0:
101,258,248028,1,0,1:0:0:0:
331,203,248259,6,0,B|386:122|453:209|420:220|465:273|536:246,1,241.499996380806,4|0,1:2|0:0,0:0:0:0:
505,169,248682,2,0,P|483:130|485:86,1,80.499998793602,8|0,0:0|0:0,0:0:0:0:
343,46,248887,2,0,P|335:79|302:115,1,80.499998793602,0|0,1:0|0:0,0:0:0:0:
502,13,249092,2,0,P|467:11|425:34,1,80.499998793602,0|0,1:0|0:0,0:0:0:0:
331,203,249298,1,8,0:0:0:0:
225,135,249503,1,0,1:0:0:0:
188,118,249599,1,8,0:0:0:0:
161,167,249696,1,8,0:0:0:0:
107,185,249793,1,8,0:0:0:0:
78,144,249890,38,0,B|46:112|61:56|79:85|96:35|48:-12,1,160.999997587204,4|0,1:2|0:0,0:0:0:0:
15,0,250220,1,0,1:0:0:0:
15,0,250331,2,0,P|-11:53|-16:94,1,80.499998793602,8|0,0:0|0:0,0:0:0:0:
40,241,250539,2,0,B|66:275|104:289|195:248,1,160.999997587204,0|0,1:0|0:0,0:0:0:0:
284,253,250851,1,8,0:0:0:0:
284,253,250956,2,0,P|306:294|291:341,1,80.499998793602,0|0,1:0|0:0,0:0:0:0:
162,382,251164,2,0,P|198:365|216:330,1,80.499998793602,8|0,0:0|1:0,0:0:0:0:
231,174,251375,1,8,0:0:0:0:
219,119,251480,1,8,0:0:0:0:
208,65,251586,6,0,B|247:36|247:36|310:24|347:85,1,160.999997587204,4|0,1:2|0:0,0:0:0:0:
373,113,251914,1,0,1:0:0:0:
373,113,252023,2,0,L|455:103,1,80.499998793602,8|0,0:0|0:0,0:0:0:0:
485,228,252227,2,0,L|494:311,1,80.499998793602,0|0,1:0|0:0,0:0:0:0:
341,357,252431,2,0,L|350:273,1,80.499998793602,0|0,1:0|0:0,0:0:0:0:
231,174,252635,1,0,1:0:0:0:
175,181,252737,1,0,1:0:0:0:
119,188,252839,1,2,1:2:0:0:
40,120,253064,1,2,1:2:0:0:
22,315,253290,6,0,B|-29:369|136:374|63:233|226:275,1,241.499996380806,4|0,1:2|0:0,0:0:0:0:
256,340,253731,2,0,P|225:355|178:355,1,80.499998793602,8|0,0:0|0:0,0:0:0:0:
119,188,253948,2,0,B|158:25|237:54|285:113,1,241.499996380806,0|0,1:0|0:0,0:0:0:0:
323,181,254383,2,0,P|349:158|365:112,1,80.499998793602,0|0,1:0|0:0,0:0:0:0:
142,0,254600,1,8,0:0:0:0:
73,74,254781,1,0,1:0:0:0:
255,239,255013,6,0,B|291:279|343:270|343:270|407:237,1,160.999997587204,4|0,1:2|0:0,0:0:0:0:
441,257,255339,1,0,1:0:0:0:
441,257,255447,2,0,L|457:340,1,80.499998793602,8|0,0:0|0:0,0:0:0:0:
483,172,255644,2,0,L|499:89,2,53.6666658624013,8|8|8,0:0|0:0|0:0,0:0:0:0:
436,48,255841,5,8,0:0:0:0:
397,36,255940,1,8,0:0:0:0:
374,69,256039,1,8,0:0:0:0:
335,81,256138,1,8,0:0:0:0:
318,67,256236,5,0,1:0:0:0:
279,79,256346,1,8,0:0:0:0:
256,46,256456,1,8,0:0:0:0:
217,34,256566,1,8,0:0:0:0:
194,67,256677,6,0,B|155:96|91:52|126:2|39:-4|-6:43|16:99,1,241.499996380806,4|0,1:2|0:0,0:0:0:0:
20,177,257118,2,0,P|58:166|87:140,1,80.499998793602,8|0,0:0|0:0,0:0:0:0:
249,214,257338,2,0,B|220:264|162:257|162:257|136:241|136:241|68:237|34:313,1,241.499996380806,0|0,1:0|0:0,0:0:0:0:
28,374,257780,2,0,P|67:374|102:354,1,80.499998793602,0|0,1:0|0:0,0:0:0:0:
177,162,258000,1,8,0:0:0:0:
249,214,258189,1,0,1:0:0:0:
365,0,258413,6,0,B|412:147|309:97|347:251,1,241.499996380806,4|0,1:2|0:0,0:0:0:0:
365,312,258857,2,0,P|313:312|273:268,1,80.499998793602,8|0,0:0|0:0,0:0:0:0:
474,85,259061,2,0,B|462:139|506:167|506:167|425:218|479:360,1,241.499996380806,0|0,1:0|0:0,0:0:0:0:
460,296,259469,2,0,L|517:281,1,40.249999396801,8|8,0:0|0:0,0:0:0:0:
249,214,259673,1,0,1:0:0:0:
167,249,259895,1,2,1:2:0:0:
58,68,260117,6,0,B|106:63|130:115|90:205,1,160.999997587204,4|0,1:2|0:0,0:0:0:0:
64,222,260450,1,0,1:0:0:0:
64,222,260561,2,0,P|35:200|19:156,1,80.499998793602,8|0,0:0|0:0,0:0:0:0:
157,18,260778,2,0,B|225:-12|275:49|232:68|291:133|373:100,1,241.499996380806,0|0,1:0|0:0,0:0:0:0:
413,37,261213,2,0,P|377:19|338:20,1,80.499998793602,0|0,1:0|0:0,0:0:0:0:
198,137,261430,1,8,0:0:0:0:
249,214,261608,1,0,1:0:0:0:
442,186,261835,6,0,B|358:198|358:198|297:273|356:353,1,241.499996380806,4|0,1:2|0:0,0:0:0:0:
388,361,262263,2,0,L|472:369,1,80.499998793602,8|0,0:0|0:0,0:0:0:0:
248,301,262465,2,0,L|167:308,1,80.499998793602,0|0,1:0|0:0,0:0:0:0:
352,119,262668,2,0,L|359:200,1,80.499998793602,0|0,1:0|0:0,0:0:0:0:
275,379,262871,1,8,0:0:0:0:
101,262,263073,1,8,0:0:0:0:
189,157,263279,1,8,0:0:0:0:
197,104,263383,1,8,0:0:0:0:
206,51,263486,38,0,B|112:27|140:106|29:82,1,160.999997587204,4|0,1:2|0:0,0:0:0:0:
33,60,263812,1,0,1:0:0:0:
33,60,263920,2,0,P|0:95|-19:168,1,80.499998793602,8|0,0:0|0:0,0:0:0:0:
101,262,264126,2,0,B|130:315|185:314|255:267,1,160.999997587204,0|0,1:0|0:0,0:0:0:0:
280,200,264437,1,8,0:0:0:0:
280,200,264540,2,0,P|314:230|328:273,1,80.499998793602,0|0,1:0|0:0,0:0:0:0:
369,378,264747,2,0,P|393:346|400:307,1,80.499998793602,8|0,0:0|1:0,0:0:0:0:
322,121,264954,1,8,0:0:0:0:
328,65,265057,1,8,0:0:0:0:
335,8,265161,6,0,B|389:3|389:3|449:29|443:108,1,160.999997587204,4|0,1:2|0:0,0:0:0:0:
419,120,265471,1,0,1:0:0:0:
419,120,265575,2,0,B|384:155|384:207|491:249,1,160.999997587204,8|0,0:0|0:0,0:0:0:0:
512,317,265889,1,0,1:0:0:0:
473,327,265993,1,8,0:0:0:0:
434,318,266095,1,0,1:0:0:0:
301,237,266298,1,0,1:0:0:0:
315,212,266399,1,0,1:0:0:0:
320,231,266500,1,0,1:0:0:0:
295,218,266602,1,8,0:0:0:0:
72,165,266804,6,0,B|97:231|213:218|184:135|218:89|328:111,1,241.499996380806,4|0,1:2|0:0,0:0:0:0:
349,88,267248,2,0,P|320:42|284:26,1,80.499998793602,8|0,0:0|0:0,0:0:0:0:
128,81,267470,2,0,B|17:58|-11:132|-11:132|-29:185|10:244,1,241.499996380806,0|0,1:0|0:0,0:0:0:0:
53,266,267896,2,0,P|13:292|-24:292,1,80.499998793602,0|0,1:0|0:0,0:0:0:0:
246,311,268100,2,0,B|233:348|199:370|96:339,1,160.999997587204,8|0,0:0|0:0,0:0:0:0:
143,267,268406,1,0,1:0:0:0:
143,267,268508,22,0,L|146:221,1,40.249999396801,8|8,0:0|0:0,0:0:0:0:
157,188,268610,1,0,1:0:0:0:
189,164,268712,1,0,1:0:0:0:
228,158,268814,1,0,1:0:0:0:
266,170,268916,1,8,0:0:0:0:
295,197,269012,1,0,1:0:0:0:
308,235,269108,6,0,L|348:237,1,40.249999396801,8|8,0:0|0:0,0:0:0:0:
383,255,269204,1,0,1:0:0:0:
422,250,269300,1,0,1:0:0:0:
456,228,269396,1,0,1:0:0:0:
476,194,269492,1,8,0:0:0:0:
480,154,269588,1,0,1:0:0:0:
466,117,269685,70,0,L|457:62,1,40.249999396801,8|8,0:0|0:0,0:0:0:0:
432,47,269793,1,0,1:0:0:0:
392,40,269902,1,0,1:0:0:0:
352,33,270011,1,0,1:0:0:0:
310,25,270119,22,0,B|275:20|253:46|253:46|211:8|151:30,1,160.999997587204,4|0,1:2|0:0,0:0:0:0:
146,63,270435,1,0,1:0:0:0:
146,63,270541,2,0,P|129:100|135:157,1,80.499998793602,8|0,0:0|0:0,0:0:0:0:
0,185,270752,2,0,B|76:160|67:244|155:221,1,160.999997587204,0|0,1:0|0:0,0:0:0:0:
236,217,271069,1,8,0:0:0:0:
256,251,271175,1,0,1:0:0:0:
222,271,271280,1,0,1:0:0:0:
242,305,271386,1,8,0:0:0:0:
317,187,271597,1,0,1:0:0:0:
369,368,271809,6,0,B|312:417|299:252|424:339|445:150,1,241.499996380806,4|0,1:2|0:0,0:0:0:0:
453,116,272231,2,0,P|490:133|519:179,1,80.499998793602,8|0,0:0|0:0,0:0:0:0:
256,251,272442,2,0,B|218:276|174:259|174:259|148:170|43:172,1,241.499996380806,0|0,1:0|0:0,0:0:0:0:
46,87,272860,2,0,P|0:109|-27:154,1,80.499998793602,8|0,0:0|0:0,0:0:0:0:
13,367,273067,1,0,1:0:0:0:
65,285,273284,1,2,1:2:0:0:
225,168,273501,6,0,B|304:152|344:194|350:276,1,160.999997587204,4|0,1:2|0:0,0:0:0:0:
348,282,273827,1,0,1:0:0:0:
348,282,273936,2,0,P|325:323|322:364,1,80.499998793602,8|0,0:0|0:0,0:0:0:0:
506,380,274147,2,0,B|531:277|466:306|488:181,1,160.999997587204,0|0,1:0|0:0,0:0:0:0:
483,131,274464,1,8,0:0:0:0:
449,111,274569,1,0,1:0:0:0:
429,145,274675,1,0,1:0:0:0:
395,125,274781,1,8,0:0:0:0:
512,40,274970,1,0,1:0:0:0:
293,2,275191,6,0,B|231:16|231:16|195:65|229:117,1,160.999997587204,4|0,1:2|0:0,0:0:0:0:
254,141,275531,1,0,1:0:0:0:
254,141,275645,2,0,P|276:192|268:240,1,80.499998793602,8|0,0:0|0:0,0:0:0:0:
107,321,275837,1,0,1:0:0:0:
50,245,276030,1,0,1:0:0:0:
123,64,276223,1,8,0:0:0:0:
35,26,276416,1,0,1:0:0:0:
12,58,276521,1,8,0:0:0:0:
30,93,276627,1,8,0:0:0:0:
22,132,276732,1,8,0:0:0:0:
57,152,276838,38,0,B|145:149|112:221|207:227,1,160.999997587204,4|0,1:2|0:0,0:0:0:0:
204,264,277155,1,0,1:0:0:0:
204,264,277261,2,0,P|215:306|209:353,1,80.499998793602,8|0,0:0|0:0,0:0:0:0:
408,248,277465,2,0,B|369:255|344:218|344:218|339:194|339:194|320:152|262:152,1,160.999997587204,0|0,1:0|0:0,0:0:0:0:
207,140,277771,1,8,0:0:0:0:
197,102,277873,1,0,1:0:0:0:
235,92,277975,1,0,1:0:0:0:
224,54,278077,1,8,0:0:0:0:
133,190,278256,1,0,1:0:0:0:
315,49,278485,6,0,B|386:25|386:25|460:73|451:173,1,241.499996380806,4|0,1:2|0:0,0:0:0:0:
485,252,278931,2,0,P|446:258|408:248,1,80.499998793602,8|0,0:0|0:0,0:0:0:0:
276,330,279142,2,0,B|236:275|261:175|332:218|365:158|359:87,1,241.499996380806,0|0,1:0|0:0,0:0:0:0:
315,49,279564,2,0,P|284:74|268:111,1,80.499998793602,0|0,1:0|0:0,0:0:0:0:
408,248,279776,1,8,0:0:0:0:
451,168,279987,1,0,1:0:0:0:
511,357,280198,5,0,0:0:0:0:
484,365,280304,1,0,0:0:0:0:
461,348,280409,1,0,0:0:0:0:
434,340,280515,1,0,0:0:0:0:
411,357,280621,1,0,0:0:0:0:
384,365,280731,1,0,0:0:0:0:
361,348,280842,1,0,0:0:0:0:
334,340,280953,1,0,0:0:0:0:
311,357,281063,5,0,1:0:0:0:
269,323,281174,1,0,1:0:0:0:
219,320,281285,1,0,1:0:0:0:
228,266,281395,1,0,1:0:0:0:
205,221,281506,1,0,1:0:0:0:
256,202,281617,1,0,1:0:0:0:
283,159,281728,2,0,L|289:110,2,46.6666650772095,0|0|0,1:0|1:0|1:0,0:0:0:0:
238,35,281949,6,0,B|148:20|170:85|71:70,1,174.999994039536,8|0,0:0|1:0,0:0:0:0:
9,128,282317,2,0,B|29:151|62:155|62:155|101:207|71:275,1,174.999994039536,8|0,0:0|1:0,0:0:0:0:
219,320,282686,2,0,B|163:310|163:310|130:370|52:363,1,174.999994039536,8|0,0:0|1:0,0:0:0:0:
75,263,283041,2,0,B|118:213|147:212|236:221,1,174.999994039536,8|0,0:0|1:0,0:0:0:0:
371,252,283371,5,8,0:0:0:0:
322,215,283488,1,8,0:0:0:0:
314,171,283605,1,0,1:0:0:0:
278,145,283722,1,0,1:0:0:0:
223,78,283839,6,0,B|253:52|292:59|292:59|306:46|306:46|326:60|362:49|362:49|342:11|295:14,1,210.000000858307,6|0,1:2|0:0,0:0:0:0:
