osu file format v14

[General]
AudioFilename: audio.mp3
AudioLeadIn: 0
PreviewTime: 27313
Countdown: 0
SampleSet: Soft
StackLeniency: 0.3
Mode: 0
LetterboxInBreaks: 0
WidescreenStoryboard: 0

[Editor]
DistanceSpacing: 1.4
BeatDivisor: 4
GridSize: 4
TimelineZoom: 2.578537

[Metadata]
Title:Seven
TitleUnicode:Seven
Artist:Sunny Day Real Estate
ArtistUnicode:Sunny Day Real Estate
Creator:zglock
Version:700 Million
Source:
Tags:diary SDRE midwest emo post hardcore alternative rock english punk 7
BeatmapID:2696974
BeatmapSetID:1300102

[Difficulty]
HPDrainRate:5.7
CircleSize:4.7
OverallDifficulty:8.3
ApproachRate:9.3
SliderMultiplier:3.19999990463257
SliderTickRate:1

[Events]
//Background and Video events
0,0,"funorange.jpg",0,0
//Break Periods
2,27499,31575
2,34615,38567
2,83271,87531
2,90579,94521
2,183367,187728
2,190738,194865
//Storyboard Layer 0 (Background)
//Storyboard Layer 1 (Fail)
//Storyboard Layer 2 (Pass)
//Storyboard Layer 3 (Foreground)
//Storyboard Layer 4 (Overlay)
//Storyboard Sound Samples

[TimingPoints]
1162,451.127819548873,4,2,1,65,1,0
1613,436.363636363637,4,2,1,65,1,0
2158,-100,4,2,1,5,0,0
2267,-100,4,2,1,65,0,0
2485,383.386581469649,4,2,1,65,1,0
2868,451.127819548873,4,2,1,65,1,0
3319,430.107526881721,4,2,1,65,1,0
3856,-100,4,2,1,5,0,0
3964,-100,4,2,1,65,0,0
4179,405.405405405406,4,2,1,65,1,0
4584,441.176470588236,4,2,1,65,1,0
5025,419.58041958042,4,2,1,65,1,0
5549,-100,4,2,1,5,0,0
5654,-100,4,2,1,65,0,0
5864,405.405405405406,4,2,1,65,1,0
6269,410.958904109589,4,2,1,65,1,0
6577,-100,4,2,1,5,0,0
6679,-100,4,2,1,65,0,0
7090,393.44262295082,4,2,1,65,1,0
7876,431.654676258993,4,2,1,65,1,0
8307,413.793103448276,4,2,1,65,1,0
8824,-100,4,2,1,5,0,0
8927,-100,4,2,1,65,0,0
10479,-100,4,2,1,5,0,0
10582,-100,4,2,1,65,0,0
11203,428.571428571429,4,2,1,65,1,0
11631,410.958904109589,4,2,1,65,1,0
12144,-100,4,2,1,5,0,0
12247,-100,4,2,1,65,0,0
12863,408.163265306123,4,2,1,65,1,0
13271,375,4,2,1,65,1,0
14021,394.736842105264,4,2,1,65,1,0
14415,408.163265306122,4,2,1,74,1,0
14415,-80,4,2,1,74,0,0
16047,402.684563758389,4,2,1,74,1,0
16047,-80,4,2,1,74,0,0
18261,377.358490566038,4,2,1,74,1,0
18261,-80,4,2,1,74,0,0
18638,420.31523642732,4,2,1,74,1,0
18638,-80,4,2,1,74,0,0
19268,400,4,2,1,74,1,0
19268,-80,4,2,1,74,0,0
20868,406.779661016949,4,2,1,74,1,0
20868,-80,4,2,1,74,0,0
21478,380.952380952381,4,2,1,74,1,0
21478,-80,4,2,1,74,0,0
21763,485.82995951417,4,2,1,74,1,0
21763,-80,4,2,1,74,0,0
21884,407.470288624788,4,2,1,74,1,0
21884,-80,4,2,1,74,0,0
22495,402.684563758389,4,2,1,74,1,0
22495,-80,4,2,1,74,0,0
24105,408.163265306122,4,2,1,74,1,0
24105,-80,4,2,1,74,0,0
24411,387.096774193548,4,2,1,74,1,0
24411,-80,4,2,1,74,0,0
24701,441.176470588235,4,2,1,74,1,0
24701,-80,4,2,1,74,0,0
24921,370.37037037037,4,2,1,74,1,0
24921,-80,4,2,1,74,0,0
25291,408.163265306122,4,2,1,74,1,0
25291,-80,4,2,1,74,0,0
25699,389.61038961039,4,2,1,73,1,0
25699,-80,4,2,1,73,0,0
26499,397.350993377483,4,2,1,73,1,0
26499,-80,4,2,1,73,0,0
27299,402.549480040255,4,2,1,70,1,0
32129,461.538461538461,4,2,1,60,1,0
32129,-125,4,2,1,60,0,0
32590,459.770114942529,4,2,1,71,1,0
32590,-80,4,2,1,71,0,0
34415,470.698987997176,4,2,1,70,1,0
39121,422.535211267605,4,2,1,65,1,0
39121,-125,4,2,1,65,0,0
39543,444.444444444444,4,2,1,65,1,0
39543,-125,4,2,1,65,0,0
39765,478.087649402389,4,2,1,71,1,0
39765,-80,4,2,1,71,0,0
41199,462.427745664739,4,2,1,71,1,0
41199,-80,4,2,1,71,0,0
41661,442.80442804428,4,2,1,71,1,0
41993,-100,4,2,1,5,0,0
42103,-100,4,2,1,71,0,0
42657,-100,4,2,1,5,0,0
42768,-100,4,2,1,71,0,0
43764,-100,4,2,1,5,0,0
43875,-100,4,2,1,71,0,0
44317,433.212996389891,4,2,1,71,1,0
44750,394.736842105263,4,2,1,71,1,0
44947,451.127819548872,4,2,1,71,1,0
45172,430.10752688172,4,2,1,71,1,0
45494,-100,4,2,1,5,0,0
45602,-100,4,2,1,71,0,0
46139,-100,4,2,1,5,0,0
46247,-100,4,2,1,71,0,0
46462,387.096774193548,4,2,1,71,1,0
46655,458.015267175572,4,2,1,71,1,0
46884,431.654676258992,4,2,1,71,1,0
47315,392.156862745098,4,2,1,71,1,0
48491,425.531914893616,4,2,1,71,1,0
48810,-100,4,2,1,5,0,0
48916,-100,4,2,1,71,0,0
49448,-100,4,2,1,5,0,0
49554,-100,4,2,1,71,0,0
49767,387.096774193548,4,2,1,71,1,0
49960,441.176470588234,4,2,1,71,1,0
50180,428.571428571428,4,2,1,71,1,0
50501,-100,4,2,1,5,0,0
50608,-100,4,2,1,71,0,0
51037,419.580419580419,4,2,1,71,1,0
51456,394.736842105263,4,2,1,71,1,0
51653,463.320463320463,4,2,1,71,1,0
51884,428.571428571428,4,2,1,71,1,0
52205,-100,4,2,1,5,0,0
52312,-100,4,2,1,71,0,0
52526,-99.502487562189,4,2,1,71,0,0
52741,416.666666666666,4,2,1,71,1,0
52845,-100,4,2,1,5,0,0
52949,-100,4,2,1,71,0,0
53157,389.610389610389,4,2,1,71,1,0
53351,447.76119402985,4,2,1,71,1,0
53574,394.736842105263,4,2,1,71,1,0
53968,399.999999999999,4,2,1,71,1,0
54368,374.999999999999,4,2,1,71,1,0
54930,428.571428571427,4,2,1,71,1,0
55168,437.956204379561,4,2,1,71,1,0
55496,-100,4,2,1,5,0,0
55605,-100,4,2,1,71,0,0
56153,-100,4,2,1,5,0,0
56262,-100,4,2,1,71,0,0
56481,374.999999999999,4,2,1,71,1,0
56668,458.01526717557,4,2,1,71,1,0
56897,441.176470588234,4,2,1,71,1,0
57227,-100,4,2,1,5,0,0
57338,-100,4,2,1,71,0,0
57779,419.580419580418,4,2,1,71,1,0
58198,361.445783132529,4,2,1,71,1,0
58378,461.538461538461,4,2,1,71,1,0
58608,410.958904109588,4,2,1,71,1,0
61074,389.610389610389,4,2,1,71,1,0
61463,408.163265306121,4,2,1,71,1,0
61871,444.444444444443,4,2,1,71,1,0
62204,-100,4,2,1,5,0,0
62315,-100,4,2,1,71,0,0
62537,-99.009900990099,4,2,1,71,0,0
62759,428.571428571427,4,2,1,71,1,0
62866,-100,4,2,1,5,0,0
62973,-100,4,2,1,71,0,0
63187,392.156862745097,4,2,1,71,1,0
63383,447.761194029849,4,2,1,71,1,0
63606,419.580419580418,4,2,1,71,1,0
63920,-100,4,2,1,5,0,0
64026,428.571428571427,4,2,1,71,1,0
64883,365.853658536584,4,2,1,71,1,0
65065,487.804878048778,4,2,1,71,1,0
65308,425.531914893615,4,2,1,71,1,0
65627,-100,4,2,1,5,0,0
65733,-100,4,2,1,71,0,0
66265,-100,4,2,1,5,0,0
66371,-100,4,2,1,71,0,0
66585,397.350993377482,4,2,1,71,1,0
67777,413.793103448274,4,2,1,71,1,0
68604,472.440944881888,4,2,1,71,1,0
68604,-125,4,2,1,71,0,0
68958,-125,4,2,1,5,0,0
69076,-125,4,2,1,71,0,0
69312,-122.699386503067,4,2,1,71,0,0
69548,444.444444444443,4,2,1,71,1,0
69548,-125,4,2,1,71,0,0
69659,-125,4,2,1,5,0,0
69770,-125,4,2,1,71,0,0
69992,422.535211267604,4,2,1,71,1,0
69992,-125,4,2,1,71,0,0
70414,-100,4,2,1,71,0,0
70837,458.015267175571,4,2,1,71,1,0
71066,431.654676258991,4,2,1,71,1,0
71066,-125,4,2,1,71,0,0
71389,-125,4,2,1,5,0,0
71497,-125,4,2,1,71,0,0
71713,444.444444444443,4,2,1,71,1,0
71713,-125,4,2,1,71,0,0
72157,461.53846153846,4,2,1,71,1,0
72157,-125,4,2,1,71,0,0
72503,-125,4,2,1,5,0,0
72618,-125,4,2,1,71,0,0
72849,-123.0012300123,4,2,1,71,0,0
73080,437.95620437956,4,2,1,71,1,0
73080,-125,4,2,1,71,0,0
73189,-125,4,2,1,5,0,0
73298,-125,4,2,1,71,0,0
73955,474.308300395255,4,2,1,71,1,0
73955,-80,4,2,1,71,0,0
75852,461.53846153846,4,2,1,71,1,0
75852,-125,4,2,1,71,0,0
76890,-125,4,2,1,5,0,0
77005,-125,4,2,1,71,0,0
77236,425.531914893616,4,2,1,71,1,0
77236,-125,4,2,1,71,0,0
77661,-100,4,2,1,71,0,0
78299,-127.388535031847,4,2,1,71,0,0
78512,451.127819548871,4,2,1,71,1,0
78512,-125,4,2,1,71,0,0
78624,-125,4,2,1,5,0,0
78737,-125,4,2,1,71,0,0
79414,468.749999999998,4,2,1,71,1,0
79414,-125,4,2,1,71,0,0
79765,-125,4,2,1,5,0,0
79882,441.176470588234,4,2,1,71,1,0
79882,-125,4,2,1,71,0,0
80433,-125,4,2,1,5,0,0
80543,-125,4,2,1,71,0,0
80764,444.444444444443,4,2,1,71,1,0
80764,-125,4,2,1,71,0,0
81214,465.116279069766,4,2,1,71,1,0
81214,-80,4,2,1,71,0,0
81562,-84.0336134453781,4,2,1,71,0,0
81679,508.474576271184,4,2,1,71,1,0
81679,-80,4,2,1,71,0,0
82187,447.761194029849,4,2,1,71,1,0
82187,-80,4,2,1,71,0,0
82634,437.956204379561,4,2,1,71,1,0
82634,-80,4,2,1,71,0,0
83071,455.857772375019,4,2,1,70,1,0
88085,434.782608695651,4,2,1,60,1,0
88085,-125,4,2,1,60,0,0
88519,469.667318982386,4,2,1,71,1,0
88519,-80,4,2,1,71,0,0
90379,469.667318982386,4,2,1,70,1,0
95075,428.571428571427,4,2,1,65,1,0
95075,-125,4,2,1,65,0,0
95503,441.176470588234,4,2,1,65,1,0
95503,-125,4,2,1,65,0,0
95723,478.087649402389,4,2,1,71,1,0
95723,-80,4,2,1,71,0,0
96440,495.867768595039,4,2,1,71,1,0
96440,-80,4,2,1,71,0,0
96811,453.68620037807,4,2,1,71,1,0
96811,-80,4,2,1,71,0,0
97151,454.545454545453,4,2,1,71,1,0
97151,-80,4,2,1,71,0,0
97605,472.440944881888,4,2,1,71,1,0
97959,-100,4,2,1,5,0,0
98077,436.363636363635,4,2,1,71,1,0
98622,-100,4,2,1,5,0,0
98731,-100,4,2,1,71,0,0
98949,384.615384615384,4,2,1,71,1,0
99141,466.926070038909,4,2,1,71,1,0
99374,447.76119402985,4,2,1,71,1,0
99709,-100,4,2,1,5,0,0
99821,428.571428571428,4,2,1,71,1,0
100678,382.165605095541,4,2,1,71,1,0
100869,434.782608695651,4,2,1,71,1,0
101086,451.127819548871,4,2,1,71,1,0
101424,-100,4,2,1,5,0,0
101537,422.535211267605,4,2,1,71,1,0
102065,-100,4,2,1,5,0,0
102170,-100,4,2,1,71,0,0
102382,410.958904109588,4,2,1,71,1,0
103203,397.350993377483,4,2,1,71,1,0
103600,408.163265306122,4,2,1,71,1,0
104008,419.580419580419,4,2,1,71,1,0
104427,431.654676258992,4,2,1,71,1,0
104750,-100,4,2,1,5,0,0
104858,-100,4,2,1,71,0,0
105398,-100,4,2,1,5,0,0
105506,-100,4,2,1,71,0,0
105721,405.405405405404,4,2,1,71,1,0
106126,454.545454545453,4,2,1,71,1,0
106466,-100,4,2,1,5,0,0
106580,425.531914893616,4,2,1,71,1,0
107431,397.350993377483,4,2,1,71,1,0
107629,454.545454545453,4,2,1,71,1,0
107856,425.531914893616,4,2,1,71,1,0
108175,-100,4,2,1,5,0,0
108282,422.535211267605,4,2,1,71,1,0
108810,-100,4,2,1,5,0,0
108915,-100,4,2,1,71,0,0
109127,408.163265306122,4,2,1,71,1,0
109943,363.636363636363,4,2,1,71,1,0
110306,410.958904109588,4,2,1,71,1,0
111127,428.571428571428,4,2,1,71,1,0
111448,-100,4,2,1,5,0,0
111555,437.956204379561,4,2,1,71,1,0
112102,-100,4,2,1,5,0,0
112211,-100,4,2,1,71,0,0
112430,370.37037037037,4,2,1,71,1,0
112615,447.76119402985,4,2,1,71,1,0
112838,447.76119402985,4,2,1,71,1,0
113173,-100,4,2,1,5,0,0
113285,425.531914893616,4,2,1,71,1,0
113905,463.320463320462,4,2,1,71,1,0
114136,397.350993377483,4,2,1,71,1,0
114533,408.163265306122,4,2,1,71,1,0
114941,427.046263345195,4,2,1,71,1,0
115795,408.163265306122,4,2,1,71,1,0
116203,416.666666666666,4,2,1,71,1,0
116619,397.350993377483,4,2,1,71,1,0
117413,441.176470588234,4,2,1,71,1,0
117854,422.535211267605,4,2,1,71,1,0
118170,-100,4,2,1,5,0,0
118276,-100,4,2,1,71,0,0
118804,-100,4,2,1,5,0,0
118910,-100,4,2,1,71,0,0
119121,387.096774193548,4,2,1,71,1,0
119314,441.176470588234,4,2,1,71,1,0
119534,444.444444444443,4,2,1,71,1,0
119867,-100,4,2,1,5,0,0
119978,413.793103448275,4,2,1,71,1,0
120805,394.736842105263,4,2,1,71,1,0
121002,451.127819548871,4,2,1,71,1,0
121227,454.545454545453,4,2,1,71,1,0
121567,-100,4,2,1,5,0,0
121681,405.405405405404,4,2,1,71,1,0
122187,-100,4,2,1,5,0,0
122289,-100,4,2,1,71,0,0
122491,408.163265306122,4,2,1,71,1,0
122899,389.610389610389,4,2,1,71,1,0
123288,427.807486631015,4,2,1,71,1,0
123715,419.580419580419,4,2,1,71,1,0
124134,444.444444444443,4,2,1,71,1,0
124578,451.127819548872,4,2,1,71,1,0
124578,-125,4,2,1,71,0,0
124916,-125,4,2,1,5,0,0
125029,468.749999999999,4,2,1,71,1,0
125029,-125,4,2,1,71,0,0
125614,-125,4,2,1,5,0,0
125732,-125,4,2,1,71,0,0
125966,392.156862745098,4,2,1,71,1,0
125966,-125,4,2,1,71,0,0
126162,447.76119402985,4,2,1,71,1,0
126162,-125,4,2,1,71,0,0
126385,410.958904109589,4,2,1,71,1,0
126795,476.190476190475,4,2,1,71,1,0
127033,-122.399020807834,4,2,1,71,0,0
127271,444.444444444444,4,2,1,71,1,0
127271,-125,4,2,1,71,0,0
127382,-125,4,2,1,5,0,0
127493,-125,4,2,1,71,0,0
128159,465.116279069767,4,2,1,71,1,0
128159,-125,4,2,1,71,0,0
128507,-125,4,2,1,5,0,0
128624,447.76119402985,4,2,1,71,1,0
128624,-125,4,2,1,71,0,0
129183,-125,4,2,1,5,0,0
129295,-125,4,2,1,71,0,0
129519,434.782608695652,4,2,1,71,1,0
129519,-125,4,2,1,71,0,0
129953,470.588235294117,4,2,1,71,1,0
129953,-80,4,2,1,71,0,0
131835,454.545454545454,4,2,1,71,1,0
131835,-125,4,2,1,71,0,0
132289,468.749999999999,4,2,1,71,1,0
132289,-125,4,2,1,71,0,0
132523,-123.456790123457,4,2,1,71,0,0
132757,451.127819548872,4,2,1,71,1,0
132757,-125,4,2,1,71,0,0
132869,-125,4,2,1,5,0,0
132982,-125,4,2,1,71,0,0
133208,434.782608695652,4,2,1,71,1,0
133208,-125,4,2,1,71,0,0
133642,-100,4,2,1,71,0,0
134077,465.116279069767,4,2,1,71,1,0
134309,-117.647058823529,4,2,1,71,0,0
134542,377.358490566037,4,2,1,71,1,0
134542,-125,4,2,1,71,0,0
134636,-125,4,2,1,5,0,0
134730,468.749999999999,4,2,1,71,1,0
134730,-125,4,2,1,71,0,0
134964,451.127819548872,4,2,1,71,1,0
134964,-125,4,2,1,71,0,0
135415,479.999999999999,4,2,1,71,1,0
135415,-125,4,2,1,71,0,0
135775,-125,4,2,1,5,0,0
135895,444.444444444444,4,2,1,71,1,0
135895,-125,4,2,1,71,0,0
136117,-123.456790123457,4,2,1,71,0,0
136339,425.531914893616,4,2,1,71,1,0
136339,-125,4,2,1,71,0,0
136445,-125,4,2,1,5,0,0
136551,-125,4,2,1,71,0,0
136764,441.176470588235,4,2,1,71,1,0
136764,-125,4,2,1,71,0,0
137205,452.830188679245,4,2,1,71,1,0
137205,-80,4,2,1,71,0,0
139016,468.749999999999,4,2,1,71,1,0
139016,-80,4,2,1,71,0,0
139953,451.127819548872,4,2,1,71,1,0
139953,-80,4,2,1,71,0,0
140404,423.280423280423,4,2,1,71,1,0
140404,-80,4,2,1,71,0,0
140827,397.350993377484,4,2,1,71,1,0
141125,458.015267175573,4,2,1,71,1,0
141468,397.350993377484,4,2,1,71,1,0
141766,439.56043956044,4,2,1,71,1,0
142535,454.545454545454,4,2,1,80,1,1
142535,-90.9090909090909,4,2,1,80,0,1
143557,-90.9090909090909,4,2,1,5,0,1
143671,-90.9090909090909,4,2,1,80,0,1
143898,384.615384615384,4,2,1,80,1,1
143898,-90.9090909090909,4,2,1,80,0,1
144090,498.960498960499,4,2,1,80,1,1
144090,-90.9090909090909,4,2,1,80,0,1
144339,454.545454545454,4,2,1,80,1,1
144339,-90.9090909090909,4,2,1,80,0,1
144679,-90.9090909090909,4,2,1,5,0,1
144793,-90.9090909090909,4,2,1,80,0,1
145020,-86.9565217391304,4,2,1,80,0,1
145248,394.736842105263,4,2,1,80,1,1
145248,-90.9090909090909,4,2,1,80,0,1
145346,-90.9090909090909,4,2,1,5,0,1
145445,-90.9090909090909,4,2,1,80,0,1
145642,444.444444444444,4,2,1,80,1,1
145642,-90.9090909090909,4,2,1,80,0,1
146086,437.956204379562,4,2,1,80,1,1
146086,-90.9090909090909,4,2,1,80,0,1
146523,428.571428571428,4,2,1,80,1,1
146523,-90.9090909090909,4,2,1,80,0,1
147058,-90.9090909090909,4,2,1,5,0,1
147165,-90.9090909090909,4,2,1,80,0,1
147380,408.163265306122,4,2,1,80,1,1
147380,-90.9090909090909,4,2,1,80,0,1
147571,434.782608695652,4,2,1,80,1,1
147571,-90.9090909090909,4,2,1,80,0,1
147788,431.654676258992,4,2,1,80,1,1
147788,-90.9090909090909,4,2,1,80,0,1
148651,400,4,2,1,80,1,1
148651,-90.9090909090909,4,2,1,80,0,1
149051,394.736842105263,4,2,1,80,1,1
149051,-90.9090909090909,4,2,1,80,0,1
149473,434.782608695652,4,2,1,80,1,1
149473,-90.9090909090909,4,2,1,80,0,1
150342,425.531914893617,4,2,1,80,1,1
150342,-90.9090909090909,4,2,1,80,0,1
151193,444.444444444444,4,2,1,80,1,1
151193,-90.9090909090909,4,2,1,80,0,1
151637,413.793103448276,4,2,1,80,1,1
151637,-90.9090909090909,4,2,1,80,0,1
152464,437.956204379562,4,2,1,80,1,1
152464,-90.9090909090909,4,2,1,80,0,1
153230,-90.9090909090909,4,2,1,5,0,1
153339,425.531914893617,4,2,1,80,1,1
153339,-90.9090909090909,4,2,1,80,0,1
153870,-90.9090909090909,4,2,1,5,0,1
153977,-90.9090909090909,4,2,1,80,0,1
154190,361.44578313253,4,2,1,80,1,1
154190,-90.9090909090909,4,2,1,80,0,1
154370,461.538461538461,4,2,1,80,1,1
154370,-90.9090909090909,4,2,1,80,0,1
154600,424.028268551237,4,2,1,80,1,1
154600,-90.9090909090909,4,2,1,80,0,1
155024,402.684563758389,4,2,1,80,1,1
155024,-90.9090909090909,4,2,1,80,0,1
155829,419.58041958042,4,2,1,80,1,1
155829,-90.9090909090909,4,2,1,80,0,1
156563,-90.9090909090909,4,2,1,5,0,1
156668,431.654676258993,4,2,1,80,1,1
156668,-90.9090909090909,4,2,1,80,0,1
157207,-90.9090909090909,4,2,1,5,0,1
157315,-90.9090909090909,4,2,1,80,0,1
157531,400,4,2,1,80,1,1
157531,-90.9090909090909,4,2,1,80,0,1
157731,463.320463320464,4,2,1,80,1,1
157731,-90.9090909090909,4,2,1,80,0,1
157962,432.432432432433,4,2,1,80,1,1
157962,-90.9090909090909,4,2,1,80,0,1
158286,-90.9090909090909,4,2,1,5,0,1
158394,422.535211267606,4,2,1,80,1,1
158394,-90.9090909090909,4,2,1,80,0,1
158922,-90.9090909090909,4,2,1,5,0,1
159027,-90.9090909090909,4,2,1,80,0,1
160612,-90.9090909090909,4,2,1,5,0,1
160717,-90.9090909090909,4,2,1,80,0,1
160929,384.615384615385,4,2,1,80,1,1
160929,-90.9090909090909,4,2,1,80,0,1
161121,436.363636363637,4,2,1,80,1,1
161121,-90.9090909090909,4,2,1,80,0,1
161339,434.782608695652,4,2,1,80,1,1
161339,-90.9090909090909,4,2,1,80,0,1
161773,397.350993377483,4,2,1,80,1,1
161773,-90.9090909090909,4,2,1,80,0,1
162170,410.958904109589,4,2,1,80,1,1
162170,-90.9090909090909,4,2,1,80,0,1
162580,384.615384615385,4,2,1,80,1,1
162580,-90.9090909090909,4,2,1,80,0,1
162991,441.176470588235,4,2,1,80,1,1
162991,-90.9090909090909,4,2,1,80,0,1
163432,416.666666666667,4,2,1,80,1,1
163432,-90.9090909090909,4,2,1,80,0,1
164265,419.58041958042,4,2,1,80,1,1
164265,-90.9090909090909,4,2,1,80,0,1
165523,416.666666666667,4,2,1,80,1,1
165523,-90.9090909090909,4,2,1,80,0,1
166356,419.58041958042,4,2,1,80,1,1
166356,-90.9090909090909,4,2,1,80,0,1
167300,-90.9090909090909,4,2,1,5,0,1
167404,-90.9090909090909,4,2,1,80,0,1
168034,434.782608695652,4,2,1,80,1,1
168034,-90.9090909090909,4,2,1,80,0,1
168468,441.176470588235,4,2,1,80,1,1
168468,-90.9090909090909,4,2,1,80,0,1
168909,419.58041958042,4,2,1,80,1,1
168909,-90.9090909090909,4,2,1,80,0,1
169643,419.58041958042,4,2,1,80,1,1
169643,-90.9090909090909,4,2,1,80,0,1
170901,387.096774193549,4,2,1,80,1,1
170901,-90.9090909090909,4,2,1,80,0,1
171288,425.531914893617,4,2,1,80,1,1
171288,-90.9090909090909,4,2,1,80,0,1
171607,-90.9090909090909,4,2,1,5,0,1
171713,419.58041958042,4,2,1,80,1,1
171713,-90.9090909090909,4,2,1,80,0,1
172971,410.958904109589,4,2,1,80,1,1
172971,-90.9090909090909,4,2,1,80,0,1
173792,400,4,2,1,80,1,1
173792,-90.9090909090909,4,2,1,80,0,1
174192,372.670807453416,4,2,1,80,1,1
174192,-90.9090909090909,4,2,1,80,0,1
174378,472.44094488189,4,2,1,80,1,1
174378,-90.9090909090909,4,2,1,80,0,1
174614,411.663807890223,4,2,1,80,1,1
174614,-90.9090909090909,4,2,1,80,0,1
175025,392.156862745098,4,2,1,80,1,1
175025,-90.9090909090909,4,2,1,80,0,1
176201,408.163265306123,4,2,1,80,1,1
176201,-90.9090909090909,4,2,1,80,0,1
177833,451.127819548873,4,2,1,80,1,1
177833,-90.9090909090909,4,2,1,80,0,1
178171,-90.9090909090909,4,2,1,5,0,1
178284,416.666666666667,4,2,1,80,1,1
178284,-90.9090909090909,4,2,1,80,0,1
178804,-90.9090909090909,4,2,1,5,0,1
178909,-90.9090909090909,4,2,1,80,0,1
179117,402.684563758389,4,2,1,80,1,1
179117,-90.9090909090909,4,2,1,80,0,1
179318,433.996383363472,4,2,1,80,1,1
179318,-90.9090909090909,4,2,1,80,0,1
179534,405.405405405406,4,2,1,80,1,1
179534,-90.9090909090909,4,2,1,80,0,1
179939,437.956204379563,4,2,1,80,1,1
179939,-90.9090909090909,4,2,1,80,0,1
180376,451.127819548873,4,2,1,80,1,1
180376,-90.9090909090909,4,2,1,80,0,1
181278,472.44094488189,4,2,1,80,1,1
181278,-80,4,2,1,80,0,1
183167,426.287744227354,4,2,1,70,1,0
188282,392.156862745098,4,2,1,60,1,0
188282,-125,4,2,1,60,0,0
188674,476.190476190476,4,2,1,71,1,0
188674,-80,4,2,1,71,0,0
189626,446.096654275093,4,2,1,71,1,0
189626,-80,4,2,1,71,0,0
190072,466.019417475728,4,2,1,71,1,0
190072,-80,4,2,1,71,0,0
190538,406.779661016949,4,2,1,70,1,0
195419,-125,4,2,1,65,0,0
195826,476.190476190477,4,2,1,65,1,0
195826,-125,4,2,1,65,0,0
196064,480,4,2,1,71,1,0
196064,-80,4,2,1,71,0,0
197024,455.698509865873,4,2,1,71,1,0
197024,-80,4,2,1,71,0,0
197137,428.571428571429,4,2,1,71,1,0
197137,-80,4,2,1,71,0,0
197351,512.820512820513,4,2,1,71,1,0
197351,-80,4,2,1,71,0,0
197479,445.269016697588,4,2,1,71,1,0
197479,-80,4,2,1,71,0,0
197924,458.015267175573,4,2,1,71,1,0
198267,-100,4,2,1,5,0,0
198382,442.804428044281,4,2,1,71,1,0
198935,-100,4,2,1,5,0,0
199046,-100,4,2,1,71,0,0
199267,375,4,2,1,71,1,0
199454,427.046263345196,4,2,1,71,1,0
199667,444.444444444445,4,2,1,71,1,0
200000,-100,4,2,1,5,0,0
200111,-100,4,2,1,71,0,0
200555,425.531914893617,4,2,1,71,1,0
200980,372.670807453416,4,2,1,71,1,0
201166,480,4,2,1,71,1,0
201406,441.176470588236,4,2,1,71,1,0
201736,-100,4,2,1,5,0,0
201847,-100,4,2,1,71,0,0
202067,-99.009900990099,4,2,1,71,0,0
202288,422.535211267606,4,2,1,71,1,0
202393,-100,4,2,1,5,0,0
202499,-100,4,2,1,71,0,0
202710,377.358490566038,4,2,1,71,1,0
202898,451.127819548872,4,2,1,71,1,0
203123,425.531914893617,4,2,1,71,1,0
203548,338.983050847458,4,2,1,71,1,0
203717,427.046263345196,4,2,1,71,1,0
203930,397.350993377484,4,2,1,71,1,0
204724,422.535211267606,4,2,1,71,1,0
205040,-100,4,2,1,5,0,0
205146,-100,4,2,1,71,0,0
205674,-100,4,2,1,5,0,0
205780,-100,4,2,1,71,0,0
205991,389.61038961039,4,2,1,71,1,0
206185,458.015267175573,4,2,1,71,1,0
206414,454.545454545455,4,2,1,71,1,0
206754,-100,4,2,1,5,0,0
206868,434.782608695653,4,2,1,71,1,0
207737,375,4,2,1,71,1,0
207924,452.830188679246,4,2,1,71,1,0
208150,441.176470588235,4,2,1,71,1,0
208480,-100,4,2,1,5,0,0
208591,428.571428571429,4,2,1,71,1,0
209126,-100,4,2,1,5,0,0
209233,-100,4,2,1,71,0,0
209448,372.670807453416,4,2,1,71,1,0
209634,454.545454545455,4,2,1,71,1,0
209861,425.531914893617,4,2,1,71,1,0
210286,392.156862745098,4,2,1,71,1,0
211462,444.444444444445,4,2,1,71,1,0
211795,-100,4,2,1,5,0,0
211906,-100,4,2,1,71,0,0
212462,-100,4,2,1,5,0,0
212573,-100,4,2,1,71,0,0
212795,375,4,2,1,71,1,0
212982,415.22491349481,4,2,1,71,1,0
213189,441.176470588235,4,2,1,71,1,0
213519,-100,4,2,1,5,0,0
213630,433.212996389891,4,2,1,71,1,0
214496,375,4,2,1,71,1,0
214683,427.046263345196,4,2,1,71,1,0
214896,422.535211267605,4,2,1,71,1,0
215318,419.580419580419,4,2,1,71,1,0
216157,415.224913494809,4,2,1,71,1,0
216987,397.350993377483,4,2,1,71,1,0
217384,404.040404040404,4,2,1,71,1,0
217788,384.615384615384,4,2,1,71,1,0
217980,425.531914893617,4,2,1,71,1,0
218192,441.176470588235,4,2,1,71,1,0
218522,-100,4,2,1,5,0,0
218633,442.80442804428,4,2,1,71,1,0
219186,-100,4,2,1,5,0,0
219297,-100,4,2,1,71,0,0
219518,365.853658536585,4,2,1,71,1,0
219700,480,4,2,1,71,1,0
219940,431.654676258993,4,2,1,71,1,0
220263,-100,4,2,1,5,0,0
220371,-100,4,2,1,71,0,0
221234,392.156862745098,4,2,1,71,1,0
221430,447.761194029851,4,2,1,71,1,0
221653,451.127819548872,4,2,1,71,1,0
221991,-100,4,2,1,5,0,0
222104,416.666666666666,4,2,1,71,1,0
222312,-101.317122593718,4,2,1,71,0,0
222520,437.956204379562,4,2,1,71,1,0
222629,-100,4,2,1,5,0,0
222738,-100,4,2,1,71,0,0
222957,408.163265306122,4,2,1,71,1,0
223365,382.165605095541,4,2,1,71,1,0
223747,405.405405405405,4,2,1,71,1,0
224557,441.176470588235,4,2,1,71,1,0
224998,476.190476190475,4,2,1,71,1,0
224998,-125,4,2,1,71,0,0
225355,-125,4,2,1,5,0,0
225474,444.444444444444,4,2,1,71,1,0
225474,-125,4,2,1,71,0,0
226029,-125,4,2,1,5,0,0
226140,-125,4,2,1,71,0,0
226362,441.176470588235,4,2,1,71,1,0
226362,-125,4,2,1,71,0,0
226803,-100,4,2,1,71,0,0
227464,-123.456790123457,4,2,1,71,0,0
227685,422.535211267605,4,2,1,71,1,0
227685,-125,4,2,1,71,0,0
227790,-125,4,2,1,5,0,0
227896,-125,4,2,1,71,0,0
228107,454.545454545454,4,2,1,71,1,0
228107,-125,4,2,1,71,0,0
228561,479.999999999999,4,2,1,71,1,0
228561,-125,4,2,1,71,0,0
228921,-125,4,2,1,5,0,0
229041,441.176470588235,4,2,1,71,1,0
229041,-125,4,2,1,71,0,0
229592,-125,4,2,1,5,0,0
229702,-125,4,2,1,71,0,0
230364,466.92607003891,4,2,1,71,1,0
230364,-80,4,2,1,71,0,0
232231,476.190476190475,4,2,1,71,1,0
232231,-125,4,2,1,71,0,0
232707,451.127819548871,4,2,1,71,1,0
232707,-125,4,2,1,71,0,0
233270,-125,4,2,1,5,0,0
233383,-125,4,2,1,71,0,0
233609,444.444444444444,4,2,1,71,1,0
233609,-125,4,2,1,71,0,0
234053,437.956204379561,4,2,1,71,1,0
234709,-125,4,2,1,71,0,0
235038,-125,4,2,1,5,0,0
235147,-125,4,2,1,71,0,0
235366,458.015267175572,4,2,1,71,1,0
235366,-125,4,2,1,71,0,0
235824,476.190476190475,4,2,1,71,1,0
235824,-125,4,2,1,71,0,0
236181,-125,4,2,1,5,0,0
236300,437.956204379561,4,2,1,71,1,0
236300,-125,4,2,1,71,0,0
236847,-125,4,2,1,5,0,0
236956,-125,4,2,1,71,0,0
237613,470.588235294117,4,2,1,71,1,0
237613,-80,4,2,1,71,0,0
239495,461.538461538461,4,2,1,71,1,0
239495,-80,4,2,1,71,0,0
240418,499.999999999999,4,2,1,71,1,0
240418,-80,4,2,1,71,0,0
240543,479.999999999999,4,2,1,71,1,0
240543,-80,4,2,1,71,0,0
240783,387.096774193548,4,2,1,71,1,0
240783,-80,4,2,1,71,0,0
240879,461.538461538461,4,2,1,71,1,0
240879,-80,4,2,1,71,0,0
241341,411.663807890223,4,2,1,71,1,0
242164,423.280423280423,4,2,1,71,1,0
242587,405.405405405405,4,2,1,71,1,0
242789,515.021459227467,4,2,1,71,1,0
243046,441.176470588236,4,2,1,80,1,1
243046,-90.9090909090909,4,2,1,80,0,1
243487,454.545454545455,4,2,1,80,1,1
243487,-90.9090909090909,4,2,1,80,0,1
244055,-90.9090909090909,4,2,1,5,0,1
244168,-90.9090909090909,4,2,1,80,0,1
244396,392.156862745098,4,2,1,80,1,1
244396,-90.9090909090909,4,2,1,80,0,1
244592,465.116279069768,4,2,1,80,1,1
244592,-90.9090909090909,4,2,1,80,0,1
244824,428.571428571429,4,2,1,80,1,1
244824,-90.9090909090909,4,2,1,80,0,1
245146,-90.9090909090909,4,2,1,5,0,1
245253,419.58041958042,4,2,1,80,1,1
245253,-90.9090909090909,4,2,1,80,0,1
245777,-90.9090909090909,4,2,1,5,0,1
245882,-90.9090909090909,4,2,1,80,0,1
246092,441.176470588236,4,2,1,80,1,1
246092,-90.9090909090909,4,2,1,80,0,1
246974,431.654676258994,4,2,1,80,1,1
246974,-90.9090909090909,4,2,1,80,0,1
247513,-90.9090909090909,4,2,1,5,0,1
247621,-90.9090909090909,4,2,1,80,0,1
247837,382.165605095542,4,2,1,80,1,1
247837,-90.9090909090909,4,2,1,80,0,1
248028,463.320463320464,4,2,1,80,1,1
248028,-90.9090909090909,4,2,1,80,0,1
248259,422.535211267606,4,2,1,80,1,1
248259,-90.9090909090909,4,2,1,80,0,1
248576,-90.9090909090909,4,2,1,5,0,1
248682,410.95890410959,4,2,1,80,1,1
248682,-90.9090909090909,4,2,1,80,0,1
249503,387.096774193549,4,2,1,80,1,1
249503,-90.9090909090909,4,2,1,80,0,1
249890,441.176470588236,4,2,1,80,1,1
249890,-90.9090909090909,4,2,1,80,0,1
250331,416.666666666667,4,2,1,80,1,1
250331,-90.9090909090909,4,2,1,80,0,1
251164,422.535211267606,4,2,1,80,1,1
251164,-90.9090909090909,4,2,1,80,0,1
251586,437.956204379562,4,2,1,80,1,1
251586,-90.9090909090909,4,2,1,80,0,1
252023,408.163265306123,4,2,1,80,1,1
252023,-90.9090909090909,4,2,1,80,0,1
252839,451.127819548873,4,2,1,80,1,1
252839,-90.9090909090909,4,2,1,80,0,1
253290,441.176470588236,4,2,1,80,1,1
253290,-90.9090909090909,4,2,1,80,0,1
253620,-90.9090909090909,4,2,1,5,0,1
253731,434.782608695653,4,2,1,80,1,1
253731,-90.9090909090909,4,2,1,80,0,1
254274,-90.9090909090909,4,2,1,5,0,1
254383,-90.9090909090909,4,2,1,80,0,1
254600,363.636363636364,4,2,1,80,1,1
254600,-90.9090909090909,4,2,1,80,0,1
254781,465.116279069768,4,2,1,80,1,1
254781,-90.9090909090909,4,2,1,80,0,1
255013,434.782608695653,4,2,1,80,1,1
255013,-90.9090909090909,4,2,1,80,0,1
255447,394.736842105263,4,2,1,80,1,1
255447,-90.9090909090909,4,2,1,80,0,1
256236,441.176470588236,4,2,1,80,1,1
256236,-90.9090909090909,4,2,1,80,0,1
257008,-90.9090909090909,4,2,1,5,0,1
257118,-90.9090909090909,4,2,1,80,0,1
257669,-90.9090909090909,4,2,1,5,0,1
257780,-90.9090909090909,4,2,1,80,0,1
258000,379.746835443039,4,2,1,80,1,1
258000,-90.9090909090909,4,2,1,80,0,1
258189,449.438202247191,4,2,1,80,1,1
258189,-90.9090909090909,4,2,1,80,0,1
258413,444.444444444445,4,2,1,80,1,1
258413,-90.9090909090909,4,2,1,80,0,1
258746,-90.9090909090909,4,2,1,5,0,1
258857,408.163265306123,4,2,1,80,1,1
258857,-90.9090909090909,4,2,1,80,0,1
259367,-90.9090909090909,4,2,1,5,0,1
259469,-90.9090909090909,4,2,1,80,0,1
259673,444.444444444445,4,2,1,80,1,1
259673,-90.9090909090909,4,2,1,80,0,1
260561,434.782608695653,4,2,1,80,1,1
260561,-90.9090909090909,4,2,1,80,0,1
261104,-90.9090909090909,4,2,1,5,0,1
261213,-90.9090909090909,4,2,1,80,0,1
261430,357.142857142858,4,2,1,80,1,1
261430,-90.9090909090909,4,2,1,80,0,1
261608,454.545454545455,4,2,1,80,1,1
261608,-90.9090909090909,4,2,1,80,0,1
261835,428.571428571429,4,2,1,80,1,1
261835,-90.9090909090909,4,2,1,80,0,1
262156,-90.9090909090909,4,2,1,5,0,1
262263,405.405405405406,4,2,1,80,1,1
262263,-90.9090909090909,4,2,1,80,0,1
263073,413.793103448277,4,2,1,80,1,1
263073,-90.9090909090909,4,2,1,80,0,1
263486,434.782608695653,4,2,1,80,1,1
263486,-90.9090909090909,4,2,1,80,0,1
263920,413.793103448277,4,2,1,80,1,1
263920,-90.9090909090909,4,2,1,80,0,1
265575,419.58041958042,4,2,1,80,1,1
265575,-90.9090909090909,4,2,1,80,0,1
265994,405.405405405406,4,2,1,80,1,1
265994,-90.9090909090909,4,2,1,80,0,1
266804,444.444444444445,4,2,1,80,1,1
266804,-90.9090909090909,4,2,1,80,0,1
267470,-88.4955752212389,4,2,1,80,0,1
267692,408.163265306123,4,2,1,80,1,1
267692,-90.9090909090909,4,2,1,80,0,1
267794,-90.9090909090909,4,2,1,5,0,1
267896,-90.9090909090909,4,2,1,80,0,1
268916,384.615384615385,4,2,1,80,1,1
268916,-90.9090909090909,4,2,1,80,0,1
269685,434.782608695653,4,2,1,80,1,1
269685,-90.9090909090909,4,2,1,80,0,1
270119,422.535211267606,4,2,1,80,1,1
270119,-90.9090909090909,4,2,1,80,0,1
272126,-90.9090909090909,4,2,1,5,0,1
272231,-90.9090909090909,4,2,1,80,0,1
272654,413.793103448276,4,2,1,80,1,1
272654,-90.9090909090909,4,2,1,80,0,1
272757,-90.9090909090909,4,2,1,5,0,1
272860,-90.9090909090909,4,2,1,80,0,1
273067,434.782608695653,4,2,1,80,1,1
273067,-90.9090909090909,4,2,1,80,0,1
273936,422.535211267606,4,2,1,80,1,1
273936,-90.9090909090909,4,2,1,80,0,1
274781,379.746835443038,4,2,1,80,1,1
274781,-90.9090909090909,4,2,1,80,0,1
274970,442.804428044281,4,2,1,80,1,1
274970,-90.9090909090909,4,2,1,80,0,1
275191,454.545454545455,4,2,1,80,1,1
275191,-90.9090909090909,4,2,1,80,0,1
275645,385.852090032155,4,2,1,80,1,1
275645,-90.9090909090909,4,2,1,80,0,1
276416,422.535211267606,4,2,1,80,1,1
276416,-90.9090909090909,4,2,1,80,0,1
277261,408.163265306123,4,2,1,80,1,1
277261,-90.9090909090909,4,2,1,80,0,1
278077,359.281437125749,4,2,1,80,1,1
278077,-90.9090909090909,4,2,1,80,0,1
278256,458.015267175573,4,2,1,80,1,1
278256,-90.9090909090909,4,2,1,80,0,1
278485,446.096654275093,4,2,1,80,1,1
278485,-90.9090909090909,4,2,1,80,0,1
278819,-90.9090909090909,4,2,1,5,0,1
278931,422.535211267606,4,2,1,80,1,1
278931,-90.9090909090909,4,2,1,80,0,1
279459,-90.9090909090909,4,2,1,5,0,1
279564,-90.9090909090909,4,2,1,80,0,1
279776,422.535211267606,4,2,1,80,1,1
279776,-90.9090909090909,4,2,1,80,0,1
280621,442.804428044281,4,2,1,80,1,1
280621,-90.9090909090909,4,2,1,80,0,1
281949,491.803278688525,4,2,1,80,1,1
281949,-80,4,2,1,80,0,1
282932,439.56043956044,4,2,1,80,1,1
282932,-80,4,2,1,80,0,1
283371,468.75,4,2,1,80,1,1
283371,-80,4,2,1,80,0,1
283839,-66.6666666666667,4,2,1,80,0,0

[Colours]
Combo1 : 235,232,118
Combo2 : 197,216,243
Combo3 : 203,188,196
Combo4 : 255,215,179
Combo5 : 214,213,201
Combo6 : 240,191,251

[HitObjects]
386,115,1161,5,4,1:2:0:0:
305,78,1387,1,0,0:0:0:0:
424,35,1613,1,8,0:0:0:0:
314,167,1831,2,0,B|192:199|217:89|76:121,1,239.999992847443,0|0,1:0|0:0,0:0:0:0:
88,118,2267,1,0,1:0:0:0:
166,294,2485,2,0,P|154:255|128:225,1,79.9999976158142,8|0,0:0|0:0,0:0:0:0:
77,299,2676,1,0,1:0:0:0:
301,349,2868,5,4,1:2:0:0:
214,368,3093,1,0,0:0:0:0:
166,294,3319,1,8,0:0:0:0:
388,330,3534,2,0,B|468:298|499:171|364:177|379:253,1,239.999992847443,0|0,1:0|0:0,0:0:0:0:
378,250,3964,1,0,1:0:0:0:
461,144,4179,2,0,P|500:179|515:209,1,79.9999976158142,8|0,0:0|0:0,0:0:0:0:
503,321,4381,1,0,1:0:0:0:
314,194,4584,6,0,B|303:125|303:125|312:99|312:99|302:32,1,159.999995231628,4|0,1:2|0:0,0:0:0:0:
234,88,4914,1,0,1:0:0:0:
213,102,5025,2,0,B|161:112|161:112|120:94,1,79.9999976158142,8|0,0:0|0:0,0:0:0:0:
24,7,5234,2,0,B|42:62|-4:95|-4:95|18:122|18:122|-25:161|0:218,1,239.999992847443,0|0,1:0|0:0,0:0:0:0:
0,216,5654,1,0,1:0:0:0:
136,101,5864,2,0,L|143:188,1,79.9999976158142,8|0,0:0|0:0,0:0:0:0:
225,237,6066,1,0,1:0:0:0:
91,349,6269,6,0,B|33:342|36:257|151:232|199:366,1,239.999992847443,4|0,1:2|0:0,0:0:0:0:
299,282,6679,2,0,P|272:325|269:362,1,79.9999976158142,8|0,0:0|0:0,0:0:0:0:
268,353,6885,1,0,1:0:0:0:
142,180,7090,1,0,1:0:0:0:
357,229,7286,2,0,L|444:208,1,79.9999976158142,8|0,0:0|0:0,0:0:0:0:
494,93,7483,1,0,1:0:0:0:
494,93,7581,1,8,0:0:0:0:
482,132,7680,1,8,0:0:0:0:
512,188,7778,1,8,0:0:0:0:
493,266,7876,37,4,1:2:0:0:
474,344,8091,1,0,0:0:0:0:
435,211,8307,1,8,0:0:0:0:
268,353,8513,2,0,B|206:373|163:319|163:319|159:338|159:338|121:290|37:324,1,239.999992847443,0|0,1:0|0:0,0:0:0:0:
66,314,8927,1,0,1:0:0:0:
207,202,9134,2,0,P|229:234|236:274,1,79.9999976158142,8|0,0:0|0:0,0:0:0:0:
112,217,9341,1,0,1:0:0:0:
242,113,9548,6,0,P|251:39|181:53,1,159.999995231628,4|0,1:2|0:0,0:0:0:0:
169,118,9858,1,0,0:0:0:0:
169,118,9962,1,8,0:0:0:0:
386,44,10169,2,0,B|413:184|299:132|339:294,1,239.999992847443,0|0,1:0|0:0,0:0:0:0:
333,267,10582,1,0,1:0:0:0:
468,290,10789,2,0,P|452:254|423:228,1,79.9999976158142,8|0,0:0|0:0,0:0:0:0:
389,346,10996,1,0,1:0:0:0:
235,276,11203,5,4,1:2:0:0:
192,365,11417,1,0,0:0:0:0:
102,321,11631,1,8,0:0:0:0:
248,192,11836,2,0,B|162:108|69:154|104:246|177:221,1,239.999992847443,0|0,1:0|0:0,0:0:0:0:
168,223,12247,1,0,1:0:0:0:
293,130,12452,2,0,P|320:217|309:238,1,79.9999976158142,8|0,0:0|0:0,0:0:0:0:
235,276,12658,1,0,1:0:0:0:
243,73,12863,6,0,B|297:46|297:46|390:102,1,159.999995231628,4|0,1:2|0:0,0:0:0:0:
472,101,13169,1,0,1:0:0:0:
460,121,13271,2,0,B|438:158|438:158|449:210,1,79.9999976158142,8|0,0:0|0:0,0:0:0:0:
411,295,13458,1,8,0:0:0:0:
427,298,13521,1,8,0:0:0:0:
443,301,13583,1,8,0:0:0:0:
458,303,13646,5,8,0:0:0:0:
427,368,13739,1,8,0:0:0:0:
354,384,13833,1,8,0:0:0:0:
291,346,13927,1,8,0:0:0:0:
269,279,14021,1,8,0:0:0:0:
225,221,14119,1,8,0:0:0:0:
154,211,14218,1,8,0:0:0:0:
85,232,14317,1,8,0:0:0:0:
31,282,14415,22,0,P|84:202|47:114,1,199.999994039536,4|0,1:2|0:0,0:0:0:0:
193,73,14721,2,0,B|89:102|113:10|3:49,1,199.999994039536,8|0,0:0|0:0,0:0:0:0:
234,0,15027,2,0,B|282:9|315:60|298:113|298:113|298:77|255:48,1,199.999994039536,0|0,1:0|0:0,0:0:0:0:
421,5,15333,1,8,0:0:0:0:
462,64,15435,2,0,B|433:82|433:82|392:74,2,66.6666646798452,0|0|0,1:0|0:0|0:0,0:0:0:0:
364,214,15639,5,8,0:0:0:0:
436,179,15741,1,8,0:0:0:0:
491,202,15843,1,0,1:0:0:0:
502,240,15945,1,0,1:0:0:0:
478,317,16047,6,0,B|442:290|403:309|403:309|388:290|388:290|352:338|286:316,1,199.999994039536,4|0,1:2|0:0,0:0:0:0:
103,287,16349,2,0,B|215:313|181:223|298:245,1,199.999994039536,8|0,0:0|0:0,0:0:0:0:
342,100,16651,2,0,B|354:42|286:27|241:81|303:171,1,199.999994039536,0|0,1:2|0:0,0:0:0:0:
157,114,16953,1,8,0:0:0:0:
144,181,17053,2,0,B|177:184|177:184|203:164,2,66.6666646798452,0|0|0,1:0|0:0|0:0,0:0:0:0:
50,0,17255,5,8,0:0:0:0:
0,62,17355,1,8,0:0:0:0:
21,118,17456,1,0,1:0:0:0:
5,154,17557,1,0,1:0:0:0:
51,218,17657,38,0,P|83:275|-29:348,1,199.999994039536,4|0,1:2|0:0,0:0:0:0:
143,362,17959,1,8,0:0:0:0:
143,362,18060,2,0,P|194:383|244:377,1,99.9999970197678,2|0,0:0|0:0,0:0:0:0:
298,159,18261,2,0,B|330:170|310:291|235:185|201:306,1,199.999994039536,0|0,1:0|0:0,0:0:0:0:
223,171,18544,1,8,0:0:0:0:
223,171,18638,2,0,P|186:148|182:189,1,99.9999970197678,0|0,1:0|0:0,0:0:0:0:
293,323,18848,1,8,0:0:0:0:
367,352,18953,1,8,0:0:0:0:
422,329,19058,1,0,1:0:0:0:
437,292,19163,1,0,1:0:0:0:
512,334,19268,6,0,P|506:240|417:210,1,199.999994039536,4|0,1:2|0:0,0:0:0:0:
491,138,19568,1,8,0:0:0:0:
491,138,19668,2,0,P|506:91|478:46,1,99.9999970197678,2|0,0:0|0:0,0:0:0:0:
224,131,19868,2,0,B|328:158|309:70|424:104,1,199.999994039536,0|0,1:0|0:0,0:0:0:0:
264,60,20168,1,8,0:0:0:0:
264,60,20268,2,0,P|209:14|243:-40,1,99.9999970197678,0|0,1:0|0:0,0:0:0:0:
285,213,20468,1,8,0:0:0:0:
227,268,20568,1,8,0:0:0:0:
168,254,20668,1,0,1:0:0:0:
139,226,20768,1,0,1:0:0:0:
123,148,20868,6,0,B|48:147|19:220|19:220|70:266,1,199.999994039536,4|0,1:2|0:0,0:0:0:0:
86,384,21173,2,0,B|101:353|138:354|138:354|69:327|-17:329,1,199.999994039536,8|0,0:0|0:0,0:0:0:0:
227,268,21478,2,0,P|207:305|310:288,1,199.999994039536,0|0,1:0|0:0,0:0:0:0:
436,253,21763,1,8,0:0:0:0:
453,322,21884,2,0,B|420:332|420:332|395:309,2,66.6666646798452,0|0|0,1:0|0:0|0:0,0:0:0:0:
420,62,22087,5,8,0:0:0:0:
464,128,22189,1,8,0:0:0:0:
435,180,22291,1,0,1:0:0:0:
396,192,22393,1,0,1:0:0:0:
321,161,22495,38,0,B|300:146|295:110|295:110|350:73|353:12|353:12|312:37,1,199.999994039536,4|0,1:2|0:0,0:0:0:0:
207,97,22797,2,0,B|158:111|101:89|79:51|79:51|113:69|163:49,1,199.999994039536,8|0,0:0|0:0,0:0:0:0:
46,227,23099,2,0,B|164:253|138:162|258:186,1,199.999994039536,0|0,1:0|0:0,0:0:0:0:
206,334,23401,1,8,0:0:0:0:
275,303,23501,2,0,B|262:272|262:272|226:260,2,66.6666646798452,0|0|0,1:0|0:0|0:0,0:0:0:0:
396,194,23703,5,8,0:0:0:0:
356,262,23803,1,8,0:0:0:0:
373,319,23904,1,0,1:0:0:0:
408,337,24005,1,0,1:0:0:0:
483,314,24105,6,0,L|466:97,1,199.999994039536,4|0,1:2|0:0,0:0:0:0:
435,18,24411,1,8,0:0:0:0:
435,18,24507,2,0,P|406:8|425:69,1,99.9999970197678,2|0,0:0|0:0,0:0:0:0:
196,85,24701,2,0,B|198:144|251:186|312:173|340:130,1,199.999994039536,0|0,1:0|0:0,0:0:0:0:
216,234,25013,1,8,0:0:0:0:
216,234,25106,2,0,P|170:237|169:180,1,99.9999970197678,0|0,1:0|0:0,0:0:0:0:
286,40,25291,5,8,0:0:0:0:
93,142,25495,1,0,1:0:0:0:
73,143,25563,1,0,0:0:0:0:
53,144,25631,1,0,0:0:0:0:
32,145,25699,5,8,0:0:0:0:
63,75,25796,1,8,0:0:0:0:
131,54,25893,1,8,0:0:0:0:
196,85,25991,1,8,0:0:0:0:
221,152,26088,1,8,0:0:0:0:
196,219,26186,1,8,0:0:0:0:
215,288,26283,1,8,0:0:0:0:
280,320,26380,1,8,0:0:0:0:
350,300,26499,21,8,1:2:0:0:
353,285,26598,1,0,1:0:0:0:
358,265,26697,1,0,1:0:0:0:
363,245,26797,1,0,1:0:0:0:
437,235,26896,5,0,1:2:0:0:
434,220,26995,1,0,1:0:0:0:
429,200,27095,1,0,1:0:0:0:
424,180,27194,1,0,1:0:0:0:
350,170,27299,5,4,1:2:0:0:
294,137,32129,54,0,B|355:120|355:120|372:182,1,127.999996185303,2|0,0:0|0:0,0:0:0:0:
373,181,32475,1,0,1:0:0:0:
245,58,32590,54,0,B|182:104|210:179|210:179|141:211,1,199.999994039536,12|0,0:2|1:0,0:0:0:0:
7,265,32934,2,0,B|43:246|80:279|80:279|101:264|101:264|140:295|191:274,1,199.999994039536,10|0,0:2|1:0,0:0:0:0:
70,186,33279,2,0,B|18:79|64:32|160:78|100:145,1,199.999994039536,10|0,0:0|1:0,0:0:0:0:
245,58,33624,2,0,B|136:74|166:-7|59:6,1,199.999994039536,10|0,0:0|1:0,0:0:0:0:
270,153,33969,5,8,0:0:0:0:
342,117,34084,1,8,0:0:0:0:
358,60,34199,1,0,1:0:0:0:
344,22,34314,1,0,1:0:0:0:
332,15,34415,5,4,1:2:0:0:
193,249,39121,86,0,L|198:286,1,31.9999990463257,8|8,0:0|0:0,0:0:0:0:
298,168,39332,5,8,0:0:0:0:
234,159,39437,1,8,0:0:0:0:
170,150,39543,2,0,L|181:70,1,63.9999980926514,2|0,1:2|0:0,0:0:0:0:
290,246,39765,38,0,B|345:246|369:200|369:200|379:206|379:206|396:160|458:156,1,199.999994039536,8|0,0:2|1:0,0:0:0:0:
441,333,40123,2,0,B|402:217|402:217|457:148,1,199.999994039536,10|0,0:0|1:0,0:0:0:0:
368,10,40482,2,0,P|383:97|301:57,1,199.999994039536,10|0,0:0|1:0,0:0:0:0:
133,132,40840,2,0,B|134:160|242:158|188:65|322:78,1,199.999994039536,10|0,0:0|1:0,0:0:0:0:
25,26,41199,5,8,0:0:0:0:
69,92,41314,1,8,0:0:0:0:
61,151,41430,1,0,1:0:0:0:
37,182,41545,1,0,1:0:0:0:
30,232,41661,6,0,P|141:241|182:369,1,239.999992847443,4|0,1:2|0:0,0:0:0:0:
188,348,42103,1,8,0:0:0:0:
415,292,42325,2,0,B|394:330|303:315|354:175|211:211,1,239.999992847443,0|0,1:0|0:0,0:0:0:0:
223,209,42768,1,0,1:0:0:0:
280,0,42989,1,8,0:0:0:0:
265,6,43210,1,0,1:0:0:0:
438,193,43432,6,0,P|463:110|371:158,1,239.999992847443,0|0,1:0|0:0,0:0:0:0:
369,150,43875,1,8,0:0:0:0:
169,91,44096,1,0,1:0:0:0:
169,91,44533,1,0,1:0:0:0:
0,0,44750,1,8,0:0:0:0:
8,14,44947,1,0,1:0:0:0:
115,214,45172,6,0,B|153:160|78:101|-1:182|74:304,1,239.999992847443,0|0,1:0|0:0,0:0:0:0:
63,286,45602,1,8,0:0:0:0:
210,182,45817,2,0,P|216:272|348:269,1,239.999992847443,0|0,1:0|0:0,0:0:0:0:
343,275,46247,2,0,P|369:251|445:242,1,79.9999976158142,0|0,1:0|0:0,0:0:0:0:
501,356,46462,1,8,0:0:0:0:
496,340,46655,1,0,1:0:0:0:
512,172,46884,6,0,B|427:190|443:128|348:147,1,159.999995231628,0|0,1:0|0:0,0:0:0:0:
358,145,47207,1,0,1:0:0:0:
318,82,47315,2,0,P|285:120|282:155,1,79.9999976158142,8|0,0:0|0:0,0:0:0:0:
210,182,47511,2,0,P|218:231|243:256,1,79.9999976158142,0|0,1:0|0:0,0:0:0:0:
212,102,47707,1,0,1:0:0:0:
156,305,47903,1,8,0:0:0:0:
38,323,48099,1,0,1:0:0:0:
32,308,48197,1,8,0:0:0:0:
37,276,48295,1,8,0:0:0:0:
63,235,48393,1,8,0:0:0:0:
45,178,48491,38,0,P|36:71|178:73,1,239.999992847443,4|0,1:2|0:0,0:0:0:0:
145,43,48916,1,8,0:0:0:0:
311,162,49129,2,0,B|212:137|242:211|121:202|108:120,1,239.999992847443,0|0,1:0|0:0,0:0:0:0:
108,120,49554,1,0,1:0:0:0:
277,252,49767,1,8,0:0:0:0:
275,267,49960,1,0,1:0:0:0:
391,175,50180,6,0,B|440:75|404:-33|281:46|362:120,1,239.999992847443,0|0,1:0|0:0,0:0:0:0:
341,93,50608,1,8,0:0:0:0:
462,260,50822,1,0,1:0:0:0:
462,260,51246,1,0,1:0:0:0:
296,381,51456,1,8,0:0:0:0:
282,372,51653,1,0,1:0:0:0:
116,261,51884,6,0,B|103:342|242:323|188:230|320:267,1,239.999992847443,0|0,1:0|0:0,0:0:0:0:
310,264,52313,1,8,0:0:0:0:
183,199,52527,2,0,P|140:112|255:74,1,239.999992847443,0|0,1:0|0:0,0:0:0:0:
247,68,52949,2,0,P|273:106|265:160,1,79.9999976158142,0|0,1:0|0:0,0:0:0:0:
306,0,53157,1,8,0:0:0:0:
321,4,53351,1,0,1:0:0:0:
119,86,53574,6,0,P|27:76|2:20,1,159.999995231628,0|0,1:0|0:0,0:0:0:0:
30,163,53870,1,0,1:0:0:0:
18,173,53968,2,0,P|4:217|2:269,1,79.9999976158142,10|0,0:0|0:0,0:0:0:0:
90,313,54168,2,0,L|154:326,2,53.3333317438762,8|8|8,0:0|0:0|0:0,0:0:0:0:
202,246,54368,5,0,1:0:0:0:
214,255,54461,1,0,1:0:0:0:
245,258,54555,1,0,1:0:0:0:
283,228,54649,1,8,0:0:0:0:
354,216,54743,5,8,0:0:0:0:
420,242,54836,1,8,0:0:0:0:
452,306,54930,1,0,1:0:0:0:
445,337,55037,1,0,1:0:0:0:
434,348,55168,6,0,P|394:254|428:97,1,239.999992847443,4|0,1:2|0:0,0:0:0:0:
414,120,55605,1,8,0:0:0:0:
181,17,55824,2,0,P|211:109|332:76,1,239.999992847443,0|0,1:0|0:0,0:0:0:0:
328,82,56262,1,0,1:0:0:0:
313,300,56481,1,8,0:0:0:0:
305,285,56668,1,0,1:0:0:0:
100,351,56897,6,0,B|134:217|39:257|77:90,1,239.999992847443,0|0,1:0|0:0,0:0:0:0:
71,119,57338,1,8,0:0:0:0:
272,205,57558,1,0,1:0:0:0:
272,205,57988,1,0,1:0:0:0:
450,93,58198,1,8,0:0:0:0:
466,89,58378,1,0,1:0:0:0:
372,333,58608,6,0,P|380:253|402:177,1,159.999995231628,0|0,1:0|0:0,0:0:0:0:
376,108,58916,1,0,1:0:0:0:
364,96,59018,1,8,0:0:0:0:
205,142,59224,2,0,P|193:203|274:197,1,159.999995231628,0|0,1:0|0:0,0:0:0:0:
275,135,59532,1,8,0:0:0:0:
287,123,59634,1,0,1:0:0:0:
103,142,59840,1,8,0:0:0:0:
106,157,60046,1,0,1:0:0:0:
250,23,60251,6,0,B|159:10|196:67|89:46,1,159.999995231628,0|0,1:0|0:0,0:0:0:0:
29,11,60560,1,0,1:0:0:0:
29,11,60662,2,0,P|12:93|5:175,1,159.999995231628,8|0,0:0|0:0,0:0:0:0:
5,168,60971,1,0,1:0:0:0:
67,226,61073,1,8,0:0:0:0:
67,226,61171,1,0,1:0:0:0:
4,369,61366,1,0,1:0:0:0:
15,349,61463,1,0,1:0:0:0:
20,363,61565,1,0,1:0:0:0:
1,353,61667,1,8,0:0:0:0:
279,283,61871,38,0,B|277:211|149:218|196:325|87:306,1,239.999992847443,4|0,1:2|0:0,0:0:0:0:
86,305,62315,1,8,0:0:0:0:
342,235,62537,2,0,P|328:345|212:329,1,239.999992847443,0|0,1:0|0:0,0:0:0:0:
221,339,62973,1,0,1:0:0:0:
402,184,63187,1,8,0:0:0:0:
409,197,63383,1,0,1:0:0:0:
270,124,63606,6,0,P|366:43|485:61,1,239.999992847443,0|0,1:0|0:0,0:0:0:0:
473,54,64026,1,8,0:0:0:0:
281,0,64240,1,0,1:0:0:0:
281,0,64668,1,0,1:0:0:0:
129,110,64883,1,8,0:0:0:0:
138,123,65065,1,0,1:0:0:0:
321,175,65308,6,0,B|195:144|221:247|85:214,1,239.999992847443,0|0,1:0|0:0,0:0:0:0:
93,215,65734,1,8,0:0:0:0:
277,264,65946,2,0,P|381:252|399:116,1,239.999992847443,0|0,1:0|0:0,0:0:0:0:
409,134,66372,2,0,P|402:109|414:44,1,79.9999976158142,0|0,1:0|0:0,0:0:0:0:
472,17,66585,1,8,0:0:0:0:
486,11,66783,1,0,1:0:0:0:
268,29,66982,6,0,P|314:106|319:186,1,159.999995231628,0|0,1:0|0:0,0:0:0:0:
352,17,67280,1,0,1:0:0:0:
360,4,67379,1,8,0:0:0:0:
205,81,67578,2,0,L|116:72,1,79.9999976158142
61,3,67777,37,0,1:0:0:0:
47,17,67880,1,0,1:0:0:0:
37,34,67983,1,0,1:0:0:0:
31,53,68087,1,0,1:0:0:0:
30,73,68190,5,0,1:0:0:0:
22,70,68294,1,0,1:0:0:0:
15,65,68397,1,0,1:0:0:0:
9,59,68501,1,0,1:0:0:0:
64,138,68604,70,0,P|38:204|26:337,1,191.999994277954,4|0,1:2|0:0,0:0:0:0:
24,323,69076,2,0,P|45:288|51:242,1,63.9999980926514,0|0,1:0|0:0,0:0:0:0:
244,266,69312,2,0,P|218:200|206:67,1,191.999994277954,12|0,0:0|0:0,0:0:0:0:
204,81,69770,2,0,P|225:116|231:162,1,63.9999980926514,0|0,1:0|0:0,0:0:0:0:
330,148,69992,2,0,P|309:183|303:229,1,63.9999980926514,8|0,0:0|0:0,0:0:0:0:
300,51,70203,1,0,1:0:0:0:
472,212,70414,54,0,B|437:228|437:228|398:214,1,79.9999976158142,0|0,1:0|0:0,0:0:0:0:
411,320,70625,2,0,B|373:315|373:315|346:284,1,79.9999976158142,2|0,0:0|1:0,0:0:0:0:
303,383,70837,2,0,B|272:360|272:360|265:319,1,79.9999976158142,2|0,0:0|1:0,0:0:0:0:
435,144,71066,22,0,P|468:78|379:89,1,191.999994277954,8|0,0:0|0:0,0:0:0:0:
382,78,71497,1,0,1:0:0:0:
230,138,71713,1,8,0:0:0:0:
169,158,71824,1,8,0:0:0:0:
119,146,71935,1,0,1:0:0:0:
98,113,72046,1,0,1:0:0:0:
107,52,72157,6,0,P|65:123|52:232,1,191.999994277954,4|0,1:2|0:0,0:0:0:0:
51,230,72618,1,0,1:0:0:0:
230,138,72849,2,0,P|272:209|285:318,1,191.999994277954,12|0,0:0|0:0,0:0:0:0:
285,316,73298,1,0,1:0:0:0:
129,347,73517,2,0,B|101:314|101:314|203:340,1,127.999996185303,8|0,0:0|1:0,0:0:0:0:
247,380,73809,1,0,1:0:0:0:
247,380,73882,1,0,1:0:0:0:
247,380,73955,38,0,P|320:334|464:330,1,199.999994039536,8|0,0:0|1:0,0:0:0:0:
512,216,74310,2,0,B|482:266|383:256|440:166|310:187,1,199.999994039536,8|0,0:0|1:0,0:0:0:0:
190,125,74666,2,0,B|235:135|262:104|262:104|278:115|278:115|317:77|389:99,1,199.999994039536,8|0,0:0|1:0,0:0:0:0:
206,48,75022,2,0,P|121:83|147:192,1,199.999994039536,8|0,0:0|1:0,0:0:0:0:
262,246,75377,5,8,0:0:0:0:
187,216,75496,1,8,0:0:0:0:
134,246,75615,1,0,1:0:0:0:
117,284,75733,1,0,1:0:0:0:
132,327,75852,6,0,P|169:323|255:380,1,127.999996185303,4|0,1:2|0:0,0:0:0:0:
68,216,76313,1,0,1:0:0:0:
263,247,76544,2,0,B|352:233|390:171|324:121,1,191.999994277954,12|0,0:0|0:0,0:0:0:0:
325,122,77005,1,0,1:0:0:0:
366,287,77236,2,0,P|391:303|430:313,1,63.9999980926514,8|0,0:0|0:0,0:0:0:0:
461,252,77448,2,0,P|487:238|515:209,1,63.9999980926514,0|0,1:0|0:0,0:0:0:0:
491,21,77661,54,0,L|479:102,1,79.9999976158142,0|0,1:0|0:0,0:0:0:0:
394,11,77874,2,0,L|382:91,1,79.9999976158142,2|0,0:0|1:0,0:0:0:0:
296,0,78087,2,0,L|284:80,1,79.9999976158142,2|0,0:0|1:0,0:0:0:0:
194,157,78299,22,0,B|94:188|114:109|0:147,1,191.999994277954,8|0,0:0|0:0,0:0:0:0:
51,231,78737,1,0,1:0:0:0:
53,243,78812,1,8,0:0:0:0:
56,255,78887,1,8,0:0:0:0:
59,267,78963,5,8,0:0:0:0:
120,234,79075,1,8,0:0:0:0:
176,247,79188,1,0,1:0:0:0:
201,283,79301,1,0,1:0:0:0:
265,303,79414,6,0,P|357:296|455:338,1,191.999994277954,4|0,1:2|0:0,0:0:0:0:
447,332,79882,2,0,L|417:270,1,63.9999980926514,0|0,1:0|0:0,0:0:0:0:
330,141,80102,2,0,P|422:148|520:106,1,191.999994277954,12|0,0:0|0:0,0:0:0:0:
512,111,80543,2,0,L|481:173,1,63.9999980926514,0|0,1:0|0:0,0:0:0:0:
245,89,80764,2,0,B|259:79|286:77|286:77|246:111|256:172,1,127.999996185303,8|0,0:0|1:0,0:0:0:0:
303,214,81060,1,0,1:0:0:0:
303,214,81134,1,0,1:0:0:0:
303,214,81214,22,0,B|267:164|169:186|246:278|141:295,1,199.999994039536,8|0,0:0|1:0,0:0:0:0:
4,324,81562,2,0,B|119:284|92:387|192:358,1,199.999994039536,8|0,0:0|1:0,0:0:0:0:
135,217,81933,2,0,B|76:193|76:193|75:98|139:60,1,199.999994039536,8|0,0:0|1:0,0:0:0:0:
244,17,82298,2,0,B|192:19|172:57|172:57|156:41|156:41|102:64|46:-3,1,199.999994039536,8|0,0:0|1:0,0:0:0:0:
242,94,82634,5,8,0:0:0:0:
309,56,82743,1,8,0:0:0:0:
368,65,82852,1,0,1:0:0:0:
392,96,82962,1,0,1:0:0:0:
431,36,83071,5,4,1:2:0:0:
143,254,88085,86,0,B|204:229|204:229|235:284,1,127.999996185303,2|0,0:0|1:0,0:0:0:0:
234,283,88411,1,0,1:0:0:0:
368,352,88519,54,0,B|302:343|302:343|253:367|253:367|175:357,1,199.999994039536,8|0,0:0|1:0,0:0:0:0:
315,270,88871,2,0,B|361:218|361:218|330:90,1,199.999994039536,8|0,0:0|1:0,0:0:0:0:
172,48,89223,2,0,B|288:69|245:-13|366:8,1,199.999994039536,8|0,0:0|1:0,0:0:0:0:
512,103,89575,2,0,B|464:120|427:94|427:94|411:111|411:111|372:72|290:101,1,199.999994039536,8|0,0:0|1:0,0:0:0:0:
445,183,89928,5,8,0:0:0:0:
493,246,90045,1,8,0:0:0:0:
496,305,90162,1,0,1:0:0:0:
478,341,90280,1,0,1:0:0:0:
466,352,90379,5,4,1:2:0:0:
345,54,95075,86,0,L|335:90,1,31.9999990463257,8|8,0:0|0:0,0:0:0:0:
436,16,95289,5,8,0:0:0:0:
453,77,95396,1,8,0:0:0:0:
470,138,95503,2,0,L|443:234,1,63.9999980926514,2|0,1:2|0:0,0:0:0:0:
412,316,95723,38,0,B|335:333|335:333|277:297|304:222,1,199.999994039536,8|0,0:0|1:0,0:0:0:0:
149,183,96081,2,0,B|182:177|212:207|212:207|243:134|313:141,1,199.999994039536,8|0,0:0|1:0,0:0:0:0:
152,261,96440,2,0,P|157:336|210:261,1,199.999994039536,8|0,0:0|1:0,0:0:0:0:
147,97,96811,2,0,B|74:107|63:181|63:181|-5:148,1,199.999994039536,8|0,0:0|1:0,0:0:0:0:
130,24,97151,5,8,0:0:0:0:
204,51,97264,1,8,0:0:0:0:
259,28,97378,1,0,1:0:0:0:
297,38,97491,1,0,1:0:0:0:
340,21,97605,6,0,P|437:67|512:184,1,239.999992847443,4|0,1:2|0:0,0:0:0:0:
509,174,98077,1,8,0:0:0:0:
336,220,98295,2,0,B|354:271|449:242|413:108|286:119,1,239.999992847443,0|0,1:0|0:0,0:0:0:0:
301,118,98731,1,0,1:0:0:0:
320,353,98949,1,8,0:0:0:0:
333,343,99141,1,0,1:0:0:0:
69,233,99374,6,0,B|213:196|164:322|323:274,1,239.999992847443,0|0,1:0|0:0,0:0:0:0:
292,281,99821,1,8,0:0:0:0:
509,174,100035,1,0,1:0:0:0:
509,174,100463,1,0,1:0:0:0:
304,41,100678,1,8,0:0:0:0:
313,27,100869,1,0,1:0:0:0:
434,211,101086,6,0,P|382:139|231:164,1,239.999992847443,0|0,1:0|0:0,0:0:0:0:
243,151,101537,1,8,0:0:0:0:
22,91,101748,2,0,B|61:166|180:136|119:52|232:65,1,239.999992847443,0|0,1:0|0:0,0:0:0:0:
224,64,102170,2,0,P|176:43|149:46,1,79.9999976158142,0|0,1:0|0:0,0:0:0:0:
0,175,102382,1,8,0:0:0:0:
7,189,102587,1,0,1:0:0:0:
228,233,102792,6,0,P|150:253|81:202,1,159.999995231628,0|0,1:0|0:0,0:0:0:0:
87,212,103101,1,0,1:0:0:0:
30,259,103203,2,0,P|15:295|16:340,1,79.9999976158142,8|0,0:0|0:0,0:0:0:0:
104,333,103401,2,0,P|127:364|167:385,1,79.9999976158142,0|0,1:0|0:0,0:0:0:0:
228,326,103600,1,0,1:0:0:0:
167,161,103804,1,8,0:0:0:0:
393,265,104008,1,8,0:0:0:0:
466,203,104217,1,8,0:0:0:0:
469,143,104321,1,8,0:0:0:0:
473,83,104427,38,0,B|417:34|417:34|326:87|381:179,1,239.999992847443,4|0,1:2|0:0,0:0:0:0:
377,173,104858,1,8,0:0:0:0:
197,43,105074,2,0,P|276:6|248:104,1,239.999992847443,0|0,1:0|0:0,0:0:0:0:
248,104,105506,1,0,1:0:0:0:
305,294,105721,1,8,0:0:0:0:
313,280,105923,1,0,1:0:0:0:
483,356,106126,6,0,B|355:322|389:423|246:377,1,239.999992847443,0|0,1:0|0:0,0:0:0:0:
253,379,106580,1,8,0:0:0:0:
465,277,106792,1,0,1:0:0:0:
465,277,107218,1,0,1:0:0:0:
252,202,107431,1,8,0:0:0:0:
256,217,107629,1,0,1:0:0:0:
422,69,107856,6,0,B|429:-8|300:-9|334:92|215:50,1,239.999992847443,0|0,1:0|0:0,0:0:0:0:
224,53,108282,1,8,0:0:0:0:
63,181,108493,2,0,P|153:202|136:88,1,239.999992847443,0|0,1:0|0:0,0:0:0:0:
143,90,108915,2,0,P|104:86|63:120,1,79.9999976158142,0|0,1:0|0:0,0:0:0:0:
21,251,109127,1,8,0:0:0:0:
30,264,109331,1,0,1:0:0:0:
252,202,109535,6,0,P|221:278|217:367,1,159.999995231628,0|0,1:0|0:0,0:0:0:0:
290,384,109841,1,0,1:0:0:0:
304,374,109943,2,0,P|339:363|394:357,1,79.9999976158142,8|0,0:0|0:0,0:0:0:0:
467,305,110124,2,0,L|475:253,2,53.3333317438762,0|8|8,1:0|0:0|0:0,0:0:0:0:
444,148,110306,5,8,0:0:0:0:
382,111,110408,1,0,0:2:0:0:
329,131,110511,1,0,1:0:0:0:
316,169,110614,1,8,0:0:0:0:
252,202,110716,5,8,0:0:0:0:
185,174,110819,1,0,1:0:0:0:
162,122,110922,1,0,1:0:0:0:
178,85,111025,1,0,1:0:0:0:
226,62,111127,6,0,B|190:25|69:25|116:121|-10:97,1,239.999992847443,4|0,1:2|0:0,0:0:0:0:
6,99,111555,1,8,0:0:0:0:
103,293,111773,2,0,B|161:204|101:85|8:181|65:233,1,239.999992847443,0|0,1:0|0:0,0:0:0:0:
55,222,112211,1,0,1:0:0:0:
207,363,112430,1,8,0:0:0:0:
203,347,112615,1,0,1:0:0:0:
373,217,112838,6,0,B|458:173|497:306|418:380,1,239.999992847443,0|0,1:0|0:0,0:0:0:0:
422,375,113285,1,8,0:0:0:0:
253,245,113497,1,0,1:0:0:0:
253,245,113905,1,0,1:0:0:0:
427,128,114136,1,8,0:0:0:0:
422,112,114334,1,0,1:0:0:0:
329,309,114533,6,0,P|240:268|165:294,1,159.999995231628,0|0,1:0|0:0,0:0:0:0:
135,344,114839,1,0,1:0:0:0:
124,355,114941,1,8,0:0:0:0:
97,163,115154,2,0,P|160:138|157:206,1,159.999995231628,0|0,1:0|0:0,0:0:0:0:
95,234,115474,1,8,0:0:0:0:
85,246,115581,2,0,P|43:231|-10:247,1,79.9999976158142,0|0,1:0|1:0,0:0:0:0:
213,353,115795,1,8,0:0:0:0:
224,364,115999,1,0,1:0:0:0:
303,194,116203,6,0,L|290:22,1,159.999995231628,0|0,1:0|0:0,0:0:0:0:
364,1,116515,1,0,1:0:0:0:
364,1,116619,2,0,B|456:-8|423:60|517:49,1,159.999995231628,8|0,0:0|0:0,0:0:0:0:
509,49,116917,1,0,1:0:0:0:
471,120,117016,1,8,0:0:0:0:
471,120,117115,1,0,1:0:0:0:
512,276,117314,1,0,1:0:0:0:
493,262,117413,1,0,1:0:0:0:
497,278,117523,1,0,1:0:0:0:
510,261,117633,1,8,0:0:0:0:
303,194,117854,38,0,P|216:196|186:338,1,239.999992847443,4|0,1:2|0:0,0:0:0:0:
177,325,118276,1,8,0:0:0:0:
450,359,118487,2,0,B|438:411|304:379|388:271|263:280,1,239.999992847443,0|0,1:0|0:0,0:0:0:0:
263,279,118910,1,0,1:0:0:0:
97,372,119121,1,8,0:0:0:0:
73,365,119314,1,0,1:0:0:0:
111,150,119534,6,0,B|87:107|155:37|231:124|160:235,1,239.999992847443,0|0,1:0|0:0,0:0:0:0:
163,230,119978,1,8,0:0:0:0:
390,256,120184,1,0,1:0:0:0:
390,256,120598,1,0,1:0:0:0:
415,29,120805,1,8,0:0:0:0:
421,51,121002,1,0,1:0:0:0:
512,187,121227,6,0,B|383:214|419:99|293:115,1,239.999992847443,0|0,1:0|0:0,0:0:0:0:
296,115,121681,1,8,0:0:0:0:
324,301,121883,2,0,P|347:210|248:246,1,239.999992847443,0|0,1:0|0:0,0:0:0:0:
248,240,122289,2,0,P|241:276|200:311,1,79.9999976158142,0|0,1:0|0:0,0:0:0:0:
168,236,122491,1,8,0:0:0:0:
56,322,122695,2,0,L|61:385,2,53.3333317438762
81,237,122899,5,0,0:0:0:0:
84,217,122996,1,0,0:0:0:0:
84,197,123093,1,0,0:0:0:0:
80,178,123191,1,0,0:0:0:0:
72,159,123288,1,0,0:0:0:0:
60,143,123394,1,0,0:0:0:0:
45,130,123501,1,0,0:0:0:0:
27,121,123608,1,0,0:0:0:0:
8,115,123715,37,8,0:0:0:0:
42,52,123819,1,8,0:0:0:0:
105,86,123924,5,0,0:0:0:0:
124,82,124028,1,0,0:0:0:0:
144,78,124134,1,0,1:0:0:0:
163,74,124245,1,0,1:0:0:0:
183,70,124356,1,0,1:0:0:0:
203,66,124467,1,0,1:0:0:0:
266,97,124578,70,0,P|278:168|200:130,1,191.999994277954,4|0,1:2|0:0,0:0:0:0:
200,136,125029,2,0,P|191:165|209:213,1,63.9999980926514,0|0,1:0|0:0,0:0:0:0:
344,207,125263,2,0,P|415:194|377:272,1,191.999994277954,12|0,0:2|0:0,0:0:0:0:
384,272,125732,2,0,P|413:281|460:263,1,63.9999980926514,0|0,1:0|0:0,0:0:0:0:
494,203,125966,2,0,P|486:172|465:148,1,63.9999980926514,8|0,0:0|0:0,0:0:0:0:
481,353,126162,1,0,1:0:0:0:
307,275,126385,54,0,B|265:270|265:270|228:298,1,79.9999976158142,0|0,1:0|0:0,0:0:0:0:
198,357,126590,2,0,B|156:362|156:362|119:334,1,79.9999976158142,2|0,0:0|1:0,0:0:0:0:
89,275,126795,2,0,B|47:270|47:270|10:298,1,79.9999976158142,2|0,0:0|1:0,0:0:0:0:
163,145,127033,22,0,P|213:206|132:187,1,191.999994277954,8|0,0:0|0:0,0:0:0:0:
138,208,127493,1,0,1:0:0:0:
14,20,127715,1,8,0:0:0:0:
18,83,127826,1,8,0:0:0:0:
59,113,127937,1,0,1:0:0:0:
97,113,128048,1,0,1:0:0:0:
146,73,128159,6,0,P|231:47|342:62,1,191.999994277954,4|0,1:2|0:0,0:0:0:0:
332,58,128624,1,0,1:0:0:0:
512,187,128847,2,0,P|424:223|358:292,1,191.999994277954,12|0,0:2|0:0,0:0:0:0:
358,292,129295,1,0,1:0:0:0:
264,149,129519,2,0,B|349:165|349:165|315:188,1,127.999996185303,8|0,0:0|0:0,0:0:0:0:
252,223,129808,1,0,1:0:0:0:
252,223,129881,1,0,1:0:0:0:
252,223,129953,38,0,B|197:203|197:203|122:241|122:241|50:214,1,199.999994039536,8|0,0:0|1:0,0:0:0:0:
175,38,130305,2,0,B|219:-5|219:-5|188:130,1,199.999994039536,8|0,0:0|1:0,0:0:0:0:
286,76,130658,2,0,B|398:100|372:7|477:37,1,199.999994039536,8|0,0:0|1:0,0:0:0:0:
479,199,131011,2,0,B|458:218|458:251|458:251|412:178|444:116,1,199.999994039536,8|0,0:0|1:0,0:0:0:0:
384,289,131364,5,8,0:0:0:0:
335,352,131482,1,8,0:0:0:0:
277,370,131600,1,0,1:0:0:0:
238,361,131717,1,0,1:0:0:0:
208,334,131835,6,0,P|146:304|89:321,1,127.999996185303,4|0,1:2|0:0,0:0:0:0:
284,271,132289,1,0,1:0:0:0:
126,205,132523,2,0,B|88:126|96:34|151:17,1,191.999994277954,12|0,0:2|0:0,0:0:0:0:
134,25,132982,1,0,1:0:0:0:
21,131,133208,2,0,P|9:161|8:204,1,63.9999980926514,8|0,0:0|0:0,0:0:0:0:
45,276,133425,2,0,P|64:301|101:323,1,63.9999980926514,0|0,1:0|0:0,0:0:0:0:
213,197,133642,54,0,L|301:185,1,79.9999976158142,0|0,1:0|0:0,0:0:0:0:
302,118,133860,2,0,L|390:106,1,79.9999976158142,2|0,0:0|1:0,0:0:0:0:
391,39,134077,2,0,L|479:27,1,79.9999976158142,2|0,0:0|1:0,0:0:0:0:
512,238,134309,22,0,B|411:205|433:295|310:246,1,191.999994277954,8|0,0:0|0:0,0:0:0:0:
473,311,134730,1,0,1:0:0:0:
475,323,134808,1,8,0:0:0:0:
477,335,134886,1,8,0:0:0:0:
479,348,134964,5,8,0:0:0:0:
417,381,135076,1,8,0:0:0:0:
360,371,135189,1,0,1:0:0:0:
331,336,135302,1,0,1:0:0:0:
275,371,135415,6,0,P|215:323|94:342,1,191.999994277954,4|0,1:2|0:0,0:0:0:0:
105,333,135895,2,0,L|184:339,1,63.9999980926514,0|0,1:0|0:0,0:0:0:0:
337,185,136117,2,0,P|277:233|156:214,1,191.999994277954,12|0,0:0|0:0,0:0:0:0:
167,222,136551,2,0,L|245:216,1,63.9999980926514,0|0,1:0|0:0,0:0:0:0:
326,87,136764,2,0,B|269:117|269:117|219:60,1,127.999996185303,8|0,0:0|0:0,0:0:0:0:
289,29,137058,1,0,1:0:0:0:
289,29,137131,1,0,1:0:0:0:
289,29,137205,22,0,P|382:35|399:133,1,199.999994039536,8|0,0:0|1:0,0:0:0:0:
500,214,137544,2,0,B|466:226|452:260|452:260|391:217|320:273,1,199.999994039536,8|0,0:0|1:0,0:0:0:0:
233,309,137884,2,0,P|305:371|396:340,1,199.999994039536,8|0,0:0|1:0,0:0:0:0:
233,227,138223,2,0,B|133:226|185:304|98:335|62:294,1,199.999994039536,8|0,0:0|1:0,0:0:0:0:
225,149,138563,2,0,P|248:97|237:37,1,99.9999970197678,8|0,0:0|1:0,0:0:0:0:
25,176,138789,2,0,P|68:198|96:239,1,99.9999970197678,8|0,0:0|1:0,0:0:0:0:
244,55,139016,6,0,B|144:28|168:120|47:91,1,199.999994039536,8|0,0:0|1:0,0:0:0:0:
318,130,139367,2,0,B|325:162|352:176|352:176|275:203|224:148,1,199.999994039536,8|0,0:0|1:0,0:0:0:0:
149,283,139719,2,0,B|198:299|235:272|235:272|260:292|260:292|286:260|335:271,1,199.999994039536,8|0,0:0|1:0,0:0:0:0:
489,327,140065,2,0,B|416:304|377:373|377:373|316:345,1,199.999994039536,8|0,0:0|1:0,0:0:0:0:
462,241,140404,2,0,L|442:142,1,99.9999970197678,8|0,0:0|1:0,0:0:0:0:
337,31,140615,2,0,L|317:129,1,99.9999970197678,8|0,0:0|1:0,0:0:0:0:
142,167,140827,69,8,0:0:0:0:
41,125,141125,1,0,1:0:0:0:
235,104,141468,1,0,1:0:0:0:
221,95,141567,1,0,1:0:0:0:
212,109,141666,1,0,1:0:0:0:
198,100,141766,1,0,1:0:0:0:
189,114,141875,1,0,1:0:0:0:
175,105,141985,1,0,1:0:0:0:
142,167,142095,6,0,B|122:200|122:200|60:212,1,79.9999976158142,10|0,0:0|1:0,0:0:0:0:
264,38,142315,1,8,0:0:0:0:
300,132,142425,1,8,0:0:0:0:
236,211,142535,6,0,L|214:406,1,176.000000125885,4|0,1:2|0:0,0:0:0:0:
165,23,142989,1,8,0:0:0:0:
399,147,143216,2,0,B|403:215|494:220|532:106|397:41,1,264.000000188828,0|0,1:0|0:0,0:0:0:0:
487,16,143671,2,0,P|448:33|395:46,1,88.0000000629425,0|0,1:0|0:0,0:0:0:0:
313,207,143898,1,8,0:0:0:0:
488,284,144090,1,0,1:0:0:0:
218,384,144339,6,0,B|74:392|167:261|-18:272,1,264.000000188828,4|0,1:2|0:0,0:0:0:0:
50,203,144793,2,0,P|33:240|-13:280,1,88.0000000629425,8|0,0:0|0:0,0:0:0:0:
205,291,145020,2,0,B|139:182|202:70|287:109,1,264.000000188828,0|0,1:0|0:0,0:0:0:0:
298,185,145445,2,0,L|256:174,1,44.0000000314713,8|8,0:0|0:0,0:0:0:0:
182,45,145642,1,0,1:0:0:0:
193,31,145864,1,2,1:2:0:0:
382,147,146086,6,0,B|417:237|351:226|387:320,1,176.000000125885,4|0,1:2|0:0,0:0:0:0:
471,358,146414,1,0,0:0:0:0:
471,358,146523,2,0,P|480:314|458:258,1,88.0000000629425,8|0,0:0|0:0,0:0:0:0:
492,2,146737,2,0,B|504:59|359:87|389:-33|246:33,1,264.000000188828,0|0,1:0|0:0,0:0:0:0:
250,112,147165,2,0,P|261:77|260:24,1,88.0000000629425,0|0,1:0|0:0,0:0:0:0:
458,121,147380,1,8,0:0:0:0:
386,317,147571,1,0,1:0:0:0:
176,114,147788,6,0,P|263:158|277:236,1,176.000000125885,4|0,1:2|0:0,0:0:0:0:
184,210,148111,1,0,1:0:0:0:
173,222,148219,2,0,P|165:255|159:309,1,88.0000000629425,8|0,0:0|0:0,0:0:0:0:
318,384,148435,2,0,P|310:351|304:297,1,88.0000000629425,0|0,1:0|0:0,0:0:0:0:
100,56,148651,2,0,P|92:89|86:143,1,88.0000000629425,0|0,1:0|0:0,0:0:0:0:
363,237,148851,1,8,0:0:0:0:
41,201,149051,1,8,0:0:0:0:
321,80,149248,1,8,0:0:0:0:
389,100,149347,1,8,0:0:0:0:
458,121,149473,38,0,B|472:58|472:58|363:5,1,176.000000125885,4|0,1:2|0:0,0:0:0:0:
508,175,149799,1,0,1:0:0:0:
499,187,149907,2,0,P|479:223|476:276,1,88.0000000629425,8|0,0:0|0:0,0:0:0:0:
341,312,150125,2,0,B|442:293|414:369|512:342,1,176.000000125885,0|0,1:0|0:0,0:0:0:0:
293,381,150448,1,8,0:0:0:0:
280,372,150554,2,0,P|260:335|257:284,1,88.0000000629425,0|0,1:0|0:0,0:0:0:0:
184,197,150767,2,0,P|205:161|248:133,1,88.0000000629425,8|0,0:0|1:0,0:0:0:0:
287,21,150980,1,8,0:0:0:0:
230,64,151086,1,8,0:0:0:0:
164,36,151193,6,0,B|114:23|114:23|59:62|71:142,1,176.000000125885,4|0,1:2|0:0,0:0:0:0:
30,255,151526,1,0,1:0:0:0:
16,243,151637,2,0,P|16:203|-8:162,1,88.0000000629425,8|0,0:0|0:0,0:0:0:0:
177,288,151843,2,0,L|89:297,1,88.0000000629425,0|0,1:0|0:0,0:0:0:0:
242,135,152050,2,0,L|338:147,1,88.0000000629425,0|0,1:0|0:0,0:0:0:0:
482,292,152257,1,8,0:0:0:0:
410,300,152360,1,8,0:0:0:0:
339,309,152463,1,0,1:0:0:0:
326,299,152682,1,2,1:0:0:0:
418,50,152901,6,0,B|510:36|466:171|363:91|368:246,1,264.000000188828,4|0,1:2|0:0,0:0:0:0:
335,94,153339,2,0,P|301:77|234:59,1,88.0000000629425,8|0,0:0|0:0,0:0:0:0:
134,296,153551,2,0,P|153:173|275:152,1,264.000000188828,0|0,1:0|0:0,0:0:0:0:
285,239,153977,2,0,P|283:195|275:152,1,88.0000000629425,0|0,1:0|0:0,0:0:0:0:
109,119,154190,1,8,0:0:0:0:
231,311,154370,1,0,1:0:0:0:
240,66,154600,6,0,B|145:86|173:15|65:41,1,176.000000125885,4|0,1:2|0:0,0:0:0:0:
15,102,154918,1,0,1:0:0:0:
25,115,155024,2,0,P|35:144|39:207,1,88.0000000629425,8|0,0:0|0:0,0:0:0:0:
146,324,155225,1,0,1:0:0:0:
143,307,155292,1,8,0:0:0:0:
140,291,155359,1,8,0:0:0:0:
138,275,155426,5,8,0:0:0:0:
187,224,155526,1,8,0:0:0:0:
257,220,155627,1,8,0:0:0:0:
313,263,155728,1,8,0:0:0:0:
318,295,155829,5,0,1:0:0:0:
374,335,155933,1,8,0:0:0:0:
443,322,156038,1,8,0:0:0:0:
481,263,156143,1,8,0:0:0:0:
465,195,156248,6,0,B|440:232|300:213|380:110|214:119,1,264.000000188828,4|0,1:2|0:0,0:0:0:0:
254,35,156668,2,0,P|251:81|232:121,1,88.0000000629425,8|0,0:0|0:0,0:0:0:0:
491,30,156883,2,0,P|370:28|359:150,1,264.000000188828,0|0,1:0|0:0,0:0:0:0:
424,93,157315,2,0,P|385:114|356:146,1,88.0000000629425,0|0,1:0|0:0,0:0:0:0:
374,335,157531,1,8,0:0:0:0:
497,127,157731,1,0,1:0:0:0:
289,285,157962,6,0,B|148:298|194:189|25:207,1,264.000000188828,4|0,1:2|0:0,0:0:0:0:
24,127,158394,2,0,P|51:168|28:229,1,88.0000000629425,8|0,0:0|0:0,0:0:0:0:
208,352,158605,2,0,P|169:271|147:88,1,264.000000188828,0|0,1:0|0:0,0:0:0:0:
230,32,159027,2,0,L|219:75,1,44.0000000314713,8|8,0:0|0:0,0:0:0:0:
360,260,159239,1,0,1:0:0:0:
376,254,159450,1,2,1:2:0:0:
444,51,159661,6,0,B|479:91|479:91|452:158|379:148,1,176.000000125885,4|0,1:2|0:0,0:0:0:0:
357,72,159978,1,0,1:0:0:0:
357,72,160084,2,0,P|316:97|303:136,1,88.0000000629425,8|0,0:0|0:0,0:0:0:0:
491,313,160295,2,0,B|482:367|344:372|405:216|217:270,1,264.000000188828,0|0,1:0|0:0,0:0:0:0:
239,183,160717,2,0,P|240:231|268:261,1,88.0000000629425,0|0,1:0|0:0,0:0:0:0:
452,238,160929,1,8,0:0:0:0:
307,12,161121,1,0,1:0:0:0:
189,294,161339,6,0,P|62:334|25:376,1,176.000000125885,4|0,1:2|0:0,0:0:0:0:
71,245,161665,1,0,1:0:0:0:
85,234,161773,2,0,P|100:187|105:129,1,88.0000000629425,8|0,0:0|0:0,0:0:0:0:
231,25,161971,2,0,P|246:71|251:129,1,88.0000000629425,0|0,1:0|0:0,0:0:0:0:
168,378,162170,2,0,P|183:331|188:273,1,88.0000000629425,0|0,1:0|0:0,0:0:0:0:
128,47,162375,1,8,0:0:0:0:
0,284,162580,1,8,0:0:0:0:
265,259,162772,1,8,0:0:0:0:
333,274,162868,1,8,0:0:0:0:
403,290,162991,38,0,B|465:271|465:271|513:381,1,176.000000125885,4|0,1:2|0:0,0:0:0:0:
503,206,163321,1,0,1:0:0:0:
485,198,163432,2,0,P|447:169|421:105,1,88.0000000629425,8|0,0:0|0:0,0:0:0:0:
286,66,163640,2,0,B|389:88|366:20|454:39,1,176.000000125885,0|0,1:0|0:0,0:0:0:0:
202,103,163952,1,8,0:0:0:0:
199,83,164057,2,0,P|204:36|247:-18,1,88.0000000629425,0|0,1:0|0:0,0:0:0:0:
58,145,164265,2,0,P|80:182|116:209,1,88.0000000629425,8|0,0:0|1:0,0:0:0:0:
189,333,164474,1,8,0:0:0:0:
120,293,164579,1,8,0:0:0:0:
190,254,164684,6,0,P|258:296|250:386,1,176.000000125885,4|0,1:2|0:0,0:0:0:0:
346,281,164999,1,0,1:0:0:0:
363,291,165104,2,0,P|401:306|460:302,1,88.0000000629425,8|0,0:0|0:0,0:0:0:0:
473,36,165418,1,0,1:0:0:0:
493,108,165523,1,8,0:0:0:0:
474,138,165627,1,0,1:0:0:0:
319,43,165835,5,0,1:0:0:0:
352,56,165939,1,0,1:0:0:0:
365,23,166043,1,0,1:0:0:0:
398,36,166148,1,8,0:0:0:0:
223,179,166356,6,0,B|132:202|154:120|51:147,1,176.000000125885,4|0,1:2|0:0,0:0:0:0:
189,333,166775,1,8,0:0:0:0:
183,61,166985,2,0,P|139:158|101:322,1,264.000000188828,0|0,1:0|0:0,0:0:0:0:
32,261,167404,2,0,P|72:277|101:309,1,88.0000000629425,0|0,1:0|0:0,0:0:0:0:
337,299,167614,2,0,B|326:339|238:326|274:253|176:253,1,176.000000125885,8|0,0:0|0:0,0:0:0:0:
303,234,167894,1,0,1:0:0:0:
303,234,167981,6,0,L|312:180,1,44.0000000314713,8|8,0:0|0:0,0:0:0:0:
175,17,168305,2,0,L|183:61,1,44.0000000314713,8|0,0:0|0:0,0:0:0:0:
411,128,168578,2,0,L|367:135,1,44.0000000314713,8|8,0:0|0:0,0:0:0:0:
467,78,168688,1,0,1:0:0:0:
483,152,168798,1,8,0:0:0:0:
499,226,168909,5,2,0:0:0:0:
499,226,169013,1,0,1:0:0:0:
425,233,169118,1,8,0:0:0:0:
371,283,169222,1,8,0:0:0:0:
352,355,169328,1,8,0:0:0:0:
299,301,169433,1,0,1:0:0:0:
262,295,169538,1,0,1:0:0:0:
208,348,169643,6,0,P|197:258|280:222,1,176.000000125885,4|0,1:2|0:0,0:0:0:0:
295,150,169957,1,0,1:0:0:0:
284,136,170062,2,0,L|268:37,1,88.0000000629425,8|0,0:0|0:0,0:0:0:0:
33,113,170272,2,0,B|128:94|104:164|202:146,1,176.000000125885,0|0,1:0|0:0,0:0:0:0:
154,0,170587,1,8,0:0:0:0:
125,48,170691,1,0,1:0:0:0:
171,73,170796,1,0,1:0:0:0:
198,28,170901,1,8,0:0:0:0:
62,202,171094,1,0,1:0:0:0:
336,213,171288,6,0,P|428:234|458:388,1,264.000000188828,4|0,1:2|0:0,0:0:0:0:
392,329,171713,2,0,P|431:349|459:382,1,88.0000000629425,8|0,0:0|0:0,0:0:0:0:
488,153,171922,1,0,1:0:0:0:
309,303,172132,1,0,1:0:0:0:
386,44,172342,2,0,L|400:140,1,88.0000000629425,8|0,0:0|0:0,0:0:0:0:
257,240,172552,1,0,1:0:0:0:
239,242,172761,1,2,1:2:0:0:
33,113,172971,6,0,P|138:79|187:-3,1,176.000000125885,4|0,1:2|0:0,0:0:0:0:
197,151,173279,1,0,1:0:0:0:
210,161,173381,2,0,P|248:160|308:181,1,88.0000000629425,8|0,0:0|0:0,0:0:0:0:
137,356,173587,2,0,L|124:158,1,176.000000125885,0|0,1:0|0:0,0:0:0:0:
209,315,173892,1,8,0:0:0:0:
245,351,173992,1,0,1:0:0:0:
297,357,174092,1,0,1:0:0:0:
341,330,174192,1,8,0:0:0:0:
125,180,174378,1,0,1:0:0:0:
363,68,174614,6,0,B|386:168|320:145|342:245,1,176.000000125885,4|0,1:2|0:0,0:0:0:0:
432,211,174922,1,0,1:0:0:0:
446,221,175025,2,0,P|468:257|472:316,1,88.0000000629425,8|0,0:0|0:0,0:0:0:0:
275,104,175221,1,0,1:0:0:0:
461,14,175417,1,0,1:0:0:0:
400,284,175613,1,8,0:0:0:0:
288,10,175809,1,0,1:0:0:0:
227,22,175907,1,8,0:0:0:0:
186,79,176005,1,8,0:0:0:0:
196,157,176103,1,8,0:0:0:0:
123,126,176201,38,0,P|188:196|204:284,1,176.000000125885,4|0,1:2|0:0,0:0:0:0:
299,252,176507,1,0,1:0:0:0:
292,268,176609,2,0,P|273:309|271:359,1,88.0000000629425,8|0,0:0|0:0,0:0:0:0:
398,79,176813,2,0,P|286:154|259:195,1,176.000000125885,0|0,1:0|0:0,0:0:0:0:
446,221,177119,1,8,0:0:0:0:
408,257,177221,1,0,1:0:0:0:
370,221,177323,1,0,1:0:0:0:
409,182,177425,1,8,0:0:0:0:
512,384,177629,1,0,1:0:0:0:
299,252,177833,6,0,B|276:191|153:224|205:327|52:310,1,264.000000188828,4|0,1:2|0:0,0:0:0:0:
6,256,178284,2,0,P|44:277|73:311,1,88.0000000629425,8|0,0:0|0:0,0:0:0:0:
250,156,178492,2,0,P|164:142|80:-20,1,264.000000188828,0|0,1:0|0:0,0:0:0:0:
11,54,178909,2,0,P|49:33|77:0,1,88.0000000629425,0|0,1:0|0:0,0:0:0:0:
170,245,179117,1,8,0:0:0:0:
311,91,179318,1,0,1:2:0:0:
424,301,179534,5,0,0:0:0:0:
424,279,179635,1,0,0:0:0:0:
417,258,179736,1,0,0:0:0:0:
405,239,179838,1,0,0:0:0:0:
388,226,179939,1,0,0:0:0:0:
368,217,180048,1,0,0:0:0:0:
346,215,180157,1,0,0:0:0:0:
325,220,180267,1,0,0:0:0:0:
306,231,180376,5,0,1:0:0:0:
241,256,180488,1,0,1:0:0:0:
172,247,180601,1,0,1:0:0:0:
116,206,180714,1,0,1:0:0:0:
88,142,180827,1,0,1:0:0:0:
94,73,180939,1,0,1:0:0:0:
134,16,181052,2,0,P|157:41|163:82,2,58.6666667086284,0|0|0,1:0|1:0|1:0,0:0:0:0:
345,71,181278,6,0,B|277:85|277:85|239:48|239:48|163:64|163:64,1,199.999994039536,12|0,0:0|1:0,0:0:0:0:
172,247,181632,2,0,B|192:294|192:294|243:222|200:144,1,199.999994039536,12|0,0:0|1:0,0:0:0:0:
51,352,181986,2,0,B|110:324|110:324|140:401|253:380,1,199.999994039536,12|0,0:0|1:0,0:0:0:0:
448,350,182340,2,0,B|346:380|368:294|250:326,1,199.999994039536,12|0,0:0|1:0,0:0:0:0:
410,272,182695,5,8,0:0:0:0:
478,230,182813,1,8,0:0:0:0:
495,172,182931,1,0,1:0:0:0:
486,133,183049,1,0,1:0:0:0:
472,121,183167,5,0,1:0:0:0:
247,278,188282,86,0,B|189:248|189:248|212:189,1,127.999996185303,2|0,0:0|1:0,0:0:0:0:
288,212,188576,1,0,1:0:0:0:
288,212,188674,54,0,B|302:153|246:117|246:117|278:76|246:23,1,199.999994039536,8|0,0:0|1:0,0:0:0:0:
55,17,189031,2,0,P|103:97|193:71,1,199.999994039536,8|0,0:0|1:0,0:0:0:0:
30,132,189388,2,0,B|2:153|9:186|9:186|84:230|49:339,1,199.999994039536,8|0,0:0|1:0,0:0:0:0:
203,350,189737,2,0,B|163:363|135:324|135:324|112:401|16:381,1,199.999994039536,8|0,0:0|1:0,0:0:0:0:
247,278,190072,5,8,0:0:0:0:
308,329,190188,1,8,0:0:0:0:
367,339,190305,1,0,1:0:0:0:
406,334,190421,1,0,1:0:0:0:
420,322,190538,5,0,1:0:0:0:
158,182,195419,86,0,L|167:220,1,31.9999990463257,8|8,0:0|0:0,0:0:0:0:
69,291,195622,5,8,0:0:0:0:
130,309,195723,1,8,0:0:0:0:
191,327,195826,2,0,L|292:296,1,63.9999980926514,2|0,1:2|0:0,0:0:0:0:
418,260,196064,38,0,B|470:239|416:146|350:216|339:90,1,199.999994039536,8|0,0:0|1:0,0:0:0:0:
483,5,196424,2,0,P|481:114|413:100,1,199.999994039536,8|0,0:0|1:0,0:0:0:0:
227,4,196784,2,0,B|344:-27|319:63|420:31,1,199.999994039536,8|0,0:0|1:0,0:0:0:0:
276,78,197137,2,0,B|224:110|224:110|215:203|294:273,1,199.999994039536,8|0,0:0|1:0,0:0:0:0:
433,332,197479,5,8,0:0:0:0:
358,302,197590,1,8,0:0:0:0:
301,322,197701,1,0,1:0:0:0:
278,355,197812,1,0,1:0:0:0:
230,362,197924,6,0,P|142:331|138:174,1,239.999992847443,4|0,1:2|0:0,0:0:0:0:
120,198,198382,1,8,0:0:0:0:
227,4,198603,2,0,B|279:70|134:98|161:-20|41:17,1,239.999992847443,0|0,1:0|0:0,0:0:0:0:
51,14,199046,1,0,1:0:0:0:
259,149,199267,1,8,0:0:0:0:
273,142,199454,1,0,1:0:0:0:
510,0,199667,6,0,P|481:76|469:240,1,239.999992847443,0|0,1:0|0:0,0:0:0:0:
468,233,200111,1,8,0:0:0:0:
362,14,200333,1,0,1:0:0:0:
362,14,200767,1,0,1:0:0:0:
397,269,200980,1,8,0:0:0:0:
390,254,201166,1,0,1:0:0:0:
224,371,201406,6,0,B|90:406|139:286|-15:326,1,239.999992847443,0|0,1:0|0:0,0:0:0:0:
1,322,201847,1,8,0:0:0:0:
181,279,202067,2,0,B|219:206|205:61|63:157|143:216,1,239.999992847443,0|0,1:0|0:0,0:0:0:0:
127,200,202499,2,0,P|165:210|198:179,1,79.9999976158142,0|0,1:0|0:0,0:0:0:0:
254,0,202710,1,8,0:0:0:0:
240,7,202898,1,0,1:0:0:0:
314,205,203123,6,0,P|398:169|485:175,1,159.999995231628,0|0,1:0|0:0,0:0:0:0:
465,170,203442,1,0,1:0:0:0:
504,237,203548,2,0,P|513:274|512:318,1,79.9999976158142,8|0,0:0|0:0,0:0:0:0:
407,338,203717,2,0,P|379:364|340:385,1,79.9999976158142,0|0,1:0|0:0,0:0:0:0:
271,304,203930,1,0,1:0:0:0:
330,69,204128,1,8,0:0:0:0:
228,140,204327,1,0,1:0:0:0:
212,143,204426,1,8,0:0:0:0:
181,134,204526,1,8,0:0:0:0:
150,97,204625,1,8,0:0:0:0:
90,89,204724,38,0,B|121:215|7:173|41:321,1,239.999992847443,4|0,1:2|0:0,0:0:0:0:
38,311,205146,1,8,0:0:0:0:
300,334,205357,2,0,B|301:386|156:372|247:229|112:266,1,239.999992847443,0|0,1:0|0:0,0:0:0:0:
118,265,205780,1,0,1:0:0:0:
352,203,205991,1,8,0:0:0:0:
367,208,206185,1,0,1:0:0:0:
195,12,206414,6,0,P|182:98|307:85,1,239.999992847443,0|0,1:0|0:0,0:0:0:0:
302,96,206868,1,8,0:0:0:0:
96,12,207085,1,0,1:0:0:0:
96,12,207520,1,0,1:0:0:0:
11,218,207737,1,8,0:0:0:0:
20,231,207924,1,0,1:0:0:0:
216,371,208150,6,0,B|354:427|322:315|464:364,1,239.999992847443,0|0,1:0|0:0,0:0:0:0:
446,358,208591,1,8,0:0:0:0:
281,284,208805,2,0,P|251:190|353:216,1,239.999992847443,0|0,1:0|0:0,0:0:0:0:
350,207,209233,2,0,P|359:244|400:263,1,79.9999976158142,0|0,1:0|0:0,0:0:0:0:
458,163,209448,1,8,0:0:0:0:
453,147,209634,1,0,1:0:0:0:
282,52,209861,6,0,P|208:116|99:126,1,159.999995231628,0|0,1:0|0:0,0:0:0:0:
48,113,210180,1,0,1:0:0:0:
58,126,210286,2,0,P|74:155|81:210,1,79.9999976158142,8|0,0:0|0:0,0:0:0:0:
161,211,210482,2,0,L|148:269,2,53.3333317438762,8|8|8,0:0|0:0|0:0,0:0:0:0:
117,366,210678,5,8,0:0:0:0:
186,379,210776,1,8,0:0:0:0:
231,346,210874,1,0,1:0:0:0:
246,309,210972,1,8,0:0:0:0:
299,262,211070,5,8,0:0:0:0:
369,251,211168,1,0,1:0:0:0:
417,279,211266,1,0,1:0:0:0:
435,314,211364,1,0,1:0:0:0:
432,363,211462,6,0,P|422:272|461:120,1,239.999992847443,4|0,1:2|0:0,0:0:0:0:
456,129,211906,1,8,0:0:0:0:
300,20,212128,2,0,B|274:63|421:120|389:-13|516:46,1,239.999992847443,0|0,1:0|0:0,0:0:0:0:
503,40,212573,1,0,1:0:0:0:
262,121,212795,1,8,0:0:0:0:
258,136,212982,1,0,1:0:0:0:
96,348,213189,6,0,P|129:265|248:320,1,239.999992847443,0|0,1:0|0:0,0:0:0:0:
245,308,213630,1,8,0:0:0:0:
110,112,213846,1,0,1:0:0:0:
110,112,214279,1,0,1:0:0:0:
366,150,214496,1,8,0:0:0:0:
359,165,214683,1,0,1:0:0:0:
497,383,214896,6,0,P|512:294|518:207,1,159.999995231628,0|0,1:0|0:0,0:0:0:0:
480,153,215212,1,0,1:0:0:0:
477,137,215318,1,8,0:0:0:0:
377,365,215527,2,0,P|304:360|329:296,1,159.999995231628,0|0,1:0|0:0,0:0:0:0:
393,297,215842,1,8,0:0:0:0:
407,289,215947,2,0,P|417:244|416:197,1,79.9999976158142,0|0,1:0|0:0,0:0:0:0:
312,57,216157,1,8,0:0:0:0:
308,72,216364,1,0,1:0:0:0:
169,223,216572,6,0,B|82:227|110:164|17:166,1,159.999995231628,0|0,1:0|0:0,0:0:0:0:
63,95,216883,1,0,1:0:0:0:
63,95,216987,2,0,L|226:63,1,159.999995231628,8|0,0:0|0:0,0:0:0:0:
220,64,217285,1,0,1:0:0:0:
261,133,217384,1,8,0:0:0:0:
261,133,217485,1,0,1:0:0:0:
421,39,217687,1,0,1:0:0:0:
440,25,217788,1,0,1:0:0:0:
436,41,217884,1,0,1:0:0:0:
423,24,217980,1,8,0:0:0:0:
340,258,218192,38,0,B|298:316|385:375|444:288|392:190,1,239.999992847443,4|0,1:2|0:0,0:0:0:0:
394,194,218633,1,8,0:0:0:0:
244,277,218854,2,0,B|120:245|149:371|13:332,1,239.999992847443,0|0,1:0|0:0,0:0:0:0:
24,334,219297,1,0,1:0:0:0:
271,198,219518,1,8,0:0:0:0:
280,210,219700,1,0,1:0:0:0:
9,215,219940,6,0,P|87:96|92:1,1,239.999992847443,0|0,1:0|0:0,0:0:0:0:
92,1,220371,1,8,0:0:0:0:
169,237,220587,1,0,1:0:0:0:
169,237,221019,1,0,1:0:0:0:
346,72,221234,1,8,0:0:0:0:
359,79,221430,1,0,1:0:0:0:
510,253,221653,6,0,P|411:210|265:187,1,239.999992847443,0|0,1:0|0:0,0:0:0:0:
281,187,222104,1,8,0:0:0:0:
448,336,222312,2,0,P|354:387|298:278,1,239.999992847443,0|0,1:0|0:0,0:0:0:0:
293,293,222738,2,0,P|336:333|305:378,1,79.9999976158142,0|0,1:0|0:0,0:0:0:0:
191,375,222957,2,0,L|125:359,2,53.3333317438762,10|0|0,0:0|0:0|0:0,0:0:0:0:
86,305,223161,2,0,L|20:321,2,53.3333317438762,8|0|0,0:0|0:0|0:0,0:0:0:0:
169,237,223365,21,8,0:0:0:0:
189,171,223460,1,8,0:0:0:0:
189,171,223556,5,2,1:2:0:0:
143,118,223651,1,8,0:2:0:0:
78,128,223747,1,8,0:0:0:0:
20,93,223848,1,8,0:0:0:0:
11,37,223949,1,0,1:0:0:0:
37,6,224051,1,8,0:0:0:0:
60,12,224152,69,8,0:0:0:0:
87,40,224253,1,8,0:0:0:0:
89,96,224355,1,0,1:0:0:0:
67,164,224456,1,8,0:0:0:0:
8,219,224557,5,8,0:0:0:0:
0,290,224667,1,0,1:0:0:0:
25,339,224777,1,0,1:0:0:0:
59,358,224887,1,0,1:0:0:0:
110,345,224998,6,0,P|196:316|316:312,1,191.999994277954,4|0,1:2|0:0,0:0:0:0:
296,309,225474,2,0,P|259:324|218:354,1,63.9999980926514,0|0,1:0|0:0,0:0:0:0:
467,192,225696,2,0,P|381:221|261:225,1,191.999994277954,12|0,0:2|0:0,0:0:0:0:
280,227,226140,2,0,P|317:212|358:182,1,63.9999980926514,0|0,1:0|0:0,0:0:0:0:
274,62,226362,2,0,P|275:94|269:126,1,63.9999980926514,8|0,0:0|0:0,0:0:0:0:
374,108,226582,1,0,1:0:0:0:
188,182,226803,54,0,L|179:265,1,79.9999976158142,0|0,1:0|0:0,0:0:0:0:
105,124,227023,2,0,L|96:207,1,79.9999976158142,2|0,0:0|1:0,0:0:0:0:
22,66,227244,2,0,L|13:149,1,79.9999976158142,2|0,0:0|1:0,0:0:0:0:
63,326,227464,22,0,B|165:348|138:262|252:293,1,191.999994277954,8|0,0:0|0:0,0:0:0:0:
243,290,227896,1,0,1:0:0:0:
488,166,228107,1,8,0:0:0:0:
491,229,228220,1,8,0:0:0:0:
448,259,228334,1,0,1:0:0:0:
411,265,228447,1,0,1:0:0:0:
356,235,228561,6,0,B|311:208|341:94|412:213|445:48,1,191.999994277954,4|0,1:2|0:0,0:0:0:0:
431,94,229041,1,0,1:0:0:0:
171,54,229261,2,0,B|288:19|262:104|360:70,1,191.999994277954,12|0,0:2|0:0,0:0:0:0:
354,71,229702,2,0,P|318:43|287:38,1,63.9999980926514,0|0,1:0|0:0,0:0:0:0:
215,163,229923,2,0,B|205:256|205:256|233:229,1,127.999996185303,8|0,0:0|0:0,0:0:0:0:
266,306,230217,1,0,1:0:0:0:
266,306,230291,1,0,1:0:0:0:
266,306,230364,38,0,B|136:272|136:272|86:333,1,199.999994039536,8|0,0:0|1:0,0:0:0:0:
308,238,230714,2,0,B|395:288|288:345|384:400|418:354,1,199.999994039536,8|0,0:0|1:0,0:0:0:0:
508,191,231064,2,0,P|391:204|331:130,1,199.999994039536,8|0,0:0|1:0,0:0:0:0:
392,15,231414,2,0,B|447:-12|447:-12|489:65|437:113,1,199.999994039536,8|0,0:0|1:0,0:0:0:0:
322,66,231764,5,8,0:0:0:0:
249,31,231881,1,8,0:0:0:0:
190,42,231998,1,0,1:0:0:0:
164,72,232114,1,0,1:0:0:0:
127,84,232231,6,0,P|63:88|-1:66,1,127.999996185303,4|0,1:2|0:0,0:0:0:0:
239,135,232707,1,0,1:0:0:0:
97,301,232932,2,0,B|30:216|69:145|155:187|125:241,1,191.999994277954,12|0,0:2|0:0,0:0:0:0:
131,221,233383,1,0,1:0:0:0:
215,332,233609,2,0,P|253:336|292:319,1,63.9999980926514,8|0,0:0|0:0,0:0:0:0:
333,262,233831,2,0,P|371:258|410:275,1,63.9999980926514,0|0,1:0|0:0,0:0:0:0:
468,53,234053,54,0,B|486:90|486:90|474:138,1,79.9999976158142,0|0,1:0|0:0,0:0:0:0:
393,140,234271,2,0,B|369:174|369:174|322:187,1,79.9999976158142,2|0,0:0|1:0,0:0:0:0:
280,118,234490,2,0,B|238:114|238:114|203:80,1,79.9999976158142,2|0,0:0|1:0,0:0:0:0:
22,224,234709,22,0,B|128:250|103:171|207:204,1,191.999994277954,8|0,0:0|0:0,0:0:0:0:
165,284,235147,1,0,1:0:0:0:
166,296,235220,1,8,0:0:0:0:
167,308,235293,1,8,0:0:0:0:
168,320,235366,5,8,0:0:0:0:
238,299,235480,1,8,0:0:0:0:
299,317,235595,1,0,1:0:0:0:
326,359,235709,1,0,1:0:0:0:
372,301,235824,6,0,P|459:283|505:178,1,191.999994277954,4|0,1:2|0:0,0:0:0:0:
505,197,236300,1,0,1:0:0:0:
311,46,236518,2,0,B|355:10|409:109|308:103|390:193,1,191.999994277954,12|0,0:2|0:0,0:0:0:0:
383,185,236956,2,0,P|396:141|395:85,1,63.9999980926514,0|0,1:0|0:0,0:0:0:0:
201,77,237175,2,0,B|211:38|211:38|246:118,1,127.999996185303,8|0,0:0|0:0,0:0:0:0:
173,147,237467,1,0,1:0:0:0:
173,147,237540,1,0,1:0:0:0:
173,147,237613,22,0,P|176:231|257:193,1,199.999994039536,8|0,0:0|1:0,0:0:0:0:
46,138,237965,2,0,P|130:215|151:311,1,199.999994039536,8|0,0:0|1:0,0:0:0:0:
284,338,238318,2,0,B|221:310|221:310|84:366,1,199.999994039536,8|0,0:0|1:0,0:0:0:0:
315,264,238671,2,0,B|372:290|364:353|364:353|380:301|441:299,1,199.999994039536,8|0,0:0|1:0,0:0:0:0:
333,145,239024,2,0,P|286:161|255:199,1,99.9999970197678,8|0,0:0|1:0,0:0:0:0:
429,299,239260,2,0,P|475:282|506:244,1,99.9999970197678,8|0,0:0|1:0,0:0:0:0:
294,67,239495,6,0,B|363:44|409:103|409:103|461:54,1,199.999994039536,8|0,0:0|1:0,0:0:0:0:
259,0,239841,2,0,B|149:-11|197:85|71:75,1,199.999994039536,8|0,0:0|1:0,0:0:0:0:
153,191,240187,2,0,P|84:108|-8:72,1,199.999994039536,8|0,0:0|1:0,0:0:0:0:
234,167,240543,2,0,B|244:282|159:239|168:346,1,199.999994039536,8|0,0:0|1:0,0:0:0:0:
340,294,240879,2,0,P|291:300|249:327,1,99.9999970197678,8|0,0:0|1:0,0:0:0:0:
91,364,241109,2,0,P|41:357|0:331,1,99.9999970197678,8|0,0:0|1:0,0:0:0:0:
319,384,241341,69,8,0:0:0:0:
361,204,241649,1,0,1:0:0:0:
478,281,241855,1,0,1:0:0:0:
469,267,241958,1,0,1:0:0:0:
455,276,242061,1,0,1:0:0:0:
446,262,242164,1,0,1:0:0:0:
432,271,242269,1,0,1:0:0:0:
423,257,242375,1,0,1:0:0:0:
409,266,242481,1,0,1:0:0:0:
361,204,242587,6,0,L|351:112,1,79.9999976158142,10|0,0:0|0:0,0:0:0:0:
512,0,242789,2,0,L|503:79,1,79.9999976158142,0|0,1:0|0:0,0:0:0:0:
254,174,243046,6,0,B|160:149|183:213|82:188,1,176.000000125885,4|0,1:2|0:0,0:0:0:0:
350,316,243487,1,8,0:0:0:0:
188,63,243714,2,0,P|166:154|156:327,1,264.000000188828,0|0,1:0|0:0,0:0:0:0:
214,384,244168,2,0,P|194:345|156:324,1,88.0000000629425,0|0,1:0|0:0,0:0:0:0:
0,384,244396,1,8,0:0:0:0:
101,119,244592,1,0,1:0:0:0:
286,361,244824,6,0,B|428:396|351:269|485:251|505:314,1,264.000000188828,4|0,1:2|0:0,0:0:0:0:
457,379,245253,2,0,P|475:330|542:314,1,88.0000000629425,8|0,0:0|0:0,0:0:0:0:
472,86,245462,2,0,P|377:70|438:171,1,264.000000188828,0|0,1:0|0:0,0:0:0:0:
506,199,245882,2,0,L|500:156,1,44.0000000314713,8|8,0:0|0:0,0:0:0:0:
317,7,246092,1,0,1:0:0:0:
301,16,246312,1,2,1:2:0:0:
162,320,246533,6,0,B|44:308|6:255|40:193,1,176.000000125885,4|0,1:2|0:0,0:0:0:0:
93,142,246864,1,0,1:0:0:0:
93,142,246974,2,0,P|112:184|106:238,1,88.0000000629425,8|0,0:0|0:0,0:0:0:0:
310,278,247189,2,0,B|328:208|212:179|182:300|296:300|212:384,1,264.000000188828,0|0,1:0|0:0,0:0:0:0:
299,370,247621,2,0,P|256:381|213:383,1,88.0000000629425,0|0,1:0|0:0,0:0:0:0:
110,225,247837,1,8,0:0:0:0:
367,139,248028,1,0,1:0:0:0:
139,36,248259,6,0,P|129:135|221:66,1,264.000000188828,4|0,1:2|0:0,0:0:0:0:
256,0,248682,2,0,P|291:23|304:93,1,88.0000000629425,8|0,0:0|0:0,0:0:0:0:
434,230,248887,2,0,P|449:189|485:165,1,88.0000000629425,0|0,1:0|0:0,0:0:0:0:
224,76,249092,1,0,1:0:0:0:
455,312,249298,1,8,0:0:0:0:
310,278,249503,1,0,1:0:0:0:
293,272,249599,1,8,0:0:0:0:
252,290,249696,1,8,0:0:0:0:
221,353,249793,1,8,0:0:0:0:
137,371,249890,38,0,B|100:338|100:338|-22:380,1,176.000000125885,4|0,1:2|0:0,0:0:0:0:
166,296,250220,1,0,1:0:0:0:
176,280,250331,2,0,P|185:219|173:191,1,88.0000000629425,8|0,0:0|0:0,0:0:0:0:
26,170,250539,2,0,B|129:178|96:108|192:115,1,176.000000125885,0|0,1:0|0:0,0:0:0:0:
50,89,250851,1,8,0:0:0:0:
34,80,250956,2,0,P|11:39|17:-10,1,88.0000000629425,0|0,1:0|0:0,0:0:0:0:
249,55,251164,2,0,P|212:32|168:32,1,88.0000000629425,8|0,0:0|1:0,0:0:0:0:
287,170,251375,1,8,0:0:0:0:
356,159,251480,1,8,0:0:0:0:
425,148,251586,6,0,B|473:121|473:121|514:186|450:270,1,176.000000125885,4|0,1:2|0:0,0:0:0:0:
419,329,251914,1,0,1:0:0:0:
403,318,252023,2,0,L|307:312,1,88.0000000629425,8|0,0:0|0:0,0:0:0:0:
169,249,252227,2,0,P|149:289|165:350,1,88.0000000629425,0|0,1:0|0:0,0:0:0:0:
340,240,252431,2,0,P|360:200|344:139,1,88.0000000629425,0|0,1:0|0:0,0:0:0:0:
168,32,252635,1,0,1:0:0:0:
98,41,252737,1,0,1:0:0:0:
29,51,252839,1,2,1:2:0:0:
18,37,253064,1,2,1:2:0:0:
81,312,253290,6,0,B|10:311|35:170|178:244|136:66,1,264.000000188828,4|0,1:2|0:0,0:0:0:0:
213,153,253731,2,0,P|174:132|142:102,1,88.0000000629425,8|0,0:0|0:0,0:0:0:0:
324,27,253948,2,0,B|389:-13|440:98|335:136|237:60,1,264.000000188828,0|0,1:0|0:0,0:0:0:0:
161,16,254383,2,0,P|195:29|239:63,1,88.0000000629425,0|0,1:0|0:0,0:0:0:0:
299,179,254600,1,8,0:0:0:0:
58,126,254781,1,0,1:0:0:0:
264,270,255013,6,0,B|363:296|340:217|435:250,1,176.000000125885,4|0,1:2|0:0,0:0:0:0:
512,190,255339,1,0,1:0:0:0:
496,178,255447,2,0,P|483:125|481:81,1,88.0000000629425,8|0,0:0|0:0,0:0:0:0:
431,248,255644,1,8,0:0:0:0:
430,265,255710,1,8,0:0:0:0:
429,282,255775,1,8,0:0:0:0:
429,299,255841,5,8,0:0:0:0:
381,349,255939,1,8,0:0:0:0:
314,369,256038,1,8,0:0:0:0:
246,352,256137,1,8,0:0:0:0:
218,366,256236,5,0,1:0:0:0:
187,303,256346,1,8,0:0:0:0:
126,270,256456,1,8,0:0:0:0:
58,280,256566,1,8,0:0:0:0:
9,331,256677,6,0,P|45:209|37:43,1,264.000000188828,4|0,1:2|0:0,0:0:0:0:
97,6,257118,2,0,P|64:34|43:73,1,88.0000000629425,8|0,0:0|0:0,0:0:0:0:
232,234,257338,2,0,P|334:205|238:95,1,264.000000188828,0|0,1:0|0:0,0:0:0:0:
195,100,257780,2,0,P|241:99|282:89,1,88.0000000629425,0|0,1:0|0:0,0:0:0:0:
442,4,258000,1,8,0:0:0:0:
401,256,258189,1,0,1:0:0:0:
130,230,258413,6,0,P|249:285|335:385,1,264.000000188828,4|0,1:2|0:0,0:0:0:0:
416,363,258857,2,0,P|346:374|322:397,1,88.0000000629425,8|0,0:0|0:0,0:0:0:0:
268,166,259061,2,0,B|280:231|415:210|372:90|510:109,1,264.000000188828,0|0,1:0|0:0,0:0:0:0:
478,204,259469,2,0,L|490:274,1,44.0000000314713,8|8,0:0|0:0,0:0:0:0:
321,89,259673,1,0,1:0:0:0:
318,71,259895,1,2,1:2:0:0:
33,114,260117,6,0,B|137:103|105:175|193:166,1,176.000000125885,4|0,1:2|0:0,0:0:0:0:
178,86,260450,1,0,1:0:0:0:
178,86,260561,2,0,P|192:46|183:-3,1,88.0000000629425,8|0,0:0|0:0,0:0:0:0:
44,227,260778,2,0,B|-31:347|8:411|104:392|89:319,1,264.000000188828,0|0,1:0|0:0,0:0:0:0:
130,242,261213,2,0,P|103:277|88:318,1,88.0000000629425,0|0,1:0|0:0,0:0:0:0:
267,383,261430,1,8,0:0:0:0:
178,86,261608,1,0,1:0:0:0:
370,296,261835,6,0,P|414:203|318:240,1,264.000000188828,4|0,1:2|0:0,0:0:0:0:
295,312,262263,2,0,P|259:289|243:249,1,88.0000000629425,8|0,0:0|0:0,0:0:0:0:
178,86,262465,2,0,P|152:120|151:164,1,88.0000000629425,0|0,1:0|0:0,0:0:0:0:
267,383,262668,2,0,P|310:388|348:368,1,88.0000000629425,0|0,1:0|0:0,0:0:0:0:
397,116,262871,1,8,0:0:0:0:
130,242,263073,1,8,0:0:0:0:
317,12,263279,1,8,0:0:0:0:
383,34,263383,1,8,0:0:0:0:
446,56,263486,38,0,B|494:36|494:36|541:90|497:180,1,176.000000125885,4|0,1:2|0:0,0:0:0:0:
461,290,263812,1,0,1:0:0:0:
451,275,263920,2,0,L|435:167,1,88.0000000629425,8|0,0:0|0:0,0:0:0:0:
325,349,264126,2,0,B|418:323|399:395|497:369,1,176.000000125885,0|0,1:0|0:0,0:0:0:0:
287,284,264437,1,8,0:0:0:0:
274,295,264540,2,0,P|252:338|259:383,1,88.0000000629425,0|0,1:0|0:0,0:0:0:0:
50,267,264747,2,0,P|85:242|129:241,1,88.0000000629425,8|0,0:0|1:0,0:0:0:0:
243,131,264954,1,8,0:0:0:0:
186,186,265057,1,8,0:0:0:0:
109,164,265161,6,0,L|94:-17,1,176.000000125885,4|0,1:2|0:0,0:0:0:0:
181,85,265471,1,0,1:0:0:0:
193,72,265575,2,0,P|225:55|321:137,1,176.000000125885,8|0,0:0|0:0,0:0:0:0:
356,196,265889,1,0,1:0:0:0:
399,208,265994,1,8,0:0:0:0:
387,165,266095,1,0,1:0:0:0:
271,266,266298,5,0,1:0:0:0:
304,253,266399,1,0,1:0:0:0:
317,286,266500,1,0,1:0:0:0:
350,273,266602,1,8,0:0:0:0:
162,373,266804,6,0,B|68:384|95:314|-7:326,1,176.000000125885,4|0,1:2|0:0,0:0:0:0:
274,187,267248,1,8,0:0:0:0:
24,62,267470,2,0,B|24:121|164:152|105:8|249:28,1,264.000000188828,0|0,1:0|0:0,0:0:0:0:
211,109,267896,2,0,P|218:65|240:27,1,88.0000000629425,0|0,1:0|0:0,0:0:0:0:
473,138,268100,2,0,P|385:135|307:96,1,176.000000125885,8|0,0:0|0:0,0:0:0:0:
418,222,268406,1,0,1:0:0:0:
507,258,268508,6,0,L|499:215,1,44.0000000314713,8|8,0:0|0:0,0:0:0:0:
501,300,268610,1,0,1:0:0:0:
473,334,268712,1,0,1:0:0:0:
433,350,268814,1,0,1:0:0:0:
390,345,268916,1,8,0:0:0:0:
355,319,269012,1,0,1:0:0:0:
286,241,269108,6,0,L|278:284,1,44.0000000314713,8|8,0:0|0:0,0:0:0:0:
287,200,269204,1,0,1:0:0:0:
261,163,269300,1,0,1:0:0:0:
222,143,269396,1,0,1:0:0:0:
179,146,269493,1,8,0:0:0:0:
142,168,269589,1,0,1:0:0:0:
79,242,269685,70,0,L|71:199,1,44.0000000314713,8|8,0:0|0:0,0:0:0:0:
67,283,269793,1,0,1:0:0:0:
90,318,269902,1,0,1:0:0:0:
133,322,270011,1,0,1:0:0:0:
163,292,270119,22,0,P|249:317|294:389,1,176.000000125885,4|0,1:2|0:0,0:0:0:0:
355,319,270435,1,0,1:0:0:0:
380,310,270541,2,0,P|393:267|383:214,1,88.0000000629425,8|0,0:0|0:0,0:0:0:0:
499,72,270752,2,0,P|433:132|333:138,1,176.000000125885,0|0,1:0|0:0,0:0:0:0:
266,47,271069,1,8,0:0:0:0:
312,20,271175,1,0,1:0:0:0:
339,66,271280,1,0,1:0:0:0:
293,92,271386,1,8,0:0:0:0:
469,210,271597,1,0,1:0:0:0:
226,346,271809,6,0,B|218:409|103:368|150:249|-8:280,1,264.000000188828,4|0,1:2|0:0,0:0:0:0:
59,206,272231,2,0,P|41:246|10:276,1,88.0000000629425,8|0,0:0|0:0,0:0:0:0:
300,272,272442,2,0,P|218:232|102:85,1,264.000000188828,0|0,1:0|0:0,0:0:0:0:
33,61,272860,2,0,P|75:72|108:101,1,88.0000000629425,8|0,0:0|0:0,0:0:0:0:
124,352,273067,1,0,1:0:0:0:
109,361,273284,1,2,1:2:0:0:
377,299,273501,6,0,P|292:291|225:345,1,176.000000125885,4|0,1:2|0:0,0:0:0:0:
359,211,273827,1,0,1:0:0:0:
370,196,273936,2,0,P|378:153|376:110,1,88.0000000629425,8|0,0:0|0:0,0:0:0:0:
188,20,274147,2,0,P|260:102|318:47,1,176.000000125885,0|0,1:0|0:0,0:0:0:0:
508,85,274464,1,8,0:0:0:0:
462,62,274569,1,0,1:0:0:0:
411,72,274675,1,0,1:0:0:0:
376,110,274780,1,8,0:0:0:0:
445,351,274970,1,0,1:0:0:0:
262,221,275191,6,0,B|164:204|192:276|85:255,1,176.000000125885,4|0,1:2|0:0,0:0:0:0:
70,94,275531,1,0,1:0:0:0:
88,102,275645,2,0,P|117:135|124:178,1,88.0000000629425,8|0,0:0|0:0,0:0:0:0:
0,384,275837,1,0,1:0:0:0:
311,291,276030,1,0,1:0:0:0:
0,187,276223,1,8,0:0:0:0:
255,359,276416,1,0,1:0:0:0:
312,381,276521,1,8,0:0:0:0:
375,350,276627,1,8,0:0:0:0:
396,274,276732,1,8,0:0:0:0:
343,203,276838,38,0,P|443:199|484:255,1,176.000000125885,4|0,1:2|0:0,0:0:0:0:
389,111,277155,1,0,1:0:0:0:
377,97,277261,2,0,P|362:54|368:-7,1,88.0000000629425,8|0,0:0|0:0,0:0:0:0:
157,80,277465,2,0,B|165:30|271:60|214:135|322:130,1,176.000000125885,0|0,1:0|0:0,0:0:0:0:
170,157,277771,1,8,0:0:0:0:
147,205,277873,1,0,1:0:0:0:
195,228,277975,1,0,1:0:0:0:
217,179,278077,1,8,0:0:0:0:
108,11,278256,1,0,1:0:0:0:
57,319,278485,6,0,B|74:380|216:337|127:224|298:234,1,264.000000188828,4|0,1:2|0:0,0:0:0:0:
342,269,278931,2,0,P|299:263|268:233,1,88.0000000629425,8|0,0:0|0:0,0:0:0:0:
157,80,279142,2,0,B|174:19|316:62|227:175|398:165,1,264.000000188828,0|0,1:0|0:0,0:0:0:0:
442,130,279564,2,0,P|399:135|367:165,1,88.0000000629425,0|0,1:0|0:0,0:0:0:0:
316,373,279776,1,8,0:0:0:0:
147,205,279987,1,0,1:0:0:0:
57,319,280198,5,0,0:0:0:0:
77,312,280304,1,0,0:0:0:0:
99,311,280409,1,0,0:0:0:0:
121,315,280515,1,0,0:0:0:0:
140,325,280621,1,0,0:0:0:0:
159,335,280731,1,0,0:0:0:0:
181,339,280842,1,0,0:0:0:0:
203,338,280953,1,0,0:0:0:0:
224,332,281063,5,0,1:0:0:0:
280,291,281173,1,0,1:0:0:0:
303,226,281284,1,0,1:0:0:0:
285,159,281395,1,0,1:0:0:0:
233,113,281505,1,0,1:0:0:0:
164,106,281616,1,0,1:0:0:0:
103,139,281728,2,0,P|133:168|163:175,2,58.6666667086284,0|0|0,1:0|1:0|1:0,0:0:0:0:
31,233,281949,6,0,B|133:260|112:167|226:198,1,199.999994039536,8|0,0:0|1:0,0:0:0:0:
267,369,282317,2,0,B|204:388|204:388|149:345|184:266,1,199.999994039536,8|0,0:0|1:0,0:0:0:0:
285,159,282686,2,0,B|348:132|348:132|417:173|417:173|481:146,1,199.999994039536,8|0,0:0|1:0,0:0:0:0:
498,4,283041,2,0,P|397:25|451:97,1,199.999994039536,8|0,0:0|1:0,0:0:0:0:
496,229,283371,5,8,0:0:0:0:
511,307,283488,1,8,0:0:0:0:
482,359,283605,1,0,1:0:0:0:
445,374,283722,1,0,1:0:0:0:
355,307,283839,6,0,B|336:291|336:266|336:266|329:274|329:274|297:210|225:222|225:222|261:230|276:283,1,240.000002002716,6|0,1:2|0:0,0:0:0:0:
