osu file format v14

[General]
AudioFilename: audio.mp3
AudioLeadIn: 0
PreviewTime: 49506
Countdown: 0
SampleSet: Soft
StackLeniency: 0.5
Mode: 0
LetterboxInBreaks: 0
WidescreenStoryboard: 1

[Editor]
Bookmarks: 10570,20783,30996,41209,51421,61634,71847,82060,92272,102485,112698,122911,133123,143336,150996,156102,158336,162964,166395,175331
DistanceSpacing: 1.7
BeatDivisor: 8
GridSize: 8
TimelineZoom: 3.799998

[Metadata]
Title:Gashina1
TitleUnicode:가시나1
Artist:Sunmi1
ArtistUnicode:선미1
Creator:Euny
Version:Hard
Source:
Tags:
BeatmapID:1515023
BeatmapSetID:660483

[Difficulty]
HPDrainRate:5
CircleSize:3.9
OverallDifficulty:6
ApproachRate:6.6
SliderMultiplier:1.99999994277954
SliderTickRate:1

[Events]
//Background and Video events
Video,-460,"Gashina.avi"
0,0,"dfdfsfdf.jpg",0,0
//Break Periods
2,88643,91312
2,133323,142376
2,151196,155142
//Storyboard Layer 0 (Background)
//Storyboard Layer 1 (Fail)
//Storyboard Layer 2 (Pass)
//Storyboard Layer 3 (Foreground)
//Storyboard Sound Samples

[TimingPoints]
358,638.297872340426,4,2,23,40,1,0
358,-100,4,2,23,40,0,0
677,-100,4,2,12,40,0,0
1155,-100,4,2,11,40,0,0
1634,-100,4,2,23,40,0,0
1953,-100,4,2,12,40,0,0
2432,-100,4,2,11,40,0,0
2911,-100,4,2,23,40,0,0
3230,-100,4,2,12,40,0,0
3709,-100,4,2,11,40,0,0
4187,-100,4,2,23,40,0,0
4506,-100,4,2,12,40,0,0
4985,-100,4,2,11,40,0,0
5464,-100,4,2,23,40,0,0
5783,-100,4,2,12,40,0,0
6262,-100,4,2,11,40,0,0
6740,-100,4,2,23,40,0,0
7060,-100,4,2,12,40,0,0
7538,-100,4,2,11,40,0,0
8017,-100,4,2,23,40,0,0
8336,-100,4,2,12,40,0,0
8815,-100,4,2,11,40,0,0
9134,-100,4,2,69,40,0,0
10570,-100,4,2,69,40,0,0
13123,-100,4,2,23,40,0,0
13443,-100,4,2,12,40,0,0
13921,-100,4,2,11,40,0,0
14400,-100,4,2,23,40,0,0
14719,-100,4,2,12,40,0,0
15198,-100,4,2,11,40,0,0
15677,-100,4,2,69,40,0,0
18230,-100,4,2,23,40,0,0
18549,-100,4,2,12,40,0,0
19028,-100,4,2,11,40,0,0
19506,-100,4,2,23,40,0,0
19826,-100,4,2,12,40,0,0
20304,-100,4,2,11,40,0,0
20783,-100,4,2,69,55,0,0
23655,-100,4,2,12,55,0,0
24134,-100,4,2,11,55,0,0
24613,-100,4,2,69,55,0,0
27405,-100,4,2,69,5,0,0
27485,-100,4,2,69,55,0,0
27725,-100,4,2,69,5,0,0
27804,-100,4,2,69,55,0,0
28762,-100,4,2,12,40,0,0
29240,-100,4,2,11,40,0,0
29719,-100,4,2,69,40,0,0
30038,-100,4,2,12,40,0,0
30517,-100,4,2,11,55,0,0
30996,-142.857142857143,4,2,69,55,0,0
33549,-142.857142857143,4,2,69,40,0,0
36102,-142.857142857143,4,2,69,55,0,0
41209,-100,4,2,69,45,0,0
43762,-100,4,2,69,45,0,0
46315,-100,4,2,69,50,0,0
46634,-100,4,2,69,50,0,0
46953,-100,4,2,69,50,0,0
51102,-100,4,2,69,65,0,0
51421,-100,4,2,88,50,0,1
51661,-100,4,2,88,5,0,1
51740,-100,4,2,88,65,0,1
51900,-100,4,2,88,65,0,1
52139,-100,4,2,88,65,0,1
52219,-100,4,2,88,65,0,1
52538,-100,4,2,88,5,0,1
52698,-100,4,2,88,65,0,0
53017,-100,4,2,88,5,0,0
53177,-100,4,2,88,65,0,0
53496,-100,4,2,88,5,0,0
53655,-100,4,2,88,65,0,0
53815,-100,4,2,88,5,0,0
53975,-100,4,2,88,65,0,0
54294,-100,4,2,88,65,0,0
54693,-100,4,2,88,65,0,0
54772,-100,4,2,88,65,0,0
55092,-100,4,2,88,5,0,0
55251,-100,4,2,88,65,0,0
55411,-100,4,2,88,5,0,0
55570,-100,4,2,88,65,0,0
56209,-100,4,2,88,65,0,0
56368,-100,4,2,88,5,0,0
56528,-100,4,2,88,65,0,0
56687,-100,4,2,88,5,0,0
56847,-100,4,2,88,65,0,0
57006,-100,4,2,88,65,0,0
57246,-100,4,2,88,65,0,0
57326,-100,4,2,88,65,0,0
57645,-100,4,2,88,5,0,0
57804,-100,4,2,88,65,0,0
58123,-100,4,2,88,5,0,0
58283,-100,4,2,88,65,0,0
58602,-100,4,2,88,5,0,0
58762,-100,4,2,88,65,0,0
58921,-100,4,2,88,5,0,0
59081,-100,4,2,88,65,0,0
60358,-100,4,2,88,65,0,0
61634,-100,4,2,88,50,0,1
61714,-100,4,2,88,65,0,1
62911,-100,4,2,88,65,0,0
66740,-100,4,2,69,65,0,0
67060,-100,4,2,88,65,0,0
70411,-100,4,2,69,65,0,0
71528,-100,4,2,88,45,0,0
71847,-100,4,2,68,45,0,0
71927,-100,4,2,69,45,0,0
72326,-100,4,2,88,45,0,0
83655,-100,4,2,69,45,0,0
83975,-100,4,2,88,65,0,0
84613,-100,4,2,69,45,0,0
85889,-100,4,2,69,45,0,0
88443,-100,4,2,88,45,0,0
92272,-142.857142857143,4,2,69,45,0,0
97379,-142.857142857143,4,2,69,45,0,0
99932,-142.857142857143,4,2,69,45,0,0
102485,-100,4,2,69,50,0,0
105038,-100,4,2,69,50,0,0
107592,-100,4,2,69,50,0,0
107911,-100,4,2,69,50,0,0
108230,-100,4,2,69,50,0,0
112379,-100,4,2,69,65,0,0
112698,-100,4,2,88,50,0,1
112937,-100,4,2,88,5,0,1
113017,-100,4,2,88,65,0,1
113177,-100,4,2,88,65,0,1
113496,-100,4,2,88,65,0,1
113815,-100,4,2,88,5,0,1
113975,-100,4,2,88,65,0,0
114294,-100,4,2,88,5,0,0
114454,-100,4,2,88,65,0,0
114773,-100,4,2,88,5,0,0
114932,-100,4,2,88,65,0,0
115092,-100,4,2,88,5,0,0
115252,-100,4,2,88,65,0,0
115570,-100,4,2,88,65,0,0
116049,-100,4,2,88,65,0,0
116369,-100,4,2,88,5,0,0
116528,-100,4,2,88,65,0,0
116688,-100,4,2,88,5,0,0
116847,-100,4,2,88,65,0,0
117486,-100,4,2,88,65,0,0
117645,-100,4,2,88,5,0,0
117805,-100,4,2,88,65,0,0
117964,-100,4,2,88,5,0,0
118124,-100,4,2,88,65,0,0
118283,-100,4,2,88,65,0,0
118603,-100,4,2,88,65,0,0
118922,-100,4,2,88,5,0,0
119081,-100,4,2,88,65,0,0
119400,-100,4,2,88,5,0,0
119560,-100,4,2,88,65,0,0
119879,-100,4,2,88,5,0,0
120039,-100,4,2,88,65,0,0
120198,-100,4,2,88,5,0,0
120358,-100,4,2,88,65,0,0
121635,-100,4,2,88,65,0,0
122911,-100,4,2,88,50,0,1
122990,-100,4,2,88,50,0,1
124187,-100,4,2,88,50,0,0
128017,-100,4,2,69,50,0,0
128336,-100,4,2,88,50,0,0
130570,-100,4,2,69,65,0,0
131688,-100,4,2,69,65,0,0
132804,-100,4,2,88,45,0,0
148125,-100,4,2,69,65,0,0
148443,-100,4,2,69,65,0,0
148762,-100,4,2,69,65,0,0
149081,-100,4,2,69,71,0,0
152911,-100,4,2,88,71,0,0
152990,-100,4,2,88,21,0,0
153549,-100,4,2,88,31,0,0
154187,-100,4,2,88,41,0,0
154826,-100,4,2,88,51,0,0
155464,-100,4,2,88,61,0,0
155783,-100,4,2,88,5,0,0
156102,-100,4,2,69,67,0,1
156581,-100,4,2,69,67,0,1
157379,-100,4,2,69,67,0,0
158655,-100,4,2,69,67,0,0
159134,-100,4,2,69,67,0,0
159932,-100,4,2,69,67,0,0
161209,-100,4,2,69,67,0,1
161687,-100,4,2,69,67,0,1
162485,-100,4,2,69,67,0,0
163762,-100,4,2,69,67,0,0
164240,-100,4,2,69,67,0,0
165038,-100,4,2,69,67,0,0
166315,-100,4,2,88,50,0,1
167592,-100,4,2,88,65,0,0
171421,-100,4,2,69,65,0,0
171740,-100,4,2,88,65,0,0
173975,-100,4,2,69,67,0,0

[Colours]
Combo1 : 255,115,164
Combo2 : 192,130,255
Combo3 : 192,192,192

[HitObjects]
14,185,358,6,0,L|126:177,1,99.999997138977,2|2,0:0|0:0,0:0:0:0:
192,145,836,2,0,L|186:35,2,99.999997138977,2|2|2,0:0|0:0|0:0,0:0:0:0:
206,228,1634,2,0,L|308:200,1,99.999997138977,2|2,0:0|0:0,0:0:0:0:
384,177,2113,2,0,L|366:289,2,99.999997138977,2|2|2,0:0|0:0|0:0,0:0:0:0:
437,110,2911,6,0,L|336:79,1,99.999997138977,2|2,0:0|0:0,0:0:0:0:
258,99,3389,2,0,L|256:-5,2,99.999997138977,2|2|2,0:0|0:0|0:0,0:0:0:0:
186,145,4187,2,0,L|69:122,1,99.999997138977,2|2,0:0|0:0,0:0:0:0:
13,167,4666,2,0,L|53:265,2,99.999997138977,2|2|2,0:0|0:0|0:0,0:0:0:0:
3,82,5464,6,0,L|91:22,1,99.999997138977,2|2,0:0|0:0,0:0:0:0:
169,40,5943,2,0,L|279:60,2,99.999997138977,2|2|2,0:0|2:0|2:0,0:0:0:0:
136,118,6740,2,0,L|139:222,1,99.999997138977,2|2,2:0|0:0,0:0:0:0:
76,276,7219,2,0,L|5:205,2,99.999997138977,2|2|2,0:0|0:0|0:0,0:0:0:0:
146,323,8017,6,0,L|259:310,1,99.999997138977,2|2,0:0|0:0,0:0:0:0:
326,285,8496,2,0,L|304:396,1,99.999997138977,2|2,0:0|0:0,0:0:0:0:
400,241,9134,2,0,L|433:259,2,24.9999992847443,8|8|8,0:3|0:3|0:3,0:0:0:0:
330,191,9453,2,0,P|358:149|361:86,1,99.999997138977,8|8,0:3|0:3,0:0:0:0:
317,29,9932,1,8,0:3:0:0:
243,182,10251,1,8,0:0:0:0:
80,131,10570,6,0,L|89:71,2,49.9999985694885,6|0|0,0:0|0:1|0:1,0:0:0:0:
2,165,11049,1,0,0:1:0:0:
69,216,11209,2,0,L|39:259,2,49.9999985694885,2|0|0,0:0|0:1|0:1,0:0:0:0:
144,178,11687,1,0,0:1:0:0:
223,209,11847,2,0,L|276:194,1,49.9999985694885,2|0,0:2|0:1,0:0:0:0:
325,129,12166,2,0,L|392:142,1,49.9999985694885,0|0,0:1|0:1,0:0:0:0:
456,161,12485,1,0,0:0:0:0:
493,326,12804,2,0,L|436:336,1,49.9999985694885,0|0,0:0|0:0,0:0:0:0:
358,341,13123,6,0,L|371:237,1,99.999997138977,2|2,0:0|0:0,0:0:0:0:
394,160,13602,2,0,L|479:213,2,99.999997138977,2|2|2,0:0|0:0|0:0,0:0:0:0:
330,103,14400,2,0,L|216:135,1,99.999997138977,2|2,0:0|0:0,0:0:0:0:
148,129,14879,2,0,L|188:28,1,99.999997138977,2|2,0:0|0:0,0:0:0:0:
269,31,15358,1,0,0:0:0:0:
269,31,15517,1,2,0:0:0:0:
352,45,15677,6,0,L|418:52,2,49.9999985694885,2|0|0,0:0|0:0|0:0,0:0:0:0:
370,127,16155,1,0,0:0:0:0:
454,141,16315,2,0,L|442:246,1,99.999997138977,2|0,0:0|0:0,0:0:0:0:
315,353,16953,1,2,0:0:0:0:
231,336,17113,1,0,0:0:0:0:
152,367,17272,2,0,P|153:313|183:266,1,99.999997138977,0|2,0:0|0:0,0:0:0:0:
345,262,17911,1,0,0:0:0:0:
399,197,18070,1,0,0:0:0:0:
314,184,18230,6,0,P|263:183|216:167,1,99.999997138977,2|2,0:0|0:0,0:0:0:0:
142,125,18709,2,0,L|142:224,2,99.999997138977,2|2|2,0:0|0:0|0:0,0:0:0:0:
118,43,19506,2,0,L|236:49,1,99.999997138977,2|2,0:0|0:0,0:0:0:0:
256,124,19985,2,0,L|369:88,1,99.999997138977,2|2,0:0|0:0,0:0:0:0:
387,16,20464,1,0,0:0:0:0:
387,16,20623,1,2,0:0:0:0:
464,51,20783,6,0,P|480:28|486:3,2,49.9999985694885,4|0|2,0:3|0:0|0:0,0:0:0:0:
438,132,21262,1,0,0:0:0:0:
490,198,21421,1,4,0:3:0:0:
342,281,21740,1,2,0:0:0:0:
381,356,21900,1,0,0:0:0:0:
295,354,22060,6,0,P|275:370|252:379,2,49.9999985694885,4|0|2,0:3|0:0|0:0,0:0:0:0:
255,278,22538,2,0,P|232:286|207:284,2,49.9999985694885,0|4|0,0:0|0:3|0:0,0:0:0:0:
257,192,23017,2,0,P|233:192|208:186,1,49.9999985694885,2|0,0:0|0:0,0:0:0:0:
138,139,23336,6,0,L|112:251,1,99.999997138977,4|2,0:3|0:0,0:0:0:0:
68,307,23815,2,0,L|18:215,2,99.999997138977,2|2|2,0:0|0:0|0:0,0:0:0:0:
137,356,24613,2,0,L|237:319,2,99.999997138977,4|2|4,0:3|0:0|0:3,0:0:0:0:
114,187,25570,1,2,0:0:0:0:
179,132,25730,1,0,0:0:0:0:
255,168,25889,6,0,P|306:179|365:182,2,99.999997138977,4|2|4,0:3|0:0|0:3,0:0:0:0:
134,47,26847,1,2,0:0:0:0:
134,47,27006,1,0,0:0:0:0:
54,15,27166,6,0,L|25:106,1,74.9999978542328,4|0,0:3|0:0,0:0:0:0:
16,126,27485,2,0,L|44:208,1,74.9999978542328,2|0,0:0|0:0,0:0:0:0:
54,237,27804,2,0,L|31:285,2,49.9999985694885,4|0|2,0:3|0:0|0:0,0:0:0:0:
122,186,28283,1,0,0:0:0:0:
177,250,28443,6,0,L|292:255,1,99.999997138977,4|2,0:3|0:0,0:0:0:0:
354,220,28921,2,0,L|353:323,2,99.999997138977,2|2|2,0:0|0:0|0:0,0:0:0:0:
380,138,29719,2,0,L|286:76,1,99.999997138977,4|2,0:3|0:0,0:0:0:0:
230,29,30198,2,0,L|124:29,2,99.999997138977,2|2|2,0:0|0:0|0:0,0:0:0:0:
221,110,30996,6,0,P|318:259|298:83,1,489.999971027375,4|2,0:0|0:0,0:0:0:0:
134,82,33549,6,0,P|166:305|392:312,1,489.999971027375,2|2,0:0|0:0,0:0:0:0:
479,178,36102,2,0,B|456:169|432:34|432:34|424:133|402:233|318:298|238:254,1,489.999971027375,2|2,0:0|0:0,0:0:0:0:
216,102,38655,2,0,B|194:173|268:228|370:177|352:53|270:51|270:51|191:64|191:64|151:91|151:91|116:78|116:78|81:95,1,489.999971027375,2|2,0:0|0:0,0:0:0:0:
180,235,41209,6,0,P|223:259|272:266,1,99.999997138977,12|2,0:3|0:0,0:0:0:0:
352,236,41688,1,8,0:1:0:0:
338,320,41848,2,0,P|332:344|338:368,1,49.9999985694885,12|0,0:3|0:0,0:0:0:0:
417,337,42166,2,0,P|424:279|454:237,1,99.999997138977,8|12,0:1|0:3,0:0:0:0:
485,168,42645,2,0,L|374:159,1,99.999997138977,8|2,0:1|0:0,0:0:0:0:
315,111,43123,2,0,L|262:130,1,49.9999985694885,12|0,0:3|0:0,0:0:0:0:
235,207,43443,6,0,L|257:218,3,24.9999992847443,8|8|8|8,0:1|0:1|0:1|0:1,0:0:0:0:
217,234,43762,6,0,P|227:294|226:349,1,99.999997138977,12|2,0:3|0:0,0:0:0:0:
151,371,44240,1,8,0:1:0:0:
66,363,44400,2,0,P|42:368|17:364,1,49.9999985694885,12|0,0:3|0:0,0:0:0:0:
12,283,44719,2,0,P|36:239|36:189,1,99.999997138977,8|12,0:1|0:3,0:0:0:0:
0,112,45198,1,8,0:1:0:0:
0,112,45358,1,8,0:1:0:0:
152,32,45677,2,0,L|146:93,1,49.9999985694885,12|8,0:3|0:1,0:0:0:0:
224,120,45996,6,0,L|232:97,3,24.9999992847443,8|8|8|8,0:1|0:1|0:1|0:1,0:0:0:0:
272,96,46315,6,0,P|319:108|367:95,2,99.999997138977,12|12|12,0:3|0:3|0:3,0:0:0:0:
206,252,47272,1,12,0:3:0:0:
130,211,47432,1,8,0:1:0:0:
130,211,47512,1,8,0:1:0:0:
130,211,47592,6,0,L|118:322,2,99.999997138977,12|12|12,0:3|0:3|0:3,0:0:0:0:
61,160,48389,1,8,0:1:0:0:
65,74,48549,1,12,0:3:0:0:
142,37,48709,2,0,L|172:41,2,24.9999992847443,8|0|12,0:1|0:0|0:3,0:0:0:0:
267,126,51102,5,8,0:0:0:0:
267,126,51421,6,0,P|273:149|260:205,1,74.9999978542328,4|0,0:1|0:0,0:0:0:0:
245,234,51740,6,0,P|293:225|341:237,1,99.999997138977,2|0,0:0|0:0,0:0:0:0:
424,257,52219,2,0,B|432:240|432:240|416:216|416:216|432:192|432:192|416:168|416:168|426:154,1,99.999997138977
428,87,52698,6,0,L|274:112,2,149.999995708466,0|2|2,0:0|0:0|0:0,0:0:0:0:
275,28,53975,5,2,0:1:0:0:
274,27,54294,6,0,P|230:47|203:89,1,99.999997138977,2|0,0:0|0:0,0:0:0:0:
154,158,54772,2,0,B|146:140|146:140|117:136|117:136|109:109|109:109|80:104|80:104|84:89,1,99.999997138977
58,25,55251,1,4,0:3:0:0:
26,195,55570,1,2,0:0:0:0:
26,195,55730,1,4,0:3:0:0:
91,248,55889,1,10,0:0:0:0:
91,248,56049,1,2,0:0:0:0:
161,200,56209,1,2,0:0:0:0:
78,59,56528,5,4,0:3:0:0:
78,59,56847,6,0,P|123:77|171:67,1,99.999997138977,2|0,0:0|0:0,0:0:0:0:
250,34,57326,2,0,B|242:50|242:50|258:75|258:75|244:98|244:98|261:122|261:122|256:126,1,99.999997138977
296,194,57804,6,0,L|458:166,2,149.999995708466,10|2|2,0:0|0:0|0:0,0:0:0:0:
350,32,59081,5,4,0:3:0:0:
350,32,59400,6,0,L|230:18,1,99.999997138977,8|8,0:1|0:0,0:0:0:0:
200,89,59879,2,0,L|145:103,2,49.9999985694885,8|2|8,0:1|0:0|0:1,0:0:0:0:
228,169,60358,1,8,0:1:0:0:
397,114,60677,1,8,0:1:0:0:
397,114,60836,1,2,0:0:0:0:
481,123,60996,1,8,0:0:0:0:
481,123,61155,1,8,0:1:0:0:
495,40,61315,2,0,L|510:13,2,24.9999992847443,8|8|8,0:1|0:1|0:1,0:0:0:0:
411,21,61634,6,0,L|307:45,1,99.999997138977,4|8,0:1|0:3,0:0:0:0:
160,120,62272,2,0,L|272:152,1,99.999997138977,4|8,0:3|0:3,0:0:0:0:
400,232,62911,2,0,L|256:272,1,149.999995708466,4|8,0:3|0:1,0:0:0:0:
174,299,63549,5,4,0:3:0:0:
174,299,63709,1,2,0:0:0:0:
111,356,63868,1,8,0:3:0:0:
111,356,64028,1,2,0:0:0:0:
34,318,64187,6,0,B|55:272|55:272|50:222,1,99.999997138977,2|8,0:1|0:3,0:0:0:0:
220,219,64826,2,0,B|172:202|172:202|140:163,1,99.999997138977,4|8,0:3|0:3,0:0:0:0:
65,11,65464,2,0,B|139:40|139:40|209:33,1,149.999995708466,4|8,0:3|0:1,0:0:0:0:
296,24,66102,5,4,0:3:0:0:
297,109,66262,1,0,0:0:0:0:
384,24,66421,1,8,0:3:0:0:
388,109,66581,1,0,0:3:0:0:
459,63,66740,2,0,P|477:106|423:187,1,149.999995708466,12|0,0:2|0:0,0:0:0:0:
340,174,67379,5,4,0:3:0:0:
370,253,67538,1,0,0:0:0:0:
263,205,67698,1,8,0:3:0:0:
295,280,67858,1,0,0:0:0:0:
185,246,68017,2,0,B|209:284|209:284|215:335|215:335|241:362,1,124.999996423721,4|0,0:3|0:0,0:0:0:0:
234,355,68496,2,0,P|178:334|109:348,1,124.999996423721,4|0,0:0|0:0,0:0:0:0:
77,366,68975,1,8,0:3:0:0:
14,207,69294,6,0,L|55:112,2,99.999997138977,4|0|4,0:3|0:0|0:3,0:0:0:0:
179,246,70251,1,0,0:0:0:0:
240,186,70411,2,0,L|229:141,2,24.9999992847443,8|8|8,0:3|0:3|0:3,0:0:0:0:
266,267,70730,1,8,0:3:0:0:
158,135,71049,1,8,0:3:0:0:
158,135,71209,1,8,0:3:0:0:
326,109,71528,1,8,0:3:0:0:
264,167,71687,1,0,0:0:0:0:
196,219,71847,6,0,P|183:266|196:314,1,99.999997138977,4|0,0:0|0:0,0:0:0:0:
366,310,72485,2,0,P|378:262|365:214,1,99.999997138977,8|0,0:3|0:0,0:0:0:0:
245,93,73123,2,0,P|206:124|157:123,1,99.999997138977,4|0,0:3|0:0,0:0:0:0:
1,55,73762,2,0,P|39:24|88:25,1,99.999997138977,8|0,0:3|0:0,0:0:0:0:
249,78,74400,6,0,L|267:191,1,99.999997138977,2|2,0:1|0:0,0:0:0:0:
325,237,74879,2,0,L|379:141,1,99.999997138977,2|0,0:1|0:0,0:0:0:0:
451,114,75358,2,0,L|452:218,1,99.999997138977,2|0,0:1|0:0,0:0:0:0:
453,298,75836,1,2,0:1:0:0:
293,357,76155,1,2,0:0:0:0:
293,357,76315,1,2,0:1:0:0:
219,203,76634,1,0,0:0:0:0:
303,213,76794,1,0,0:0:0:0:
366,157,76953,6,0,P|385:203|377:252,1,99.999997138977,4|0,0:3|0:0,0:0:0:0:
208,297,77592,2,0,P|199:248|218:202,1,99.999997138977,12|0,0:3|0:0,0:0:0:0:
320,66,78230,2,0,P|271:74|223:61,1,99.999997138977,4|0,0:3|0:0,0:0:0:0:
55,28,78868,2,0,P|76:73|72:123,1,99.999997138977,12|0,0:3|0:0,0:0:0:0:
38,289,79506,6,0,L|149:265,1,99.999997138977,2|0,0:1|0:0,0:0:0:0:
216,240,79985,2,0,L|150:156,1,99.999997138977,2|0,0:1|0:0,0:0:0:0:
72,123,80464,2,0,L|137:39,1,99.999997138977,2|2,0:1|0:0,0:0:0:0:
218,43,80943,2,0,P|247:80|294:73,1,99.999997138977,2|0,0:1|0:0,0:0:0:0:
355,15,81421,1,2,0:1:0:0:
413,174,81740,5,0,0:0:0:0:
413,174,81900,1,0,0:0:0:0:
330,194,82060,6,0,P|399:258|487:222,1,199.999994277954,4|12,0:3|0:3,0:0:0:0:
395,78,83017,1,0,0:0:0:0:
248,165,83336,2,0,P|257:245|341:328,1,199.999994277954,0|8,0:0|0:3,0:0:0:0:
414,289,84134,1,2,0:0:0:0:
464,357,84294,1,2,0:0:0:0:
508,285,84453,1,2,0:0:0:0:
460,214,84613,6,0,P|411:203|364:217,1,99.999997138977,4|2,0:3|0:0,0:0:0:0:
312,285,85092,2,0,P|266:299|205:291,2,99.999997138977,2|2|2,0:0|0:0|0:0,0:0:0:0:
278,206,85890,2,0,P|273:151|297:95,2,99.999997138977,4|2|4,0:3|0:0|0:3,0:0:0:0:
346,50,86847,1,0,0:0:0:0:
425,79,87007,1,0,0:0:0:0:
503,47,87166,6,0,L|501:121,1,74.9999978542328,4|0,0:3|0:0,0:0:0:0:
494,163,87485,2,0,L|507:199,3,24.9999992847443,4|4|4|4,0:3|0:3|0:3|0:3,0:0:0:0:
484,225,87804,1,4,0:3:0:0:
314,235,88123,1,0,0:0:0:0:
317,320,88283,1,0,0:0:0:0:
241,278,88443,5,8,0:3:0:0:
183,210,92272,6,0,B|142:202|112:133|146:81|230:79|233:156|233:156|284:100|344:173|339:219|282:253|233:233|212:299,1,489.999971027375,4|0,0:0|0:0,0:0:0:0:
362,357,94826,2,0,B|446:342|446:342|417:288|417:288|398:132|398:132|401:263|319:304,1,489.999971027375,2|0,0:0|0:0,0:0:0:0:
190,218,97379,2,0,B|98:254|130:442|220:426|314:404|311:226|177:216|99:324|58:329|33:294,1,489.999971027375,2|0,0:0|0:0,0:0:0:0:
34,139,99932,2,0,B|57:157|77:192|77:192|128:136|193:78|328:87|355:184|355:184|271:141,1,489.999971027375,2|0,0:0|0:0,0:0:0:0:
157,30,102485,6,0,P|209:17|260:18,1,99.999997138977,12|2,0:3|0:0,0:0:0:0:
336,41,102964,1,8,0:1:0:0:
407,86,103123,2,0,P|450:54|464:7,1,99.999997138977,12|8,0:3|0:1,0:0:0:0:
496,178,103762,2,0,L|480:231,2,49.9999985694885,12|0|0,0:3|0:0|0:0,0:0:0:0:
482,347,104400,1,12,0:3:0:0:
342,251,104719,2,0,L|329:282,3,24.9999992847443,2|8|8|8,0:0|0:1|0:1|0:1,0:0:0:0:
315,313,105038,6,0,P|268:296|220:306,1,99.999997138977,12|2,0:3|0:0,0:0:0:0:
174,378,105516,1,8,0:1:0:0:
140,299,105677,2,0,P|137:262|92:205,1,99.999997138977,12|8,0:3|0:1,0:0:0:0:
13,66,106315,5,12,0:3:0:0:
91,97,106474,1,8,0:1:0:0:
155,41,106634,1,8,0:1:0:0:
317,90,106953,1,12,0:3:0:0:
317,90,107113,1,8,0:1:0:0:
399,110,107272,2,0,L|438:98,3,24.9999992847443,2|8|8|8,0:0|0:1|0:1|0:1,0:0:0:0:
466,101,107592,6,0,L|503:-5,2,99.999997138977,12|12|12,0:3|0:3|0:3,0:0:0:0:
496,268,108549,1,12,0:3:0:0:
447,337,108709,1,8,0:1:0:0:
447,337,108789,1,8,0:1:0:0:
447,337,108869,6,0,P|402:353|349:338,2,99.999997138977,12|0|0,0:3|0:0|0:0,0:0:0:0:
397,268,109666,1,8,0:1:0:0:
312,279,109826,1,12,0:3:0:0:
343,199,109986,2,0,L|339:170,2,24.9999992847443,8|0|12,0:1|0:0|0:3,0:0:0:0:
117,226,112378,5,8,0:0:0:0:
248,118,112697,6,0,P|254:154|244:190,1,74.9999978542328,4|0,0:1|0:0,0:0:0:0:
233,231,113016,6,0,B|280:217|289:253|348:232,1,99.999997138977,2|0,0:0|0:0,0:0:0:0:
414,220,113495,2,0,B|399:232|399:232|405:260|405:260|381:277|381:277|387:305|387:305|372:310,1,99.999997138977
305,326,113974,6,0,B|217:291|244:354|158:319,2,149.999995708466,0|2|2,0:0|0:0|0:0,0:0:0:0:
454,375,115251,5,2,0:1:0:0:
454,375,115570,6,0,L|496:267,1,99.999997138977,2|0,0:0|0:0,0:0:0:0:
505,198,116048,2,0,B|510:180|510:180|491:157|491:157|504:132|504:132|484:110|484:110|491:103,1,99.999997138977
480,29,116527,1,4,0:3:0:0:
308,18,116846,1,2,0:0:0:0:
308,18,117006,1,4,0:3:0:0:
238,66,117165,1,10,0:0:0:0:
238,66,117325,1,2,0:0:0:0:
169,15,117485,1,2,0:0:0:0:
168,184,117804,5,4,0:3:0:0:
166,184,118123,6,0,P|117:179|86:142,1,99.999997138977,2|0,0:0|0:0,0:0:0:0:
4,118,118602,2,0,B|-4:134|-4:134|12:159|12:159|-2:182|-2:182|15:206|15:206|9:217,1,99.999997138977,0|0,3:0|0:0,0:0:0:0:
84,247,119080,6,0,B|64:351|64:351|32:292,2,149.999995708466,10|2|2,0:0|0:0|0:0,0:0:0:0:
12,77,120357,5,4,0:3:0:0:
12,77,120676,6,0,L|109:41,1,99.999997138977,8|8,0:1|0:0,0:0:0:0:
163,104,121155,2,0,P|142:116|118:124,2,49.9999985694885,8|2|8,0:1|0:0|0:1,0:0:0:0:
188,22,121634,1,8,0:1:0:0:
357,21,121953,1,8,0:1:0:0:
357,21,122112,1,2,0:0:0:0:
404,91,122272,1,8,0:0:0:0:
404,91,122431,1,8,0:1:0:0:
488,83,122591,2,0,L|518:71,2,24.9999992847443,8|8|8,0:1|0:1|0:1,0:0:0:0:
492,168,122910,6,0,P|505:215|496:264,1,99.999997138977,4|8,0:1|0:3,0:0:0:0:
374,383,123549,2,0,P|365:334|378:286,1,99.999997138977,4|8,0:3|0:3,0:0:0:0:
487,155,124187,2,0,P|437:184|476:138,1,149.999995708466,4|8,0:3|0:1,0:0:0:0:
507,62,124825,5,4,0:3:0:0:
507,62,124985,1,2,0:0:0:0:
422,57,125144,1,8,0:3:0:0:
422,57,125304,1,2,0:0:0:0:
365,119,125463,6,0,B|370:169|370:169|349:215,1,99.999997138977,2|8,0:1|0:3,0:0:0:0:
244,79,126102,2,0,B|272:120|272:120|275:171,1,99.999997138977,4|8,0:3|0:3,0:0:0:0:
115,226,126740,2,0,B|185:219|185:219|259:248,1,149.999995708466,4|8,0:3|0:1,0:0:0:0:
328,296,127378,5,4,0:3:0:0:
336,208,127538,1,0,0:0:0:0:
408,256,127697,1,8,0:3:0:0:
416,168,127857,1,0,0:3:0:0:
488,216,128016,2,0,P|506:173|452:92,1,149.999995708466,12|0,0:0|0:0,0:0:0:0:
368,96,128655,5,4,0:3:0:0:
320,168,128814,1,0,0:0:0:0:
280,88,128974,1,8,0:3:0:0:
232,160,129134,1,0,0:0:0:0:
192,88,129293,2,0,B|87:163,1,124.999996423721,4|0,0:3|0:0,0:0:0:0:
48,176,129772,2,0,L|80:48,1,124.999996423721,4|0,0:0|0:0,0:0:0:0:
112,32,130251,1,0,0:0:0:0:
280,32,130570,6,0,L|392:48,2,99.999997138977,4|0|0,0:0|0:0|0:0,0:0:0:0:
432,112,131527,1,0,0:0:0:0:
400,192,131687,2,0,L|368:176,2,24.9999992847443,8|8|8,0:3|0:3|0:3,0:0:0:0:
488,184,132006,1,8,0:3:0:0:
480,352,132325,1,0,0:0:0:0:
480,352,132485,1,8,0:3:0:0:
319,296,132804,1,8,0:3:0:0:
485,264,133123,5,6,0:0:0:0:
8,321,143336,6,0,L|118:331,1,99.999997138977,4|0,0:3|0:0,0:0:0:0:
189,305,143815,1,8,0:1:0:0:
263,346,143975,1,4,0:3:0:0:
417,275,144294,6,0,L|415:340,1,49.9999985694885,8|0,0:1|0:0,0:0:0:0:
493,358,144613,2,0,L|519:301,2,49.9999985694885,4|8|8,0:3|0:1|0:1,0:0:0:0:
506,188,145251,6,0,L|456:197,1,49.9999985694885,4|0,0:3|0:0,0:0:0:0:
371,203,145570,2,0,L|335:216,3,24.9999992847443,8|8|8|8,0:1|0:1|0:1|0:1,0:0:0:0:
318,242,145889,6,0,L|205:222,1,99.999997138977,4|0,0:3|0:0,0:0:0:0:
136,203,146368,1,8,0:1:0:0:
127,287,146528,1,4,0:3:0:0:
204,135,146847,6,0,L|194:78,1,49.9999985694885,8|0,0:1|0:0,0:0:0:0:
139,21,147166,2,0,L|112:76,2,49.9999985694885,4|8|8,0:3|0:1|0:1,0:0:0:0:
0,7,147804,5,4,0:3:0:0:
0,7,147964,1,8,0:1:0:0:
5,91,148123,2,0,L|16:122,3,24.9999992847443,8|8|8|8,0:1|0:1|0:1|0:1,0:0:0:0:
28,154,148443,6,0,L|7:251,2,99.999997138977,12|12|12,0:3|0:3|0:3,0:0:0:0:
120,296,149400,1,12,0:3:0:0:
46,338,149560,1,8,0:1:0:0:
44,332,149640,1,8,0:1:0:0:
46,338,149720,6,0,P|79:372|133:381,2,99.999997138977,12|0|0,0:3|0:0|0:0,0:0:0:0:
18,257,150517,1,8,0:1:0:0:
47,176,150677,1,12,0:3:0:0:
11,98,150837,2,0,L|7:69,2,24.9999992847443,8|0|12,0:1|0:0|0:3,0:0:0:0:
451,243,156102,6,0,P|465:280|487:246,1,99.999997138977,4|0,0:0|0:0,0:0:0:0:
464,164,156581,6,0,P|415:171|381:206,1,99.999997138977,2|0,0:0|0:0,0:0:0:0:
371,291,157060,1,2,0:0:0:0:
216,360,157379,6,0,L|206:260,1,99.999997138977,2|0,0:0|0:0,0:0:0:0:
122,276,157858,2,0,L|143:160,1,99.999997138977,2|0,0:0|0:0,0:0:0:0:
55,185,158336,1,2,0:0:0:0:
55,185,158655,6,0,L|45:77,1,99.999997138977,2|0,0:0|0:0,0:0:0:0:
24,0,159134,1,2,0:0:0:0:
188,43,159453,1,2,0:0:0:0:
188,43,159613,1,2,0:0:0:0:
224,208,159932,5,4,0:3:0:0:
353,98,160251,1,2,0:0:0:0:
353,98,160411,1,4,0:3:0:0:
422,146,160570,1,10,0:0:0:0:
422,146,160730,1,2,0:0:0:0:
491,97,160889,5,2,0:0:0:0:
409,246,161209,6,0,B|433:231|433:231|421:305,1,99.999997138977,4|0,0:0|0:0,0:0:0:0:
386,379,161688,6,0,P|342:355|293:355,1,99.999997138977,2|0,0:0|0:0,0:0:0:0:
210,375,162166,1,2,0:0:0:0:
144,218,162485,6,0,P|121:270|130:320,1,99.999997138977,2|0,0:0|0:0,0:0:0:0:
205,279,162964,2,0,L|88:157,1,149.999995708466,2|2,0:0|0:0,0:0:0:0:
2,63,163762,5,2,0:0:0:0:
2,63,164081,2,0,L|100:45,1,99.999997138977,0|0,0:0|0:0,0:0:0:0:
182,23,164560,2,0,L|242:41,2,49.9999985694885,8|2|8,0:1|0:0|0:1,0:0:0:0:
161,105,165038,1,0,0:0:0:0:
267,238,165358,1,8,0:1:0:0:
267,238,165517,1,2,0:0:0:0:
341,196,165677,1,8,0:1:0:0:
341,196,165836,1,8,0:1:0:0:
410,245,165996,2,0,L|425:218,2,24.9999992847443,8|8|8,0:1|0:1|0:1,0:0:0:0:
491,271,166315,6,0,P|500:222|487:174,1,99.999997138977,4|8,0:1|0:3,0:0:0:0:
430,13,166954,2,0,P|417:60|426:109,1,99.999997138977,4|8,0:3|0:3,0:0:0:0:
491,271,167592,2,0,B|393:303|393:303|419:263,1,149.999995708466,4|8,0:3|0:1,0:0:0:0:
454,186,168230,5,4,0:3:0:0:
454,186,168390,1,2,0:0:0:0:
484,107,168549,1,8,0:3:0:0:
484,107,168709,1,2,0:0:0:0:
501,24,168868,6,0,L|392:49,1,99.999997138977,2|8,0:1|0:3,0:0:0:0:
236,77,169506,2,0,L|349:107,1,99.999997138977,4|8,0:3|0:3,0:0:0:0:
494,157,170145,2,0,B|343:189,1,149.999995708466,4|8,0:3|0:1,0:0:0:0:
264,168,170783,5,4,0:3:0:0:
272,256,170943,1,0,0:0:0:0:
184,136,171102,1,8,0:3:0:0:
192,224,171262,1,0,0:3:0:0:
107,99,171421,2,0,P|166:52|243:73,1,149.999995708466,12|0,0:0|0:0,0:0:0:0:
312,104,172060,5,4,0:3:0:0:
303,17,172219,1,0,0:0:0:0:
392,144,172379,1,8,0:3:0:0:
385,58,172538,1,0,0:0:0:0:
472,192,172698,2,0,P|511:140|517:82,1,124.999996423721,4|0,0:3|0:0,0:0:0:0:
498,43,173177,2,0,B|519:58|519:58|410:33,1,124.999996423721,4|0,0:0|0:0,0:0:0:0:
385,58,173656,1,0,0:0:0:0:
222,107,173975,6,0,P|271:99|320:109,3,99.999997138977,4|0|0|0,0:2|0:0|0:0|0:0,0:0:0:0:
273,272,175251,1,2,0:0:0:0:
