osu file format v14

[General]
AudioFilename: audio.mp3
AudioLeadIn: 0
PreviewTime: 18730
Countdown: 0
SampleSet: Soft
StackLeniency: 0.7
Mode: 0
LetterboxInBreaks: 0
WidescreenStoryboard: 0

[Editor]
DistanceSpacing: 1.2
BeatDivisor: 8
GridSize: 32
TimelineZoom: 1.8

[Metadata]
Title:In A Hood Near You
TitleUnicode:In A Hood Near You
Artist:Suni Clay
ArtistUnicode:Suni Clay
Creator:SMOKELIND
Version:Blacklist X: SMOKELIND
Source:Need for Speed: Most Wanted
Tags:english video game EA MY HOOD rock metal nfsmw hip hop hip-hop rap bmw m3 e46 gtr ost original soundtrack rise4ngel myangelyamakaze inazuma shurelia
BeatmapID:4341244
BeatmapSetID:2014843

[Difficulty]
HPDrainRate:5
CircleSize:3.5
OverallDifficulty:9
ApproachRate:9.4
SliderMultiplier:2.77
SliderTickRate:1

[Events]
//Background and Video events
0,0,"BG.jpg",0,0
//Break Periods
2,192630,200290
//Storyboard Layer 0 (Background)
//Storyboard Layer 1 (Fail)
//Storyboard Layer 2 (Pass)
//Storyboard Layer 3 (Foreground)
//Storyboard Layer 4 (Overlay)
//Storyboard Sound Samples

[TimingPoints]
430,600,4,2,77,57,1,0
430,-78.7401574803149,4,2,77,57,0,0
2454,-78.7401574803149,4,2,77,5,0,0
2530,-78.7401574803149,4,2,77,57,0,0
3054,-78.7401574803149,4,2,77,5,0,0
3130,-78.7401574803149,4,2,77,57,0,0
4854,-78.7401574803149,4,2,77,5,0,0
4930,-78.7401574803149,4,2,77,57,0,0
7254,-78.7401574803149,4,2,77,5,0,0
7330,-78.7401574803149,4,2,77,57,0,0
7854,-78.7401574803149,4,2,77,5,0,0
7930,-78.7401574803149,4,2,77,57,0,0
9654,-78.7401574803149,4,2,77,5,0,0
9730,-78.7401574803149,4,2,77,57,0,0
11830,-114.942528735632,4,2,77,57,0,0
12430,-78.7401574803149,4,2,77,57,0,0
14230,-114.942528735632,4,2,77,57,0,0
14830,-78.7401574803149,4,2,77,57,0,0
16630,-114.942528735632,4,2,77,57,0,0
17230,-78.7401574803149,4,2,77,57,0,0
19030,-85.4700854700855,4,2,77,67,0,0
19105,-85.4700854700855,4,2,77,5,0,0
19180,-68.0272108843537,4,2,77,67,0,0
19254,-68.0272108843537,4,2,77,5,0,0
19330,-56.4971751412429,4,2,77,67,0,0
19405,-56.4971751412429,4,2,77,5,0,0
19480,-48.3091787439614,4,2,77,67,0,0
19555,-48.3091787439614,4,2,77,5,0,0
19630,-40.4858299595142,4,2,77,77,0,0
19930,-48.3091787439614,4,2,77,77,0,0
20305,-48.3091787439614,4,2,77,5,0,0
20380,-48.3091787439614,4,2,77,77,0,0
20455,-48.3091787439614,4,2,77,5,0,0
20530,-93.4579439252336,4,2,77,77,0,0
20754,-93.4579439252336,4,2,77,5,0,0
20830,-48.3091787439614,4,2,77,77,0,0
20905,-48.3091787439614,4,2,77,5,0,0
20980,-48.3091787439614,4,2,77,77,0,0
21055,-48.3091787439614,4,2,77,5,0,0
21130,-93.4579439252336,4,2,77,77,0,0
21354,-93.4579439252336,4,2,77,5,0,0
21430,-48.3091787439614,4,2,77,77,0,0
21655,-48.3091787439614,4,2,77,5,0,0
21730,-48.3091787439614,4,2,77,77,0,0
22255,-48.3091787439614,4,2,77,5,0,0
22330,-48.3091787439614,4,2,77,77,0,0
22405,-48.3091787439614,4,2,77,5,0,0
22480,-48.3091787439614,4,2,77,77,0,0
22555,-48.3091787439614,4,2,77,5,0,0
22630,-93.4579439252336,4,2,77,77,0,0
22854,-93.4579439252336,4,2,77,5,0,0
22930,-63.6942675159236,4,2,77,77,0,0
23230,-48.3091787439614,4,2,77,77,0,0
23755,-48.3091787439614,4,2,77,5,0,0
23830,-93.4579439252336,4,2,77,77,0,0
24430,-48.3091787439614,4,2,77,77,0,0
25105,-48.3091787439614,4,2,77,5,0,0
25180,-48.3091787439614,4,2,77,77,0,0
25255,-48.3091787439614,4,2,77,5,0,0
25330,-93.4579439252336,4,2,77,77,0,0
25554,-93.4579439252336,4,2,77,5,0,0
25630,-48.3091787439614,4,2,77,77,0,0
25705,-48.3091787439614,4,2,77,5,0,0
25780,-48.3091787439614,4,2,77,77,0,0
25855,-48.3091787439614,4,2,77,5,0,0
25930,-93.4579439252336,4,2,77,77,0,0
26154,-93.4579439252336,4,2,77,5,0,0
26230,-48.3091787439614,4,2,77,77,0,0
26455,-48.3091787439614,4,2,77,5,0,0
26530,-48.3091787439614,4,2,77,77,0,0
27055,-48.3091787439614,4,2,77,5,0,0
27130,-48.3091787439614,4,2,77,77,0,0
27205,-48.3091787439614,4,2,77,5,0,0
27280,-48.3091787439614,4,2,77,77,0,0
27355,-48.3091787439614,4,2,77,5,0,0
27430,-93.4579439252336,4,2,77,77,0,0
27654,-93.4579439252336,4,2,77,5,0,0
27730,-63.6942675159236,4,2,77,77,0,0
28030,-48.3091787439614,4,2,77,77,0,0
28555,-48.3091787439614,4,2,77,5,0,0
28630,-63.6942675159236,4,2,77,77,0,0
28855,-63.6942675159236,4,2,77,5,0,0
28930,-63.6942675159236,4,2,77,77,0,0
29005,-63.6942675159236,4,2,77,5,0,0
29080,-63.6942675159236,4,2,77,77,0,0
29155,-63.6942675159236,4,2,77,5,0,0
29229,-40.4858299595142,4,2,77,77,0,0
29529,-48.3091787439614,4,2,77,77,0,0
29905,-48.3091787439614,4,2,77,5,0,0
29980,-48.3091787439614,4,2,77,77,0,0
30055,-48.3091787439614,4,2,77,5,0,0
30129,-93.4579439252336,4,2,77,77,0,0
30354,-93.4579439252336,4,2,77,5,0,0
30429,-48.3091787439614,4,2,77,77,0,0
30505,-48.3091787439614,4,2,77,5,0,0
30580,-48.3091787439614,4,2,77,77,0,0
30655,-48.3091787439614,4,2,77,5,0,0
30729,-93.4579439252336,4,2,77,77,0,0
30954,-93.4579439252336,4,2,77,5,0,0
31029,-48.3091787439614,4,2,77,77,0,0
31255,-48.3091787439614,4,2,77,5,0,0
31330,-48.3091787439614,4,2,77,77,0,0
31855,-48.3091787439614,4,2,77,5,0,0
31930,-48.3091787439614,4,2,77,77,0,0
32005,-48.3091787439614,4,2,77,5,0,0
32079,-48.3091787439614,4,2,77,77,0,0
32154,-48.3091787439614,4,2,77,5,0,0
32229,-93.4579439252336,4,2,77,77,0,0
32454,-93.4579439252336,4,2,77,5,0,0
32529,-63.6942675159236,4,2,77,77,0,0
32829,-48.3091787439614,4,2,77,77,0,0
33355,-48.3091787439614,4,2,77,5,0,0
33429,-93.4579439252336,4,2,77,77,0,0
34029,-48.3091787439614,4,2,77,77,0,0
34705,-48.3091787439614,4,2,77,5,0,0
34780,-48.3091787439614,4,2,77,77,0,0
34855,-48.3091787439614,4,2,77,5,0,0
34929,-93.4579439252336,4,2,77,77,0,0
35154,-93.4579439252336,4,2,77,5,0,0
35229,-48.3091787439614,4,2,77,77,0,0
35305,-48.3091787439614,4,2,77,5,0,0
35380,-48.3091787439614,4,2,77,77,0,0
35455,-48.3091787439614,4,2,77,5,0,0
35529,-93.4579439252336,4,2,77,77,0,0
35754,-93.4579439252336,4,2,77,5,0,0
35829,-48.3091787439614,4,2,77,77,0,0
36055,-48.3091787439614,4,2,77,5,0,0
36130,-48.3091787439614,4,2,77,77,0,0
36655,-48.3091787439614,4,2,77,5,0,0
36730,-48.3091787439614,4,2,77,77,0,0
36805,-48.3091787439614,4,2,77,5,0,0
36880,-48.3091787439614,4,2,77,77,0,0
36955,-48.3091787439614,4,2,77,5,0,0
37029,-93.4579439252336,4,2,77,77,0,0
37254,-93.4579439252336,4,2,77,5,0,0
37329,-63.6942675159236,4,2,77,77,0,0
37555,-63.6942675159236,4,2,77,5,0,0
37629,-48.3091787439614,4,2,77,77,0,0
37855,-48.3091787439614,4,2,77,5,0,0
37930,-63.6942675159236,4,2,77,77,0,0
38155,-63.6942675159236,4,2,77,5,0,0
38230,-48.3091787439614,4,2,77,77,0,0
38305,-48.3091787439614,4,2,77,5,0,0
38380,-63.6942675159236,4,2,77,67,0,0
38905,-63.6942675159236,4,2,77,5,0,0
38980,-63.6942675159236,4,2,77,67,0,0
39655,-63.6942675159236,4,2,77,5,0,0
39730,-63.6942675159236,4,2,77,67,0,0
39805,-63.6942675159236,4,2,77,5,0,0
39880,-63.6942675159236,4,2,77,67,0,0
40555,-63.6942675159236,4,2,77,5,0,0
40630,-63.6942675159236,4,2,77,67,0,0
42055,-63.6942675159236,4,2,77,5,0,0
42130,-63.6942675159236,4,2,77,67,0,0
44305,-63.6942675159236,4,2,77,5,0,0
44380,-63.6942675159236,4,2,77,67,0,0
44905,-63.6942675159236,4,2,77,5,0,0
44980,-63.6942675159236,4,2,77,67,0,0
45055,-63.6942675159236,4,2,77,5,0,0
45130,-63.6942675159236,4,2,77,67,0,0
45655,-63.6942675159236,4,2,77,5,0,0
45730,-63.6942675159236,4,2,77,67,0,0
46105,-63.6942675159236,4,2,77,5,0,0
46180,-63.6942675159236,4,2,77,67,0,0
46555,-63.6942675159236,4,2,77,5,0,0
46630,-63.6942675159236,4,2,77,67,0,0
46705,-63.6942675159236,4,2,77,5,0,0
46780,-63.6942675159236,4,2,77,67,0,0
47305,-63.6942675159236,4,2,77,5,0,0
47380,-63.6942675159236,4,2,77,67,0,0
47455,-63.6942675159236,4,2,77,5,0,0
47530,-63.6942675159236,4,2,77,67,0,0
48655,-63.6942675159236,4,2,77,5,0,0
48730,-63.6942675159236,4,2,77,67,0,0
48805,-63.6942675159236,4,2,77,5,0,0
48880,-63.6942675159236,4,2,77,67,0,0
48955,-63.6942675159236,4,2,77,5,0,0
49030,-63.6942675159236,4,2,77,67,0,0
51055,-63.6942675159236,4,2,77,5,0,0
51130,-63.6942675159236,4,2,77,67,0,0
51205,-63.6942675159236,4,2,77,5,0,0
51280,-63.6942675159236,4,2,77,67,0,0
51355,-63.6942675159236,4,2,77,5,0,0
51430,-63.6942675159236,4,2,77,67,0,0
52405,-63.6942675159236,4,2,77,5,0,0
52480,-63.6942675159236,4,2,77,67,0,0
53455,-63.6942675159236,4,2,77,5,0,0
53530,-63.6942675159236,4,2,77,67,0,0
53905,-63.6942675159236,4,2,77,5,0,0
53980,-63.6942675159236,4,2,77,67,0,0
55855,-63.6942675159236,4,2,77,5,0,0
55930,-63.6942675159236,4,2,77,67,0,0
56155,-63.6942675159236,4,2,77,5,0,0
56230,-63.6942675159236,4,2,77,67,0,0
56455,-63.6942675159236,4,2,77,5,0,0
56530,-63.6942675159236,4,2,77,67,0,0
56755,-63.6942675159236,4,2,77,5,0,0
56830,-63.6942675159236,4,2,77,67,0,0
57055,-63.6942675159236,4,2,77,5,0,0
57130,-63.6942675159236,4,2,77,67,0,0
57205,-63.6942675159236,4,2,77,5,0,0
57280,-63.6942675159236,4,2,77,67,0,0
58255,-63.6942675159236,4,2,77,5,0,0
58330,-63.6942675159236,4,2,77,67,0,0
58517,-63.6942675159236,4,2,77,5,0,0
58780,-63.6942675159236,4,2,77,67,0,0
58817,-63.6942675159236,4,2,77,5,0,0
58930,-63.6942675159236,4,2,77,67,0,0
59605,-63.6942675159236,4,2,77,5,0,0
59680,-63.6942675159236,4,2,77,67,0,0
59905,-63.6942675159236,4,2,77,5,0,0
59980,-63.6942675159236,4,2,77,67,0,0
60205,-63.6942675159236,4,2,77,5,0,0
60280,-63.6942675159236,4,2,77,67,0,0
60505,-63.6942675159236,4,2,77,5,0,0
60580,-63.6942675159236,4,2,77,67,0,0
61255,-63.6942675159236,4,2,77,5,0,0
61330,-63.6942675159236,4,2,77,67,0,0
61855,-63.6942675159236,4,2,77,5,0,0
61930,-63.6942675159236,4,2,77,67,0,0
62005,-63.6942675159236,4,2,77,5,0,0
62080,-63.6942675159236,4,2,77,67,0,0
62455,-63.6942675159236,4,2,77,5,0,0
62530,-63.6942675159236,4,2,77,67,0,0
63805,-63.6942675159236,4,2,77,5,0,0
63880,-63.6942675159236,4,2,77,67,0,0
64855,-63.6942675159236,4,2,77,5,0,0
64930,-63.6942675159236,4,2,77,67,0,0
65455,-63.6942675159236,4,2,77,5,0,0
65530,-63.6942675159236,4,2,77,67,0,0
66655,-63.6942675159236,4,2,77,5,0,0
66730,-63.6942675159236,4,2,77,67,0,0
67705,-63.6942675159236,4,2,77,5,0,0
67780,-63.6942675159236,4,2,77,67,0,0
70255,-63.6942675159236,4,2,77,5,0,0
70330,-63.6942675159236,4,2,77,67,0,0
70555,-63.6942675159236,4,2,77,5,0,0
70630,-63.6942675159236,4,2,77,67,0,0
71755,-63.6942675159236,4,2,77,5,0,0
71830,-63.6942675159236,4,2,77,67,0,0
72805,-63.6942675159236,4,2,77,5,0,0
72880,-63.6942675159236,4,2,77,67,0,0
72955,-63.6942675159236,4,2,77,5,0,0
73030,-63.6942675159236,4,2,77,67,0,0
73105,-63.6942675159236,4,2,77,5,0,0
73180,-93.4579439252336,4,2,77,67,0,0
73630,-63.6942675159236,4,2,77,67,0,0
73705,-63.6942675159236,4,2,77,5,0,0
73780,-63.6942675159236,4,2,77,67,0,0
73855,-63.6942675159236,4,2,77,5,0,0
73930,-63.6942675159236,4,2,77,67,0,0
74005,-63.6942675159236,4,2,77,5,0,0
74080,-63.6942675159236,4,2,77,67,0,0
74455,-63.6942675159236,4,2,77,5,0,0
74530,-63.6942675159236,4,2,77,67,0,0
74605,-63.6942675159236,4,2,77,5,0,0
74680,-63.6942675159236,4,2,77,67,0,0
74755,-63.6942675159236,4,2,77,5,0,0
74830,-63.6942675159236,4,2,77,67,0,0
75055,-63.6942675159236,4,2,77,5,0,0
75130,-63.6942675159236,4,2,77,67,0,0
75205,-63.6942675159236,4,2,77,5,0,0
75280,-63.6942675159236,4,2,77,67,0,0
75355,-63.6942675159236,4,2,77,5,0,0
75430,-63.6942675159236,4,2,77,67,0,0
75505,-63.6942675159236,4,2,77,5,0,0
75580,-93.4579439252336,4,2,77,67,0,0
76030,-63.6942675159236,4,2,77,67,0,0
76105,-63.6942675159236,4,2,77,5,0,0
76180,-63.6942675159236,4,2,77,67,0,0
76255,-63.6942675159236,4,2,77,5,0,0
76330,-63.6942675159236,4,2,77,67,0,0
76405,-63.6942675159236,4,2,77,5,0,0
76480,-63.6942675159236,4,2,77,67,0,0
77229,-32.5732899022801,4,2,77,77,0,0
77529,-48.3091787439614,4,2,77,77,0,0
77905,-48.3091787439614,4,2,77,5,0,0
77980,-48.3091787439614,4,2,77,77,0,0
78055,-48.3091787439614,4,2,77,5,0,0
78129,-93.4579439252336,4,2,77,77,0,0
78354,-93.4579439252336,4,2,77,5,0,0
78429,-48.3091787439614,4,2,77,77,0,0
78505,-48.3091787439614,4,2,77,5,0,0
78580,-48.3091787439614,4,2,77,77,0,0
78655,-48.3091787439614,4,2,77,5,0,0
78729,-93.4579439252336,4,2,77,77,0,0
78954,-93.4579439252336,4,2,77,5,0,0
79029,-48.3091787439614,4,2,77,77,0,0
79257,-48.3091787439614,4,2,77,5,0,0
79330,-48.3091787439614,4,2,77,77,0,0
79855,-48.3091787439614,4,2,77,5,0,0
79930,-48.3091787439614,4,2,77,77,0,0
80005,-48.3091787439614,4,2,77,5,0,0
80080,-48.3091787439614,4,2,77,77,0,0
80155,-48.3091787439614,4,2,77,5,0,0
80229,-93.4579439252336,4,2,77,77,0,0
80454,-93.4579439252336,4,2,77,5,0,0
80529,-63.6942675159236,4,2,77,77,0,0
80829,-48.3091787439614,4,2,77,77,0,0
81280,-48.3091787439614,4,2,77,77,0,0
81355,-48.3091787439614,4,2,77,5,0,0
81429,-93.4579439252336,4,2,77,77,0,0
82029,-48.3091787439614,4,2,77,77,0,0
82705,-48.3091787439614,4,2,77,5,0,0
82780,-48.3091787439614,4,2,77,77,0,0
82855,-48.3091787439614,4,2,77,5,0,0
82929,-93.4579439252336,4,2,77,77,0,0
83154,-93.4579439252336,4,2,77,5,0,0
83229,-48.3091787439614,4,2,77,77,0,0
83305,-48.3091787439614,4,2,77,5,0,0
83380,-48.3091787439614,4,2,77,77,0,0
83455,-48.3091787439614,4,2,77,5,0,0
83529,-93.4579439252336,4,2,77,77,0,0
83754,-93.4579439252336,4,2,77,5,0,0
83829,-48.3091787439614,4,2,77,77,0,0
84055,-48.3091787439614,4,2,77,5,0,0
84130,-48.3091787439614,4,2,77,77,0,0
84655,-48.3091787439614,4,2,77,5,0,0
84730,-48.3091787439614,4,2,77,77,0,0
84805,-48.3091787439614,4,2,77,5,0,0
84880,-48.3091787439614,4,2,77,77,0,0
84955,-48.3091787439614,4,2,77,5,0,0
85029,-93.4579439252336,4,2,77,77,0,0
85254,-93.4579439252336,4,2,77,5,0,0
85329,-63.6942675159236,4,2,77,77,0,0
85629,-48.3091787439614,4,2,77,77,0,0
86080,-48.3091787439614,4,2,77,77,0,0
86155,-48.3091787439614,4,2,77,5,0,0
86229,-63.6942675159236,4,2,77,77,0,0
86455,-63.6942675159236,4,2,77,5,0,0
86530,-63.6942675159236,4,2,77,77,0,0
86605,-63.6942675159236,4,2,77,5,0,0
86680,-63.6942675159236,4,2,77,77,0,0
86755,-63.6942675159236,4,2,77,5,0,0
86828,-40.4858299595142,4,2,77,77,0,0
87128,-48.3091787439614,4,2,77,77,0,0
87505,-48.3091787439614,4,2,77,5,0,0
87580,-48.3091787439614,4,2,77,77,0,0
87655,-48.3091787439614,4,2,77,5,0,0
87728,-93.4579439252336,4,2,77,77,0,0
87954,-93.4579439252336,4,2,77,5,0,0
88028,-48.3091787439614,4,2,77,77,0,0
88105,-48.3091787439614,4,2,77,5,0,0
88180,-48.3091787439614,4,2,77,77,0,0
88255,-48.3091787439614,4,2,77,5,0,0
88328,-93.4579439252336,4,2,77,77,0,0
88554,-93.4579439252336,4,2,77,5,0,0
88628,-48.3091787439614,4,2,77,77,0,0
88855,-48.3091787439614,4,2,77,5,0,0
88930,-48.3091787439614,4,2,77,77,0,0
89455,-48.3091787439614,4,2,77,5,0,0
89530,-48.3091787439614,4,2,77,77,0,0
89605,-48.3091787439614,4,2,77,5,0,0
89680,-48.3091787439614,4,2,77,77,0,0
89755,-48.3091787439614,4,2,77,5,0,0
89828,-93.4579439252336,4,2,77,77,0,0
90054,-93.4579439252336,4,2,77,5,0,0
90128,-63.6942675159236,4,2,77,77,0,0
90428,-48.3091787439614,4,2,77,77,0,0
90955,-48.3091787439614,4,2,77,5,0,0
91028,-93.4579439252336,4,2,77,77,0,0
91628,-48.3091787439614,4,2,77,77,0,0
92305,-48.3091787439614,4,2,77,5,0,0
92380,-48.3091787439614,4,2,77,77,0,0
92455,-48.3091787439614,4,2,77,5,0,0
92528,-93.4579439252336,4,2,77,77,0,0
92754,-93.4579439252336,4,2,77,5,0,0
92828,-48.3091787439614,4,2,77,77,0,0
92905,-48.3091787439614,4,2,77,5,0,0
92980,-48.3091787439614,4,2,77,77,0,0
93055,-48.3091787439614,4,2,77,5,0,0
93128,-93.4579439252336,4,2,77,77,0,0
93354,-93.4579439252336,4,2,77,5,0,0
93428,-48.3091787439614,4,2,77,77,0,0
93655,-48.3091787439614,4,2,77,5,0,0
93730,-48.3091787439614,4,2,77,77,0,0
94255,-48.3091787439614,4,2,77,5,0,0
94330,-48.3091787439614,4,2,77,77,0,0
94405,-48.3091787439614,4,2,77,5,0,0
94480,-48.3091787439614,4,2,77,77,0,0
94555,-48.3091787439614,4,2,77,5,0,0
94628,-93.4579439252336,4,2,77,77,0,0
94854,-93.4579439252336,4,2,77,5,0,0
94928,-63.6942675159236,4,2,77,77,0,0
95155,-63.6942675159236,4,2,77,5,0,0
95228,-48.3091787439614,4,2,77,77,0,0
95455,-48.3091787439614,4,2,77,5,0,0
95529,-63.6942675159236,4,2,77,77,0,0
95755,-63.6942675159236,4,2,77,5,0,0
95829,-48.3091787439614,4,2,77,77,0,0
95905,-48.3091787439614,4,2,77,5,0,0
96280,-48.3091787439614,4,2,77,77,0,0
96430,-63.6942675159236,4,2,77,67,0,0
96655,-63.6942675159236,4,2,77,5,0,0
96730,-63.6942675159236,4,2,77,67,0,0
97855,-63.6942675159236,4,2,77,5,0,0
97930,-63.6942675159236,4,2,77,67,0,0
98005,-63.6942675159236,4,2,77,5,0,0
98080,-63.6942675159236,4,2,77,67,0,0
99355,-63.6942675159236,4,2,77,5,0,0
99430,-63.6942675159236,4,2,77,67,0,0
99505,-63.6942675159236,4,2,77,5,0,0
99580,-63.6942675159236,4,2,77,67,0,0
100405,-63.6942675159236,4,2,77,5,0,0
100480,-63.6942675159236,4,2,77,67,0,0
101905,-63.6942675159236,4,2,77,5,0,0
101980,-63.6942675159236,4,2,77,67,0,0
104155,-63.6942675159236,4,2,77,5,0,0
104230,-63.6942675159236,4,2,77,67,0,0
106555,-63.6942675159236,4,2,77,5,0,0
106630,-63.6942675159236,4,2,77,67,0,0
106855,-63.6942675159236,4,2,77,5,0,0
106930,-63.6942675159236,4,2,77,67,0,0
107005,-63.6942675159236,4,2,77,5,0,0
107080,-63.6942675159236,4,2,77,67,0,0
107605,-63.6942675159236,4,2,77,5,0,0
107680,-63.6942675159236,4,2,77,67,0,0
108505,-63.6942675159236,4,2,77,5,0,0
108580,-63.6942675159236,4,2,77,67,0,0
109855,-63.6942675159236,4,2,77,5,0,0
109930,-63.6942675159236,4,2,77,67,0,0
110155,-63.6942675159236,4,2,77,5,0,0
110230,-63.6942675159236,4,2,77,67,0,0
110905,-63.6942675159236,4,2,77,5,0,0
110980,-63.6942675159236,4,2,77,67,0,0
113755,-63.6942675159236,4,2,77,5,0,0
113830,-63.6942675159236,4,2,77,67,0,0
114055,-63.6942675159236,4,2,77,5,0,0
114130,-63.6942675159236,4,2,77,67,0,0
115855,-63.6942675159236,4,2,77,5,0,0
115930,-63.6942675159236,4,2,77,67,0,0
117055,-63.6942675159236,4,2,77,5,0,0
117130,-63.6942675159236,4,2,77,67,0,0
118555,-63.6942675159236,4,2,77,5,0,0
118630,-63.6942675159236,4,2,77,67,0,0
118705,-63.6942675159236,4,2,77,5,0,0
118780,-63.6942675159236,4,2,77,67,0,0
120655,-63.6942675159236,4,2,77,5,0,0
120730,-63.6942675159236,4,2,77,67,0,0
120805,-63.6942675159236,4,2,77,5,0,0
120880,-63.6942675159236,4,2,77,67,0,0
121405,-63.6942675159236,4,2,77,5,0,0
121480,-63.6942675159236,4,2,77,67,0,0
123355,-63.6942675159236,4,2,77,5,0,0
123430,-63.6942675159236,4,2,77,67,0,0
123505,-63.6942675159236,4,2,77,5,0,0
124630,-63.6942675159236,4,2,77,67,0,0
124705,-63.6942675159236,4,2,77,5,0,0
124780,-63.6942675159236,4,2,77,67,0,0
124855,-63.6942675159236,4,2,77,5,0,0
124930,-63.6942675159236,4,2,77,67,0,0
125005,-63.6942675159236,4,2,77,5,0,0
125080,-63.6942675159236,4,2,77,67,0,0
125155,-63.6942675159236,4,2,77,5,0,0
125230,-63.6942675159236,4,2,77,67,0,0
125755,-63.6942675159236,4,2,77,5,0,0
125830,-63.6942675159236,4,2,77,67,0,0
126055,-63.6942675159236,4,2,77,5,0,0
126130,-63.6942675159236,4,2,77,67,0,0
127255,-63.6942675159236,4,2,77,5,0,0
127330,-63.6942675159236,4,2,77,67,0,0
127855,-63.6942675159236,4,2,77,5,0,0
127930,-63.6942675159236,4,2,77,67,0,0
128155,-63.6942675159236,4,2,77,5,0,0
128230,-63.6942675159236,4,2,77,67,0,0
128305,-63.6942675159236,4,2,77,5,0,0
128380,-63.6942675159236,4,2,77,67,0,0
130555,-63.6942675159236,4,2,77,5,0,0
130630,-63.6942675159236,4,2,77,67,0,0
131005,-63.6942675159236,4,2,77,5,0,0
131080,-63.6942675159236,4,2,77,67,0,0
133555,-63.6942675159236,4,2,77,5,0,0
133630,-63.6942675159236,4,2,77,67,0,0
134229,-85.4700854700855,4,2,77,67,0,0
134305,-85.4700854700855,4,2,77,5,0,0
134379,-68.0272108843537,4,2,77,67,0,0
134454,-68.0272108843537,4,2,77,5,0,0
134529,-56.4971751412429,4,2,77,67,0,0
134605,-56.4971751412429,4,2,77,5,0,0
134679,-48.3091787439614,4,2,77,67,0,0
134755,-48.3091787439614,4,2,77,5,0,0
134829,-40.4858299595142,4,2,77,77,0,0
135129,-48.3091787439614,4,2,77,77,0,0
135505,-48.3091787439614,4,2,77,5,0,0
135580,-48.3091787439614,4,2,77,77,0,0
135655,-48.3091787439614,4,2,77,5,0,0
135729,-93.4579439252336,4,2,77,77,0,0
135954,-93.4579439252336,4,2,77,5,0,0
136029,-48.3091787439614,4,2,77,77,0,0
136105,-48.3091787439614,4,2,77,5,0,0
136180,-48.3091787439614,4,2,77,77,0,0
136255,-48.3091787439614,4,2,77,5,0,0
136329,-93.4579439252336,4,2,77,77,0,0
136554,-93.4579439252336,4,2,77,5,0,0
136629,-48.3091787439614,4,2,77,77,0,0
136857,-48.3091787439614,4,2,77,5,0,0
136930,-48.3091787439614,4,2,77,77,0,0
137455,-48.3091787439614,4,2,77,5,0,0
137530,-48.3091787439614,4,2,77,77,0,0
137605,-48.3091787439614,4,2,77,5,0,0
137680,-48.3091787439614,4,2,77,77,0,0
137755,-48.3091787439614,4,2,77,5,0,0
137829,-93.4579439252336,4,2,77,77,0,0
138054,-93.4579439252336,4,2,77,5,0,0
138129,-63.6942675159236,4,2,77,77,0,0
138429,-48.3091787439614,4,2,77,77,0,0
138955,-48.3091787439614,4,2,77,5,0,0
139029,-93.4579439252336,4,2,77,77,0,0
139629,-48.3091787439614,4,2,77,77,0,0
140305,-48.3091787439614,4,2,77,5,0,0
140380,-48.3091787439614,4,2,77,77,0,0
140455,-48.3091787439614,4,2,77,5,0,0
140529,-93.4579439252336,4,2,77,77,0,0
140754,-93.4579439252336,4,2,77,5,0,0
140829,-48.3091787439614,4,2,77,77,0,0
140905,-48.3091787439614,4,2,77,5,0,0
140980,-48.3091787439614,4,2,77,77,0,0
141055,-48.3091787439614,4,2,77,5,0,0
141129,-93.4579439252336,4,2,77,77,0,0
141354,-93.4579439252336,4,2,77,5,0,0
141429,-48.3091787439614,4,2,77,77,0,0
141657,-48.3091787439614,4,2,77,5,0,0
141730,-48.3091787439614,4,2,77,77,0,0
142255,-48.3091787439614,4,2,77,5,0,0
142330,-48.3091787439614,4,2,77,77,0,0
142405,-48.3091787439614,4,2,77,5,0,0
142480,-48.3091787439614,4,2,77,77,0,0
142555,-48.3091787439614,4,2,77,5,0,0
142629,-93.4579439252336,4,2,77,77,0,0
142854,-93.4579439252336,4,2,77,5,0,0
142929,-63.6942675159236,4,2,77,77,0,0
143229,-48.3091787439614,4,2,77,77,0,0
143755,-48.3091787439614,4,2,77,5,0,0
143829,-63.6942675159236,4,2,77,77,0,0
144055,-63.6942675159236,4,2,77,5,0,0
144130,-63.6942675159236,4,2,77,77,0,0
144205,-63.6942675159236,4,2,77,5,0,0
144280,-63.6942675159236,4,2,77,77,0,0
144355,-63.6942675159236,4,2,77,5,0,0
144428,-40.4858299595142,4,2,77,77,0,0
144728,-48.3091787439614,4,2,77,77,0,0
145105,-48.3091787439614,4,2,77,5,0,0
145180,-48.3091787439614,4,2,77,77,0,0
145255,-48.3091787439614,4,2,77,5,0,0
145328,-93.4579439252336,4,2,77,77,0,0
145554,-93.4579439252336,4,2,77,5,0,0
145628,-48.3091787439614,4,2,77,77,0,0
145705,-48.3091787439614,4,2,77,5,0,0
145780,-48.3091787439614,4,2,77,77,0,0
145855,-48.3091787439614,4,2,77,5,0,0
145928,-93.4579439252336,4,2,77,77,0,0
146154,-93.4579439252336,4,2,77,5,0,0
146228,-48.3091787439614,4,2,77,77,0,0
146455,-48.3091787439614,4,2,77,5,0,0
146530,-48.3091787439614,4,2,77,77,0,0
147055,-48.3091787439614,4,2,77,5,0,0
147130,-48.3091787439614,4,2,77,77,0,0
147205,-48.3091787439614,4,2,77,5,0,0
147280,-48.3091787439614,4,2,77,77,0,0
147355,-48.3091787439614,4,2,77,5,0,0
147428,-93.4579439252336,4,2,77,77,0,0
147654,-93.4579439252336,4,2,77,5,0,0
147728,-63.6942675159236,4,2,77,77,0,0
148028,-48.3091787439614,4,2,77,77,0,0
148555,-48.3091787439614,4,2,77,5,0,0
148628,-93.4579439252336,4,2,77,77,0,0
149004,-93.4579439252336,4,2,77,5,0,0
149080,-93.4579439252336,4,2,77,77,0,0
149228,-48.3091787439614,4,2,77,77,0,0
149905,-48.3091787439614,4,2,77,5,0,0
149980,-48.3091787439614,4,2,77,77,0,0
150055,-48.3091787439614,4,2,77,5,0,0
150128,-93.4579439252336,4,2,77,77,0,0
150354,-93.4579439252336,4,2,77,5,0,0
150428,-48.3091787439614,4,2,77,77,0,0
150505,-48.3091787439614,4,2,77,5,0,0
150580,-48.3091787439614,4,2,77,77,0,0
150655,-48.3091787439614,4,2,77,5,0,0
150728,-93.4579439252336,4,2,77,77,0,0
150954,-93.4579439252336,4,2,77,5,0,0
151028,-48.3091787439614,4,2,77,77,0,0
151255,-48.3091787439614,4,2,77,5,0,0
151330,-48.3091787439614,4,2,77,77,0,0
151855,-48.3091787439614,4,2,77,5,0,0
151930,-48.3091787439614,4,2,77,77,0,0
152005,-48.3091787439614,4,2,77,5,0,0
152080,-48.3091787439614,4,2,77,77,0,0
152155,-48.3091787439614,4,2,77,5,0,0
152228,-93.4579439252336,4,2,77,77,0,0
152454,-93.4579439252336,4,2,77,5,0,0
152528,-63.6942675159236,4,2,77,77,0,0
152755,-63.6942675159236,4,2,77,5,0,0
152828,-48.3091787439614,4,2,77,77,0,0
153055,-48.3091787439614,4,2,77,5,0,0
153129,-63.6942675159236,4,2,77,77,0,0
153355,-63.6942675159236,4,2,77,5,0,0
153429,-48.3091787439614,4,2,77,77,0,0
153505,-48.3091787439614,4,2,77,5,0,0
154030,-63.6942675159236,4,2,77,67,0,0
154855,-63.6942675159236,4,2,77,5,0,0
154930,-63.6942675159236,4,2,77,67,0,0
156955,-63.6942675159236,4,2,77,5,0,0
157030,-63.6942675159236,4,2,77,67,0,0
157105,-63.6942675159236,4,2,77,5,0,0
157180,-63.6942675159236,4,2,77,67,0,0
158005,-63.6942675159236,4,2,77,5,0,0
158080,-63.6942675159236,4,2,77,67,0,0
158905,-63.6942675159236,4,2,77,5,0,0
158980,-63.6942675159236,4,2,77,67,0,0
161755,-63.6942675159236,4,2,77,5,0,0
161830,-63.6942675159236,4,2,77,67,0,0
161905,-63.6942675159236,4,2,77,5,0,0
161980,-63.6942675159236,4,2,77,67,0,0
162805,-63.6942675159236,4,2,77,5,0,0
162880,-63.6942675159236,4,2,77,67,0,0
164005,-63.6942675159236,4,2,77,5,0,0
164080,-63.6942675159236,4,2,77,67,0,0
164305,-63.6942675159236,4,2,77,5,0,0
164380,-63.6942675159236,4,2,77,67,0,0
164605,-63.6942675159236,4,2,77,5,0,0
164680,-63.6942675159236,4,2,77,67,0,0
165205,-63.6942675159236,4,2,77,5,0,0
165280,-63.6942675159236,4,2,77,67,0,0
166255,-63.6942675159236,4,2,77,5,0,0
166330,-63.6942675159236,4,2,77,67,0,0
166555,-63.6942675159236,4,2,77,5,0,0
166630,-63.6942675159236,4,2,77,67,0,0
166705,-63.6942675159236,4,2,77,5,0,0
166780,-63.6942675159236,4,2,77,67,0,0
168355,-63.6942675159236,4,2,77,5,0,0
168430,-63.6942675159236,4,2,77,67,0,0
168955,-63.6942675159236,4,2,77,5,0,0
169030,-63.6942675159236,4,2,77,67,0,0
169405,-63.6942675159236,4,2,77,5,0,0
169480,-63.6942675159236,4,2,77,67,0,0
169855,-63.6942675159236,4,2,77,5,0,0
169930,-63.6942675159236,4,2,77,67,0,0
171055,-63.6942675159236,4,2,77,5,0,0
171130,-63.6942675159236,4,2,77,67,0,0
171355,-63.6942675159236,4,2,77,5,0,0
171430,-63.6942675159236,4,2,77,67,0,0
171505,-63.6942675159236,4,2,77,5,0,0
171580,-63.6942675159236,4,2,77,67,0,0
171955,-63.6942675159236,4,2,77,5,0,0
172030,-63.6942675159236,4,2,77,67,0,0
172255,-63.6942675159236,4,2,77,5,0,0
172330,-63.6942675159236,4,2,77,67,0,0
173755,-63.6942675159236,4,2,77,5,0,0
173830,-63.6942675159236,4,2,77,67,0,0
175705,-63.6942675159236,4,2,77,5,0,0
175780,-63.6942675159236,4,2,77,67,0,0
176155,-63.6942675159236,4,2,77,5,0,0
176230,-63.6942675159236,4,2,77,67,0,0
176305,-63.6942675159236,4,2,77,5,0,0
176380,-63.6942675159236,4,2,77,67,0,0
178405,-63.6942675159236,4,2,77,5,0,0
178480,-63.6942675159236,4,2,77,67,0,0
179605,-63.6942675159236,4,2,77,5,0,0
179680,-63.6942675159236,4,2,77,67,0,0
183055,-63.6942675159236,4,2,77,5,0,0
183130,-63.6942675159236,4,2,77,67,0,0
183355,-63.6942675159236,4,2,77,5,0,0
183430,-63.6942675159236,4,2,77,67,0,0
186055,-63.6942675159236,4,2,77,5,0,0
186130,-63.6942675159236,4,2,77,67,0,0
188005,-63.6942675159236,4,2,77,5,0,0
188080,-63.6942675159236,4,2,77,67,0,0
188155,-63.6942675159236,4,2,77,5,0,0
188230,-63.6942675159236,4,2,77,67,0,0
188455,-63.6942675159236,4,2,77,5,0,0
188530,-63.6942675159236,4,2,77,67,0,0
188605,-63.6942675159236,4,2,77,5,0,0
188680,-63.6942675159236,4,2,77,67,0,0
189805,-63.6942675159236,4,2,77,5,0,0
189880,-63.6942675159236,4,2,77,67,0,0
190105,-63.6942675159236,4,2,77,5,0,0
190180,-63.6942675159236,4,2,77,67,0,0
190555,-63.6942675159236,4,2,77,5,0,0
190630,-63.6942675159236,4,2,77,67,0,0
192430,-129.87012987013,4,2,77,47,0,0
200904,-129.87012987013,4,2,77,5,0,0
200980,-129.87012987013,4,2,77,47,0,0
201054,-129.87012987013,4,2,77,5,0,0
201130,-129.87012987013,4,2,77,47,0,0
201204,-129.87012987013,4,2,77,5,0,0
201280,-129.87012987013,4,2,77,47,0,0
201354,-129.87012987013,4,2,77,5,0,0
201430,-56.4971751412429,4,2,77,67,0,0
201505,-56.4971751412429,4,2,77,5,0,0
201580,-56.4971751412429,4,2,77,67,0,0
201655,-56.4971751412429,4,2,77,5,0,0
201730,-56.4971751412429,4,2,77,67,0,0
201805,-56.4971751412429,4,2,77,5,0,0
201880,-56.4971751412429,4,2,77,67,0,0
201955,-56.4971751412429,4,2,77,5,0,0
202029,-40.4858299595142,4,2,77,77,0,0
202329,-48.3091787439614,4,2,77,77,0,0
202705,-48.3091787439614,4,2,77,5,0,0
202780,-48.3091787439614,4,2,77,77,0,0
202855,-48.3091787439614,4,2,77,5,0,0
202929,-93.4579439252336,4,2,77,77,0,0
203154,-93.4579439252336,4,2,77,5,0,0
203229,-48.3091787439614,4,2,77,77,0,0
203305,-48.3091787439614,4,2,77,5,0,0
203380,-48.3091787439614,4,2,77,77,0,0
203455,-48.3091787439614,4,2,77,5,0,0
203529,-93.4579439252336,4,2,77,77,0,0
203754,-93.4579439252336,4,2,77,5,0,0
203829,-48.3091787439614,4,2,77,77,0,0
204055,-48.3091787439614,4,2,77,5,0,0
204130,-48.3091787439614,4,2,77,77,0,0
204280,-48.3091787439614,4,2,77,77,0,0
204655,-48.3091787439614,4,2,77,5,0,0
204730,-48.3091787439614,4,2,77,77,0,0
204805,-48.3091787439614,4,2,77,5,0,0
204880,-48.3091787439614,4,2,77,77,0,0
204955,-48.3091787439614,4,2,77,5,0,0
205029,-93.4579439252336,4,2,77,77,0,0
205254,-93.4579439252336,4,2,77,5,0,0
205329,-63.6942675159236,4,2,77,77,0,0
205629,-48.3091787439614,4,2,77,77,0,0
206005,-48.3091787439614,4,2,77,5,0,0
206080,-48.3091787439614,4,2,77,77,0,0
206155,-48.3091787439614,4,2,77,5,0,0
206229,-93.4579439252336,4,2,77,77,0,0
206604,-93.4579439252336,4,2,77,5,0,0
206680,-93.4579439252336,4,2,77,77,0,0
206829,-48.3091787439614,4,2,77,77,0,0
207505,-48.3091787439614,4,2,77,5,0,0
207580,-48.3091787439614,4,2,77,77,0,0
207655,-48.3091787439614,4,2,77,5,0,0
207729,-93.4579439252336,4,2,77,77,0,0
207954,-93.4579439252336,4,2,77,5,0,0
208029,-48.3091787439614,4,2,77,77,0,0
208105,-48.3091787439614,4,2,77,5,0,0
208180,-48.3091787439614,4,2,77,77,0,0
208255,-48.3091787439614,4,2,77,5,0,0
208329,-93.4579439252336,4,2,77,77,0,0
208554,-93.4579439252336,4,2,77,5,0,0
208629,-48.3091787439614,4,2,77,77,0,0
208855,-48.3091787439614,4,2,77,5,0,0
208930,-48.3091787439614,4,2,77,77,0,0
209455,-48.3091787439614,4,2,77,5,0,0
209530,-48.3091787439614,4,2,77,77,0,0
209605,-48.3091787439614,4,2,77,5,0,0
209680,-48.3091787439614,4,2,77,77,0,0
209755,-48.3091787439614,4,2,77,5,0,0
209829,-93.4579439252336,4,2,77,77,0,0
210054,-93.4579439252336,4,2,77,5,0,0
210129,-63.6942675159236,4,2,77,77,0,0
210355,-63.6942675159236,4,2,77,5,0,0
210429,-48.3091787439614,4,2,77,77,0,0
210655,-48.3091787439614,4,2,77,5,0,0
210730,-48.3091787439614,4,2,77,77,0,0
211630,-53.475935828877,4,2,77,77,0,0
212004,-53.475935828877,4,2,77,5,0,0
212080,-53.475935828877,4,2,77,77,0,0
212154,-53.475935828877,4,2,77,5,0,0
212230,-53.475935828877,4,2,77,77,0,0
212454,-53.475935828877,4,2,77,5,0,0
212530,-53.475935828877,4,2,77,77,0,0
214404,-53.475935828877,4,2,77,5,0,0
214480,-53.475935828877,4,2,77,77,0,0
214554,-53.475935828877,4,2,77,5,0,0
214630,-53.475935828877,4,2,77,77,0,0
214854,-53.475935828877,4,2,77,5,0,0
214930,-53.475935828877,4,2,77,77,0,0
216804,-53.475935828877,4,2,77,5,0,0
216880,-53.475935828877,4,2,77,77,0,0
216954,-53.475935828877,4,2,77,5,0,0
217030,-53.475935828877,4,2,77,77,0,0
219204,-53.475935828877,4,2,77,5,0,0
219280,-53.475935828877,4,2,77,77,0,0
219354,-53.475935828877,4,2,77,5,0,0
219430,-53.475935828877,4,2,77,77,0,0
219654,-53.475935828877,4,2,77,5,0,0
219730,-53.475935828877,4,2,77,77,0,0
219804,-53.475935828877,4,2,77,5,0,0
219880,-53.475935828877,4,2,77,77,0,0
220404,-53.475935828877,4,2,77,5,0,0
220480,-53.475935828877,4,2,77,77,0,0
221004,-53.475935828877,4,2,77,5,0,0
221080,-53.475935828877,4,2,77,77,0,0
221154,-53.475935828877,4,2,77,5,0,0
221230,-53.475935828877,4,2,77,77,0,0
222354,-53.475935828877,4,2,77,5,0,0
222430,-53.475935828877,4,2,77,77,0,0
222654,-53.475935828877,4,2,77,5,0,0
222730,-53.475935828877,4,2,77,77,0,0
223404,-53.475935828877,4,2,77,5,0,0
223480,-53.475935828877,4,2,77,77,0,0
223554,-53.475935828877,4,2,77,5,0,0
223630,-53.475935828877,4,2,77,77,0,0
224454,-53.475935828877,4,2,77,5,0,0
224530,-53.475935828877,4,2,77,77,0,0
225054,-53.475935828877,4,2,77,5,0,0
225130,-53.475935828877,4,2,77,77,0,0
225804,-53.475935828877,4,2,77,5,0,0
225880,-53.475935828877,4,2,77,77,0,0
225954,-53.475935828877,4,2,77,5,0,0
226030,-53.475935828877,4,2,77,77,0,0
226854,-53.475935828877,4,2,77,5,0,0
226930,-53.475935828877,4,2,77,77,0,0
228804,-53.475935828877,4,2,77,5,0,0
228880,-53.475935828877,4,2,77,77,0,0
229704,-53.475935828877,4,2,77,5,0,0
229780,-53.475935828877,4,2,77,77,0,0
230154,-53.475935828877,4,2,77,5,0,0
230230,-53.475935828877,4,2,77,77,0,0
230304,-53.475935828877,4,2,77,5,0,0
230380,-53.475935828877,4,2,77,77,0,0
230454,-53.475935828877,4,2,77,5,0,0
230530,-53.475935828877,4,2,77,77,0,0
230604,-53.475935828877,4,2,77,5,0,0
230680,-53.475935828877,4,2,77,77,0,0
230754,-53.475935828877,4,2,77,5,0,0
230830,-56.4971751412429,4,2,77,77,0,0
231655,-56.4971751412429,4,2,77,5,0,0
231730,-56.4971751412429,4,2,77,77,0,0
232255,-56.4971751412429,4,2,77,5,0,0
232330,-56.4971751412429,4,2,77,77,0,0
236005,-56.4971751412429,4,2,77,5,0,0
236080,-56.4971751412429,4,2,77,77,0,0
236455,-56.4971751412429,4,2,77,5,0,0
236530,-56.4971751412429,4,2,77,77,0,0
237355,-56.4971751412429,4,2,77,5,0,0
237430,-56.4971751412429,4,2,77,77,0,0
237467,-56.4971751412429,4,2,77,5,0,0
237730,-56.4971751412429,4,2,77,77,0,0
237767,-56.4971751412429,4,2,77,5,0,0
238030,-59.8802395209581,4,2,77,77,0,0
238104,-59.8802395209581,4,2,77,5,0,0
238180,-59.8802395209581,4,2,77,77,0,0
239154,-59.8802395209581,4,2,77,5,0,0
239230,-59.8802395209581,4,2,77,77,0,0
239304,-59.8802395209581,4,2,77,5,0,0
239380,-59.8802395209581,4,2,77,77,0,0
239454,-59.8802395209581,4,2,77,5,0,0
239530,-59.8802395209581,4,2,77,77,0,0
239754,-59.8802395209581,4,2,77,5,0,0
239830,-59.8802395209581,4,2,77,77,0,0
239904,-59.8802395209581,4,2,77,5,0,0
239980,-59.8802395209581,4,2,77,77,0,0
240054,-59.8802395209581,4,2,77,5,0,0
240130,-59.8802395209581,4,2,77,77,0,0
240204,-59.8802395209581,4,2,77,5,0,0
240280,-59.8802395209581,4,2,77,77,0,0
240354,-59.8802395209581,4,2,77,5,0,0
240430,-59.8802395209581,4,2,77,77,0,0
242154,-59.8802395209581,4,2,77,5,0,0
242230,-59.8802395209581,4,2,77,77,0,0
242830,-63.6942675159236,4,2,77,67,0,0
243655,-63.6942675159236,4,2,77,5,0,0
243730,-63.6942675159236,4,2,77,67,0,0
244255,-63.6942675159236,4,2,77,5,0,0
244330,-63.6942675159236,4,2,77,67,0,0
244855,-63.6942675159236,4,2,77,5,0,0
244930,-63.6942675159236,4,2,77,67,0,0
245230,-68.0272108843537,4,2,77,67,0,0
247630,-72.992700729927,4,2,77,57,0,0
248005,-72.992700729927,4,2,77,5,0,0
248080,-72.992700729927,4,2,77,57,0,0
248155,-72.992700729927,4,2,77,5,0,0
248230,-72.992700729927,4,2,77,57,0,0
248455,-72.992700729927,4,2,77,5,0,0
248530,-72.992700729927,4,2,77,57,0,0
250030,-78.7401574803149,4,2,77,47,0,0
252430,-78.7401574803149,4,2,77,37,0,0
254830,-78.7401574803149,4,2,77,27,0,0
257230,-78.7401574803149,4,2,77,17,0,0
259630,-78.7401574803149,4,2,77,7,0,0

[Colours]
Combo1 : 128,128,128
Combo2 : 175,154,143

[HitObjects]
92,184,430,5,2,1:0:0:0:
115,105,580,1,0,0:0:0:0:
15,38,730,2,0,P|24:73|34:126,1,87.9474993290138,0|0,0:0|1:0,0:0:0:0:
262,249,1030,2,0,P|181:212|95:195,2,175.894998658028,10|0|2,0:0|1:0|0:0,0:0:0:0:
373,182,1780,1,0,0:0:0:0:
299,145,1930,2,0,P|272:109|264:67,1,87.9474993290138
465,306,2230,2,0,P|416:263|353:273,1,131.921248993521,10|0,0:0|2:0,0:0:0:0:
354,282,2530,2,0,P|401:268|446:290,1,87.9474993290138
181,384,2830,6,0,P|167:319|144:257,1,131.921248993521,2|0,1:0|2:0,0:0:0:0:
132,256,3130,1,0,0:0:0:0:
256,325,3280,1,0,1:0:0:0:
46,230,3430,2,0,P|133:225|211:186,2,175.894998658028,2|8|2,1:0|0:0|0:0,0:0:0:0:
46,230,4180,1,0,0:0:0:0:
90,51,4330,2,0,P|98:93|113:147,1,87.9474993290138,0|0,1:0|0:0,0:0:0:0:
332,102,4630,2,0,P|285:55|219:49,1,131.921248993521,10|0,0:0|2:0,0:0:0:0:
214,45,4930,2,0,P|264:41|310:65,1,87.9474993290138
379,239,5230,5,2,1:0:0:0:
412,167,5380,1,0,0:0:0:0:
369,247,5530,2,0,P|327:254|280:267,1,87.9474993290138,0|0,0:0|1:0,0:0:0:0:
453,91,5830,2,0,P|468:178|489:264,2,175.894998658028,10|0|2,0:0|1:0|0:0,0:0:0:0:
272,62,6580,1,0,0:0:0:0:
332,8,6730,2,0,P|373:20|417:19,1,87.9474993290138
209,127,7030,2,0,P|194:62|174:0,1,131.921248993521,10|0,0:0|2:0,0:0:0:0:
168,5,7330,2,0,P|183:47|196:100,1,87.9474993290138
22,255,7630,6,0,P|84:242|127:288,1,131.921248993521,2|0,1:0|2:0,0:0:0:0:
122,301,7930,1,0,0:0:0:0:
136,164,8080,1,0,1:0:0:0:
51,354,8230,2,0,P|130:314|216:299,2,175.894998658028,2|8|2,1:0|0:0|0:0,0:0:0:0:
51,354,8980,1,0,0:0:0:0:
285,240,9130,2,0,P|304:200|312:157,1,87.9474993290138,0|0,1:0|0:0,0:0:0:0:
416,375,9430,2,0,P|365:334|300:326,1,131.921248993521,10|0,0:0|2:0,0:0:0:0:
295,335,9730,2,0,P|345:336|390:359,1,87.9474993290138
204,206,10030,5,2,1:0:0:0:
204,206,10330,5,2,0:0:0:0:
276,153,10480,1,2,1:0:0:0:
388,224,10630,1,10,0:0:0:0:
497,94,10780,2,0,P|484:51|470:10,2,87.9474993290138,2|0|0,0:0|1:0|0:0,0:0:0:0:
199,198,11230,5,2,0:0:0:0:
271,145,11380,1,2,0:0:0:0:
383,216,11530,1,2,0:0:0:0:
383,216,11830,6,0,L|144:252,1,240.990002022469,10|0,0:0|1:0,0:0:0:0:
111,339,12730,5,2,0:0:0:0:
64,275,12880,1,2,1:0:0:0:
175,166,13030,1,2,1:0:0:0:
104,28,13180,2,0,P|63:40|10:52,2,87.9474993290138,2|8|0,0:0|0:0|0:0,0:0:0:0:
105,338,13630,5,2,0:0:0:0:
58,274,13780,1,2,0:0:0:0:
169,165,13930,1,2,1:0:0:0:
169,165,14230,6,0,L|407:128,1,240.990002022469,10|0,0:0|1:0,0:0:0:0:
268,286,15130,5,2,0:0:0:0:
298,215,15280,1,2,1:0:0:0:
337,328,15430,1,10,0:0:0:0:
216,221,15580,2,0,P|175:208|126:191,2,87.9474993290138,2|0|0,0:0|1:0|0:0,0:0:0:0:
264,284,16030,5,2,0:0:0:0:
294,213,16180,1,2,0:0:0:0:
335,339,16330,1,2,0:0:0:0:
335,339,16630,6,0,L|364:99,1,240.990002022469,10|0,0:0|1:0,0:0:0:0:
176,86,17530,5,2,0:0:0:0:
239,45,17680,1,2,1:0:0:0:
108,47,17830,5,2,1:0:0:0:
280,114,17980,1,2,0:0:0:0:
277,122,18130,1,10,0:0:0:0:
50,333,18430,5,2,0:0:0:0:
14,223,18580,1,2,0:0:0:0:
333,322,18730,1,2,1:0:0:0:
333,322,19030,6,0,P|312:328|289:337,1,40.5112501545382,8|0,0:0|2:0,0:0:0:0:
420,320,19180,6,0,P|412:343|405:370,1,50.8987476312076,8|0,0:0|2:0,0:0:0:0:
473,250,19330,6,0,P|490:273|512:297,1,61.2862519872022,8|0,0:0|2:0,0:0:0:0:
413,170,19480,6,0,P|446:168|484:164,1,71.6737519959198,8|0,0:0|2:0,0:0:0:0:
223,222,19630,6,0,B|241:196|247:145|199:114|199:114|152:82|159:30|212:12|260:43|282:72|251:119,1,342.095013180388,6|2,1:0|0:0,0:0:0:0:
158,267,20080,1,2,1:0:0:0:
93,220,20230,6,0,P|83:181|67:133,1,71.6737519959198,10|0,0:0|2:0,0:0:0:0:
206,332,20380,2,0,P|178:360|145:400,1,71.6737519959198,2|0,0:0|2:0,0:0:0:0:
329,172,20530,6,0,L|459:195,1,111.146246608086,2|0,1:0|2:0,0:0:0:0:
438,191,20830,6,0,P|448:230|464:278,1,71.6737519959198,2|0,0:0|2:0,0:0:0:0:
325,79,20980,2,0,P|353:51|386:11,1,71.6737519959198,2|0,0:0|2:0,0:0:0:0:
181,254,21130,6,0,P|238:255|276:292,1,111.146246608086,2|0,0:0|2:0,0:0:0:0:
292,379,21430,6,0,P|302:271|316:164,1,215.021255987759,10|0,0:0|2:0,0:0:0:0:
316,165,21730,1,2,0:0:0:0:
97,117,21880,5,2,0:0:0:0:
95,123,21955,1,2,0:0:0:0:
94,129,22030,1,2,1:0:0:0:
61,42,22180,6,0,P|35:18|0:19,1,71.6737519959198,2|0,0:0|2:0,0:0:0:0:
170,173,22330,2,0,P|204:163|222:133,1,71.6737519959198,2|0,0:0|2:0,0:0:0:0:
32,187,22480,2,0,P|23:221|38:252,1,71.6737519959198,2|0,1:0|2:0,0:0:0:0:
249,39,22630,6,0,L|382:57,1,111.146246608086,10|0,1:2|2:0,0:0:0:0:
365,46,22930,6,0,L|144:15,1,217.445000829487,8|2,0:0|0:0,0:0:0:0:
433,285,23380,6,0,B|466:311|464:348|464:348|473:312|513:297,1,143.34750399184,2|0,0:0|1:0,0:0:0:0:
319,381,23680,2,0,P|348:361|383:353,1,71.6737519959198,2|0,0:0|2:0,0:0:0:0:
481,217,23830,6,0,L|450:62,1,148.194995477448,10|0,0:0|0:0,0:0:0:0:
258,167,24280,5,0,0:0:0:0:
263,169,24355,1,0,0:0:0:0:
269,170,24430,1,0,1:0:0:0:
211,47,24580,5,2,0:0:0:0:
394,190,24730,1,2,0:0:0:0:
176,269,24880,1,2,1:0:0:0:
212,44,25030,6,0,P|177:36|137:25,1,71.6737519959198,10|0,0:0|2:0,0:0:0:0:
397,201,25180,2,0,P|432:209|472:220,1,71.6737519959198,2|0,0:0|2:0,0:0:0:0:
277,223,25330,6,0,L|303:98,1,111.146246608086,2|0,1:0|2:0,0:0:0:0:
299,114,25630,6,0,P|334:106|374:95,1,71.6737519959198,2|0,0:0|2:0,0:0:0:0:
249,306,25780,2,0,P|214:314|174:325,1,71.6737519959198,2|0,0:0|2:0,0:0:0:0:
377,384,25930,6,0,L|351:259,1,111.146246608086,2|0,0:0|2:0,0:0:0:0:
277,223,26230,6,0,P|172:247|68:275,1,215.021255987759,10|0,0:0|2:0,0:0:0:0:
68,274,26530,1,2,0:0:0:0:
298,113,26680,5,2,0:0:0:0:
297,107,26755,1,2,0:0:0:0:
295,101,26830,1,2,1:0:0:0:
195,108,26980,6,0,P|209:75|219:41,1,71.6737519959198,2|0,0:0|2:0,0:0:0:0:
352,190,27130,2,0,P|317:196|282:205,1,71.6737519959198,2|0,0:0|2:0,0:0:0:0:
339,18,27280,2,0,P|363:45|389:69,1,71.6737519959198,2|0,1:0|2:0,0:0:0:0:
425,264,27430,6,0,P|459:218|451:165,1,111.146246608086,10|0,1:2|2:0,0:0:0:0:
452,167,27730,6,0,B|426:186|420:231|463:260|463:260|505:287|500:333|476:352,1,217.445000829487,8|0,0:0|0:0,0:0:0:0:
95,237,28180,6,0,B|88:225|88:225|117:221|136:193|136:193|139:226|163:244|163:244|151:251,1,143.34750399184,2|0,0:0|1:0,0:0:0:0:
53,73,28480,2,0,P|64:103|75:149,1,71.6737519959198,2|0,0:0|2:0,0:0:0:0:
263,339,28630,6,0,P|241:278|218:183,1,163.083750622115,10|0,0:0|2:0,0:0:0:0:
217,182,28930,6,0,P|240:164|276:162,1,54.3612502073717,0|0,0:0|2:0,0:0:0:0:
288,41,29080,2,0,P|310:60|320:94,1,54.3612502073717,0|0,0:0|2:0,0:0:0:0:
450,274,29230,6,0,B|461:300|412:340|358:312|350:247|413:205|413:205|475:164|467:97|429:68,1,342.095013180388,6|2,1:0|0:0,0:0:0:0:
196,72,29680,1,2,1:0:0:0:
137,10,29830,6,0,P|102:20|65:38,1,71.6737519959198,10|0,0:0|2:0,0:0:0:0:
271,108,29980,2,0,P|239:91|199:78,1,71.6737519959198,2|0,0:0|2:0,0:0:0:0:
41,227,30130,6,0,P|91:207|108:152,1,111.146246608086,2|0,1:0|2:0,0:0:0:0:
108,155,30430,6,0,P|73:165|36:183,1,71.6737519959198,2|0,0:0|2:0,0:0:0:0:
243,255,30580,2,0,P|209:241|168:231,1,71.6737519959198,2|0,0:0|2:0,0:0:0:0:
15,380,30730,6,0,P|65:360|82:305,1,111.146246608086,2|0,0:0|2:0,0:0:0:0:
82,308,31030,6,0,P|186:332|285:373,1,215.021255987759,10|0,0:0|2:0,0:0:0:0:
285,373,31330,1,2,0:0:0:0:
439,229,31480,5,2,0:0:0:0:
438,223,31555,1,2,0:0:0:0:
436,217,31630,1,2,1:0:0:0:
278,191,31780,6,0,P|312:201|355:228,1,71.6737519959198,2|0,0:0|2:0,0:0:0:0:
155,272,31930,2,0,P|124:255|89:244,1,71.6737519959198,2|0,0:0|2:0,0:0:0:0:
152,85,32079,2,0,P|184:68|211:44,1,71.6737519959198,2|0,1:0|2:0,0:0:0:0:
337,117,32230,6,0,L|320:-1,1,111.146246608086,10|0,1:2|2:0,0:0:0:0:
313,3,32530,6,0,L|343:218,1,217.445000829487,8|0,0:0|1:0,0:0:0:0:
93,324,32980,6,0,B|51:331|25:285|25:285|52:311|76:313,1,143.34750399184,2|0,0:0|1:0,0:0:0:0:
154,215,33280,2,0,P|113:211|79:243,1,71.6737519959198,2|0,0:0|2:0,0:0:0:0:
219,364,33430,6,0,L|250:209,1,148.194995477448,10|0,0:0|0:0,0:0:0:0:
108,82,33880,5,0,0:0:0:0:
102,81,33955,1,0,0:0:0:0:
97,79,34030,1,2,1:0:0:0:
165,165,34180,5,2,0:0:0:0:
325,9,34330,1,2,0:0:0:0:
436,204,34480,1,2,1:0:0:0:
321,18,34630,6,0,P|328:52|338:93,1,71.6737519959198,10|0,0:0|2:0,0:0:0:0:
176,245,34780,2,0,P|168:210|159:170,1,71.6737519959198,2|0,0:0|2:0,0:0:0:0:
494,313,34930,6,0,P|452:280|400:293,1,111.146246608086,2|0,1:0|2:0,0:0:0:0:
399,293,35230,6,0,P|406:258|416:218,1,71.6737519959198,2|0,0:0|2:0,0:0:0:0:
252,66,35380,2,0,P|244:100|235:141,1,71.6737519959198,2|0,0:0|2:0,0:0:0:0:
501,50,35530,6,0,P|459:83|407:71,1,111.146246608086,2|0,0:0|2:0,0:0:0:0:
406,70,35830,6,0,B|381:49|337:54|320:102|320:102|304:148|259:154|235:136,1,215.021255987759,10|0,0:0|2:0,0:0:0:0:
236,136,36130,1,2,0:0:0:0:
55,245,36280,5,2,0:0:0:0:
57,251,36355,1,2,0:0:0:0:
58,257,36430,1,2,1:0:0:0:
161,360,36580,6,0,P|141:330|107:320,1,71.6737519959198,2|0,0:0|2:0,0:0:0:0:
199,191,36730,2,0,P|166:203|148:234,1,71.6737519959198,2|0,0:0|2:0,0:0:0:0:
59,102,36880,2,0,P|64:136|89:160,1,71.6737519959198,2|0,1:0|2:0,0:0:0:0:
394,278,37030,6,0,L|286:304,1,111.146246608086,10|0,1:2|2:0,0:0:0:0:
277,298,37330,6,0,L|447:256,1,163.083750622115,10|0,0:0|2:0,0:0:0:0:
458,337,37630,6,0,L|502:103,1,215.021255987759,2|0,0:0|2:0,0:0:0:0:
499,117,37930,6,0,L|329:159,1,163.083750622115,2|0,1:0|2:0,0:0:0:0:
259,170,38230,6,0,L|270:96,1,71.6737519959198,10|0,0:0|2:0,0:0:0:0:
64,81,38680,5,0,3:0:0:0:
69,90,38755,1,0,3:0:0:0:
73,99,38830,2,0,L|134:115,1,54.3612502073717,0|0,1:0|2:0,0:0:0:0:
75,189,38980,5,2,0:0:0:0:
196,59,39130,1,2,0:0:0:0:
122,17,39280,5,2,1:0:0:0:
202,187,39430,2,0,P|265:139|343:153,1,163.083750622115,10|0,0:0|2:0,0:0:0:0:
342,153,39730,2,0,L|282:178,1,54.3612502073717,2|0,1:0|2:0,0:0:0:0:
215,332,39880,5,2,0:0:0:0:
212,342,39955,1,2,0:0:0:0:
209,352,40030,1,2,0:0:0:0:
291,369,40180,1,2,0:0:0:0:
116,310,40330,2,0,P|195:291|272:265,1,163.083750622115,2|0,0:0|2:0,0:0:0:0:
272,264,40630,2,0,P|323:271|353:322,1,108.722500414743,10|0,0:0|0:0,0:0:0:0:
475,180,40930,2,0,B|489:151|461:123|461:123|472:144|470:169,1,108.722500414743,2|0,0:0|0:0,0:0:0:0:
384,161,41155,5,2,0:0:0:0:
374,166,41230,2,0,P|325:146|265:132,1,108.722500414743,2|0,1:0|0:0,0:0:0:0:
200,93,41455,2,0,P|185:70|185:43,2,54.3612502073717,2|0|0,0:0|0:0|0:0,0:0:0:0:
273,48,41680,1,2,1:0:0:0:
63,263,41830,2,0,P|110:200|87:125,1,163.083750622115,2|0,1:0|2:0,0:0:0:0:
87,125,42130,1,10,0:0:0:0:
185,226,42280,1,2,0:0:0:0:
352,84,42430,6,0,P|355:48|364:13,1,72.4816669431623,2|0,0:0|0:0,0:0:0:0:
268,130,42630,2,0,P|297:151|322:177,1,72.4816669431623,2|0,0:0|1:0,0:0:0:0:
261,41,42830,2,0,P|228:54|192:62,1,72.4816669431623,2|0,0:0|0:0,0:0:0:0:
405,147,43030,5,10,0:0:0:0:
150,340,43330,1,0,0:0:0:0:
228,375,43480,5,2,0:0:0:0:
228,375,43555,1,2,0:0:0:0:
228,375,43630,2,0,P|250:325|255:272,1,108.722500414743,2|2,1:0|0:0,0:0:0:0:
72,109,43930,5,2,0:0:0:0:
114,180,44080,1,2,1:0:0:0:
263,74,44230,2,0,P|235:65|202:53,1,54.3612502073717,10|0,0:0|2:0,0:0:0:0:
157,112,44380,1,2,0:0:0:0:
333,178,44530,1,2,1:0:0:0:
375,107,44680,1,2,0:0:0:0:
321,185,44830,2,0,P|292:195|261:210,1,54.3612502073717,2|0,0:0|2:0,0:0:0:0:
447,306,44980,2,0,P|422:294|396:286,1,54.3612502073717,2|0,0:0|2:0,0:0:0:0:
491,154,45130,1,2,0:0:0:0:
200,356,45430,6,0,B|216:290|178:257|194:191,1,163.083750622115,10|0,0:0|2:0,0:0:0:0:
202,186,45730,5,2,0:0:0:0:
119,315,45880,1,2,0:0:0:0:
84,130,46030,6,0,P|76:101|70:69,1,54.3612502073717,2|0,1:0|2:0,0:0:0:0:
6,127,46180,1,2,0:0:0:0:
128,11,46330,1,2,0:0:0:0:
274,146,46480,6,0,P|281:174|288:207,1,54.3612502073717,2|0,1:0|2:0,0:0:0:0:
194,102,46630,2,0,P|214:80|238:57,1,54.3612502073717,0|0,1:0|2:0,0:0:0:0:
202,186,46780,1,2,0:0:0:0:
394,98,46930,1,10,0:0:0:0:
318,77,47080,1,2,0:0:0:0:
404,90,47230,2,0,P|397:66|388:29,1,54.3612502073717,2|0,0:0|2:0,0:0:0:0:
504,177,47380,2,0,P|497:151|471:136,1,54.3612502073717,2|0,0:0|2:0,0:0:0:0:
357,251,47530,5,2,1:0:0:0:
88,83,47830,1,10,0:0:0:0:
35,141,47980,5,2,0:0:0:0:
168,103,48130,1,2,0:0:0:0:
66,8,48280,1,2,0:0:0:0:
116,168,48430,6,0,P|98:247|88:328,1,163.083750622115,2|0,1:0|2:0,0:0:0:0:
88,328,48730,2,0,P|104:306|129:298,1,54.3612502073717,2|0,0:0|2:0,0:0:0:0:
268,336,48880,2,0,P|241:333|220:316,1,54.3612502073717,2|0,1:0|2:0,0:0:0:0:
280,91,49030,1,10,0:0:0:0:
213,129,49180,2,0,P|200:183|194:238,1,108.722500414743,2|0,0:0|1:0,0:0:0:0:
195,236,49405,2,0,L|246:219,2,54.3612502073717,2|0|2,0:0|0:0|0:0,0:0:0:0:
120,161,49630,5,2,0:0:0:0:
204,40,49780,1,2,0:0:0:0:
335,189,49930,1,2,0:0:0:0:
475,106,50080,2,0,P|482:46|497:-17,1,108.722500414743,2|0,0:0|0:0,0:0:0:0:
348,178,50380,1,2,0:0:0:0:
438,297,50530,5,2,0:0:0:0:
512,266,50680,1,2,0:0:0:0:
375,369,50830,6,0,P|302:332|224:306,1,163.083750622115,2|0,1:0|2:0,0:0:0:0:
213,311,51130,2,0,P|199:334|175:347,1,54.3612502073717,2|0,0:0|2:0,0:0:0:0:
63,259,51280,2,0,P|62:285|74:309,1,54.3612502073717,2|0,1:0|2:0,0:0:0:0:
151,139,51430,1,2,1:0:0:0:
148,254,51580,2,0,P|150:199|138:146,1,108.722500414743,2|8,0:0|0:0,0:0:0:0:
23,24,51880,2,0,P|32:50|53:67,2,54.3612502073717,2|2|0,0:0|0:0|0:0,0:0:0:0:
320,80,52180,5,2,0:0:0:0:
205,48,52330,2,0,P|235:39|267:26,1,54.3612502073717,2|0,1:0|2:0,0:0:0:0:
433,124,52480,2,0,P|382:104|329:92,1,108.722500414743,2|8,0:0|0:0,0:0:0:0:
410,17,52780,1,2,0:0:0:0:
357,196,52930,5,2,0:0:0:0:
399,264,53080,1,2,0:0:0:0:
362,355,53230,6,0,B|346:289|384:256|368:190,1,163.083750622115,2|0,1:0|2:0,0:0:0:0:
368,193,53530,1,2,0:0:0:0:
199,349,53680,1,2,1:0:0:0:
192,264,53830,2,0,P|222:271|268:278,1,54.3612502073717,10|0,0:0|2:0,0:0:0:0:
187,357,53980,2,0,P|164:250|135:146,1,217.445000829487,2|2,0:0|0:0,0:0:0:0:
56,75,54355,5,2,0:0:0:0:
45,71,54430,1,2,0:0:0:0:
135,146,54580,1,2,0:0:0:0:
68,244,54730,1,2,0:0:0:0:
239,185,54880,1,2,0:0:0:0:
196,356,55030,2,0,P|185:302|171:250,1,108.722500414743,8|2,0:0|0:0,0:0:0:0:
317,56,55330,5,2,0:0:0:0:
392,83,55480,1,2,0:0:0:0:
237,129,55630,6,0,P|310:95|390:75,1,163.083750622115,2|0,1:0|2:0,0:0:0:0:
395,69,55930,1,2,0:0:0:0:
353,171,56080,2,0,P|363:195|378:219,1,54.3612502073717,2|0,1:0|2:0,0:0:0:0:
474,297,56230,2,0,P|405:257|329:280,1,163.083750622115,2|0,1:0|2:0,0:0:0:0:
326,294,56530,1,10,0:0:0:0:
158,384,56680,2,0,P|166:359|173:327,1,54.3612502073717,2|0,0:0|2:0,0:0:0:0:
147,242,56830,6,0,P|176:310|248:290,1,163.083750622115,2|0,0:0|2:0,0:0:0:0:
248,290,57130,2,0,P|240:265|233:233,1,54.3612502073717,2|0,1:0|2:0,0:0:0:0:
111,105,57280,1,2,0:0:0:0:
43,165,57430,2,0,P|148:133|254:111,1,217.445000829487,10|2,0:0|0:0,0:0:0:0:
172,36,57880,1,2,0:0:0:0:
330,171,58030,6,0,P|350:92|377:15,1,163.083750622115,2|0,1:0|2:0,0:0:0:0:
388,17,58330,1,2,0:0:0:0:
108,90,58480,6,0,L|63:80,1,27.1806251036859,2|0,1:0|2:0,0:0:0:0:
464,328,58780,2,0,L|509:338,1,27.1806251036859,2|0,0:0|2:0,0:0:0:0:
274,198,58930,5,0,1:0:0:0:
213,255,59080,5,2,0:0:0:0:
360,193,59230,1,2,0:0:0:0:
231,26,59380,2,0,P|257:103|271:183,1,163.083750622115,2|0,0:0|2:0,0:0:0:0:
213,248,59680,1,2,0:0:0:0:
351,99,59830,2,0,P|378:111|411:121,1,54.3612502073717,10|0,0:0|2:0,0:0:0:0:
408,26,59980,2,0,P|437:102|457:181,1,163.083750622115,2|0,0:0|2:0,0:0:0:0:
457,181,60280,1,2,0:0:0:0:
301,317,60430,6,0,P|326:328|352:333,1,54.3612502073717,2|0,1:0|2:0,0:0:0:0:
350,252,60580,1,2,0:0:0:0:
236,359,60730,1,2,0:0:0:0:
98,273,60880,1,2,1:0:0:0:
264,240,61030,2,0,P|185:259|107:283,1,163.083750622115,2|0,1:0|2:0,0:0:0:0:
108,290,61330,6,0,L|166:271,2,54.3612502073717,10|2|0,0:0|0:0|0:0,0:0:0:0:
21,190,61630,2,0,P|86:146|85:67,1,163.083750622115,2|0,0:0|2:0,0:0:0:0:
75,61,61930,2,0,P|43:55|11:43,1,54.3612502073717,2|0,1:0|2:0,0:0:0:0:
116,148,62080,1,2,0:0:0:0:
302,30,62230,2,0,P|231:2|184:62,1,163.083750622115,10|0,0:0|2:0,0:0:0:0:
188,71,62530,5,2,0:0:0:0:
266,109,62680,1,2,0:0:0:0:
416,161,62830,6,0,P|401:109|388:56,1,108.722500414743,2|0,1:0|0:0,0:0:0:0:
318,222,63130,1,2,0:0:0:0:
489,324,63280,2,0,P|460:281|408:282,1,108.722500414743,2|8,1:0|0:0,0:0:0:0:
402,291,63505,1,2,0:0:0:0:
406,300,63580,1,2,0:0:0:0:
212,341,63730,2,0,P|217:314|222:278,1,54.3612502073717,2|0,1:0|2:0,0:0:0:0:
291,370,63880,1,2,0:0:0:0:
156,209,64030,6,0,P|122:248|71:240,1,108.722500414743,2|0,0:0|0:0,0:0:0:0:
61,227,64255,1,2,0:0:0:0:
64,216,64330,1,2,0:0:0:0:
468,41,64630,2,0,B|409:65|391:107|332:132,1,163.083750622115,10|0,0:0|2:0,0:0:0:0:
325,122,64930,2,0,B|371:129|398:137|457:149,1,108.722500414743,2|0,0:0|0:0,0:0:0:0:
69,363,65230,6,0,P|48:284|37:204,1,163.083750622115,2|0,1:0|2:0,0:0:0:0:
37,204,65530,1,2,0:0:0:0:
200,87,65680,1,2,1:0:0:0:
197,97,65755,1,2,0:0:0:0:
194,107,65830,1,2,1:0:0:0:
105,115,65980,5,2,0:0:0:0:
256,170,66130,1,10,0:0:0:0:
232,9,66280,1,2,0:0:0:0:
162,223,66430,6,0,P|267:195|354:165,1,163.083750622115,2|0,0:0|0:0,0:0:0:0:
391,148,66730,2,0,B|398:113|359:89|359:89|383:116|375:151,1,108.722500414743,2|0,1:0|0:0,0:0:0:0:
488,298,67030,1,10,0:0:0:0:
488,298,67330,6,0,B|502:326|474:355|474:355|488:330|483:311,1,108.722500414743,2|0,0:0|0:0,0:0:0:0:
403,312,67555,5,2,0:0:0:0:
399,301,67630,2,0,P|392:271|387:229,1,54.3612502073717,0|0,1:0|2:0,0:0:0:0:
504,118,67780,2,0,P|508:170|469:205,1,108.722500414743,2|0,0:0|0:0,0:0:0:0:
281,181,68080,2,0,P|319:145|371:154,1,108.722500414743,2|8,1:0|0:0,0:0:0:0:
371,154,68305,2,0,L|361:89,2,54.3612502073717,2|0|0,0:0|0:0|0:0,0:0:0:0:
181,22,68530,5,2,1:0:0:0:
131,89,68680,1,2,0:0:0:0:
278,25,68830,1,2,0:0:0:0:
372,21,68980,1,2,0:0:0:0:
382,17,69055,1,2,0:0:0:0:
392,13,69130,1,2,0:0:0:0:
200,135,69280,1,2,0:0:0:0:
284,141,69430,2,0,L|266:22,1,108.722500414743,10|2,0:0|0:0,0:0:0:0:
129,198,69730,5,2,0:0:0:0:
64,157,69880,1,2,0:0:0:0:
127,302,70030,6,0,B|190:283|226:240|273:232,1,163.083750622115,2|0,1:0|2:0,0:0:0:0:
279,241,70330,1,2,0:0:0:0:
302,382,70480,2,0,P|279:367|258:344,1,54.3612502073717,2|0,1:0|2:0,0:0:0:0:
389,140,70630,2,0,P|375:220|348:297,1,163.083750622115,2|2,1:0|0:0,0:0:0:0:
348,297,70930,1,10,0:0:0:0:
168,204,71080,6,0,P|142:193|116:185,2,54.3612502073717,2|2|2,0:0|0:0|0:0,0:0:0:0:
272,29,71380,1,2,0:0:0:0:
267,39,71455,1,2,0:0:0:0:
261,48,71530,2,0,P|188:67|89:80,1,163.083750622115,2|0,1:0|2:0,0:0:0:0:
89,66,71830,2,0,B|186:72|217:129|313:146,2,217.445000829487,10|2|0,0:0|0:0|1:0,0:0:0:0:
199,352,72730,6,0,P|194:320|184:288,1,54.3612502073717,2|0,0:0|2:0,0:0:0:0:
277,250,72880,2,0,P|281:218|292:186,1,54.3612502073717,2|0,1:0|2:0,0:0:0:0:
128,151,73030,2,0,P|123:119|113:87,1,54.3612502073717,10|0,0:0|2:0,0:0:0:0:
250,23,73180,2,0,P|227:93|212:165,1,148.194995477448,2|0,0:0|0:0,0:0:0:0:
199,352,73630,6,0,P|194:320|184:288,1,54.3612502073717,2|0,0:0|2:0,0:0:0:0:
277,250,73780,2,0,P|281:218|292:186,1,54.3612502073717,2|0,0:0|2:0,0:0:0:0:
128,151,73930,2,0,P|123:119|113:87,1,54.3612502073717,2|0,0:0|2:0,0:0:0:0:
250,23,74080,1,2,0:0:0:0:
366,130,74230,5,10,0:0:0:0:
369,119,74305,2,0,P|396:74|448:75,1,108.722500414743,2|0,0:0|2:0,0:0:0:0:
448,75,74530,2,0,P|455:105|471:144,1,54.3612502073717,2|0,0:0|2:0,0:0:0:0:
512,229,74680,2,0,P|482:219|441:211,1,54.3612502073717,2|0,0:0|2:0,0:0:0:0:
285,376,74830,6,0,P|356:344|371:267,1,163.083750622115,2|0,1:0|2:0,0:0:0:0:
364,256,75130,6,0,P|342:273|317:283,1,54.3612502073717,0|0,0:0|2:0,0:0:0:0:
258,179,75280,2,0,P|236:162|211:152,1,54.3612502073717,0|0,1:0|2:0,0:0:0:0:
175,323,75430,2,0,P|153:339|128:349,1,54.3612502073717,0|0,1:0|2:0,0:0:0:0:
60,116,75580,2,0,P|88:175|111:265,1,148.194995477448,2|0,0:0|0:0,0:0:0:0:
364,256,76030,6,0,P|342:273|317:283,1,54.3612502073717,2|0,0:0|2:0,0:0:0:0:
258,179,76180,2,0,P|236:162|211:152,1,54.3612502073717,0|0,0:0|2:0,0:0:0:0:
175,323,76330,2,0,P|153:339|128:349,1,54.3612502073717,2|0,1:0|2:0,0:0:0:0:
56,138,76480,1,2,0:0:0:0:
58,127,76555,1,2,0:0:0:0:
60,116,76630,1,10,0:0:0:0:
424,327,77080,1,10,0:0:0:0:
191,209,77230,6,0,B|243:199|284:245|284:245|260:160|326:103|326:103|251:118|205:88|205:88|210:118|189:151|189:151,1,425.194975507949,6|2,1:0|0:0,0:0:0:0:
375,195,77680,1,2,1:0:0:0:
440,244,77830,6,0,P|447:279|456:314,1,71.6737519959198,10|0,0:0|2:0,0:0:0:0:
416,121,77980,2,0,P|426:86|432:51,1,71.6737519959198,2|0,0:0|2:0,0:0:0:0:
207,300,78130,6,0,B|210:287|210:287|225:291|222:304|219:316|204:313|204:313|189:309|192:296|195:284|210:287|210:287|207:300,1,111.146246608086,2|0,1:0|2:0,0:0:0:0:
15,245,78430,6,0,P|8:280|-1:315,1,71.6737519959198,2|0,0:0|2:0,0:0:0:0:
39,122,78580,2,0,P|29:87|23:52,1,71.6737519959198,2|0,0:0|2:0,0:0:0:0:
207,300,78730,6,0,B|204:287|204:287|189:291|192:304|195:316|210:313|210:313|225:309|222:296|219:284|204:287|204:287|207:300,1,111.146246608086,2|0,0:0|2:0,0:0:0:0:
208,288,79030,6,0,B|182:269|176:224|219:195|219:195|261:168|256:122|232:103,1,215.021255987759,10|0,0:0|2:0,0:0:0:0:
224,111,79330,1,2,0:0:0:0:
342,177,79480,5,2,0:0:0:0:
347,175,79555,1,2,0:0:0:0:
353,172,79630,1,2,1:0:0:0:
351,14,79780,6,0,P|340:48|325:81,1,71.6737519959198,2|0,0:0|2:0,0:0:0:0:
482,232,79930,2,0,P|459:204|439:175,1,71.6737519959198,2|0,0:0|2:0,0:0:0:0:
210,253,80080,2,0,P|245:245|280:239,1,71.6737519959198,2|0,1:0|2:0,0:0:0:0:
83,69,80230,6,0,B|70:72|70:72|74:87|87:84|99:81|96:66|96:66|92:51|79:54|67:57|70:72|70:72|83:69,1,111.146246608086,10|0,1:2|2:0,0:0:0:0:
0,41,80530,6,0,B|25:21|70:26|87:74|87:74|104:122|150:128|173:109,1,217.445000829487,8|2,0:0|0:0,0:0:0:0:
487,70,80980,2,0,B|505:108|468:145|468:145|487:108|468:70,1,143.34750399184,2|0,0:0|1:0,0:0:0:0:
350,8,81280,2,0,P|385:19|435:33,1,71.6737519959198,2|0,0:0|2:0,0:0:0:0:
252,149,81430,6,0,P|321:124|393:107,1,148.194995477448,10|0,0:0|0:0,0:0:0:0:
215,257,81880,5,0,0:0:0:0:
212,261,81955,1,0,0:0:0:0:
211,267,82030,1,0,1:0:0:0:
176,162,82180,5,2,0:0:0:0:
266,346,82330,1,2,0:0:0:0:
173,173,82480,1,2,1:0:0:0:
7,353,82630,6,0,P|42:357|76:370,1,71.6737519959198,10|0,0:0|2:0,0:0:0:0:
95,116,82780,2,0,P|62:129|26:133,1,71.6737519959198,2|0,0:0|2:0,0:0:0:0:
195,260,82930,6,0,B|182:257|182:257|186:242|199:245|211:248|208:263|208:263|204:278|191:275|179:272|182:257|182:257|195:260,1,111.146246608086,2|0,1:0|2:0,0:0:0:0:
383,353,83230,6,0,P|348:357|314:370,1,71.6737519959198,2|0,0:0|2:0,0:0:0:0:
295,116,83380,2,0,P|328:129|364:133,1,71.6737519959198,2|0,0:0|2:0,0:0:0:0:
195,260,83530,6,0,B|208:257|208:257|204:242|191:245|179:248|182:263|182:263|186:278|199:275|211:272|208:257|208:257|195:260,1,111.146246608086,2|0,0:0|2:0,0:0:0:0:
194,252,83830,6,0,P|207:145|231:41,1,215.021255987759,10|0,0:0|2:0,0:0:0:0:
225,32,84130,1,2,0:0:0:0:
343,171,84280,5,2,0:0:0:0:
348,169,84355,1,2,0:0:0:0:
354,166,84430,1,2,1:0:0:0:
428,31,84580,6,0,P|404:57|397:91,1,71.6737519959198,2|0,0:0|2:0,0:0:0:0:
462,276,84730,2,0,P|453:242|427:217,1,71.6737519959198,2|0,0:0|2:0,0:0:0:0:
191,203,84880,2,0,P|225:214|259:205,1,71.6737519959198,2|0,1:0|2:0,0:0:0:0:
24,2,85030,6,0,P|72:34|58:80,1,111.146246608086,10|0,1:2|2:0,0:0:0:0:
59,78,85330,6,0,B|33:97|27:142|70:171|70:171|112:198|107:244|83:263,1,217.445000829487,8|0,0:0|0:0,0:0:0:0:
294,44,85780,6,0,B|301:71|301:71|285:81|273:104|273:104|273:78|264:63|264:63|282:41,1,143.34750399184,2|0,0:0|1:0,0:0:0:0:
185,168,86080,2,0,P|177:133|188:100,1,71.6737519959198,2|0,0:0|2:0,0:0:0:0:
305,286,86230,6,0,P|354:223|350:143,1,163.083750622115,10|0,0:0|2:0,0:0:0:0:
349,142,86530,6,0,P|372:124|407:129,1,54.3612502073717,0|0,0:0|2:0,0:0:0:0:
427,26,86680,2,0,P|450:44|453:80,1,54.3612502073717,0|0,0:0|2:0,0:0:0:0:
301,281,86830,6,0,B|373:309|382:373|337:419|278:369|201:374|191:310|235:265|303:293,1,342.095013180388,6|2,1:0|0:0,0:0:0:0:
156,206,87280,1,2,1:0:0:0:
132,331,87430,6,0,P|120:297|93:274,1,71.6737519959198,10|0,0:0|2:0,0:0:0:0:
233,145,87580,2,0,P|244:178|271:201,1,71.6737519959198,2|0,0:0|2:0,0:0:0:0:
78,104,87730,6,0,B|70:92|70:92|84:84|91:95|97:106|85:115|85:115|71:123|64:112|58:101|70:92|70:92|78:104,1,111.146246608086,2|0,1:0|2:0,0:0:0:0:
353,71,88030,6,0,P|341:104|314:127,1,71.6737519959198,2|0,0:0|2:0,0:0:0:0:
454,257,88180,2,0,P|465:223|492:200,1,71.6737519959198,2|0,0:0|2:0,0:0:0:0:
299,298,88330,6,0,B|291:309|291:309|305:317|312:306|318:295|306:286|306:286|292:278|285:289|279:300|291:309|291:309|299:298,1,111.146246608086,2|0,0:0|2:0,0:0:0:0:
208,275,88630,6,0,P|193:168|167:64,1,215.021255987759,10|0,0:0|2:0,0:0:0:0:
159,61,88930,1,2,0:0:0:0:
19,219,89080,5,2,0:0:0:0:
13,217,89155,1,2,0:0:0:0:
7,216,89230,1,2,1:0:0:0:
103,293,89380,6,0,P|68:297|41:319,1,71.6737519959198,2|0,0:0|2:0,0:0:0:0:
141,161,89530,2,0,P|113:139|78:136,1,71.6737519959198,2|0,0:0|2:0,0:0:0:0:
256,94,89680,2,0,P|251:59|228:33,1,71.6737519959198,2|0,1:0|2:0,0:0:0:0:
284,263,89830,6,0,B|292:275|292:275|278:283|271:272|265:261|277:252|277:252|291:244|298:255|304:266|292:275|292:275|284:263,1,111.146246608086,10|0,1:2|2:0,0:0:0:0:
201,217,90130,6,0,P|307:239|406:284,1,217.445000829487,8|0,0:0|1:0,0:0:0:0:
37,70,90580,6,0,B|26:20|70:-1|70:-1|44:21|46:61,1,143.34750399184,2|0,0:0|1:0,0:0:0:0:
191,81,90880,2,0,P|153:71|114:44,1,71.6737519959198,2|0,0:0|2:0,0:0:0:0:
4,201,91030,6,0,P|53:148|125:149,1,148.194995477448,10|0,0:0|0:0,0:0:0:0:
327,263,91480,5,0,0:0:0:0:
333,262,91555,1,0,0:0:0:0:
338,260,91630,1,2,1:0:0:0:
198,229,91780,5,2,0:0:0:0:
380,371,91930,1,2,0:0:0:0:
409,141,92080,1,2,1:0:0:0:
196,240,92230,6,0,L|179:318,1,71.6737519959198,10|0,0:0|2:0,0:0:0:0:
418,137,92380,2,0,L|433:67,1,71.6737519959198,2|0,0:0|2:0,0:0:0:0:
327,263,92530,6,0,B|319:274|319:274|333:282|340:271|346:260|334:251|334:251|320:243|313:254|307:265|319:274|319:274|327:263,1,111.146246608086,2|0,1:0|2:0,0:0:0:0:
457,239,92830,6,0,L|474:317,1,71.6737519959198,2|0,0:0|2:0,0:0:0:0:
235,136,92980,2,0,L|220:66,1,71.6737519959198,2|0,0:0|2:0,0:0:0:0:
326,262,93130,6,0,B|334:273|334:273|320:281|313:270|307:259|319:250|319:250|333:242|340:253|346:264|334:273|334:273|326:262,1,111.146246608086,2|0,0:0|2:0,0:0:0:0:
117,168,93430,6,0,B|73:127|-21:155|-19:242|59:266|73:220,1,215.021255987759,10|0,0:0|2:0,0:0:0:0:
69,229,93730,1,2,0:0:0:0:
139,76,93880,5,2,0:0:0:0:
138,70,93955,1,2,0:0:0:0:
136,64,94030,1,2,1:0:0:0:
265,166,94180,6,0,P|237:143|202:136,1,71.6737519959198,2|0,0:0|2:0,0:0:0:0:
369,13,94330,2,0,P|341:35|306:42,1,71.6737519959198,2|0,0:0|2:0,0:0:0:0:
409,276,94480,2,0,P|390:245|361:225,1,71.6737519959198,2|0,1:0|2:0,0:0:0:0:
109,381,94630,6,0,L|228:354,1,111.146246608086,10|0,1:2|2:0,0:0:0:0:
217,356,94930,2,0,L|247:184,1,163.083750622115,10|0,0:0|2:0,0:0:0:0:
320,156,95230,6,0,L|110:203,1,215.021255987759,2|0,0:0|2:0,0:0:0:0:
101,205,95530,6,0,L|138:41,1,163.083750622115,2|0,1:0|2:0,0:0:0:0:
215,29,95830,6,0,L|284:13,1,71.6737519959198,10|0,0:0|2:0,0:0:0:0:
487,103,96280,5,0,3:0:0:0:
484,117,96355,1,0,3:0:0:0:
479,126,96430,2,0,B|416:150|400:197|334:221,1,163.083750622115,2|0,1:0|2:0,0:0:0:0:
333,208,96730,1,2,0:0:0:0:
465,294,96880,1,2,1:0:0:0:
250,201,97030,1,10,0:0:0:0:
202,264,97180,1,2,0:0:0:0:
314,384,97330,2,0,P|296:330|283:270,1,108.722500414743,2|0,1:0|0:0,0:0:0:0:
284,279,97555,1,2,0:0:0:0:
284,279,97630,1,2,0:0:0:0:
92,324,97780,6,0,P|121:335|153:356,1,54.3612502073717,2|0,0:0|2:0,0:0:0:0:
39,195,97930,2,0,P|52:223|60:260,1,54.3612502073717,2|0,0:0|2:0,0:0:0:0:
38,57,98080,2,0,P|66:102|114:126,1,108.722500414743,2|8,0:0|0:0,0:0:0:0:
316,129,98380,2,0,P|217:173|142:250,1,217.445000829487,2|2,0:0|0:0,0:0:0:0:
408,22,98830,6,0,B|376:118|408:150|376:246,1,217.445000829487,2|2,1:0|0:0,0:0:0:0:
263,311,99280,2,0,L|330:291,1,54.3612502073717,2|0,1:0|2:0,0:0:0:0:
512,250,99430,2,0,L|445:270,1,54.3612502073717,2|0,1:0|2:0,0:0:0:0:
399,335,99580,1,2,0:0:0:0:
366,160,99730,1,10,0:0:0:0:
379,236,99880,1,2,0:0:0:0:
196,61,100030,2,0,P|246:81|297:99,1,108.722500414743,2|0,0:0|0:0,0:0:0:0:
36,194,100330,2,0,P|49:164|60:134,1,54.3612502073717,2|0,1:0|2:0,0:0:0:0:
57,144,100480,1,2,0:0:0:0:
204,315,100630,2,0,P|184:264|173:211,1,108.722500414743,10|0,0:0|0:0,0:0:0:0:
99,352,100930,1,2,0:0:0:0:
35,307,101080,1,2,0:0:0:0:
287,346,101230,6,0,P|337:327|390:314,1,108.722500414743,2|2,1:0|0:0,0:0:0:0:
331,251,101530,1,2,0:0:0:0:
468,108,101680,1,0,1:0:0:0:
465,203,101830,2,0,P|430:194|386:188,1,54.3612502073717,10|0,0:0|2:0,0:0:0:0:
412,190,101980,1,2,0:0:0:0:
268,63,102130,1,2,1:0:0:0:
348,29,102280,5,2,0:0:0:0:
351,39,102355,1,2,0:0:0:0:
354,49,102430,1,2,0:0:0:0:
257,202,102580,1,2,0:0:0:0:
159,113,102730,2,0,P|175:57|188:2,1,108.722500414743,2|0,0:0|0:0,0:0:0:0:
127,233,103030,2,0,P|110:288|98:344,1,108.722500414743,10|0,0:0|0:0,0:0:0:0:
73,158,103330,5,2,0:0:0:0:
0,195,103480,1,2,0:0:0:0:
207,188,103630,5,2,1:0:0:0:
207,188,104080,2,0,L|228:247,1,54.3612502073717,2|0,1:0|2:0,0:0:0:0:
369,297,104230,6,0,P|338:279|295:271,1,72.4816669431623,2|0,1:0|0:0,0:0:0:0:
427,170,104430,2,0,P|428:205|444:246,1,72.4816669431623,2|8,0:0|0:0,0:0:0:0:
294,183,104630,2,0,P|323:163|349:127,1,72.4816669431623,2|0,0:0|0:0,0:0:0:0:
418,75,104830,5,2,0:0:0:0:
302,9,104980,1,2,0:0:0:0:
155,170,105130,1,2,1:0:0:0:
88,129,105280,2,0,P|76:76|71:8,1,108.722500414743,2|8,0:0|0:0,0:0:0:0:
179,0,105505,1,2,0:0:0:0:
189,3,105580,2,0,P|200:55|206:124,2,108.722500414743,2|2|2,0:0|0:0|0:0,0:0:0:0:
71,215,106030,6,0,P|175:243|267:300,1,217.445000829487,2|0,1:0|0:0,0:0:0:0:
386,209,106480,2,0,P|360:218|338:234,1,54.3612502073717,2|0,1:0|2:0,0:0:0:0:
479,360,106630,2,0,P|404:380|355:321,1,163.083750622115,10|0,0:0|2:0,0:0:0:0:
355,320,106930,2,0,P|380:310|402:294,1,54.3612502073717,2|0,1:0|2:0,0:0:0:0:
402,294,107080,1,2,0:0:0:0:
261,186,107230,5,2,0:0:0:0:
303,121,107380,2,0,P|382:101|459:70,1,163.083750622115,2|0,0:0|2:0,0:0:0:0:
457,70,107680,2,0,P|452:18|403:4,1,108.722500414743,2|0,0:0|0:0,0:0:0:0:
224,72,107980,2,0,P|228:20|277:6,1,108.722500414743,2|0,0:0|0:0,0:0:0:0:
163,184,108280,1,2,0:0:0:0:
89,120,108430,6,0,P|96:89|101:55,1,54.3612502073717,2|0,1:0|2:0,0:0:0:0:
59,216,108580,2,0,P|110:199|162:183,1,108.722500414743,2|0,0:0|0:0,0:0:0:0:
314,302,108880,2,0,P|272:267|231:230,1,108.722500414743,2|0,1:0|1:0,0:0:0:0:
231,230,109180,1,2,0:0:0:0:
352,81,109330,1,10,0:0:0:0:
246,109,109480,1,2,0:0:0:0:
453,190,109630,2,0,B|421:126|453:94|421:30,1,163.083750622115,2|0,0:0|2:0,0:0:0:0:
445,29,109930,2,0,L|432:220,1,163.083750622115,2|0,1:0|2:0,0:0:0:0:
433,191,110230,1,10,0:0:0:0:
91,299,110530,5,2,0:0:0:0:
35,357,110680,1,2,0:0:0:0:
152,237,110830,6,0,P|161:207|174:176,1,54.3612502073717,2|0,1:0|2:0,0:0:0:0:
33,114,110980,2,0,P|53:164|70:215,1,108.722500414743,2|0,0:0|0:0,0:0:0:0:
261,207,111280,2,0,P|240:258|223:309,2,108.722500414743,2|8|2,1:0|0:0|0:0,0:0:0:0:
329,164,111655,1,2,0:0:0:0:
338,158,111730,2,0,P|396:176|407:224,1,108.722500414743,2|2,1:0|0:0,0:0:0:0:
408,217,112030,5,2,0:0:0:0:
254,115,112180,2,0,P|254:62|293:26,1,108.722500414743,2|0,0:0|0:0,0:0:0:0:
74,141,112480,2,0,P|126:152|178:171,2,108.722500414743,2|8|2,0:0|0:0|0:0,0:0:0:0:
279,298,112930,2,0,B|292:331|258:360|258:360|276:329|263:296,1,108.722500414743,2|0,0:0|0:0,0:0:0:0:
191,319,113155,5,2,0:0:0:0:
184,310,113230,2,0,P|128:286|69:279,2,108.722500414743,2|2|2,1:0|0:0|0:0,0:0:0:0:
214,234,113605,1,2,0:0:0:0:
224,238,113680,2,0,P|251:220|291:215,1,54.3612502073717,2|0,1:0|2:0,0:0:0:0:
426,326,113830,2,0,P|364:276|367:197,1,163.083750622115,2|0,1:0|2:0,0:0:0:0:
376,192,114130,2,0,P|410:145|377:92,1,108.722500414743,10|0,0:0|0:0,0:0:0:0:
381,102,114355,1,2,0:0:0:0:
370,106,114430,1,2,0:0:0:0:
88,246,114730,6,0,B|159:210|173:132|244:97,2,217.445000829487,2|10|2,1:0|0:0|0:0,0:0:0:0:
70,158,115480,1,2,0:0:0:0:
208,296,115630,6,0,P|286:317|357:356,1,163.083750622115,2|0,1:0|2:0,0:0:0:0:
357,356,115930,2,0,P|409:330|406:279,1,108.722500414743,2|0,0:0|1:0,0:0:0:0:
298,128,116230,2,0,P|302:179|350:199,1,108.722500414743,10|0,0:0|0:0,0:0:0:0:
503,132,116530,1,2,1:0:0:0:
453,192,116680,1,2,0:0:0:0:
188,53,116830,2,0,P|268:49|338:8,1,163.083750622115,2|0,0:0|2:0,0:0:0:0:
338,8,117130,2,0,P|282:1|218:-12,1,108.722500414743,2|0,0:0|0:0,0:0:0:0:
86,103,117430,1,10,0:0:0:0:
262,320,117730,5,2,0:0:0:0:
288,247,117880,1,2,0:0:0:0:
328,370,118030,5,2,1:0:0:0:
204,258,118180,1,2,0:0:0:0:
364,192,118330,1,2,0:0:0:0:
297,282,118480,6,0,L|285:212,1,54.3612502073717,2|0,1:0|2:0,0:0:0:0:
243,14,118630,2,0,L|255:84,1,54.3612502073717,2|0,1:0|2:0,0:0:0:0:
215,159,118780,5,2,0:0:0:0:
408,106,118930,1,10,0:0:0:0:
334,86,119080,1,2,0:0:0:0:
438,345,119230,2,0,P|466:240|486:133,2,217.445000829487,2|2|10,0:0|1:0|0:0,0:0:0:0:
133,224,120130,5,2,0:0:0:0:
68,268,120280,1,2,0:0:0:0:
198,178,120430,6,0,P|174:99|152:21,1,163.083750622115,2|0,1:0|2:0,0:0:0:0:
159,14,120730,2,0,L|137:80,1,54.3612502073717,2|0,0:0|2:0,0:0:0:0:
73,274,120880,2,0,P|124:288|154:336,2,108.722500414743,2|8|0,1:0|0:0|0:0,0:0:0:0:
405,199,121330,2,0,P|378:210|342:223,1,54.3612502073717,2|0,1:0|2:0,0:0:0:0:
408,283,121480,1,2,0:0:0:0:
258,220,121630,2,0,B|283:119|317:101|337:17,2,217.445000829487,2|2|10,0:0|0:0|0:0,0:0:0:0:
63,44,122530,5,2,0:0:0:0:
131,3,122680,1,2,0:0:0:0:
47,130,122830,1,2,1:0:0:0:
369,332,123130,5,2,0:0:0:0:
234,228,123280,2,0,L|289:247,1,54.3612502073717,2|0,1:0|2:0,0:0:0:0:
455,183,123430,2,0,L|409:219,1,54.3612502073717,2|0,1:0|2:0,0:0:0:0:
16,153,124630,6,0,P|39:136|62:116,1,54.3612502073717,8|0,0:0|2:0,0:0:0:0:
67,29,124780,6,0,P|92:43|120:55,1,54.3612502073717,8|0,0:0|2:0,0:0:0:0:
203,27,124930,6,0,P|201:55|201:86,1,54.3612502073717,10|0,0:0|2:0,0:0:0:0:
262,147,125080,6,0,P|236:157|207:169,1,54.3612502073717,10|0,0:0|2:0,0:0:0:0:
156,345,125230,6,0,B|178:327|183:281|141:254|141:254|98:225|104:180|130:161,1,217.445000829487,4|0,1:0|0:0,0:0:0:0:
376,100,125680,2,0,P|385:72|394:40,1,54.3612502073717,2|0,1:0|2:0,0:0:0:0:
311,169,125830,2,0,P|391:143|478:124,1,163.083750622115,10|0,0:0|2:0,0:0:0:0:
473,130,126130,2,0,P|418:142|360:158,1,108.722500414743,2|0,1:0|0:0,0:0:0:0:
251,330,126430,2,0,P|298:309|304:258,1,108.722500414743,2|0,0:0|0:0,0:0:0:0:
192,55,126730,2,0,P|183:106|224:138,1,108.722500414743,2|0,0:0|0:0,0:0:0:0:
435,24,127030,2,0,P|355:42|277:67,1,163.083750622115,10|0,0:0|2:0,0:0:0:0:
271,65,127330,2,0,P|295:54|335:42,2,54.3612502073717,2|0|0,0:0|0:0|0:0,0:0:0:0:
38,176,127630,2,0,P|95:122|85:44,1,163.083750622115,2|0,1:0|2:0,0:0:0:0:
75,45,127930,5,2,0:0:0:0:
159,199,128080,2,0,P|183:205|213:215,1,54.3612502073717,2|0,1:0|2:0,0:0:0:0:
64,331,128230,2,0,P|39:324|10:315,1,54.3612502073717,2|0,1:0|2:0,0:0:0:0:
267,319,128380,2,0,P|247:212|234:104,1,217.445000829487,2|2,0:0|0:0,0:0:0:0:
366,236,128830,1,2,0:0:0:0:
439,203,128980,2,0,P|451:152|461:84,1,108.722500414743,2|0,0:0|1:0,0:0:0:0:
512,356,129280,2,0,P|470:320|432:281,1,108.722500414743,2|8,0:0|0:0,0:0:0:0:
365,150,129580,1,2,0:0:0:0:
298,200,129730,1,2,0:0:0:0:
174,346,129880,1,2,0:0:0:0:
91,206,130030,5,2,1:0:0:0:
207,114,130180,1,2,0:0:0:0:
93,219,130330,1,2,0:0:0:0:
219,107,130480,2,0,L|228:43,1,54.3612502073717,2|0,1:0|2:0,0:0:0:0:
0,70,130630,2,0,P|53:80|99:108,1,108.722500414743,10|0,0:0|0:0,0:0:0:0:
255,265,130930,2,0,L|246:201,1,54.3612502073717,2|0,1:0|2:0,0:0:0:0:
83,304,131080,5,2,0:0:0:0:
73,302,131155,1,2,0:0:0:0:
63,300,131230,1,2,0:0:0:0:
203,328,131380,1,2,0:0:0:0:
255,265,131530,2,0,P|362:274|460:321,1,217.445000829487,2|10,0:0|0:0,0:0:0:0:
168,78,132130,5,2,0:0:0:0:
187,1,132280,1,2,0:0:0:0:
92,157,132430,1,2,1:0:0:0:
344,78,132730,5,2,0:0:0:0:
325,1,132880,1,2,1:0:0:0:
420,157,133030,1,2,1:0:0:0:
457,81,133180,5,2,0:0:0:0:
244,247,133330,1,10,0:0:0:0:
172,214,133480,2,0,P|165:179|151:131,1,54.3612502073717,2|0,0:0|2:0,0:0:0:0:
316,285,133630,5,2,0:0:0:0:
54,146,133930,1,2,1:0:0:0:
308,0,134230,6,0,P|301:20|297:40,1,40.5112501545382,8|0,0:0|2:0,0:0:0:0:
183,42,134380,6,0,P|189:61|196:93,1,50.8987476312076,8|0,0:0|2:0,0:0:0:0:
368,111,134530,6,0,P|359:140|352:170,1,61.2862519872022,8|0,0:0|2:0,0:0:0:0:
127,159,134680,6,0,P|135:188|146:228,1,71.6737519959198,8|0,0:0|2:0,0:0:0:0:
309,319,134830,6,0,B|279:300|268:272|268:272|170:325|57:324|57:324|62:359|44:384,1,342.095013180388,6|2,1:0|0:0,0:0:0:0:
349,245,135280,1,2,1:0:0:0:
320,170,135430,6,0,P|282:158|238:139,1,71.6737519959198,10|0,0:0|2:0,0:0:0:0:
396,317,135580,2,0,P|433:328|478:348,1,71.6737519959198,2|0,0:0|2:0,0:0:0:0:
143,315,135730,6,0,L|178:209,1,111.146246608086,2|0,1:0|2:0,0:0:0:0:
178,209,136030,6,0,P|215:220|260:240,1,71.6737519959198,2|0,0:0|2:0,0:0:0:0:
102,62,136180,2,0,P|64:50|20:31,1,71.6737519959198,2|0,0:0|2:0,0:0:0:0:
355,64,136330,6,0,L|319:169,1,111.146246608086,2|0,0:0|2:0,0:0:0:0:
30,126,136630,6,0,B|57:144|102:133|113:83|113:83|123:34|168:22|193:37,1,215.021255987759,10|0,0:0|2:0,0:0:0:0:
198,47,136930,1,2,0:0:0:0:
122,244,137080,5,2,0:0:0:0:
117,246,137155,1,2,0:0:0:0:
111,249,137230,1,2,1:0:0:0:
229,203,137380,6,0,P|196:187|168:165,1,71.6737519959198,2|0,0:0|2:0,0:0:0:0:
281,320,137530,2,0,P|248:335|220:357,1,71.6737519959198,2|0,0:0|2:0,0:0:0:0:
410,122,137680,2,0,P|374:119|340:108,1,71.6737519959198,2|0,1:0|2:0,0:0:0:0:
459,284,137830,6,0,B|446:287|446:287|450:302|463:299|475:296|472:281|472:281|468:266|455:269|443:272|446:287|446:287|459:284,1,111.146246608086,10|0,1:2|2:0,0:0:0:0:
457,284,138130,6,0,P|480:177|512:74,1,217.445000829487,8|2,0:0|0:0,0:0:0:0:
277,359,138580,2,0,P|303:298|371:304,1,143.34750399184,2|0,0:0|1:0,0:0:0:0:
190,221,138880,2,0,P|160:200|155:163,1,71.6737519959198,2|0,0:0|2:0,0:0:0:0:
352,63,139030,6,0,P|291:91|232:157,1,148.194995477448,10|0,0:0|0:0,0:0:0:0:
114,321,139480,5,0,0:0:0:0:
117,325,139555,1,0,0:0:0:0:
118,331,139630,1,0,1:0:0:0:
200,308,139780,5,2,0:0:0:0:
12,196,139930,1,2,0:0:0:0:
189,82,140080,1,2,1:0:0:0:
212,300,140230,6,0,L|307:283,1,71.6737519959198,10|0,0:0|2:0,0:0:0:0:
182,73,140380,2,0,L|87:56,1,71.6737519959198,2|0,0:0|2:0,0:0:0:0:
194,184,140530,6,0,B|181:181|181:181|185:166|198:169|210:172|207:187|207:187|203:202|190:199|178:196|181:181|181:181|194:184,1,111.146246608086,2|0,1:0|2:0,0:0:0:0:
383,47,140830,6,0,L|478:64,1,71.6737519959198,2|0,0:0|2:0,0:0:0:0:
353,274,140980,2,0,L|258:291,1,71.6737519959198,2|0,0:0|2:0,0:0:0:0:
365,163,141130,6,0,B|352:166|352:166|356:181|369:178|381:175|378:160|378:160|374:145|361:148|349:151|352:166|352:166|365:163,1,111.146246608086,2|0,0:0|2:0,0:0:0:0:
363,163,141430,6,0,B|345:190|356:235|406:246|406:246|455:256|467:301|452:326,1,215.021255987759,10|0,0:0|2:0,0:0:0:0:
444,333,141730,1,2,0:0:0:0:
223,135,141880,5,2,0:0:0:0:
218,133,141955,1,2,0:0:0:0:
212,130,142030,1,2,1:0:0:0:
371,84,142180,6,0,P|335:86|307:105,1,71.6737519959198,2|0,0:0|2:0,0:0:0:0:
225,283,142330,2,0,P|242:252|240:216,1,71.6737519959198,2|0,0:0|2:0,0:0:0:0:
81,43,142480,2,0,P|97:74|128:91,1,71.6737519959198,2|0,1:0|2:0,0:0:0:0:
30,265,142630,6,0,L|6:137,1,111.146246608086,10|0,1:2|2:0,0:0:0:0:
17,147,142930,6,0,L|58:366,1,217.445000829487,8|0,0:0|0:0,0:0:0:0:
224,94,143380,6,0,B|252:83|265:48|265:48|240:92|263:150,1,143.34750399184,2|0,0:0|1:0,0:0:0:0:
122,40,143680,2,0,P|157:36|191:23,1,71.6737519959198,2|0,0:0|2:0,0:0:0:0:
340,99,143830,6,0,P|358:174|299:223,1,163.083750622115,10|0,0:0|2:0,0:0:0:0:
298,223,144130,6,0,P|275:208|249:204,1,54.3612502073717,0|0,0:0|2:0,0:0:0:0:
91,300,144280,2,0,P|115:288|133:268,1,54.3612502073717,0|0,0:0|2:0,0:0:0:0:
218,125,144430,6,0,B|229:98|181:60|129:87|122:151|182:191|182:191|243:231|234:295|198:324,1,342.095013180388,6|2,1:0|0:0,0:0:0:0:
359,367,144880,1,2,1:0:0:0:
415,302,145030,6,0,P|380:293|346:280,1,71.6737519959198,10|0,0:0|2:0,0:0:0:0:
507,169,145180,2,0,P|491:201|470:230,1,71.6737519959198,2|0,0:0|2:0,0:0:0:0:
281,67,145330,6,0,P|311:112|329:165,1,111.146246608086,2|0,1:0|2:0,0:0:0:0:
332,168,145630,6,0,P|366:159|400:146,1,71.6737519959198,2|0,0:0|2:0,0:0:0:0:
176,145,145780,2,0,P|191:177|212:206,1,71.6737519959198,2|0,0:0|2:0,0:0:0:0:
246,378,145930,6,0,P|263:325|294:279,1,111.146246608086,2|0,0:0|2:0,0:0:0:0:
293,279,146230,6,0,P|187:298|92:347,1,215.021255987759,10|0,0:0|2:0,0:0:0:0:
92,347,146530,1,2,0:0:0:0:
23,235,146680,5,2,0:0:0:0:
25,229,146755,1,2,0:0:0:0:
27,223,146830,1,2,1:0:0:0:
71,124,146980,6,0,P|97:146|103:181,1,71.6737519959198,2|0,0:0|2:0,0:0:0:0:
232,85,147130,2,0,P|215:116|183:129,1,71.6737519959198,2|0,0:0|2:0,0:0:0:0:
319,222,147280,2,0,P|284:213|264:184,1,71.6737519959198,2|0,1:0|2:0,0:0:0:0:
176,261,147430,6,0,B|184:273|184:273|170:281|163:270|157:259|169:250|169:250|183:242|190:253|196:264|184:273|184:273|176:261,1,111.146246608086,10|0,1:2|2:0,0:0:0:0:
176,261,147730,1,8,0:0:0:0:
431,91,148030,1,0,1:0:0:0:
452,15,148180,6,0,B|416:7|385:-10|385:-10|380:19|360:55,1,143.34750399184,2|0,0:0|1:0,0:0:0:0:
414,165,148480,2,0,P|423:131|441:90,1,71.6737519959198,2|0,0:0|2:0,0:0:0:0:
293,0,148630,6,0,P|257:85|218:169,1,185.24374434681,10|0,0:0|2:0,0:0:0:0:
313,195,149080,5,0,0:0:0:0:
319,194,149155,1,0,0:0:0:0:
324,192,149230,1,2,1:0:0:0:
264,268,149380,5,2,0:0:0:0:
153,104,149530,1,2,0:0:0:0:
55,287,149680,1,2,1:0:0:0:
158,211,149830,6,0,P|148:178|140:139,1,71.6737519959198,10|0,0:0|2:0,0:0:0:0:
354,211,149980,2,0,P|363:178|372:139,1,71.6737519959198,2|0,0:0|2:0,0:0:0:0:
259,352,150130,6,0,B|260:365|260:365|276:361|273:348|270:336|255:338|255:338|240:342|242:355|246:367|260:365|260:365|259:352,1,111.146246608086,2|0,1:0|2:0,0:0:0:0:
259,355,150430,6,0,P|249:322|241:283,1,71.6737519959198,2|0,0:0|2:0,0:0:0:0:
452,355,150580,2,0,P|461:322|470:283,1,71.6737519959198,2|0,0:0|2:0,0:0:0:0:
354,211,150730,6,0,B|355:224|355:224|371:220|368:207|365:195|350:197|350:197|335:201|337:214|341:226|355:224|355:224|354:211,1,111.146246608086,2|0,0:0|2:0,0:0:0:0:
256,129,151030,6,0,P|202:39|101:15,1,215.021255987759,10|0,0:0|2:0,0:0:0:0:
101,15,151330,1,2,0:0:0:0:
125,208,151480,5,2,0:0:0:0:
124,202,151555,1,2,0:0:0:0:
122,196,151630,1,2,1:0:0:0:
18,159,151780,6,0,P|42:132|62:103,1,71.6737519959198,2|0,0:0|2:0,0:0:0:0:
121,313,151930,2,0,P|86:302|51:297,1,71.6737519959198,2|0,0:0|2:0,0:0:0:0:
217,138,152080,2,0,P|226:172|240:205,1,71.6737519959198,2|0,1:0|2:0,0:0:0:0:
356,353,152230,6,0,L|464:377,1,111.146246608086,10|0,1:2|2:0,0:0:0:0:
464,377,152530,2,0,L|434:205,1,163.083750622115,10|0,0:0|2:0,0:0:0:0:
512,194,152830,6,0,L|302:147,1,215.021255987759,2|0,0:0|2:0,0:0:0:0:
260,217,153130,6,0,L|297:53,1,163.083750622115,2|0,1:0|2:0,0:0:0:0:
374,31,153430,6,0,L|305:47,1,71.6737519959198,10|0,0:0|2:0,0:0:0:0:
110,42,154030,6,0,B|82:58|72:101|110:134|110:134|148:166|137:210|110:226,1,217.445000829487,2|2,1:0|0:0,0:0:0:0:
243,364,154480,2,0,P|217:317|204:265,1,108.722500414743,2|8,1:0|0:0,0:0:0:0:
198,261,154705,2,0,P|212:208|238:161,1,108.722500414743,2|0,0:0|2:0,0:0:0:0:
245,158,154930,1,2,1:0:0:0:
373,285,155155,5,2,0:0:0:0:
383,281,155230,1,2,0:0:0:0:
445,160,155380,2,0,P|392:160|360:202,1,108.722500414743,2|0,0:0|0:0,0:0:0:0:
471,348,155680,2,0,P|480:294|496:242,1,108.722500414743,2|8,0:0|0:0,0:0:0:0:
492,232,155905,1,2,0:0:0:0:
490,226,155980,1,2,0:0:0:0:
84,63,156280,5,2,0:0:0:0:
79,72,156355,1,2,0:0:0:0:
75,82,156430,2,0,B|147:103|152:139|236:156,1,163.083750622115,2|2,1:0|0:0,0:0:0:0:
229,150,156730,1,2,0:0:0:0:
209,0,156880,2,0,P|197:29|181:61,1,54.3612502073717,2|0,1:0|2:0,0:0:0:0:
86,245,157030,2,0,P|97:215|114:184,1,54.3612502073717,2|0,1:0|2:0,0:0:0:0:
107,195,157180,1,2,0:0:0:0:
214,338,157330,1,10,0:0:0:0:
275,284,157480,5,2,0:0:0:0:
284,290,157555,2,0,P|420:260|469:269,1,163.083750622115,2|2,0:0|0:0,0:0:0:0:
339,135,157930,2,0,L|357:75,1,54.3612502073717,0|0,1:0|2:0,0:0:0:0:
408,179,158080,1,2,0:0:0:0:
263,84,158230,1,10,0:0:0:0:
420,7,158380,1,2,0:0:0:0:
101,189,158755,5,2,0:0:0:0:
110,183,158830,2,0,P|116:154|127:120,1,54.3612502073717,2|0,1:0|2:0,0:0:0:0:
72,64,158980,1,2,0:0:0:0:
185,254,159130,2,0,P|133:270|82:289,1,108.722500414743,2|0,0:0|1:0,0:0:0:0:
166,45,159430,2,0,P|217:28|268:9,1,108.722500414743,10|0,0:0|0:0,0:0:0:0:
277,15,159655,5,2,0:0:0:0:
284,22,159730,2,0,P|316:70|413:52,2,163.083750622115,2|2|2,1:0|0:0|0:0,0:0:0:0:
282,159,160330,1,2,0:0:0:0:
391,230,160480,1,2,0:0:0:0:
246,332,160630,1,10,0:0:0:0:
35,193,161080,5,2,0:0:0:0:
35,193,161155,1,2,0:0:0:0:
35,193,161230,1,2,1:0:0:0:
103,246,161380,1,2,0:0:0:0:
185,168,161530,1,2,0:0:0:0:
215,314,161680,2,0,P|183:307|154:304,1,54.3612502073717,2|0,1:0|2:0,0:0:0:0:
252,121,161830,2,0,P|283:127|313:131,1,54.3612502073717,2|0,1:0|2:0,0:0:0:0:
281,231,161980,1,2,0:0:0:0:
107,135,162130,1,10,0:0:0:0:
288,235,162280,6,0,P|300:287|310:341,1,108.722500414743,2|0,0:0|0:0,0:0:0:0:
395,259,162580,1,2,0:0:0:0:
394,80,162730,2,0,P|364:72|332:58,1,54.3612502073717,2|0,1:0|2:0,0:0:0:0:
440,153,162880,1,2,0:0:0:0:
228,234,163030,2,0,B|190:162|241:109|198:17,1,217.445000829487,10|2,0:0|0:0,0:0:0:0:
0,66,163480,5,0,0:0:0:0:
10,68,163555,1,0,0:0:0:0:
20,70,163630,2,0,P|82:82|144:101,1,108.722500414743,2|0,1:0|0:0,0:0:0:0:
60,230,163930,2,0,P|56:201|50:157,1,54.3612502073717,2|0,0:0|2:0,0:0:0:0:
223,367,164080,2,0,P|157:320|77:309,1,163.083750622115,2|0,1:0|2:0,0:0:0:0:
75,324,164380,1,0,0:0:0:0:
172,231,164530,2,0,P|195:244|222:249,1,54.3612502073717,0|0,1:0|2:0,0:0:0:0:
222,249,164680,1,2,0:0:0:0:
332,119,164830,6,0,P|278:117|232:145,1,108.722500414743,2|0,0:0|0:0,0:0:0:0:
228,153,165055,2,0,P|174:154|128:126,1,108.722500414743,2|0,0:0|2:0,0:0:0:0:
128,116,165280,1,2,0:0:0:0:
242,29,165430,1,2,0:0:0:0:
416,151,165580,2,0,B|381:244|431:282|400:367,1,217.445000829487,2|0,0:0|0:0,0:0:0:0:
215,303,166030,6,0,P|135:320|59:349,1,163.083750622115,2|0,1:0|2:0,0:0:0:0:
59,349,166330,1,2,0:0:0:0:
129,185,166480,2,0,P|125:212|117:243,1,54.3612502073717,2|0,1:0|2:0,0:0:0:0:
291,359,166630,2,0,P|295:332|303:301,1,54.3612502073717,2|0,1:0|2:0,0:0:0:0:
227,226,166780,1,0,0:0:0:0:
379,74,166930,1,10,0:0:0:0:
288,101,167080,1,2,0:0:0:0:
448,243,167230,5,2,0:0:0:0:
475,172,167380,2,0,P|424:165|374:197,1,108.722500414743,2|0,0:0|1:0,0:0:0:0:
342,353,167680,1,2,0:0:0:0:
244,222,167830,1,10,0:0:0:0:
76,72,168280,2,0,P|88:46|99:17,1,54.3612502073717,2|0,0:0|2:0,0:0:0:0:
24,129,168430,6,0,P|79:112|148:93,2,108.722500414743,2|2|2,1:0|0:0|0:0,0:0:0:0:
284,186,168880,2,0,P|254:175|230:162,1,54.3612502073717,2|0,1:0|2:0,0:0:0:0:
396,34,169030,2,0,P|343:44|307:83,1,108.722500414743,10|0,0:0|0:0,0:0:0:0:
308,94,169255,1,2,0:0:0:0:
313,103,169330,2,0,P|339:113|367:119,1,54.3612502073717,2|0,1:0|2:0,0:0:0:0:
476,26,169480,6,0,P|485:81|507:154,1,108.722500414743,2|0,0:0|0:0,0:0:0:0:
488,143,169705,2,0,P|497:198|519:271,1,108.722500414743,2|0,0:0|2:0,0:0:0:0:
507,260,169930,2,0,B|443:301|472:344|379:386,2,163.083750622115,2|2|2,0:0|0:0|0:0,0:0:0:0:
135,308,170530,1,2,0:0:0:0:
125,319,170605,2,0,P|98:335|64:342,2,54.3612502073717,2|0|2,0:0|0:0|0:0,0:0:0:0:
206,341,170830,6,0,P|143:297|166:224,1,163.083750622115,2|0,1:0|2:0,0:0:0:0:
177,227,171130,1,2,0:0:0:0:
60,130,171280,2,0,P|28:120|3:109,1,54.3612502073717,2|0,1:0|2:0,0:0:0:0:
243,58,171430,2,0,P|274:67|300:79,1,54.3612502073717,2|0,1:0|2:0,0:0:0:0:
134,50,171580,1,2,0:0:0:0:
304,163,171730,2,0,P|343:146|472:107,1,163.083750622115,10|0,0:0|2:0,0:0:0:0:
469,121,172030,1,2,0:0:0:0:
465,131,172105,2,0,P|414:111|351:80,1,108.722500414743,2|0,0:0|2:0,0:0:0:0:
359,78,172330,1,2,1:0:0:0:
354,67,172405,2,0,P|305:43|254:23,2,108.722500414743,2|2|2,0:0|0:0|0:0,0:0:0:0:
36,266,172930,1,2,0:0:0:0:
74,186,173080,5,2,0:0:0:0:
84,182,173155,1,2,0:0:0:0:
94,178,173230,2,0,B|173:215|112:318|206:353,1,217.445000829487,2|0,1:0|0:0,0:0:0:0:
291,221,173680,2,0,P|269:237|246:251,1,54.3612502073717,2|0,1:0|2:0,0:0:0:0:
317,306,173830,1,10,0:0:0:0:
225,172,173980,1,2,0:0:0:0:
416,73,174130,1,2,1:0:0:0:
369,188,174280,5,2,0:0:0:0:
317,100,174430,1,2,0:0:0:0:
217,78,174580,1,2,0:0:0:0:
352,199,174730,2,0,P|344:149|331:83,2,108.722500414743,2|2|10,0:0|0:0|0:0,0:0:0:0:
226,344,175180,2,0,P|122:311|15:289,1,217.445000829487,2|2,0:0|0:0,0:0:0:0:
242,348,175630,6,0,P|266:323|268:291,1,54.3612502073717,2|0,1:0|2:0,0:0:0:0:
198,158,175780,2,0,P|214:208|263:226,1,108.722500414743,2|0,0:0|0:0,0:0:0:0:
435,217,176080,2,0,L|384:247,1,54.3612502073717,2|0,1:0|2:0,0:0:0:0:
249,85,176230,2,0,L|300:55,1,54.3612502073717,0|0,1:0|2:0,0:0:0:0:
51,30,176380,2,0,P|69:81|81:134,1,108.722500414743,2|8,0:0|0:0,0:0:0:0:
44,345,176680,2,0,P|25:293|13:240,1,108.722500414743,2|8,0:0|0:0,0:0:0:0:
13,241,177430,5,10,0:0:0:0:
92,276,177580,1,2,0:0:0:0:
158,220,177730,1,0,0:0:0:0:
212,287,177880,1,2,0:0:0:0:
351,127,178030,1,2,1:0:0:0:
296,187,178180,6,0,B|294:254|338:277|345:356,1,163.083750622115,2|0,0:0|2:0,0:0:0:0:
345,352,178480,2,0,P|363:300|375:247,1,108.722500414743,2|8,1:0|0:0,0:0:0:0:
512,96,178780,2,0,P|459:108|407:125,1,108.722500414743,2|0,0:0|1:0,0:0:0:0:
188,76,179080,2,0,P|226:114|268:148,1,108.722500414743,2|0,0:0|0:0,0:0:0:0:
54,264,179380,2,0,P|88:189|91:108,1,163.083750622115,2|0,0:0|2:0,0:0:0:0:
80,98,179680,1,2,0:0:0:0:
170,194,179830,1,10,0:0:0:0:
42,277,179980,1,2,0:0:0:0:
266,284,180430,6,0,P|339:263|346:187,1,163.083750622115,2|2,1:0|0:0,0:0:0:0:
279,155,180730,1,2,0:0:0:0:
269,149,180805,2,0,P|253:126|252:99,1,54.3612502073717,2|0,0:0|1:0,0:0:0:0:
327,40,180955,1,2,0:0:0:0:
322,50,181030,2,0,P|218:80|124:133,2,217.445000829487,2|10|2,1:0|0:0|0:0,0:0:0:0:
63,267,181930,1,2,1:0:0:0:
134,328,182080,2,0,P|145:280|146:210,1,108.722500414743,2|8,0:0|0:0,0:0:0:0:
256,299,182380,5,2,0:0:0:0:
334,244,182530,1,2,0:0:0:0:
466,318,182680,1,2,0:0:0:0:
503,104,182830,1,2,1:0:0:0:
470,181,182980,6,0,P|443:191|411:209,1,54.3612502073717,2|0,0:0|2:0,0:0:0:0:
479,262,183130,1,2,0:0:0:0:
290,127,183280,2,0,L|307:75,1,54.3612502073717,2|0,1:0|2:0,0:0:0:0:
197,193,183430,1,10,0:0:0:0:
376,27,183580,2,0,P|329:53|276:48,1,108.722500414743,2|0,0:0|1:0,0:0:0:0:
109,182,183880,2,0,P|129:132|175:105,1,108.722500414743,2|0,0:0|0:0,0:0:0:0:
330,356,184180,2,0,B|226:315|282:239|180:180,1,217.445000829487,2|2,0:0|0:0,0:0:0:0:
53,326,184630,2,0,P|98:296|149:277,2,108.722500414743,10|2|0,0:0|0:0|0:0,0:0:0:0:
51,336,185005,1,2,0:0:0:0:
48,346,185080,1,2,0:0:0:0:
120,188,185230,6,0,P|140:139|117:91,1,108.722500414743,2|0,1:0|0:0,0:0:0:0:
101,95,185455,2,0,P|123:110|150:122,1,54.3612502073717,2|0,0:0|0:0,0:0:0:0:
211,6,185605,2,0,P|188:21|162:33,2,54.3612502073717,2|2|2,0:0|1:0|0:0,0:0:0:0:
248,104,185830,2,0,P|324:117|348:191,1,163.083750622115,2|0,1:0|2:0,0:0:0:0:
337,203,186130,1,10,0:0:0:0:
455,151,186280,2,0,P|467:98|483:46,1,108.722500414743,2|0,0:0|0:0,0:0:0:0:
478,36,186505,1,2,0:0:0:0:
472,26,186580,1,2,0:0:0:0:
338,148,186730,1,2,1:0:0:0:
252,86,186880,1,2,0:0:0:0:
139,203,187030,1,10,0:0:0:0:
464,340,187480,5,2,0:0:0:0:
464,340,187555,1,2,0:0:0:0:
464,340,187630,2,0,P|442:293|391:277,1,108.722500414743,2|0,1:0|0:0,0:0:0:0:
378,287,187855,2,0,P|327:271|304:223,1,108.722500414743,2|0,0:0|2:0,0:0:0:0:
311,213,188080,2,0,P|321:189|327:161,1,54.3612502073717,2|0,1:0|2:0,0:0:0:0:
205,0,188230,2,0,P|228:78|239:158,1,163.083750622115,10|0,0:0|2:0,0:0:0:0:
228,166,188530,2,0,P|213:181|180:191,1,54.3612502073717,2|0,1:0|2:0,0:0:0:0:
310,30,188680,6,0,B|381:53|403:115|514:144,1,217.445000829487,2|2,0:0|0:0,0:0:0:0:
499,128,189055,1,2,0:0:0:0:
496,117,189130,1,2,0:0:0:0:
349,154,189280,1,2,0:0:0:0:
232,26,189430,1,10,0:0:0:0:
160,69,189580,2,0,P|143:148|117:226,1,163.083750622115,2|0,0:0|2:0,0:0:0:0:
126,237,189880,1,2,0:0:0:0:
369,348,190030,2,0,P|375:320|389:284,1,54.3612502073717,2|0,1:0|2:0,0:0:0:0:
451,343,190180,5,2,0:0:0:0:
297,299,190330,1,2,0:0:0:0:
491,249,190480,2,0,P|485:221|471:185,1,54.3612502073717,2|0,1:0|2:0,0:0:0:0:
414,6,190630,2,0,P|420:34|451:129,1,108.722500414743,2|0,1:0|0:0,0:0:0:0:
387,172,190855,1,2,0:0:0:0:
376,170,190930,2,0,P|349:163|324:153,2,54.3612502073717,10|2|0,0:0|0:0|0:0,0:0:0:0:
226,212,191230,5,2,0:0:0:0:
171,94,191380,1,10,0:0:0:0:
108,292,191530,1,10,1:2:0:0:
64,174,191680,1,2,0:0:0:0:
221,346,191830,1,10,0:0:0:0:
400,70,192130,1,0,0:0:0:0:
444,206,192280,1,8,0:0:0:0:
370,155,192430,1,4,3:2:0:0:
20,61,200830,6,0,L|58:80,1,26.6612494711361,0|0,3:0|2:0,0:0:0:0:
113,37,200980,6,0,L|126:77,1,26.6612494711361,0|0,3:0|2:0,0:0:0:0:
199,83,201130,6,0,L|180:122,1,26.6612494711361,0|0,3:0|2:0,0:0:0:0:
233,175,201280,6,0,L|192:190,1,26.6612494711361,0|0,3:0|2:0,0:0:0:0:
370,351,201430,6,0,L|315:322,1,61.2862519872022,8|0,0:0|2:0,0:0:0:0:
236,384,201580,6,0,L|216:325,1,61.2862519872022,8|0,0:0|2:0,0:0:0:0:
114,317,201730,6,0,L|140:261,1,61.2862519872022,8|0,0:0|2:0,0:0:0:0:
66,187,201880,6,0,L|123:165,1,61.2862519872022,8|0,0:0|2:0,0:0:0:0:
346,151,202030,6,0,B|416:173|376:292|244:293|203:148|267:83,1,342.095013180388,6|2,1:0|0:0,0:0:0:0:
435,53,202480,1,2,1:0:0:0:
512,168,202630,6,0,P|501:133|497:98,1,71.6737519959198,10|0,0:0|2:0,0:0:0:0:
451,294,202780,2,0,P|461:328|465:363,1,71.6737519959198,2|0,0:0|2:0,0:0:0:0:
355,194,202930,6,0,P|313:159|259:168,1,111.146246608086,2|0,1:0|2:0,0:0:0:0:
260,167,203230,6,0,P|249:132|245:97,1,71.6737519959198,2|0,0:0|2:0,0:0:0:0:
199,295,203380,2,0,P|209:329|213:364,1,71.6737519959198,2|0,0:0|2:0,0:0:0:0:
95,210,203530,6,0,P|53:175|0:184,1,111.146246608086,2|0,0:0|2:0,0:0:0:0:
43,265,203830,6,0,B|73:274|112:251|110:201|110:201|106:151|146:128|174:136,1,215.021255987759,10|0,0:0|2:0,0:0:0:0:
181,147,204130,1,2,0:0:0:0:
343,50,204280,5,2,0:0:0:0:
345,44,204355,1,2,0:0:0:0:
347,38,204430,1,2,1:0:0:0:
248,42,204580,6,0,P|266:73|278:107,1,71.6737519959198,2|0,0:0|2:0,0:0:0:0:
434,74,204730,2,0,P|416:105|404:139,1,71.6737519959198,2|0,0:0|2:0,0:0:0:0:
224,177,204880,2,0,P|236:211|241:246,1,71.6737519959198,2|0,1:0|2:0,0:0:0:0:
490,356,205030,6,0,P|450:320|397:327,1,111.146246608086,10|0,1:2|2:0,0:0:0:0:
397,327,205330,1,8,0:0:0:0:
277,106,205630,1,0,1:0:0:0:
22,248,205780,2,0,P|120:205|224:177,1,215.021255987759,2|0,0:0|2:0,0:0:0:0:
277,106,206080,2,0,P|248:88|211:86,1,71.6737519959198,2|0,0:0|2:0,0:0:0:0:
305,339,206230,2,0,P|250:265|224:177,1,185.24374434681,10|0,0:0|2:0,0:0:0:0:
325,223,206680,5,0,0:0:0:0:
329,220,206755,1,0,0:0:0:0:
334,217,206830,1,2,1:0:0:0:
337,126,206980,5,2,0:0:0:0:
433,281,207130,1,2,0:0:0:0:
321,132,207280,1,2,1:0:0:0:
247,354,207430,6,0,P|215:338|180:330,1,71.6737519959198,10|0,0:0|2:0,0:0:0:0:
35,169,207580,2,0,P|67:185|102:193,1,71.6737519959198,2|0,0:0|2:0,0:0:0:0:
214,117,207730,6,0,P|214:65|263:48,1,111.146246608086,2|0,1:0|2:0,0:0:0:0:
263,48,208030,6,0,P|295:64|330:72,1,71.6737519959198,2|0,0:0|2:0,0:0:0:0:
475,233,208180,2,0,P|443:217|408:209,1,71.6737519959198,2|0,0:0|2:0,0:0:0:0:
247,354,208330,6,0,P|296:337|296:285,1,111.146246608086,2|0,0:0|2:0,0:0:0:0:
316,168,208630,6,0,P|322:273|420:314,1,215.021255987759,10|0,0:0|2:0,0:0:0:0:
417,308,208930,1,2,0:0:0:0:
211,198,209080,5,2,0:0:0:0:
205,199,209155,1,2,0:0:0:0:
199,201,209230,1,2,1:0:0:0:
204,306,209380,6,0,P|173:288|139:276,1,71.6737519959198,2|0,0:0|2:0,0:0:0:0:
172,120,209530,2,0,P|141:138|107:150,1,71.6737519959198,2|0,0:0|2:0,0:0:0:0:
69,330,209680,2,0,P|35:318|0:313,1,71.6737519959198,2|0,1:0|2:0,0:0:0:0:
179,106,209830,6,0,P|231:90|280:112,1,111.146246608086,10|0,1:2|2:0,0:0:0:0:
365,144,210130,6,0,B|382:99|339:60|339:60|362:92|356:124,1,163.083750622115,10|0,0:0|2:0,0:0:0:0:
280,112,210430,6,0,B|253:131|248:177|291:206|291:206|334:234|328:281|304:299,1,215.021255987759,2|0,0:0|2:0,0:0:0:0:
310,294,210730,1,2,1:0:0:0:
47,48,211030,1,10,0:0:0:0:
47,48,211630,6,0,B|100:21|164:35|138:163|241:215|319:163,1,323.743743578081,6|0,1:0|2:0,0:0:0:0:
344,103,212080,2,0,B|311:106|300:123|269:133,1,64.7487487156163,0|0,1:0|2:0,0:0:0:0:
136,360,212230,2,0,P|178:273|198:178,1,194.246246146849,10|0,0:0|2:0,0:0:0:0:
190,177,212530,2,0,P|186:240|224:290,1,129.497497431233,0|0,1:0|0:0,0:0:0:0:
504,371,212830,2,0,B|418:343|400:257|278:209,1,258.994994862465,2|0,0:0|0:0,0:0:0:0:
472,219,213280,1,2,0:0:0:0:
337,340,213430,2,0,B|388:280|389:280|362:220,1,129.497497431233,10|0,0:0|0:0,0:0:0:0:
312,163,213655,1,0,0:0:0:0:
299,160,213730,2,0,B|248:100|247:100|274:40,1,129.497497431233,2|0,0:0|0:0,0:0:0:0:
354,73,213955,5,0,0:0:0:0:
354,88,214030,2,0,B|260:55|166:74|150:158|150:158|137:214|41:222,1,323.743743578081,6|0,1:0|2:0,0:0:0:0:
55,146,214480,2,0,B|81:132|81:132|85:128|85:128|124:115,1,64.7487487156163,0|0,1:0|2:0,0:0:0:0:
173,384,214630,2,0,B|121:332|152:270|126:188,1,194.246246146849,10|0,0:0|2:0,0:0:0:0:
146,199,214930,2,0,L|116:325,1,129.497497431233,8|0,0:0|0:0,0:0:0:0:
275,119,215230,2,0,L|397:77,1,129.497497431233,2|0,0:0|0:0,0:0:0:0:
176,89,215530,1,0,1:0:0:0:
240,209,215680,1,2,0:0:0:0:
404,78,215830,2,0,B|424:109|467:113|467:113|444:138|445:162,1,129.497497431233,10|0,0:0|0:0,0:0:0:0:
420,240,216055,1,0,0:0:0:0:
407,242,216130,2,0,B|387:211|344:207|344:207|367:182|365:157,1,129.497497431233,2|0,0:0|0:0,0:0:0:0:
279,146,216355,5,0,0:0:0:0:
288,152,216430,2,0,B|217:172|176:247|171:335|274:369|333:318|285:258,1,323.743743578081,6|0,1:0|2:0,0:0:0:0:
290,265,216880,2,0,L|223:297,1,64.7487487156163,0|0,1:0|2:0,0:0:0:0:
300,368,217030,1,8,0:0:0:0:
77,50,217330,2,0,B|80:83|60:121|60:121|64:124|64:124|52:151|51:188,2,129.497497431233,0|0|0,1:0|0:0|0:0,0:0:0:0:
0,68,217780,1,0,0:0:0:0:
193,73,217930,2,0,B|194:180|133:173|133:173,1,129.497497431233,0|2,0:0|0:0,0:0:0:0:
321,41,218230,2,0,B|366:57|373:70|451:82,1,129.497497431233,10|0,0:0|0:0,0:0:0:0:
452,73,218455,1,0,0:0:0:0:
460,63,218530,2,0,P|364:100|336:151,1,129.497497431233,2|0,0:0|0:0,0:0:0:0:
366,195,218755,5,0,0:0:0:0:
364,206,218830,2,0,B|303:314|234:357|188:274|220:155,1,323.743743578081,6|0,1:0|2:0,0:0:0:0:
216,75,219280,2,0,P|179:84|146:106,1,64.7487487156163,0|0,1:0|2:0,0:0:0:0:
70,177,219430,1,10,0:0:0:0:
89,187,219505,1,0,0:0:0:0:
89,204,219580,2,0,P|46:197|13:178,1,64.7487487156163,0|0,0:0|2:0,0:0:0:0:
37,341,219730,2,0,P|59:305|90:290,1,64.7487487156163,8|0,0:0|2:0,0:0:0:0:
114,368,219880,1,0,0:0:0:0:
248,234,220030,1,2,0:0:0:0:
229,201,220105,1,0,0:0:0:0:
253,152,220180,1,0,0:0:0:0:
225,114,220255,1,0,0:0:0:0:
225,114,220330,2,0,P|212:84|204:43,1,64.7487487156163,0|0,1:0|2:0,0:0:0:0:
152,167,220480,1,2,0:0:0:0:
429,91,220630,2,0,B|338:87|323:26|323:26,1,129.497497431233,10|0,0:0|0:0,0:0:0:0:
333,15,220855,1,0,0:0:0:0:
344,24,220930,2,0,L|313:103,1,64.7487487156163,10|0,0:0|2:0,0:0:0:0:
168,360,221080,2,0,L|199:281,1,64.7487487156163,8|0,0:0|2:0,0:0:0:0:
474,249,221230,6,0,P|233:152|-9:62,1,517.98998972493,6|10,1:0|0:0,0:0:0:0:
23,101,221905,1,0,0:0:0:0:
35,97,221980,2,0,L|169:70,1,129.497497431233,0|0,0:0|1:0,0:0:0:0:
378,50,222280,2,0,B|348:74|348:74|341:107,1,64.7487487156163,0|0,0:0|2:0,0:0:0:0:
273,192,222430,2,0,B|236:135|251:58|251:58|220:-15,1,194.246246146849,2|0,0:0|2:0,0:0:0:0:
241,9,222730,1,0,0:0:0:0:
162,165,222880,1,2,0:0:0:0:
342,281,223030,2,0,B|401:240|384:188|384:188,1,129.497497431233,10|0,0:0|0:0,0:0:0:0:
361,162,223255,1,0,0:0:0:0:
349,168,223330,2,0,B|319:184|308:206|308:206|284:221,1,64.7487487156163,2|0,0:0|2:0,0:0:0:0:
121,91,223480,2,0,B|127:95|127:95|138:117|168:133,1,64.7487487156163,0|0,0:0|2:0,0:0:0:0:
285,383,223630,6,0,B|215:278|319:174|215:0,1,388.492492293698,6|0,1:0|1:0,0:0:0:0:
25,129,224230,2,0,B|93:164|96:227|175:267,1,194.246246146849,10|0,0:0|2:0,0:0:0:0:
183,249,224530,2,0,B|146:155|80:168|80:168,1,129.497497431233,8|0,0:0|0:0,0:0:0:0:
0,347,224830,2,0,B|32:281|103:295|103:295|126:335|172:348,1,194.246246146849,2|0,0:0|2:0,0:0:0:0:
163,337,225130,1,0,1:0:0:0:
17,213,225280,1,2,0:0:0:0:
275,324,225430,2,0,B|255:261|255:261|246:189,1,129.497497431233,10|0,0:0|0:0,0:0:0:0:
264,186,225655,1,0,0:0:0:0:
274,178,225730,2,0,B|257:227|257:227|262:254,1,64.7487487156163,2|0,0:0|2:0,0:0:0:0:
138,137,225880,2,0,B|188:125|188:125|208:106,1,64.7487487156163,0|0,0:0|2:0,0:0:0:0:
512,210,226030,6,0,L|-8:29,1,517.98998972493,6|10,1:0|0:0,0:0:0:0:
106,38,226705,1,0,0:0:0:0:
117,32,226780,2,0,L|131:95,1,64.7487487156163,0|0,0:0|2:0,0:0:0:0:
36,158,226930,2,0,B|85:215|68:315|68:315,1,129.497497431233,0|0,1:0|0:0,0:0:0:0:
47,300,227155,1,0,0:0:0:0:
48,287,227230,2,0,B|126:254|311:341|311:341,1,258.994994862465,2|0,0:0|0:0,0:0:0:0:
146,363,227680,1,2,0:0:0:0:
391,326,227830,2,0,B|368:304|360:259|360:259|291:241,1,129.497497431233,10|0,0:0|0:0,0:0:0:0:
293,239,228055,1,0,0:0:0:0:
305,235,228130,2,0,B|252:221|252:221|244:176|221:154,1,129.497497431233,2|0,0:0|0:0,0:0:0:0:
159,203,228355,5,0,0:0:0:0:
162,215,228430,2,0,B|202:123|500:130|500:130,1,323.743743578081,6|0,1:0|2:0,0:0:0:0:
472,141,228880,1,0,1:0:0:0:
249,43,229030,1,10,0:0:0:0:
66,334,229330,1,8,0:0:0:0:
77,315,229405,1,0,0:0:0:0:
63,296,229480,1,0,0:0:0:0:
85,277,229555,1,0,0:0:0:0:
85,277,229630,2,0,B|98:246|98:246|94:232|99:214,1,64.7487487156163,2|0,1:0|2:0,0:0:0:0:
41,158,229780,1,8,0:0:0:0:
274,371,229930,2,0,B|288:252|434:249|434:249,1,194.246246146849,2|0,1:0|2:0,0:0:0:0:
373,300,230230,6,0,L|331:234,1,64.7487487156163,10|0,0:0|2:0,0:0:0:0:
214,307,230380,6,0,L|230:230,1,64.7487487156163,8|0,0:0|2:0,0:0:0:0:
87,187,230530,6,0,L|151:143,1,64.7487487156163,8|0,0:0|2:0,0:0:0:0:
74,4,230680,6,0,L|150:17,1,64.7487487156163,8|0,0:0|2:0,0:0:0:0:
275,89,230830,5,6,1:0:0:0:
88,293,231130,1,0,1:0:0:0:
29,238,231280,1,2,1:0:0:0:
105,375,231430,2,0,P|119:284|147:196,1,183.858755961607,10|0,0:0|2:0,0:0:0:0:
146,185,231730,2,0,P|117:264|106:313,1,122.572503974404,0|0,1:0|0:0,0:0:0:0:
394,196,232030,2,0,P|315:228|266:158,1,183.858755961607,0|0,0:0|2:0,0:0:0:0:
258,154,232330,2,0,P|279:219|339:242,1,122.572503974404
489,75,232630,5,10,0:0:0:0:
426,26,232780,1,0,0:0:0:0:
472,155,232930,1,0,0:0:0:0:
394,109,233080,5,0,0:0:0:0:
394,109,233155,1,0,0:0:0:0:
394,109,233230,2,0,P|327:89|259:58,1,122.572503974404,2|0,1:0|0:0,0:0:0:0:
0,166,233530,2,0,P|66:185|135:217,1,122.572503974404,0|0,1:0|1:0,0:0:0:0:
305,262,233830,1,8,0:0:0:0:
281,183,233980,1,2,0:0:0:0:
138,340,234130,5,10,0:0:0:0:
360,200,234430,1,2,0:0:0:0:
435,223,234580,1,2,0:0:0:0:
254,91,234730,5,2,1:0:0:0:
291,377,235030,2,0,P|320:195|363:16,1,367.717511923213,10|0,0:0|0:0,0:0:0:0:
375,21,235555,5,0,0:0:0:0:
383,29,235630,2,0,P|336:75|279:57,1,122.572503974404,0|0,1:0|0:0,0:0:0:0:
66,57,235930,2,0,P|77:85|86:114,1,61.2862519872022,2|0,1:0|2:0,0:0:0:0:
151,169,236080,1,2,1:0:0:0:
3,115,236230,1,10,0:0:0:0:
162,87,236380,2,0,P|171:57|182:29,1,61.2862519872022,2|0,0:0|2:0,0:0:0:0:
182,29,236530,1,2,1:0:0:0:
50,212,236680,2,0,P|107:231|155:269,1,122.572503974404,2|0,0:0|1:0,0:0:0:0:
343,326,236980,1,2,0:0:0:0:
264,372,237130,2,0,B|244:298|293:257|262:185,1,183.858755961607,0|0,0:0|2:0,0:0:0:0:
251,188,237430,6,0,L|265:222,1,30.6431259936011,8|0,0:0|2:0,0:0:0:0:
41,64,237730,6,0,L|55:30,1,30.6431259936011,0|0,0:0|2:0,0:0:0:0:
467,102,238030,6,0,P|436:113|402:138,1,57.8237481912432,2|0,1:0|2:0,0:0:0:0:
447,301,238180,2,0,P|459:227|472:186,1,115.647496382486,2|0,0:0|1:0,0:0:0:0:
307,42,238480,2,0,P|294:115|281:156,1,115.647496382486,2|8,1:0|0:0,0:0:0:0:
320,302,238780,1,2,0:0:0:0:
69,279,238930,6,0,B|132:247|191:268|248:232,1,173.47124457373,8|0,0:0|2:0,0:0:0:0:
235,248,239230,6,0,L|202:194,1,57.8237481912432,0|0,0:0|2:0,0:0:0:0:
41,346,239380,6,0,L|66:287,1,57.8237481912432,8|0,0:0|2:0,0:0:0:0:
257,384,239530,2,0,P|303:313|385:289,1,173.47124457373,0|0,1:0|2:0,0:0:0:0:
385,289,239830,6,0,L|363:224,1,57.8237481912432,8|0,0:0|2:0,0:0:0:0:
221,271,239980,6,0,L|250:208,1,57.8237481912432,8|0,0:0|2:0,0:0:0:0:
129,167,240130,6,0,L|193:142,1,57.8237481912432,10|0,0:0|2:0,0:0:0:0:
148,24,240280,6,0,L|211:51,1,57.8237481912432,10|0,0:0|2:0,0:0:0:0:
310,113,240430,5,6,1:0:0:0:
94,241,240580,1,2,0:0:0:0:
31,196,240730,2,0,P|15:147|5:81,1,115.647496382486,2|0,1:0|1:0,0:0:0:0:
107,323,241030,2,0,P|145:323|338:393,2,231.294992764973,10|0|0,0:0|1:0|0:0,0:0:0:0:
107,323,241780,1,0,0:0:0:0:
252,237,241930,2,0,B|268:176|304:147|315:75,1,173.47124457373,2|0,0:0|2:0,0:0:0:0:
314,76,242230,2,0,P|281:122|316:186,1,115.647496382486,8|0,0:0|0:0,0:0:0:0:
496,348,242530,1,2,0:0:0:0:
496,348,242830,6,0,P|396:304|290:282,1,217.445000829487,2|0,1:0|1:0,0:0:0:0:
290,282,243280,1,0,1:0:0:0:
81,359,243430,2,0,P|67:308|22:184,1,163.083750622115,10|0,0:0|2:0,0:0:0:0:
37,196,243730,2,0,P|56:248|73:299,1,108.722500414743,8|0,0:0|0:0,0:0:0:0:
109,57,244030,2,0,P|149:103|255:121,1,163.083750622115,2|0,0:0|2:0,0:0:0:0:
245,123,244330,2,0,P|224:81|159:81,1,108.722500414743,0|0,1:0|0:0,0:0:0:0:
347,235,244630,2,0,P|364:155|396:80,1,163.083750622115,10|0,0:0|2:0,0:0:0:0:
389,74,244930,2,0,P|367:128|348:187,1,108.722500414743
467,344,245230,1,2,1:0:0:0:
467,344,245530,5,0,0:0:0:0:
425,254,245680,1,0,1:0:0:0:
243,361,245830,5,10,0:0:0:0:
76,89,246130,1,0,1:0:0:0:
35,161,246280,1,0,0:0:0:0:
202,101,246430,6,0,P|213:51|228:2,1,101.797495262415,2|0,0:0|0:0,0:0:0:0:
294,137,246730,2,0,P|305:87|320:38,1,101.797495262415,2|0,0:0|0:0,0:0:0:0:
472,214,247030,6,0,P|460:263|446:313,1,101.797495262415,10|0,0:0|0:0,0:0:0:0:
380,178,247330,2,0,P|368:227|354:277,1,101.797495262415,2|0,0:0|0:0,0:0:0:0:
171,343,247630,1,2,1:0:0:0:
162,339,247705,1,0,0:0:0:0:
153,335,247780,1,0,0:0:0:0:
226,246,247930,2,0,P|232:269|244:296,1,47.4362513390665,0|0,0:0|2:0,0:0:0:0:
113,258,248080,2,0,P|129:240|145:216,1,47.4362513390665,0|0,1:0|2:0,0:0:0:0:
186,23,248230,2,0,B|204:70|178:104|200:163,1,142.3087540172,10|0,0:0|2:0,0:0:0:0:
200,163,248530,1,8,0:0:0:0:
399,71,248830,5,2,0:0:0:0:
332,35,248980,1,8,0:0:0:0:
436,147,249130,5,2,1:0:0:0:
503,111,249280,1,0,0:0:0:0:
309,283,249430,5,10,0:0:0:0:
195,234,249580,1,8,0:0:0:0:
243,121,249730,1,8,0:0:0:0:
357,169,249880,1,8,0:0:0:0:
274,202,250030,5,6,1:0:0:0:
256,192,250180,12,0,259630,0:0:0:0:
