osu file format v14

[General]
AudioFilename: audio.mp3
AudioLeadIn: 0
PreviewTime: 35720
Countdown: 1
SampleSet: Soft
StackLeniency: 0.7
Mode: 3
LetterboxInBreaks: 0
SpecialStyle: 0
WidescreenStoryboard: 1

[Editor]
Bookmarks: 8930,17860,26790,31255,35720,44651,53581,58046,62511,80372,93767,98232,102697,107162,125023,133953,142883,160744
DistanceSpacing: 1.6
BeatDivisor: 1
GridSize: 4
TimelineZoom: 1

[Metadata]
Title:Apparition (Radio Edit)
TitleUnicode:Apparition (Radio Edit)
Artist:Sunhiausa
ArtistUnicode:Sunhiausa
Creator:MrSpacemau5
Version:4k EZ
Source:
Tags:speedcore sunhiausa apparition mrspacemau5
BeatmapID:1161199
BeatmapSetID:547119

[Difficulty]
HPDrainRate:5
CircleSize:4
OverallDifficulty:5
ApproachRate:5
SliderMultiplier:1.4
SliderTickRate:1

[Events]
//Background and Video events
0,0,"c6366de777c791e6d5265717b7141c92.jpg",0,0
//Break Periods
2,11362,15544
2,20293,25590
//Storyboard Layer 0 (Background)
//Storyboard Layer 1 (Fail)
//Storyboard Layer 2 (Pass)
//Storyboard Layer 3 (Foreground)
//Storyboard Layer 4 (Overlay)
//Storyboard Sound Samples

[TimingPoints]
0,279.06976744186,4,2,0,100,1,0
35720,-100,4,2,0,100,0,1
62511,-100,4,2,0,100,0,0
80372,-100,4,2,0,100,0,1
98232,-100,4,2,0,100,0,0
107162,-100,4,2,0,100,0,1
125023,-100,4,2,0,100,0,0
142883,-100,4,2,0,100,0,1
160744,-100,4,2,0,100,0,0

[HitObjects]
64,192,0,5,0,0:0:0:0:
448,192,1116,1,0,0:0:0:0:
192,192,1534,1,0,0:0:0:0:
64,192,1953,1,0,0:0:0:0:
320,192,2232,1,0,0:0:0:0:
192,192,4186,1,0,0:0:0:0:
64,192,4325,1,0,0:0:0:0:
192,192,4465,1,0,0:0:0:0:
320,192,5581,1,0,0:0:0:0:
64,192,6697,1,0,0:0:0:0:
192,192,7813,1,0,0:0:0:0:
320,192,8232,1,0,0:0:0:0:
192,192,8651,1,0,0:0:0:0:
64,192,8930,1,0,0:0:0:0:
192,192,16744,5,0,0:0:0:0:
320,192,17162,1,0,0:0:0:0:
448,192,17581,1,0,0:0:0:0:
64,192,17860,1,0,0:0:0:0:
192,192,26790,5,0,0:0:0:0:
64,192,27069,1,0,0:0:0:0:
192,192,27348,1,0,0:0:0:0:
320,192,27627,1,0,0:0:0:0:
448,192,27906,1,0,0:0:0:0:
192,192,28186,1,0,0:0:0:0:
64,192,28465,1,0,0:0:0:0:
192,192,28744,1,0,0:0:0:0:
320,192,29023,1,0,0:0:0:0:
192,192,29302,1,0,0:0:0:0:
64,192,29581,1,0,0:0:0:0:
320,192,29860,1,0,0:0:0:0:
448,192,30139,1,0,0:0:0:0:
192,192,30418,1,0,0:0:0:0:
64,192,30697,1,0,0:0:0:0:
320,192,30976,1,0,0:0:0:0:
192,192,31255,1,0,0:0:0:0:
64,192,35720,1,0,0:0:0:0:
320,192,36279,1,0,0:0:0:0:
448,192,36837,1,0,0:0:0:0:
192,192,37395,1,0,0:0:0:0:
448,192,37953,1,0,0:0:0:0:
64,192,38511,1,0,0:0:0:0:
320,192,39069,1,0,0:0:0:0:
192,192,39627,1,0,0:0:0:0:
448,192,40186,1,0,0:0:0:0:
64,192,40744,1,0,0:0:0:0:
448,192,41302,1,0,0:0:0:0:
64,192,41860,1,0,0:0:0:0:
320,192,42418,1,0,0:0:0:0:
448,192,42976,1,0,0:0:0:0:
192,192,43534,1,0,0:0:0:0:
448,192,44093,1,0,0:0:0:0:
64,192,44651,1,0,0:0:0:0:
448,192,45209,1,0,0:0:0:0:
192,192,45767,1,0,0:0:0:0:
320,192,46325,1,0,0:0:0:0:
64,192,46883,1,0,0:0:0:0:
320,192,47441,1,0,0:0:0:0:
448,192,47999,1,0,0:0:0:0:
192,192,48558,1,0,0:0:0:0:
64,192,49116,1,0,0:0:0:0:
320,192,49674,1,0,0:0:0:0:
192,192,50232,1,0,0:0:0:0:
448,192,50790,1,0,0:0:0:0:
64,192,51348,1,0,0:0:0:0:
192,192,51906,1,0,0:0:0:0:
192,192,52465,1,0,0:0:0:0:
64,192,53023,1,0,0:0:0:0:
192,192,53302,128,0,53581:0:0:0:0:
64,192,54139,1,0,0:0:0:0:
320,192,54697,1,0,0:0:0:0:
448,192,55255,1,0,0:0:0:0:
64,192,55813,1,0,0:0:0:0:
192,192,56093,1,0,0:0:0:0:
320,192,56372,1,0,0:0:0:0:
448,192,56651,1,0,0:0:0:0:
320,192,56930,1,0,0:0:0:0:
192,192,57209,1,0,0:0:0:0:
64,192,57488,1,0,0:0:0:0:
192,192,57767,1,0,0:0:0:0:
320,192,58046,128,0,60279:0:0:0:0:
64,192,60558,1,0,0:0:0:0:
192,192,60837,1,0,0:0:0:0:
320,192,61116,1,0,0:0:0:0:
448,192,61395,1,0,0:0:0:0:
320,192,61674,1,0,0:0:0:0:
192,192,61953,1,0,0:0:0:0:
64,192,62232,1,0,0:0:0:0:
192,192,62511,1,0,0:0:0:0:
64,192,63627,1,0,0:0:0:0:
320,192,64046,1,0,0:0:0:0:
448,192,64465,1,0,0:0:0:0:
320,192,64744,1,0,0:0:0:0:
192,192,66697,1,0,0:0:0:0:
64,192,66837,1,0,0:0:0:0:
192,192,66976,1,0,0:0:0:0:
64,192,68093,1,0,0:0:0:0:
192,192,69209,1,0,0:0:0:0:
64,192,70325,1,0,0:0:0:0:
192,192,70744,1,0,0:0:0:0:
320,192,71162,1,0,0:0:0:0:
64,192,71441,1,0,0:0:0:0:
192,192,72558,1,0,0:0:0:0:
320,192,72976,1,0,0:0:0:0:
448,192,73395,1,0,0:0:0:0:
192,192,73674,1,0,0:0:0:0:
192,192,75627,1,0,0:0:0:0:
320,192,75767,1,0,0:0:0:0:
64,192,75906,1,0,0:0:0:0:
192,192,77023,1,0,0:0:0:0:
320,192,78139,1,0,0:0:0:0:
192,192,79255,1,0,0:0:0:0:
320,192,79674,1,0,0:0:0:0:
448,192,80093,1,0,0:0:0:0:
64,192,80372,1,0,0:0:0:0:
192,192,80930,1,0,0:0:0:0:
320,192,81488,1,0,0:0:0:0:
192,192,82046,1,0,0:0:0:0:
448,192,82604,1,0,0:0:0:0:
320,192,83162,1,0,0:0:0:0:
448,192,83720,1,0,0:0:0:0:
192,192,84279,1,0,0:0:0:0:
64,192,84837,1,0,0:0:0:0:
448,192,85395,1,0,0:0:0:0:
320,192,85953,1,0,0:0:0:0:
192,192,86511,1,0,0:0:0:0:
448,192,87069,1,0,0:0:0:0:
64,192,87627,1,0,0:0:0:0:
192,192,88186,1,0,0:0:0:0:
320,192,88744,128,0,89302:0:0:0:0:
448,192,89860,1,0,0:0:0:0:
320,192,90418,1,0,0:0:0:0:
192,192,90976,1,0,0:0:0:0:
320,192,91534,1,0,0:0:0:0:
448,192,92093,1,0,0:0:0:0:
64,192,92651,1,0,0:0:0:0:
320,192,93209,1,0,0:0:0:0:
448,192,93767,1,0,0:0:0:0:
64,192,94325,1,0,0:0:0:0:
448,192,94883,1,0,0:0:0:0:
64,192,95441,128,0,95999:0:0:0:0:
192,192,96558,1,0,0:0:0:0:
320,192,97116,1,0,0:0:0:0:
192,192,97674,128,0,98232:0:0:0:0:
320,192,102697,1,0,0:0:0:0:
192,192,103255,1,0,0:0:0:0:
64,192,103813,1,0,0:0:0:0:
192,192,104372,1,0,0:0:0:0:
448,192,104930,1,0,0:0:0:0:
64,192,105488,1,0,0:0:0:0:
192,192,107162,1,0,0:0:0:0:
64,192,107720,1,0,0:0:0:0:
320,192,108279,1,0,0:0:0:0:
192,192,108837,1,0,0:0:0:0:
64,192,109395,1,0,0:0:0:0:
448,192,109953,1,0,0:0:0:0:
320,192,110511,1,0,0:0:0:0:
192,192,111069,1,0,0:0:0:0:
64,192,111627,1,0,0:0:0:0:
448,192,112186,1,0,0:0:0:0:
320,192,112744,1,0,0:0:0:0:
192,192,113302,1,0,0:0:0:0:
320,192,113860,1,0,0:0:0:0:
192,192,114418,1,0,0:0:0:0:
64,192,114976,1,0,0:0:0:0:
192,192,115534,1,0,0:0:0:0:
320,192,116093,1,0,0:0:0:0:
448,192,116651,1,0,0:0:0:0:
320,192,117209,1,0,0:0:0:0:
64,192,117767,1,0,0:0:0:0:
192,192,118325,1,0,0:0:0:0:
320,192,118883,1,0,0:0:0:0:
448,192,119441,1,0,0:0:0:0:
320,192,119999,1,0,0:0:0:0:
64,192,120558,128,0,121674:0:0:0:0:
448,192,120558,1,0,0:0:0:0:
192,192,121674,128,0,122790:0:0:0:0:
320,192,122790,128,0,125023:0:0:0:0:
64,192,128372,1,0,0:0:0:0:
192,192,128790,1,0,0:0:0:0:
320,192,129209,1,0,0:0:0:0:
448,192,129488,1,0,0:0:0:0:
64,192,133953,1,0,0:0:0:0:
192,192,134511,1,0,0:0:0:0:
320,192,135069,1,0,0:0:0:0:
64,192,135627,1,0,0:0:0:0:
320,192,136186,1,0,0:0:0:0:
64,192,137302,1,0,0:0:0:0:
192,192,137720,1,0,0:0:0:0:
320,192,138139,1,0,0:0:0:0:
64,192,138418,1,0,0:0:0:0:
320,192,138976,1,0,0:0:0:0:
448,192,139534,1,0,0:0:0:0:
320,192,140093,1,0,0:0:0:0:
64,192,142883,1,0,0:0:0:0:
448,192,143162,1,0,0:0:0:0:
192,192,143441,1,0,0:0:0:0:
320,192,143720,1,0,0:0:0:0:
192,192,143999,1,0,0:0:0:0:
448,192,144279,1,0,0:0:0:0:
64,192,144558,1,0,0:0:0:0:
320,192,144837,1,0,0:0:0:0:
320,192,145116,1,0,0:0:0:0:
448,192,145395,1,0,0:0:0:0:
192,192,145674,1,0,0:0:0:0:
448,192,145953,1,0,0:0:0:0:
320,192,146232,1,0,0:0:0:0:
448,192,146511,1,0,0:0:0:0:
64,192,146790,1,0,0:0:0:0:
320,192,147069,1,0,0:0:0:0:
192,192,147348,1,0,0:0:0:0:
448,192,147627,1,0,0:0:0:0:
192,192,147906,1,0,0:0:0:0:
320,192,148186,1,0,0:0:0:0:
192,192,148465,1,0,0:0:0:0:
320,192,148744,1,0,0:0:0:0:
64,192,149023,1,0,0:0:0:0:
320,192,149302,1,0,0:0:0:0:
192,192,149581,1,0,0:0:0:0:
448,192,149860,1,0,0:0:0:0:
64,192,150139,1,0,0:0:0:0:
448,192,150418,1,0,0:0:0:0:
192,192,150697,1,0,0:0:0:0:
320,192,150976,1,0,0:0:0:0:
64,192,151255,1,0,0:0:0:0:
320,192,151534,1,0,0:0:0:0:
192,192,151813,1,0,0:0:0:0:
448,192,152093,1,0,0:0:0:0:
192,192,152372,1,0,0:0:0:0:
448,192,152651,1,0,0:0:0:0:
192,192,152930,1,0,0:0:0:0:
320,192,153209,1,0,0:0:0:0:
192,192,153488,1,0,0:0:0:0:
448,192,153767,1,0,0:0:0:0:
320,192,154046,1,0,0:0:0:0:
448,192,154325,1,0,0:0:0:0:
64,192,154604,1,0,0:0:0:0:
320,192,154883,1,0,0:0:0:0:
192,192,155162,1,0,0:0:0:0:
320,192,155441,1,0,0:0:0:0:
64,192,155720,1,0,0:0:0:0:
448,192,155999,1,0,0:0:0:0:
192,192,156279,1,0,0:0:0:0:
448,192,156558,1,0,0:0:0:0:
64,192,156837,1,0,0:0:0:0:
320,192,157116,1,0,0:0:0:0:
192,192,157395,1,0,0:0:0:0:
320,192,157674,1,0,0:0:0:0:
192,192,157953,1,0,0:0:0:0:
448,192,158232,1,0,0:0:0:0:
192,192,158511,1,0,0:0:0:0:
320,192,158790,1,0,0:0:0:0:
64,192,159069,1,0,0:0:0:0:
448,192,159348,1,0,0:0:0:0:
64,192,159627,1,0,0:0:0:0:
448,192,159906,1,0,0:0:0:0:
64,192,160186,128,0,160744:0:0:0:0:
320,192,160744,128,0,162976:0:0:0:0:
