osu file format v14

[General]
AudioFilename: audio.ogg
AudioLeadIn: 0
PreviewTime: 63746
Countdown: 0
SampleSet: Normal
StackLeniency: 0.7
Mode: 1
LetterboxInBreaks: 0
WidescreenStoryboard: 1

[Editor]
Bookmarks: 123746,134655,167382
DistanceSpacing: 1
BeatDivisor: 4
GridSize: 32
TimelineZoom: 1.3

[Metadata]
Title:THRESHOLD
TitleUnicode:THRESHOLD
Artist:Sungazer
ArtistUnicode:Sungazer
Creator:Faputa
Version:MUZUKASHII
Source:
Tags:Adam Neely Shawn Crowder Zac Zinger Simon Grove Ermin Hamidovic Alex Conroy electronic jazz fusion Instrumental
BeatmapID:3944368
BeatmapSetID:1620369

[Difficulty]
HPDrainRate:7.5
CircleSize:2
OverallDifficulty:5
ApproachRate:10
SliderMultiplier:1.4
SliderTickRate:1

[Events]
//Background and Video events
0,0,"Luminal.jpg",0,20
//Break Periods
2,2128,6932
2,9400,14205
2,18491,21477
2,23946,26932
2,33037,35688
2,47582,50568
//Storyboard Layer 0 (Background)
//Storyboard Layer 1 (Fail)
//Storyboard Layer 2 (Pass)
//Storyboard Layer 3 (Foreground)
//Storyboard Layer 4 (Overlay)
//Storyboard Sound Samples

[TimingPoints]
110,382.775119617225,5,1,0,50,1,0
1928,382.775119617225,5,1,0,50,1,0
3746,382.775119617225,5,1,0,50,1,0
5564,382.775119617225,5,1,0,50,1,0
7382,382.775119617225,5,1,0,50,1,0
9200,382.775119617225,5,1,0,50,1,0
11019,382.775119617225,5,1,0,50,1,0
12837,382.775119617225,5,1,0,50,1,0
14655,382.775119617225,5,1,0,50,1,0
16473,382.775119617225,5,1,0,50,1,0
18291,382.775119617225,5,1,0,50,1,0
20109,382.775119617225,5,1,0,50,1,0
21928,382.775119617225,5,1,0,50,1,0
23746,382.775119617225,5,1,0,50,1,0
25564,382.775119617225,5,1,0,50,1,0
27190,-100,5,1,0,35,0,0
27382,382.775119617225,5,1,0,35,1,0
29104,-100,5,1,0,50,0,0
29200,382.775119617225,5,1,0,50,1,0
31019,382.775119617225,5,1,0,50,1,0
32837,382.775119617225,5,1,0,50,1,0
34655,382.775119617225,5,1,0,50,1,0
36473,382.775119617225,5,1,0,50,1,0
38291,382.775119617225,5,1,0,50,1,0
40109,382.775119617225,5,1,0,50,1,0
41928,382.775119617225,5,1,0,50,1,0
43746,382.775119617225,5,1,0,50,1,0
45564,382.775119617225,5,1,0,50,1,0
47382,382.775119617225,5,1,0,50,1,0
49200,382.775119617225,5,1,0,50,1,0
51019,382.775119617225,5,1,0,50,1,0
51784,-100,5,1,0,55,0,0
52837,382.775119617225,5,1,0,60,1,0
52837,-100,5,1,0,60,0,0
54655,382.775119617225,5,1,0,60,1,0
56473,382.775119617225,5,1,0,65,1,0
56473,-100,5,1,0,65,0,0
58291,382.775119617225,5,1,0,65,1,0
60109,382.775119617225,5,1,0,70,1,0
60109,-100,5,1,0,70,0,0
61928,382.775119617225,5,1,0,70,1,0
63746,382.775119617225,5,1,0,75,1,0
63746,-100,5,1,0,75,0,0
65468,-100,5,1,0,80,0,0
65564,382.775119617225,5,1,0,80,1,1
65564,-100,5,1,0,80,0,1
67382,382.775119617225,5,1,0,80,1,1
69200,382.775119617225,5,1,0,80,1,1
71018,382.775119617225,5,1,0,80,1,1
72836,382.775119617225,5,1,0,80,1,1
74654,382.775119617225,5,1,0,80,1,1
76473,382.775119617225,5,1,0,80,1,1
78291,382.775119617225,5,1,0,80,1,1
80109,382.775119617225,5,1,0,80,1,1
81927,382.775119617225,5,1,0,80,1,1
83745,382.775119617225,5,1,0,80,1,1
85563,382.775119617225,5,1,0,80,1,1
87381,382.775119617225,5,1,0,80,1,1
89199,382.775119617225,5,1,0,80,1,1
91018,382.775119617225,5,1,0,80,1,1
92837,382.775119617225,5,1,0,80,1,1
93028,-100,5,1,0,50,0,1
94655,382.775119617225,5,1,0,50,1,0
94655,-100,5,1,0,50,0,0
96473,382.775119617225,5,1,0,50,1,0
98291,382.775119617225,5,1,0,50,1,0
100109,382.775119617225,5,1,0,50,1,0
101928,382.775119617225,5,1,0,50,1,0
103746,382.775119617225,5,1,0,50,1,0
105564,382.775119617225,5,1,0,50,1,0
107382,382.775119617225,5,1,0,50,1,0
109200,382.775119617225,5,1,0,50,1,0
111019,382.775119617225,5,1,0,50,1,0
112837,382.775119617225,5,1,0,50,1,0
114655,382.775119617225,5,1,0,50,1,0
116473,382.775119617225,5,1,0,50,1,0
118291,382.775119617225,5,1,0,50,1,0
120109,382.775119617225,5,1,0,50,1,0
121928,382.775119617225,5,1,0,50,1,0
123746,382.775119617225,5,1,0,70,1,0
123746,-100,5,1,0,70,0,0
125564,382.775119617225,5,1,0,70,1,0
127382,382.775119617225,5,1,0,70,1,0
129200,382.775119617225,5,1,0,70,1,0
131019,382.775119617225,5,1,0,70,1,0
132837,382.775119617225,5,1,0,70,1,0
134655,382.775119617225,5,1,0,65,1,0
134655,-100,5,1,0,65,0,0
136473,382.775119617225,5,1,0,65,1,0
138291,382.775119617225,5,1,0,60,1,0
138291,-100,5,1,0,60,0,0
140109,382.775119617225,5,1,0,60,1,0
141928,382.775119617225,5,1,0,50,1,0
141928,-100,5,1,0,50,0,0
143746,382.775119617225,5,1,0,50,1,0
145564,382.775119617225,5,1,0,50,1,0
147382,382.775119617225,5,1,0,50,1,0
149200,382.775119617225,5,1,0,50,1,0
151019,382.775119617225,5,1,0,50,1,0
152837,382.775119617225,5,1,0,50,1,0
154655,382.775119617225,5,1,0,50,1,0
156473,382.775119617225,5,1,0,50,1,0
158291,382.775119617225,5,1,0,50,1,0
160109,382.775119617225,5,1,0,50,1,0
161928,382.775119617225,5,1,0,50,1,0
163746,382.775119617225,5,1,0,50,1,0
165564,382.775119617225,5,1,0,50,1,0
167286,-100,5,1,0,70,0,0
167382,382.775119617225,5,1,0,70,1,0
169200,382.775119617225,5,1,0,70,1,0
171019,382.775119617225,5,1,0,70,1,0
172837,382.775119617225,5,1,0,70,1,0
174655,382.775119617225,5,1,0,70,1,0
176473,382.775119617225,5,1,0,70,1,0
178291,382.775119617225,5,1,0,70,1,0
180109,382.775119617225,5,1,0,70,1,0
181928,382.775119617225,5,1,0,70,1,0
183746,382.775119617225,5,1,0,70,1,0
185564,382.775119617225,5,1,0,70,1,0
187382,382.775119617225,5,1,0,70,1,0
189200,382.775119617225,5,1,0,70,1,0
191019,382.775119617225,5,1,0,70,1,0
192789,-100,5,1,0,35,0,0
192837,382.775119617225,5,1,0,35,1,0
194655,382.775119617225,5,1,0,35,1,0
196377,-100,5,1,0,80,0,0
196473,382.775119617225,5,1,0,80,1,1
196473,-100,5,1,0,80,0,1
198291,382.775119617225,5,1,0,80,1,1
200109,382.775119617225,5,1,0,80,1,1
201928,382.775119617225,5,1,0,80,1,1
203746,382.775119617225,5,1,0,80,1,1
205564,382.775119617225,5,1,0,80,1,1
207382,382.775119617225,5,1,0,80,1,1
209200,382.775119617225,5,1,0,80,1,1
211019,382.775119617225,5,1,0,80,1,1
212837,382.775119617225,5,1,0,80,1,1
214655,382.775119617225,5,1,0,80,1,1
216473,382.775119617225,5,1,0,80,1,1
218291,382.775119617225,5,1,0,80,1,1
220109,382.775119617225,5,1,0,80,1,1
221928,382.775119617225,5,1,0,80,1,1
223746,382.775119617225,5,1,0,80,1,1
225564,382.775119617225,5,1,0,80,1,1
227382,382.775119617225,5,1,0,80,1,1
229200,382.775119617225,5,1,0,80,1,1
231019,382.775119617225,5,1,0,80,1,1
232837,382.775119617225,5,1,0,80,1,0
232837,-100,5,1,0,80,0,0
233028,-100,5,1,0,70,0,0
234655,382.775119617225,5,1,0,70,1,0
236473,382.775119617225,5,1,0,70,1,0
237110,-100,5,1,0,35,0,0
238291,382.775119617225,5,1,0,35,1,0
240109,382.775119617225,5,1,0,35,1,0
241928,382.775119617225,5,1,0,35,1,0
243746,382.775119617225,5,1,0,35,1,0
245564,382.775119617225,5,1,0,35,1,0
247382,382.775119617225,5,1,0,35,1,0
249200,382.775119617225,5,1,0,35,1,0
251019,382.775119617225,5,1,0,35,1,0

[HitObjects]
256,192,110,5,4,0:0:0:0:
256,192,1928,1,12,0:0:0:0:
256,192,7382,5,4,0:0:0:0:
256,192,9200,1,12,0:0:0:0:
256,192,14655,5,4,0:0:0:0:
256,192,15229,1,0,0:0:0:0:
256,192,15707,1,8,0:0:0:0:
256,192,16186,1,0,0:0:0:0:
256,192,16473,1,8,0:0:0:0:
256,192,16951,1,8,0:0:0:0:
256,192,17429,1,0,0:0:0:0:
256,192,18291,1,8,0:0:0:0:
256,192,21927,5,4,0:0:0:0:
256,192,23746,1,12,0:0:0:0:
256,192,27382,12,0,29008,0:0:0:0:
256,192,29200,5,12,0:0:0:0:
256,192,31018,1,8,0:0:0:0:
256,192,31210,1,0,0:0:0:0:
256,192,31401,1,8,0:0:0:0:
256,192,31593,1,0,0:0:0:0:
256,192,31784,1,0,0:0:0:0:
256,192,31975,1,8,0:0:0:0:
256,192,32837,1,8,0:0:0:0:
256,192,36138,5,0,0:0:0:0:
256,192,36473,1,8,0:0:0:0:
256,192,37047,1,0,0:0:0:0:
256,192,37525,1,8,0:0:0:0:
256,192,38004,1,0,0:0:0:0:
256,192,38291,1,8,0:0:0:0:
256,192,39917,1,8,0:0:0:0:
256,192,40109,1,0,0:0:0:0:
256,192,40683,1,0,0:0:0:0:
256,192,41161,1,8,0:0:0:0:
256,192,41640,1,0,0:0:0:0:
256,192,41927,1,8,0:0:0:0:
256,192,43554,1,8,0:0:0:0:
256,192,43746,1,4,0:0:0:0:
256,192,45564,1,8,0:0:0:0:
256,192,45755,1,0,0:0:0:0:
256,192,45946,1,8,0:0:0:0:
256,192,46138,1,0,0:0:0:0:
256,192,46329,1,8,0:0:0:0:
256,192,46520,1,8,0:0:0:0:
256,192,46712,1,0,0:0:0:0:
256,192,46903,1,8,0:0:0:0:
256,192,47095,1,0,0:0:0:0:
256,192,47382,1,8,0:0:0:0:
256,192,51018,5,4,0:0:0:0:
256,192,51999,1,0,0:0:0:0:
256,192,52837,1,8,0:0:0:0:
256,192,53315,1,8,0:0:0:0:
256,192,53793,1,0,0:0:0:0:
256,192,53985,1,0,0:0:0:0:
256,192,54176,1,8,0:0:0:0:
256,192,54368,1,8,0:0:0:0:
256,192,54655,1,0,0:0:0:0:
256,192,55133,1,0,0:0:0:0:
256,192,55611,1,8,0:0:0:0:
256,192,55994,1,0,0:0:0:0:
256,192,56186,1,8,0:0:0:0:
256,192,56473,1,8,0:0:0:0:
256,192,56951,1,8,0:0:0:0:
256,192,57429,1,0,0:0:0:0:
256,192,57621,1,0,0:0:0:0:
256,192,57812,1,8,0:0:0:0:
256,192,58291,1,0,0:0:0:0:
256,192,58769,1,8,0:0:0:0:
256,192,59247,1,0,0:0:0:0:
256,192,59630,1,8,0:0:0:0:
256,192,59822,1,0,0:0:0:0:
256,192,60109,1,8,0:0:0:0:
256,192,60587,1,8,0:0:0:0:
256,192,61065,1,0,0:0:0:0:
256,192,61448,1,0,0:0:0:0:
256,192,61640,1,8,0:0:0:0:
256,192,61927,1,0,0:0:0:0:
256,192,62406,1,8,0:0:0:0:
256,192,62884,1,0,0:0:0:0:
256,192,63267,1,0,0:0:0:0:
256,192,63459,1,8,0:0:0:0:
256,192,63746,1,8,0:0:0:0:
256,192,63937,1,0,0:0:0:0:
256,192,64224,1,0,0:0:0:0:
256,192,64320,1,8,0:0:0:0:
256,192,64511,1,0,0:0:0:0:
256,192,64798,1,0,0:0:0:0:
256,192,64894,1,8,0:0:0:0:
256,192,65085,1,0,0:0:0:0:
256,192,65372,1,0,0:0:0:0:
256,192,65564,1,12,0:0:0:0:
256,192,66138,1,8,0:0:0:0:
256,192,66329,1,0,0:0:0:0:
256,192,66520,1,0,0:0:0:0:
256,192,66712,1,8,0:0:0:0:
256,192,66903,1,8,0:0:0:0:
256,192,67095,1,0,0:0:0:0:
256,192,67286,1,0,0:0:0:0:
256,192,67382,1,8,0:0:0:0:
256,192,67764,1,0,0:0:0:0:
256,192,67956,1,8,0:0:0:0:
256,192,68338,1,0,0:0:0:0:
256,192,68530,1,8,0:0:0:0:
256,192,68721,1,0,0:0:0:0:
256,192,68913,1,8,0:0:0:0:
256,192,69008,1,8,0:0:0:0:
256,192,69200,1,0,0:0:0:0:
256,192,69774,1,8,0:0:0:0:
256,192,69965,1,0,0:0:0:0:
256,192,70156,1,0,0:0:0:0:
256,192,70348,1,8,0:0:0:0:
256,192,70539,1,8,0:0:0:0:
256,192,70731,1,0,0:0:0:0:
256,192,70922,1,0,0:0:0:0:
256,192,71018,1,8,0:0:0:0:
256,192,71400,1,8,0:0:0:0:
256,192,71592,1,0,0:0:0:0:
256,192,71974,1,8,0:0:0:0:
256,192,72166,1,8,0:0:0:0:
256,192,72357,1,0,0:0:0:0:
256,192,72549,1,8,0:0:0:0:
256,192,72740,1,0,0:0:0:0:
256,192,72836,1,0,0:0:0:0:
256,192,73410,1,0,0:0:0:0:
256,192,73601,1,8,0:0:0:0:
256,192,73792,1,8,0:0:0:0:
256,192,73984,1,0,0:0:0:0:
256,192,74175,1,0,0:0:0:0:
256,192,74367,1,8,0:0:0:0:
256,192,74558,1,0,0:0:0:0:
256,192,74654,1,8,0:0:0:0:
256,192,75036,1,0,0:0:0:0:
256,192,75228,1,8,0:0:0:0:
256,192,75610,1,0,0:0:0:0:
256,192,75802,1,8,0:0:0:0:
256,192,75993,1,0,0:0:0:0:
256,192,76185,1,8,0:0:0:0:
256,192,76376,1,0,0:0:0:0:
256,192,76472,1,0,0:0:0:0:
256,192,77047,1,0,0:0:0:0:
256,192,77238,1,8,0:0:0:0:
256,192,77429,1,0,0:0:0:0:
256,192,77621,1,8,0:0:0:0:
256,192,77812,1,8,0:0:0:0:
256,192,78004,1,0,0:0:0:0:
256,192,78195,1,0,0:0:0:0:
256,192,78291,1,8,0:0:0:0:
256,192,78673,1,0,0:0:0:0:
256,192,78865,1,8,0:0:0:0:
256,192,79247,1,0,0:0:0:0:
256,192,79439,1,8,0:0:0:0:
256,192,79630,1,8,0:0:0:0:
256,192,79822,1,0,0:0:0:0:
256,192,79917,1,0,0:0:0:0:
256,192,80109,1,12,0:0:0:0:
256,192,80683,1,8,0:0:0:0:
256,192,80874,1,0,0:0:0:0:
256,192,81065,1,0,0:0:0:0:
256,192,81257,1,8,0:0:0:0:
256,192,81448,1,0,0:0:0:0:
256,192,81640,1,8,0:0:0:0:
256,192,81831,1,0,0:0:0:0:
256,192,81927,1,8,0:0:0:0:
256,192,82309,1,0,0:0:0:0:
256,192,82501,1,8,0:0:0:0:
256,192,82884,1,0,0:0:0:0:
256,192,83075,1,8,0:0:0:0:
256,192,83266,1,8,0:0:0:0:
256,192,83458,1,8,0:0:0:0:
256,192,83649,1,0,0:0:0:0:
256,192,83745,1,0,0:0:0:0:
256,192,84319,1,8,0:0:0:0:
256,192,84510,1,0,0:0:0:0:
256,192,84702,1,8,0:0:0:0:
256,192,84893,1,0,0:0:0:0:
256,192,85085,1,8,0:0:0:0:
256,192,85276,1,8,0:0:0:0:
256,192,85467,1,0,0:0:0:0:
256,192,85563,1,8,0:0:0:0:
256,192,85945,1,0,0:0:0:0:
256,192,86137,1,8,0:0:0:0:
256,192,86520,1,0,0:0:0:0:
256,192,86711,1,8,0:0:0:0:
256,192,86902,1,0,0:0:0:0:
256,192,87094,1,8,0:0:0:0:
256,192,87190,1,8,0:0:0:0:
256,192,87381,1,4,0:0:0:0:
256,192,87955,1,8,0:0:0:0:
256,192,88147,1,0,0:0:0:0:
256,192,88337,1,8,0:0:0:0:
256,192,88529,1,8,0:0:0:0:
256,192,88721,1,0,0:0:0:0:
256,192,88912,1,8,0:0:0:0:
256,192,89104,1,0,0:0:0:0:
256,192,89199,1,8,0:0:0:0:
256,192,89581,1,8,0:0:0:0:
256,192,89774,1,0,0:0:0:0:
256,192,90156,1,8,0:0:0:0:
256,192,90348,1,0,0:0:0:0:
256,192,90538,1,0,0:0:0:0:
256,192,90731,1,8,0:0:0:0:
256,192,90922,1,0,0:0:0:0:
256,192,91018,1,0,0:0:0:0:
256,192,91592,1,8,0:0:0:0:
256,192,91783,1,0,0:0:0:0:
256,192,91974,1,0,0:0:0:0:
256,192,92166,1,8,0:0:0:0:
256,192,92357,1,8,0:0:0:0:
256,192,92549,1,0,0:0:0:0:
256,192,92836,1,12,0:0:0:0:
256,192,94655,1,4,0:0:0:0:
256,192,95229,1,0,0:0:0:0:
256,192,95779,1,0,0:0:0:0:
256,192,96473,1,8,0:0:0:0:
256,192,97047,1,0,0:0:0:0:
256,192,97621,1,0,0:0:0:0:
256,192,98291,1,0,0:0:0:0:
256,192,98865,1,0,0:0:0:0:
256,192,99439,1,0,0:0:0:0:
256,192,100109,1,8,0:0:0:0:
256,192,100300,1,0,0:0:0:0:
256,192,100491,1,8,0:0:0:0:
256,192,100683,1,0,0:0:0:0:
256,192,100874,1,8,0:0:0:0:
256,192,101065,1,8,0:0:0:0:
256,192,101257,1,0,0:0:0:0:
256,192,101448,1,8,0:0:0:0:
256,192,101640,1,8,0:0:0:0:
256,192,101927,1,0,0:0:0:0:
256,192,102502,1,0,0:0:0:0:
256,192,103076,1,0,0:0:0:0:
256,192,103746,1,8,0:0:0:0:
256,192,104320,1,0,0:0:0:0:
256,192,104894,1,0,0:0:0:0:
256,192,105277,1,8,0:0:0:0:
256,192,105564,1,0,0:0:0:0:
256,192,106138,1,0,0:0:0:0:
256,192,106712,1,0,0:0:0:0:
256,192,107382,1,8,0:0:0:0:
256,192,107573,1,0,0:0:0:0:
256,192,107764,1,8,0:0:0:0:
256,192,107956,1,0,0:0:0:0:
256,192,108147,1,8,0:0:0:0:
256,192,108338,1,8,0:0:0:0:
256,192,108530,1,0,0:0:0:0:
256,192,108721,1,0,0:0:0:0:
256,192,108913,1,8,0:0:0:0:
256,192,109200,1,0,0:0:0:0:
256,192,109774,1,8,0:0:0:0:
256,192,110348,1,0,0:0:0:0:
256,192,110539,1,0,0:0:0:0:
256,192,110731,1,8,0:0:0:0:
256,192,111018,1,8,0:0:0:0:
256,192,111593,1,0,0:0:0:0:
256,192,112167,1,8,0:0:0:0:
256,192,112358,1,8,0:0:0:0:
256,192,112550,1,0,0:0:0:0:
256,192,112837,1,8,0:0:0:0:
256,192,113411,1,8,0:0:0:0:
256,192,113985,1,0,0:0:0:0:
256,192,114176,1,0,0:0:0:0:
256,192,114368,1,0,0:0:0:0:
256,192,114655,1,8,0:0:0:0:
256,192,115229,1,0,0:0:0:0:
256,192,115803,1,8,0:0:0:0:
256,192,115994,1,8,0:0:0:0:
256,192,116186,1,0,0:0:0:0:
256,192,116473,1,0,0:0:0:0:
256,192,117047,1,8,0:0:0:0:
256,192,117621,1,0,0:0:0:0:
256,192,117812,1,0,0:0:0:0:
256,192,118004,1,8,0:0:0:0:
256,192,118291,1,8,0:0:0:0:
256,192,118865,1,0,0:0:0:0:
256,192,119343,1,8,0:0:0:0:
256,192,119535,1,8,0:0:0:0:
256,192,119726,1,0,0:0:0:0:
256,192,119822,1,0,0:0:0:0:
256,192,120109,1,8,0:0:0:0:
256,192,120683,1,0,0:0:0:0:
256,192,121257,1,0,0:0:0:0:
256,192,121448,1,8,0:0:0:0:
256,192,121640,1,0,0:0:0:0:
256,192,121735,1,0,0:0:0:0:
256,192,121927,1,8,0:0:0:0:
256,192,122502,1,0,0:0:0:0:
256,192,123076,1,8,0:0:0:0:
256,192,123267,1,0,0:0:0:0:
256,192,123459,1,0,0:0:0:0:
256,192,123650,1,8,0:0:0:0:
256,192,123746,1,8,0:0:0:0:
256,192,124320,1,0,0:0:0:0:
256,192,124702,1,0,0:0:0:0:
256,192,124894,1,8,0:0:0:0:
256,192,125277,1,8,0:0:0:0:
256,192,125468,1,0,0:0:0:0:
256,192,125564,1,8,0:0:0:0:
256,192,126138,1,0,0:0:0:0:
256,192,126520,1,8,0:0:0:0:
256,192,126712,1,0,0:0:0:0:
256,192,127095,1,0,0:0:0:0:
256,192,127286,1,8,0:0:0:0:
256,192,127382,1,0,0:0:0:0:
256,192,127956,1,8,0:0:0:0:
256,192,128338,1,0,0:0:0:0:
256,192,128530,1,8,0:0:0:0:
256,192,128913,1,8,0:0:0:0:
256,192,129104,1,0,0:0:0:0:
256,192,129200,1,8,0:0:0:0:
256,192,129774,1,0,0:0:0:0:
256,192,130156,1,8,0:0:0:0:
256,192,130348,1,0,0:0:0:0:
256,192,130731,1,0,0:0:0:0:
256,192,130922,1,8,0:0:0:0:
256,192,131018,1,0,0:0:0:0:
256,192,131593,1,0,0:0:0:0:
256,192,131975,1,0,0:0:0:0:
256,192,132167,1,8,0:0:0:0:
256,192,132550,1,0,0:0:0:0:
256,192,132741,1,8,0:0:0:0:
256,192,132837,1,8,0:0:0:0:
256,192,133411,1,8,0:0:0:0:
256,192,133793,1,8,0:0:0:0:
256,192,133985,1,0,0:0:0:0:
256,192,134368,1,0,0:0:0:0:
256,192,134559,1,8,0:0:0:0:
256,192,134655,1,8,0:0:0:0:
256,192,135229,1,8,0:0:0:0:
256,192,135803,1,8,0:0:0:0:
256,192,136377,1,0,0:0:0:0:
256,192,136473,1,8,0:0:0:0:
256,192,137047,1,8,0:0:0:0:
256,192,137621,1,0,0:0:0:0:
256,192,138195,1,0,0:0:0:0:
256,192,138291,1,8,0:0:0:0:
256,192,138865,1,0,0:0:0:0:
256,192,140109,1,8,0:0:0:0:
256,192,140683,1,0,0:0:0:0:
256,192,141927,1,8,0:0:0:0:
256,192,142884,1,8,0:0:0:0:
256,192,143459,1,0,0:0:0:0:
256,192,143746,1,8,0:0:0:0:
256,192,144702,1,8,0:0:0:0:
256,192,145277,1,0,0:0:0:0:
256,192,145564,1,8,0:0:0:0:
256,192,147382,1,8,0:0:0:0:
256,192,149200,1,8,0:0:0:0:
256,192,150156,1,8,0:0:0:0:
256,192,150731,1,0,0:0:0:0:
256,192,151018,1,8,0:0:0:0:
256,192,151975,1,8,0:0:0:0:
256,192,152550,1,0,0:0:0:0:
256,192,152837,1,8,0:0:0:0:
256,192,153411,1,0,0:0:0:0:
256,192,153793,1,8,0:0:0:0:
256,192,154368,1,0,0:0:0:0:
256,192,154655,1,8,0:0:0:0:
256,192,155229,1,0,0:0:0:0:
256,192,155611,1,8,0:0:0:0:
256,192,156186,1,0,0:0:0:0:
256,192,156473,1,8,0:0:0:0:
256,192,157047,1,0,0:0:0:0:
256,192,157429,1,8,0:0:0:0:
256,192,158004,1,0,0:0:0:0:
256,192,158291,1,8,0:0:0:0:
256,192,158865,1,0,0:0:0:0:
256,192,159247,1,8,0:0:0:0:
256,192,159822,1,0,0:0:0:0:
256,192,160109,1,8,0:0:0:0:
256,192,160683,1,0,0:0:0:0:
256,192,161065,1,8,0:0:0:0:
256,192,161640,1,0,0:0:0:0:
256,192,161927,1,8,0:0:0:0:
256,192,162502,1,0,0:0:0:0:
256,192,162884,1,8,0:0:0:0:
256,192,163459,1,0,0:0:0:0:
256,192,163746,1,8,0:0:0:0:
256,192,164320,1,0,0:0:0:0:
256,192,164702,1,8,0:0:0:0:
256,192,165085,1,0,0:0:0:0:
256,192,165277,1,8,0:0:0:0:
256,192,165564,1,8,0:0:0:0:
256,192,166138,1,0,0:0:0:0:
256,192,166520,1,8,0:0:0:0:
256,192,166712,1,0,0:0:0:0:
256,192,166903,1,8,0:0:0:0:
256,192,167382,1,8,0:0:0:0:
256,192,167956,1,8,0:0:0:0:
256,192,168147,1,0,0:0:0:0:
256,192,168338,1,8,0:0:0:0:
256,192,168434,1,8,0:0:0:0:
256,192,168530,1,8,0:0:0:0:
256,192,168721,1,0,0:0:0:0:
256,192,168913,1,8,0:0:0:0:
256,192,169104,1,0,0:0:0:0:
256,192,169200,1,8,0:0:0:0:
256,192,169582,1,0,0:0:0:0:
256,192,169774,1,8,0:0:0:0:
256,192,169965,1,0,0:0:0:0:
256,192,170156,1,0,0:0:0:0:
256,192,170348,1,8,0:0:0:0:
256,192,170539,1,0,0:0:0:0:
256,192,170731,1,8,0:0:0:0:
256,192,170922,1,0,0:0:0:0:
256,192,171018,1,8,0:0:0:0:
256,192,171593,1,8,0:0:0:0:
256,192,171784,1,0,0:0:0:0:
256,192,171880,1,0,0:0:0:0:
256,192,171975,1,0,0:0:0:0:
256,192,172167,1,8,0:0:0:0:
256,192,172358,1,0,0:0:0:0:
256,192,172550,1,8,0:0:0:0:
256,192,172741,1,0,0:0:0:0:
256,192,172837,1,8,0:0:0:0:
256,192,173219,1,0,0:0:0:0:
256,192,173411,1,8,0:0:0:0:
256,192,173602,1,0,0:0:0:0:
256,192,173793,1,8,0:0:0:0:
256,192,173985,1,8,0:0:0:0:
256,192,174176,1,0,0:0:0:0:
256,192,174368,1,8,0:0:0:0:
256,192,174559,1,0,0:0:0:0:
256,192,174655,1,8,0:0:0:0:
256,192,175229,1,0,0:0:0:0:
256,192,175420,1,8,0:0:0:0:
256,192,175516,1,8,0:0:0:0:
256,192,175611,1,8,0:0:0:0:
256,192,175803,1,0,0:0:0:0:
256,192,175994,1,0,0:0:0:0:
256,192,176186,1,8,0:0:0:0:
256,192,176377,1,0,0:0:0:0:
256,192,176473,1,8,0:0:0:0:
256,192,176855,1,0,0:0:0:0:
256,192,177047,1,8,0:0:0:0:
256,192,177238,1,0,0:0:0:0:
256,192,177429,1,0,0:0:0:0:
256,192,177621,1,8,0:0:0:0:
256,192,177812,1,0,0:0:0:0:
256,192,178004,1,8,0:0:0:0:
256,192,178195,1,0,0:0:0:0:
256,192,178291,1,8,0:0:0:0:
256,192,178865,1,8,0:0:0:0:
256,192,179056,1,0,0:0:0:0:
256,192,179152,1,0,0:0:0:0:
256,192,179247,1,0,0:0:0:0:
256,192,179439,1,8,0:0:0:0:
256,192,179630,1,8,0:0:0:0:
256,192,179822,1,0,0:0:0:0:
256,192,180013,1,0,0:0:0:0:
256,192,180109,1,8,0:0:0:0:
256,192,180683,1,0,0:0:0:0:
256,192,180874,1,0,0:0:0:0:
256,192,181065,1,8,0:0:0:0:
256,192,181257,1,8,0:0:0:0:
256,192,181448,1,0,0:0:0:0:
256,192,181640,1,8,0:0:0:0:
256,192,181735,1,0,0:0:0:0:
256,192,181927,1,8,0:0:0:0:
256,192,182502,1,8,0:0:0:0:
256,192,182693,1,0,0:0:0:0:
256,192,182789,1,0,0:0:0:0:
256,192,182884,1,0,0:0:0:0:
256,192,183076,1,8,0:0:0:0:
256,192,183267,1,0,0:0:0:0:
256,192,183363,1,0,0:0:0:0:
256,192,183459,1,0,0:0:0:0:
256,192,183650,1,0,0:0:0:0:
256,192,183746,1,8,0:0:0:0:
256,192,184128,1,8,0:0:0:0:
256,192,184320,1,8,0:0:0:0:
256,192,184511,1,0,0:0:0:0:
256,192,184702,1,8,0:0:0:0:
256,192,184894,1,0,0:0:0:0:
256,192,185085,1,8,0:0:0:0:
256,192,185181,1,8,0:0:0:0:
256,192,185277,1,8,0:0:0:0:
256,192,185468,1,0,0:0:0:0:
256,192,185564,1,8,0:0:0:0:
256,192,186138,1,8,0:0:0:0:
256,192,186329,1,0,0:0:0:0:
256,192,186425,1,0,0:0:0:0:
256,192,186520,1,0,0:0:0:0:
256,192,186712,1,8,0:0:0:0:
256,192,186903,1,0,0:0:0:0:
256,192,186999,1,0,0:0:0:0:
256,192,187095,1,0,0:0:0:0:
256,192,187286,1,0,0:0:0:0:
256,192,187382,1,8,0:0:0:0:
256,192,187764,1,8,0:0:0:0:
256,192,187956,1,0,0:0:0:0:
256,192,188147,1,8,0:0:0:0:
256,192,188243,1,8,0:0:0:0:
256,192,188338,1,8,0:0:0:0:
256,192,188530,1,0,0:0:0:0:
256,192,188721,1,0,0:0:0:0:
256,192,188913,1,8,0:0:0:0:
256,192,189008,1,0,0:0:0:0:
256,192,189200,1,12,0:0:0:0:
256,192,189774,1,8,0:0:0:0:
256,192,189965,1,0,0:0:0:0:
256,192,190156,1,8,0:0:0:0:
256,192,190252,1,8,0:0:0:0:
256,192,190348,1,8,0:0:0:0:
256,192,190539,1,0,0:0:0:0:
256,192,190731,1,8,0:0:0:0:
256,192,190922,1,8,0:0:0:0:
256,192,191018,1,0,0:0:0:0:
256,192,191210,1,0,0:0:0:0:
256,192,191401,1,8,0:0:0:0:
256,192,191497,1,8,0:0:0:0:
256,192,191593,1,8,0:0:0:0:
256,192,191784,1,0,0:0:0:0:
256,192,191975,1,8,0:0:0:0:
256,192,192071,1,8,0:0:0:0:
256,192,192167,1,8,0:0:0:0:
256,192,192358,1,0,0:0:0:0:
256,192,192550,1,8,0:0:0:0:
256,192,192645,1,8,0:0:0:0:
256,192,192741,1,8,0:0:0:0:
256,192,192837,12,0,195803,0:0:0:0:
256,192,196473,5,12,0:0:0:0:
256,192,197047,1,8,0:0:0:0:
256,192,197238,1,0,0:0:0:0:
256,192,197429,1,0,0:0:0:0:
256,192,197621,1,8,0:0:0:0:
256,192,197812,1,8,0:0:0:0:
256,192,198004,1,0,0:0:0:0:
256,192,198195,1,0,0:0:0:0:
256,192,198291,1,8,0:0:0:0:
256,192,198673,1,0,0:0:0:0:
256,192,198865,1,8,0:0:0:0:
256,192,199247,1,0,0:0:0:0:
256,192,199439,1,8,0:0:0:0:
256,192,199630,1,0,0:0:0:0:
256,192,199822,1,8,0:0:0:0:
256,192,199917,1,8,0:0:0:0:
256,192,200109,1,0,0:0:0:0:
256,192,200683,1,8,0:0:0:0:
256,192,200874,1,0,0:0:0:0:
256,192,201065,1,0,0:0:0:0:
256,192,201257,1,8,0:0:0:0:
256,192,201448,1,8,0:0:0:0:
256,192,201640,1,0,0:0:0:0:
256,192,201831,1,0,0:0:0:0:
256,192,201927,1,8,0:0:0:0:
256,192,202310,1,8,0:0:0:0:
256,192,202501,1,0,0:0:0:0:
256,192,202883,1,8,0:0:0:0:
256,192,203075,1,8,0:0:0:0:
256,192,203266,1,0,0:0:0:0:
256,192,203458,1,8,0:0:0:0:
256,192,203649,1,0,0:0:0:0:
256,192,203745,1,0,0:0:0:0:
256,192,204319,1,0,0:0:0:0:
256,192,204510,1,8,0:0:0:0:
256,192,204701,1,8,0:0:0:0:
256,192,204893,1,0,0:0:0:0:
256,192,205084,1,0,0:0:0:0:
256,192,205276,1,8,0:0:0:0:
256,192,205467,1,0,0:0:0:0:
256,192,205563,1,8,0:0:0:0:
256,192,205946,1,0,0:0:0:0:
256,192,206137,1,8,0:0:0:0:
256,192,206519,1,0,0:0:0:0:
256,192,206711,1,8,0:0:0:0:
256,192,206902,1,0,0:0:0:0:
256,192,207095,1,8,0:0:0:0:
256,192,207285,1,0,0:0:0:0:
256,192,207381,1,0,0:0:0:0:
256,192,207956,1,0,0:0:0:0:
256,192,208147,1,8,0:0:0:0:
256,192,208338,1,0,0:0:0:0:
256,192,208530,1,8,0:0:0:0:
256,192,208721,1,8,0:0:0:0:
256,192,208913,1,0,0:0:0:0:
256,192,209104,1,0,0:0:0:0:
256,192,209200,1,8,0:0:0:0:
256,192,209582,1,0,0:0:0:0:
256,192,209774,1,8,0:0:0:0:
256,192,210156,1,0,0:0:0:0:
256,192,210348,1,8,0:0:0:0:
256,192,210539,1,8,0:0:0:0:
256,192,210731,1,0,0:0:0:0:
256,192,210826,1,0,0:0:0:0:
256,192,211018,1,12,0:0:0:0:
256,192,211592,1,8,0:0:0:0:
256,192,211783,1,0,0:0:0:0:
256,192,211974,1,0,0:0:0:0:
256,192,212166,1,8,0:0:0:0:
256,192,212357,1,0,0:0:0:0:
256,192,212549,1,8,0:0:0:0:
256,192,212740,1,0,0:0:0:0:
256,192,212836,1,8,0:0:0:0:
256,192,213219,1,0,0:0:0:0:
256,192,213410,1,8,0:0:0:0:
256,192,213793,1,0,0:0:0:0:
256,192,213984,1,8,0:0:0:0:
256,192,214175,1,8,0:0:0:0:
256,192,214367,1,8,0:0:0:0:
256,192,214558,1,0,0:0:0:0:
256,192,214654,1,0,0:0:0:0:
256,192,215228,1,8,0:0:0:0:
256,192,215419,1,0,0:0:0:0:
256,192,215611,1,8,0:0:0:0:
256,192,215802,1,0,0:0:0:0:
256,192,215994,1,8,0:0:0:0:
256,192,216185,1,8,0:0:0:0:
256,192,216376,1,0,0:0:0:0:
256,192,216472,1,8,0:0:0:0:
256,192,216855,1,0,0:0:0:0:
256,192,217046,1,8,0:0:0:0:
256,192,217429,1,0,0:0:0:0:
256,192,217620,1,8,0:0:0:0:
256,192,217811,1,0,0:0:0:0:
256,192,218003,1,8,0:0:0:0:
256,192,218099,1,8,0:0:0:0:
256,192,218290,1,4,0:0:0:0:
256,192,218864,1,8,0:0:0:0:
256,192,219056,1,0,0:0:0:0:
256,192,219246,1,8,0:0:0:0:
256,192,219343,1,8,0:0:0:0:
256,192,219438,1,8,0:0:0:0:
256,192,219630,1,0,0:0:0:0:
256,192,219821,1,8,0:0:0:0:
256,192,220013,1,0,0:0:0:0:
256,192,220108,1,8,0:0:0:0:
256,192,220491,1,0,0:0:0:0:
256,192,220587,1,0,0:0:0:0:
256,192,220683,1,0,0:0:0:0:
256,192,220874,1,8,0:0:0:0:
256,192,221065,1,8,0:0:0:0:
256,192,221257,1,0,0:0:0:0:
256,192,221447,1,0,0:0:0:0:
256,192,221640,1,8,0:0:0:0:
256,192,221735,1,8,0:0:0:0:
256,192,221927,1,0,0:0:0:0:
256,192,222501,1,8,0:0:0:0:
256,192,222597,1,8,0:0:0:0:
256,192,222693,1,8,0:0:0:0:
256,192,222884,1,0,0:0:0:0:
256,192,223075,1,8,0:0:0:0:
256,192,223266,1,0,0:0:0:0:
256,192,223458,1,8,0:0:0:0:
256,192,223650,1,0,0:0:0:0:
256,192,223745,1,8,0:0:0:0:
256,192,224128,1,0,0:0:0:0:
256,192,224320,1,8,0:0:0:0:
256,192,224511,1,0,0:0:0:0:
256,192,224607,1,0,0:0:0:0:
256,192,224702,1,0,0:0:0:0:
256,192,224894,1,8,0:0:0:0:
256,192,225085,1,0,0:0:0:0:
256,192,225277,1,8,0:0:0:0:
256,192,225468,1,0,0:0:0:0:
256,192,225564,1,0,0:0:0:0:
256,192,225946,5,8,0:0:0:0:
256,192,226042,1,8,0:0:0:0:
256,192,226138,1,8,0:0:0:0:
256,192,226329,1,0,0:0:0:0:
256,192,226520,1,8,0:0:0:0:
256,192,226616,1,8,0:0:0:0:
256,192,226712,1,8,0:0:0:0:
256,192,227095,1,0,0:0:0:0:
256,192,227382,1,8,0:0:0:0:
256,192,228147,1,8,0:0:0:0:
256,192,228338,1,8,0:0:0:0:
256,192,228530,1,0,0:0:0:0:
256,192,228626,1,0,0:0:0:0:
256,192,228721,1,0,0:0:0:0:
256,192,228913,1,8,0:0:0:0:
256,192,229200,1,12,0:0:0:0:
256,192,229582,1,8,0:0:0:0:
256,192,229774,1,0,0:0:0:0:
256,192,229965,1,8,0:0:0:0:
256,192,230156,1,8,0:0:0:0:
256,192,230348,1,0,0:0:0:0:
256,192,230444,1,0,0:0:0:0:
256,192,230539,1,0,0:0:0:0:
256,192,230731,1,8,0:0:0:0:
256,192,231018,1,12,0:0:0:0:
256,192,231401,1,0,0:0:0:0:
256,192,231593,1,8,0:0:0:0:
256,192,231688,1,8,0:0:0:0:
256,192,231784,1,8,0:0:0:0:
256,192,231975,1,0,0:0:0:0:
256,192,232167,1,8,0:0:0:0:
256,192,232358,1,0,0:0:0:0:
256,192,232454,1,0,0:0:0:0:
256,192,232550,1,0,0:0:0:0:
256,192,232837,1,12,0:0:0:0:
256,192,235946,1,8,0:0:0:0:
256,192,236600,1,0,0:0:0:0:
256,192,236791,1,8,0:0:0:0:
256,192,236982,1,0,0:0:0:0:
256,192,237174,12,0,240109,0:0:0:0:
