osu file format v14

[General]
AudioFilename: audio.ogg
AudioLeadIn: 0
PreviewTime: 63746
Countdown: 0
SampleSet: Normal
StackLeniency: 0.7
Mode: 1
LetterboxInBreaks: 0
WidescreenStoryboard: 0

[Editor]
Bookmarks: 123746,134655,167382
DistanceSpacing: 1
BeatDivisor: 9
GridSize: 32
TimelineZoom: 2.3

[Metadata]
Title:THRESHOLD
TitleUnicode:THRESHOLD
Artist:Sungazer
ArtistUnicode:Sungazer
Creator:Faputa
Version:LIMINAL
Source:
Tags:Adam Neely Shawn Crowder Zac Zinger Simon Grove Ermin Hamidovic Alex Conroy electronic jazz fusion Instrumental
BeatmapID:3308429
BeatmapSetID:1620369

[Difficulty]
HPDrainRate:6
CircleSize:2
OverallDifficulty:6
ApproachRate:10
SliderMultiplier:1.4
SliderTickRate:1

[Events]
//Background and Video events
0,0,"Luminal.jpg",0,20
//Break Periods
2,2128,6932
2,9400,13726
2,18491,21478
2,23946,26932
2,33037,35688
2,47582,50569
//Storyboard Layer 0 (Background)
//Storyboard Layer 1 (Fail)
//Storyboard Layer 2 (Pass)
//Storyboard Layer 3 (Foreground)
//Storyboard Layer 4 (Overlay)
//Storyboard Sound Samples

[TimingPoints]
110,382.775119617225,5,1,0,50,1,0
110,-200,5,1,0,50,0,0
1928,382.775119617225,5,1,0,50,1,0
3746,382.775119617225,5,1,0,50,1,0
5564,382.775119617225,5,1,0,50,1,0
7382,382.775119617225,5,1,0,50,1,0
7382,-200,5,1,0,50,0,0
9200,382.775119617225,5,1,0,50,1,0
11019,382.775119617225,5,1,0,50,1,0
12837,382.775119617225,5,1,0,50,1,0
14176,-200,5,1,0,50,0,0
14655,382.775119617225,5,1,0,50,1,0
14655,-200,5,1,0,50,0,0
16473,382.775119617225,5,1,0,50,1,0
16473,-200,5,1,0,50,0,0
18291,382.775119617225,5,1,0,50,1,0
18291,-200,5,1,0,50,0,0
20109,382.775119617225,5,1,0,50,1,0
20109,-200,5,1,0,50,0,0
21928,382.775119617225,5,1,0,50,1,0
21928,-200,5,1,0,50,0,0
23746,382.775119617225,5,1,0,50,1,0
25564,382.775119617225,5,1,0,50,1,0
27190,-100,5,1,0,35,0,0
27382,382.775119617225,5,1,0,35,1,0
27382,-200,5,1,0,35,0,0
29104,-200,5,1,0,50,0,0
29200,382.775119617225,5,1,0,50,1,0
30826,-166.666666666667,5,1,0,50,0,0
31019,382.775119617225,5,1,0,50,1,0
31019,-166.666666666667,5,1,0,50,0,0
32406,-166.666666666667,5,1,0,10,0,0
32502,-166.666666666667,5,1,0,20,0,0
32597,-166.666666666667,5,1,0,30,0,0
32693,-166.666666666667,5,1,0,40,0,0
32789,-166.666666666667,5,1,0,50,0,0
32837,382.775119617225,5,1,0,50,1,0
32837,-166.666666666667,5,1,0,50,0,0
34655,382.775119617225,5,1,0,50,1,0
34655,-166.666666666667,5,1,0,50,0,0
36473,382.775119617225,5,1,0,50,1,0
36473,-166.666666666667,5,1,0,50,0,0
38291,382.775119617225,5,1,0,50,1,0
38291,-166.666666666667,5,1,0,50,0,0
39582,-166.666666666667,5,1,0,10,0,0
39678,-166.666666666667,5,1,0,18,0,0
39774,-166.666666666667,5,1,0,26,0,0
39869,-166.666666666667,5,1,0,34,0,0
39965,-166.666666666667,5,1,0,42,0,0
40061,-166.666666666667,5,1,0,50,0,0
40109,382.775119617225,5,1,0,50,1,0
40109,-166.666666666667,5,1,0,50,0,0
41928,382.775119617225,5,1,0,50,1,0
41928,-166.666666666667,5,1,0,50,0,0
43219,-166.666666666667,5,1,0,10,0,0
43315,-166.666666666667,5,1,0,16,0,0
43411,-166.666666666667,5,1,0,24,0,0
43506,-166.666666666667,5,1,0,30,0,0
43554,-166.666666666667,5,1,0,36,0,0
43602,-166.666666666667,5,1,0,42,0,0
43698,-166.666666666667,5,1,0,50,0,0
43746,382.775119617225,5,1,0,50,1,0
43746,-166.666666666667,5,1,0,50,0,0
45564,382.775119617225,5,1,0,50,1,0
45564,-166.666666666667,5,1,0,50,0,0
47382,382.775119617225,5,1,0,50,1,0
47382,-166.666666666667,5,1,0,50,0,0
49200,382.775119617225,5,1,0,50,1,0
49200,-166.666666666667,5,1,0,50,0,0
51019,382.775119617225,5,1,0,50,1,0
51019,-166.666666666667,5,1,0,50,0,0
51784,-166.666666666667,5,1,0,55,0,0
52837,382.775119617225,5,1,0,60,1,0
52837,-166.666666666667,5,1,0,60,0,0
54655,382.775119617225,5,1,0,60,1,0
54655,-166.666666666667,5,1,0,60,0,0
56473,382.775119617225,5,1,0,65,1,0
56473,-166.666666666667,5,1,0,65,0,0
58291,382.775119617225,5,1,0,65,1,0
58291,-166.666666666667,5,1,0,65,0,0
60109,382.775119617225,5,1,0,70,1,0
60109,-166.666666666667,5,1,0,70,0,0
61928,382.775119617225,5,1,0,70,1,0
61928,-166.666666666667,5,1,0,70,0,0
62119,-164.502093289137,5,1,0,70,0,0
62215,-163.440888333916,5,1,0,70,0,0
62310,-162.393287311076,5,1,0,70,0,0
62406,-161.358769929825,5,1,0,70,0,0
62597,-159.329033573814,5,1,0,70,0,0
62693,-158.33332013889,5,1,0,70,0,0
62789,-157.349974666654,5,1,0,70,0,0
62884,-156.378523599083,5,1,0,70,0,0
63076,-154.47164518481,5,1,0,70,0,0
63172,-153.535303907781,5,1,0,70,0,0
63267,-152.610478540678,5,1,0,70,0,0
63363,-151.696497782956,5,1,0,70,0,0
63459,-150.793626858154,5,1,0,70,0,0
63554,-149.901439803329,5,1,0,70,0,0
63650,-149.019526028496,5,1,0,70,0,0
63746,382.775119617225,5,1,0,75,1,0
63746,-148.148148148148,5,1,0,75,0,0
63809,-147.572723838308,5,1,0,75,0,0
63873,-147.001968356356,5,1,0,75,0,0
63937,-146.435396364009,5,1,0,75,0,0
64033,-145.593892045041,5,1,0,75,0,0
64128,-144.762004027279,5,1,0,75,0,0
64224,-143.939361225903,5,1,0,75,0,0
64320,-143.126220151027,5,1,0,75,0,0
64383,-142.5890753954,5,1,0,75,0,0
64447,-142.056149113499,5,1,0,75,0,0
64511,-141.52699132015,5,1,0,75,0,0
64607,-140.740803292209,5,1,0,75,0,0
64702,-139.963105725331,5,1,0,75,0,0
64798,-139.194149391513,5,1,0,75,0,0
64894,-138.433596172588,5,1,0,75,0,0
64958,-137.931034482759,5,1,0,75,0,0
65021,-137.432108538382,5,1,0,75,0,0
65085,-136.93696654493,5,1,0,75,0,0
65149,-136.200628974505,5,1,0,75,0,0
65213,-136.054421768707,5,1,0,75,0,0
65277,-135.472351447793,5,1,0,75,0,0
65372,-134.751820833979,5,1,0,75,0,0
65468,-134.751820833979,5,1,0,80,0,0
65564,382.775119617225,5,1,0,80,1,1
65564,-133.333333333333,5,1,0,80,0,1
65755,-132.983321231851,5,1,0,80,0,1
65851,-132.809003387958,5,1,0,80,0,1
65946,-132.635317867171,5,1,0,80,0,1
66042,-132.461910577613,5,1,0,80,0,1
66138,-132.288956121076,5,1,0,80,0,1
66233,-132.116452726091,5,1,0,80,0,1
66329,-131.944398630417,5,1,0,80,0,1
66425,-131.772792080982,5,1,0,80,0,1
66520,-131.601804523944,5,1,0,80,0,1
66616,-131.431087395102,5,1,0,80,0,1
66712,-131.260812609439,5,1,0,80,0,1
66808,-131.090978449954,5,1,0,80,0,1
66903,-130.921583208521,5,1,0,80,0,1
66999,-130.752625185832,5,1,0,80,0,1
67095,-130.58427321364,5,1,0,80,0,1
67286,-130.248527214779,5,1,0,80,0,1
67382,382.775119617225,5,1,0,80,1,1
67382,-130.081300813008,5,1,0,80,0,1
67573,-129.748132924367,5,1,0,80,0,1
67669,-129.582188150746,5,1,0,80,0,1
67764,-129.416834800705,5,1,0,80,0,1
67860,-129.251735850812,5,1,0,80,0,1
67956,-129.087057602518,5,1,0,80,0,1
68052,-128.922798449832,5,1,0,80,0,1
68147,-128.758956794932,5,1,0,80,0,1
68243,-128.595531048105,5,1,0,80,0,1
68339,-128.432684577033,5,1,0,80,0,1
68434,-128.270085492012,5,1,0,80,0,1
68530,-128.107897595671,5,1,0,80,0,1
68721,-127.784749145759,5,1,0,80,0,1
68817,-127.623785500151,5,1,0,80,0,1
68913,-127.463389328,5,1,0,80,0,1
69008,-127.303233756744,5,1,0,80,0,1
69104,-127.14348014591,5,1,0,80,0,1
69200,382.775119617225,5,1,0,80,1,1
69200,-126.984126984127,5,1,0,80,0,1
69391,-126.66661600002,5,1,0,80,0,1
69487,-126.508455192603,5,1,0,80,0,1
69583,-126.350848509123,5,1,0,80,0,1
69678,-126.193474787806,5,1,0,80,0,1
69774,-126.036492606069,5,1,0,80,0,1
69870,-125.879900504527,5,1,0,80,0,1
69965,-125.723697031035,5,1,0,80,0,1
70061,-125.56788074065,5,1,0,80,0,1
70157,-125.412607478605,5,1,0,80,0,1
70252,-125.257560859517,5,1,0,80,0,1
70348,-125.102897132892,5,1,0,80,0,1
70444,-124.94861488213,5,1,0,80,0,1
70540,-124.794712697612,5,1,0,80,0,1
70635,-124.641189176658,5,1,0,80,0,1
70731,-124.488197896398,5,1,0,80,0,1
70922,-124.183030885562,5,1,0,80,0,1
71018,382.775119617225,5,1,0,80,1,1
71018,-124.031007751938,5,1,0,80,0,1
71209,-123.728075385042,5,1,0,80,0,1
71305,-123.577163434506,5,1,0,80,0,1
71401,-123.426771513595,5,1,0,80,0,1
71497,-123.276593226691,5,1,0,80,0,1
71592,-123.126779951513,5,1,0,80,0,1
71688,-122.977330358922,5,1,0,80,0,1
71784,-122.828243126224,5,1,0,80,0,1
71879,-122.679516937134,5,1,0,80,0,1
71975,-122.531300620744,5,1,0,80,0,1
72071,-122.383292232944,5,1,0,80,0,1
72166,-122.235640979254,5,1,0,80,0,1
72358,-121.941404716206,5,1,0,80,0,1
72453,-121.794817143351,5,1,0,80,0,1
72549,-121.648729561493,5,1,0,80,0,1
72645,-121.502844381587,5,1,0,80,0,1
72741,-121.357308683237,5,1,0,80,0,1
72836,382.775119617225,5,1,0,80,1,1
72836,-121.212121212121,5,1,0,80,0,1
73028,-120.92278596425,5,1,0,80,0,1
73123,-120.778635708687,5,1,0,80,0,1
73219,-120.634974250465,5,1,0,80,0,1
73315,-120.491508963363,5,1,0,80,0,1
73410,-120.348384503461,5,1,0,80,0,1
73506,-120.205599657654,5,1,0,80,0,1
73602,-120.063153218593,5,1,0,80,0,1
73697,-119.921043984641,5,1,0,80,0,1
73793,-119.779414230753,5,1,0,80,0,1
73889,-119.637975486179,5,1,0,80,0,1
73985,-119.496870376965,5,1,0,80,0,1
74080,-119.356097723999,5,1,0,80,0,1
74176,-119.215656353718,5,1,0,80,0,1
74272,-119.075545098077,5,1,0,80,0,1
74367,-118.93590425184,5,1,0,80,0,1
74559,-118.657321216048,5,1,0,80,0,1
74654,382.775119617225,5,1,0,80,1,1
74654,-118.518518518519,5,1,0,80,0,1
74846,-118.241885059428,5,1,0,80,0,1
74941,-118.104052031921,5,1,0,80,0,1
75037,-117.966679131812,5,1,0,80,0,1
75133,-117.829486593361,5,1,0,80,0,1
75229,-117.692612787773,5,1,0,80,0,1
75324,-117.556056605592,5,1,0,80,0,1
75420,-117.419816942505,5,1,0,80,0,1
75516,-117.283892699312,5,1,0,80,0,1
75611,-117.148420019259,5,1,0,80,0,1
75707,-117.013123021747,5,1,0,80,0,1
75803,-116.87813817801,5,1,0,80,0,1
75994,-116.60910064065,5,1,0,80,0,1
76090,-116.475045803812,5,1,0,80,0,1
76186,-116.341434187396,5,1,0,80,0,1
76281,-116.207993715472,5,1,0,80,0,1
76377,-116.074858998065,5,1,0,80,0,1
76473,382.775119617225,5,1,0,80,1,1
76473,-115.942028985507,5,1,0,80,0,1
76664,-115.677278900233,5,1,0,80,0,1
76760,-115.545356752066,5,1,0,80,0,1
76855,-115.41386836125,5,1,0,80,0,1
76951,-115.282545991972,5,1,0,80,0,1
77047,-115.151522130395,5,1,0,80,0,1
77142,-115.020795759873,5,1,0,80,0,1
77238,-114.89036586837,5,1,0,80,0,1
77334,-114.760231448435,5,1,0,80,0,1
77430,-114.630522898593,5,1,0,80,0,1
77525,-114.500976120821,5,1,0,80,0,1
77621,-114.371721820523,5,1,0,80,0,1
77717,-114.242759008327,5,1,0,80,0,1
77812,-114.114086699319,5,1,0,80,0,1
77908,-113.985703913015,5,1,0,80,0,1
78004,-113.857739309043,5,1,0,80,0,1
78195,-113.602412006412,5,1,0,80,0,1
78291,382.775119617225,5,1,0,80,1,1
78291,-113.475177304965,5,1,0,80,0,1
78482,-113.221561008306,5,1,0,80,0,1
78578,-113.095177508536,5,1,0,80,0,1
78674,-112.969203465443,5,1,0,80,0,1
78769,-112.843382412682,5,1,0,80,0,1
78865,-112.717841318077,5,1,0,80,0,1
78961,-112.592579248287,5,1,0,80,0,1
79056,-112.467595274112,5,1,0,80,0,1
79152,-112.342888470474,5,1,0,80,0,1
79248,-112.218583846359,5,1,0,80,0,1
79343,-112.094428346439,5,1,0,80,0,1
79439,-111.970547267247,5,1,0,80,0,1
79630,-111.723604739762,5,1,0,80,0,1
79726,-111.600541485827,5,1,0,80,0,1
79822,-111.477873314315,5,1,0,80,0,1
79918,-111.355350513237,5,1,0,80,0,1
80109,382.775119617225,5,1,0,80,1,1
80109,-111.25052279381,5,1,0,80,0,1
80204,-111.390284757119,5,1,0,80,0,1
80300,-111.530398322851,5,1,0,80,0,1
80396,-111.670864819479,5,1,0,80,0,1
80491,-111.811685582177,5,1,0,80,0,1
80587,-111.952861952862,5,1,0,80,0,1
80683,-112.094395280236,5,1,0,80,0,1
80778,-112.236286919831,5,1,0,80,0,1
80874,-112.378538234052,5,1,0,80,0,1
80970,-112.521150592217,5,1,0,80,0,1
81065,-112.664125370606,5,1,0,80,0,1
81161,-112.807463952502,5,1,0,80,0,1
81257,-112.951167728238,5,1,0,80,0,1
81353,-113.095238095238,5,1,0,80,0,1
81448,-113.239676458067,5,1,0,80,0,1
81544,-113.384484228474,5,1,0,80,0,1
81640,-113.529662825437,5,1,0,80,0,1
81735,-113.675213675214,5,1,0,80,0,1
81831,-113.821138211382,5,1,0,80,0,1
81927,382.775119617225,5,1,0,80,1,1
81927,-113.967437874893,5,1,0,80,0,1
82022,-114.114114114114,5,1,0,80,0,1
82118,-114.26116838488,5,1,0,80,0,1
82214,-114.408602150538,5,1,0,80,0,1
82309,-114.556416881998,5,1,0,80,0,1
82405,-114.704614057784,5,1,0,80,0,1
82501,-114.853195164076,5,1,0,80,0,1
82597,-115.002161694769,5,1,0,80,0,1
82692,-115.151515151515,5,1,0,80,0,1
82788,-115.30125704378,5,1,0,80,0,1
82884,-115.451388888889,5,1,0,80,0,1
82979,-115.601912212082,5,1,0,80,0,1
83075,-115.752828546562,5,1,0,80,0,1
83171,-115.904139433551,5,1,0,80,0,1
83266,-116.055846422339,5,1,0,80,0,1
83362,-116.207951070336,5,1,0,80,0,1
83458,-116.360454943132,5,1,0,80,0,1
83553,-116.513359614542,5,1,0,80,0,1
83649,-116.666666666667,5,1,0,80,0,1
83745,382.775119617225,5,1,0,80,1,1
83745,-116.820377689943,5,1,0,80,0,1
83841,-116.974494283201,5,1,0,80,0,1
83936,-117.129018053721,5,1,0,80,0,1
84032,-117.283950617284,5,1,0,80,0,1
84128,-117.439293598234,5,1,0,80,0,1
84223,-117.595048629531,5,1,0,80,0,1
84319,-117.751217352811,5,1,0,80,0,1
84415,-117.90780141844,5,1,0,80,0,1
84510,-118.064802485575,5,1,0,80,0,1
84606,-118.222222222222,5,1,0,80,0,1
84702,-118.380062305296,5,1,0,80,0,1
84797,-118.538324420677,5,1,0,80,0,1
84893,-118.697010263275,5,1,0,80,0,1
84989,-118.856121537087,5,1,0,80,0,1
85085,-119.015659955257,5,1,0,80,0,1
85180,-119.175627240143,5,1,0,80,0,1
85276,-119.336025123374,5,1,0,80,0,1
85372,-119.496855345912,5,1,0,80,0,1
85467,-119.65811965812,5,1,0,80,0,1
85563,382.775119617225,5,1,0,80,1,1
85563,-119.81981981982,5,1,0,80,0,1
85659,-119.981957600361,5,1,0,80,0,1
85754,-120.144534778681,5,1,0,80,0,1
85850,-120.307553143374,5,1,0,80,0,1
85946,-120.471014492754,5,1,0,80,0,1
86042,-120.634920634921,5,1,0,80,0,1
86137,-120.799273387829,5,1,0,80,0,1
86233,-120.964074579354,5,1,0,80,0,1
86329,-121.129326047359,5,1,0,80,0,1
86424,-121.295029639763,5,1,0,80,0,1
86520,-121.461187214612,5,1,0,80,0,1
86616,-121.627800640146,5,1,0,80,0,1
86711,-121.794871794872,5,1,0,80,0,1
86807,-121.96240256763,5,1,0,80,0,1
86903,-122.130394857668,5,1,0,80,0,1
86998,-122.298850574713,5,1,0,80,0,1
87094,-122.467771639042,5,1,0,80,0,1
87190,-122.637159981558,5,1,0,80,0,1
87286,-122.80701754386,5,1,0,80,0,1
87381,382.775119617225,5,1,0,80,1,1
87381,-122.977346278317,5,1,0,80,0,1
87477,-123.148148148148,5,1,0,80,0,1
87573,-123.319425127492,5,1,0,80,0,1
87668,-123.491179201486,5,1,0,80,0,1
87764,-123.663412366341,5,1,0,80,0,1
87860,-123.836126629423,5,1,0,80,0,1
87955,-124.009324009324,5,1,0,80,0,1
88051,-124.183006535948,5,1,0,80,0,1
88147,-124.357176250584,5,1,0,80,0,1
88242,-124.531835205993,5,1,0,80,0,1
88338,-124.706985466479,5,1,0,80,0,1
88434,-124.882629107981,5,1,0,80,0,1
88530,-125.058768218148,5,1,0,80,0,1
88625,-125.235404896422,5,1,0,80,0,1
88721,-125.412541254125,5,1,0,80,0,1
88817,-125.590179414542,5,1,0,80,0,1
88912,-125.768321513002,5,1,0,80,0,1
89008,-125.94696969697,5,1,0,80,0,1
89104,-126.126126126126,5,1,0,80,0,1
89199,382.775119617225,5,1,0,80,1,1
89199,-126.30579297246,5,1,0,80,0,1
89295,-126.485972420352,5,1,0,80,0,1
89391,-126.666666666667,5,1,0,80,0,1
89486,-126.847877920839,5,1,0,80,0,1
89582,-127.029608404967,5,1,0,80,0,1
89678,-127.211860353898,5,1,0,80,0,1
89774,-127.394636015326,5,1,0,80,0,1
89869,-127.57793764988,5,1,0,80,0,1
89965,-127.76176753122,5,1,0,80,0,1
90061,-127.946127946128,5,1,0,80,0,1
90156,-128.131021194605,5,1,0,80,0,1
90252,-128.316449589966,5,1,0,80,0,1
90348,-128.502415458937,5,1,0,80,0,1
90443,-128.688921141751,5,1,0,80,0,1
90539,-128.875968992248,5,1,0,80,0,1
90635,-129.063561377972,5,1,0,80,0,1
90731,-129.251700680272,5,1,0,80,0,1
90826,-129.440389294404,5,1,0,80,0,1
90922,-129.62962962963,5,1,0,80,0,1
91018,382.775119617225,5,1,0,80,1,1
91018,-129.819424109322,5,1,0,80,0,1
91113,-130.009775171066,5,1,0,80,0,1
91209,-130.200685266765,5,1,0,80,0,1
91305,-130.392156862745,5,1,0,80,0,1
91400,-130.584192439863,5,1,0,80,0,1
91496,-130.776794493609,5,1,0,80,0,1
91592,-130.96996553422,5,1,0,80,0,1
91687,-131.163708086785,5,1,0,80,0,1
91783,-131.358024691358,5,1,0,80,0,1
91879,-131.552917903066,5,1,0,80,0,1
91975,-131.748390292224,5,1,0,80,0,1
92070,-131.944444444444,5,1,0,80,0,1
92166,-132.141082960755,5,1,0,80,0,1
92262,-132.338308457711,5,1,0,80,0,1
92357,-132.536123567514,5,1,0,80,0,1
92453,-132.734530938124,5,1,0,80,0,1
92549,-132.933533233383,5,1,0,80,0,1
92740,-132.933533233383,5,1,0,80,0,1
92837,382.775119617225,5,1,0,80,1,1
92837,-133.333333333333,5,1,0,80,0,1
93028,-133.333333333333,5,1,0,50,0,1
94655,382.775119617225,5,1,0,50,1,0
94655,-117.647058823529,5,1,0,50,0,0
96473,382.775119617225,5,1,0,50,1,0
96473,-117.647058823529,5,1,0,50,0,0
98291,382.775119617225,5,1,0,50,1,0
98291,-117.647058823529,5,1,0,50,0,0
100109,382.775119617225,5,1,0,50,1,0
100109,-117.647058823529,5,1,0,50,0,0
101928,382.775119617225,5,1,0,50,1,0
101928,-117.647058823529,5,1,0,50,0,0
103746,382.775119617225,5,1,0,50,1,0
103746,-117.647058823529,5,1,0,50,0,0
105564,382.775119617225,5,1,0,50,1,0
105564,-117.647058823529,5,1,0,50,0,0
107382,382.775119617225,5,1,0,50,1,0
107382,-117.647058823529,5,1,0,50,0,0
109200,382.775119617225,5,1,0,50,1,0
109200,-117.647058823529,5,1,0,50,0,0
111019,382.775119617225,5,1,0,50,1,0
111019,-117.647058823529,5,1,0,50,0,0
112837,382.775119617225,5,1,0,50,1,0
112837,-117.647058823529,5,1,0,50,0,0
114655,382.775119617225,5,1,0,50,1,0
114655,-117.647058823529,5,1,0,50,0,0
116473,382.775119617225,5,1,0,50,1,0
116473,-117.647058823529,5,1,0,50,0,0
118291,382.775119617225,5,1,0,50,1,0
118291,-117.647058823529,5,1,0,50,0,0
120109,382.775119617225,5,1,0,50,1,0
120109,-117.647058823529,5,1,0,50,0,0
121928,382.775119617225,5,1,0,50,1,0
121928,-117.647058823529,5,1,0,50,0,0
123746,382.775119617225,5,1,0,70,1,0
123746,-117.491166077739,5,1,0,70,0,0
123841,-117.33568592854,5,1,0,70,0,0
123937,-117.180616740088,5,1,0,70,0,0
124033,-117.025956885174,5,1,0,70,0,0
124128,-116.871704745167,5,1,0,70,0,0
124224,-116.717858709961,5,1,0,70,0,0
124320,-116.564417177914,5,1,0,70,0,0
124415,-116.411378555799,5,1,0,70,0,0
124511,-116.258741258741,5,1,0,70,0,0
124607,-116.10650371017,5,1,0,70,0,0
124702,-115.954664341761,5,1,0,70,0,0
124798,-115.803221593383,5,1,0,70,0,0
124894,-115.652173913043,5,1,0,70,0,0
124990,-115.501519756839,5,1,0,70,0,0
125085,-115.351257588899,5,1,0,70,0,0
125181,-115.201385881334,5,1,0,70,0,0
125277,-115.051903114187,5,1,0,70,0,0
125372,-114.902807775378,5,1,0,70,0,0
125468,-114.754098360656,5,1,0,70,0,0
125564,382.775119617225,5,1,0,70,1,0
125564,-114.605773373546,5,1,0,70,0,0
125659,-114.457831325301,5,1,0,70,0,0
125755,-114.310270734852,5,1,0,70,0,0
125851,-114.163090128755,5,1,0,70,0,0
125946,-114.016288041149,5,1,0,70,0,0
126042,-113.869863013699,5,1,0,70,0,0
126138,-113.723813595554,5,1,0,70,0,0
126234,-113.578138343296,5,1,0,70,0,0
126329,-113.432835820896,5,1,0,70,0,0
126425,-113.287904599659,5,1,0,70,0,0
126521,-113.143343258188,5,1,0,70,0,0
126616,-112.999150382328,5,1,0,70,0,0
126712,-112.855324565125,5,1,0,70,0,0
126808,-112.71186440678,5,1,0,70,0,0
126903,-112.5687685146,5,1,0,70,0,0
126999,-112.426035502959,5,1,0,70,0,0
127095,-112.283663993246,5,1,0,70,0,0
127190,-112.141652613828,5,1,0,70,0,0
127286,-112,5,1,0,70,0,0
127382,382.775119617225,5,1,0,70,1,0
127382,-111.858704793944,5,1,0,70,0,0
127478,-111.717765644687,5,1,0,70,0,0
127573,-111.577181208054,5,1,0,70,0,0
127669,-111.436950146628,5,1,0,70,0,0
127765,-111.297071129707,5,1,0,70,0,0
127860,-111.157542833264,5,1,0,70,0,0
127956,-111.0183639399,5,1,0,70,0,0
128052,-110.879533138808,5,1,0,70,0,0
128147,-110.741049125729,5,1,0,70,0,0
128243,-110.602910602911,5,1,0,70,0,0
128339,-110.46511627907,5,1,0,70,0,0
128434,-110.327664869349,5,1,0,70,0,0
128530,-110.190555095278,5,1,0,70,0,0
128626,-110.053785684733,5,1,0,70,0,0
128722,-109.917355371901,5,1,0,70,0,0
128817,-109.781262897235,5,1,0,70,0,0
128913,-109.64550700742,5,1,0,70,0,0
129009,-109.510086455331,5,1,0,70,0,0
129104,-109.375,5,1,0,70,0,0
129200,382.775119617225,5,1,0,70,1,0
129200,-109.240246406571,5,1,0,70,0,0
129296,-109.105824446267,5,1,0,70,0,0
129391,-108.971732896354,5,1,0,70,0,0
129487,-108.837970540098,5,1,0,70,0,0
129583,-108.704536166735,5,1,0,70,0,0
129679,-108.571428571429,5,1,0,70,0,0
129774,-108.438646555238,5,1,0,70,0,0
129870,-108.306188925081,5,1,0,70,0,0
129966,-108.174054493697,5,1,0,70,0,0
130061,-108.04224207961,5,1,0,70,0,0
130157,-107.910750507099,5,1,0,70,0,0
130253,-107.779578606159,5,1,0,70,0,0
130348,-107.648725212465,5,1,0,70,0,0
130444,-107.51818916734,5,1,0,70,0,0
130540,-107.387969317723,5,1,0,70,0,0
130635,-107.258064516129,5,1,0,70,0,0
130731,-107.12847362062,5,1,0,70,0,0
130827,-106.999195494771,5,1,0,70,0,0
130923,-106.870229007634,5,1,0,70,0,0
131019,382.775119617225,5,1,0,70,1,0
131019,-106.741573033708,5,1,0,70,0,0
131114,-106.613226452906,5,1,0,70,0,0
131210,-106.48518815052,5,1,0,70,0,0
131305,-106.357457017193,5,1,0,70,0,0
131401,-106.230031948882,5,1,0,70,0,0
131497,-106.102911846829,5,1,0,70,0,0
131592,-105.97609561753,5,1,0,70,0,0
131688,-105.849582172702,5,1,0,70,0,0
131784,-105.723370429253,5,1,0,70,0,0
131879,-105.59745930925,5,1,0,70,0,0
131975,-105.471847739889,5,1,0,70,0,0
132071,-105.346534653465,5,1,0,70,0,0
132167,-105.221518987342,5,1,0,70,0,0
132262,-105.096799683919,5,1,0,70,0,0
132358,-104.972375690608,5,1,0,70,0,0
132454,-104.848245959795,5,1,0,70,0,0
132549,-104.724409448819,5,1,0,70,0,0
132645,-104.600865119937,5,1,0,70,0,0
132741,-104.477611940299,5,1,0,70,0,0
132837,382.775119617225,5,1,0,70,1,0
132837,-104.354648881914,5,1,0,70,0,0
132932,-104.23197492163,5,1,0,70,0,0
133028,-104.109589041096,5,1,0,70,0,0
133123,-103.98749022674,5,1,0,70,0,0
133219,-103.865677469738,5,1,0,70,0,0
133315,-103.744149765991,5,1,0,70,0,0
133411,-103.622906116089,5,1,0,70,0,0
133506,-103.501945525292,5,1,0,70,0,0
133602,-103.381267003498,5,1,0,70,0,0
133698,-103.260869565217,5,1,0,70,0,0
133793,-103.140752229546,5,1,0,70,0,0
133889,-103.020914020139,5,1,0,70,0,0
133985,-102.901353965184,5,1,0,70,0,0
134080,-102.782071097372,5,1,0,70,0,0
134176,-102.663064453879,5,1,0,70,0,0
134272,-102.54433307633,5,1,0,70,0,0
134368,-102.425876010782,5,1,0,70,0,0
134463,-102.307692307692,5,1,0,70,0,0
134559,-102.189781021898,5,1,0,70,0,0
134655,382.775119617225,5,1,0,65,1,0
134655,-102.072141212586,5,1,0,65,0,0
134750,-101.954771943273,5,1,0,65,0,0
134846,-101.837672281776,5,1,0,65,0,0
134942,-101.720841300191,5,1,0,65,0,0
135037,-101.604278074866,5,1,0,65,0,0
135133,-101.487981686379,5,1,0,65,0,0
135229,-101.371951219512,5,1,0,65,0,0
135324,-101.256185763228,5,1,0,65,0,0
135420,-101.140684410646,5,1,0,65,0,0
135516,-101.02544625902,5,1,0,65,0,0
135612,-100.910470409712,5,1,0,65,0,0
135707,-100.79575596817,5,1,0,65,0,0
135803,-100.681302043906,5,1,0,65,0,0
135899,-100.567107750473,5,1,0,65,0,0
135994,-100.453172205438,5,1,0,65,0,0
136090,-100.339494530366,5,1,0,65,0,0
136186,-100.226073850791,5,1,0,65,0,0
136281,-100.112909296199,5,1,0,65,0,0
136377,-100,5,1,0,65,0,0
136473,382.775119617225,5,1,0,65,1,0
136473,-100.15503875969,5,1,0,65,0,0
136568,-100.310559006211,5,1,0,65,0,0
136664,-100.466562986003,5,1,0,65,0,0
136760,-100.623052959502,5,1,0,65,0,0
136855,-100.780031201248,5,1,0,65,0,0
136951,-100.9375,5,1,0,65,0,0
137047,-101.095461658842,5,1,0,65,0,0
137142,-101.253918495298,5,1,0,65,0,0
137238,-101.412872841444,5,1,0,65,0,0
137334,-101.572327044025,5,1,0,65,0,0
137429,-101.732283464567,5,1,0,65,0,0
137525,-101.892744479495,5,1,0,65,0,0
137621,-102.053712480253,5,1,0,65,0,0
137717,-102.215189873418,5,1,0,65,0,0
137812,-102.377179080824,5,1,0,65,0,0
137908,-102.539682539683,5,1,0,65,0,0
138004,-102.702702702703,5,1,0,65,0,0
138099,-102.866242038217,5,1,0,65,0,0
138195,-103.030303030303,5,1,0,65,0,0
138291,382.775119617225,5,1,0,60,1,0
138291,-103.194888178914,5,1,0,60,0,0
138386,-103.36,5,1,0,60,0,0
138482,-103.525641025641,5,1,0,60,0,0
138578,-103.691813804173,5,1,0,60,0,0
138673,-103.858520900322,5,1,0,60,0,0
138769,-104.02576489533,5,1,0,60,0,0
138865,-104.193548387097,5,1,0,60,0,0
138961,-104.361873990307,5,1,0,60,0,0
139056,-104.53074433657,5,1,0,60,0,0
139152,-104.700162074554,5,1,0,60,0,0
139248,-104.87012987013,5,1,0,60,0,0
139343,-105.040650406504,5,1,0,60,0,0
139439,-105.211726384365,5,1,0,60,0,0
139535,-105.383360522023,5,1,0,60,0,0
139630,-105.555555555556,5,1,0,60,0,0
139726,-105.728314238953,5,1,0,60,0,0
139822,-105.901639344262,5,1,0,60,0,0
139917,-106.075533661741,5,1,0,60,0,0
140013,-106.25,5,1,0,60,0,0
140109,382.775119617225,5,1,0,60,1,0
140109,-106.425041186161,5,1,0,60,0,0
140205,-106.600660066007,5,1,0,60,0,0
140300,-106.776859504132,5,1,0,60,0,0
140396,-106.953642384106,5,1,0,60,0,0
140492,-107.131011608624,5,1,0,60,0,0
140587,-107.308970099668,5,1,0,60,0,0
140683,-107.487520798669,5,1,0,60,0,0
140779,-107.666666666667,5,1,0,60,0,0
140874,-107.846410684474,5,1,0,60,0,0
140970,-108.026755852843,5,1,0,60,0,0
141066,-108.20770519263,5,1,0,60,0,0
141161,-108.389261744966,5,1,0,60,0,0
141257,-108.571428571429,5,1,0,60,0,0
141353,-108.754208754209,5,1,0,60,0,0
141449,-108.93760539629,5,1,0,60,0,0
141544,-109.121621621622,5,1,0,60,0,0
141640,-109.306260575296,5,1,0,60,0,0
141736,-109.491525423729,5,1,0,60,0,0
141831,-109.677419354839,5,1,0,60,0,0
141928,382.775119617225,5,1,0,50,1,0
141928,-109.863945578231,5,1,0,50,0,0
142023,-110.051107325383,5,1,0,50,0,0
142118,-110.238907849829,5,1,0,50,0,0
142214,-110.42735042735,5,1,0,50,0,0
142310,-110.616438356164,5,1,0,50,0,0
142406,-110.806174957118,5,1,0,50,0,0
142501,-110.996563573883,5,1,0,50,0,0
142597,-111.18760757315,5,1,0,50,0,0
142693,-111.379310344828,5,1,0,50,0,0
142788,-111.571675302245,5,1,0,50,0,0
142884,-111.764705882353,5,1,0,50,0,0
142980,-111.958405545927,5,1,0,50,0,0
143075,-112.152777777778,5,1,0,50,0,0
143171,-112.347826086957,5,1,0,50,0,0
143267,-112.543554006969,5,1,0,50,0,0
143362,-112.739965095986,5,1,0,50,0,0
143458,-112.937062937063,5,1,0,50,0,0
143554,-113.134851138354,5,1,0,50,0,0
143650,-113.333333333333,5,1,0,50,0,0
143746,382.775119617225,5,1,0,50,1,0
143746,-113.532513181019,5,1,0,50,0,0
143841,-113.732394366197,5,1,0,50,0,0
143937,-113.932980599647,5,1,0,50,0,0
144032,-114.134275618375,5,1,0,50,0,0
144128,-114.336283185841,5,1,0,50,0,0
144224,-114.539007092199,5,1,0,50,0,0
144319,-114.742451154529,5,1,0,50,0,0
144415,-114.946619217082,5,1,0,50,0,0
144511,-115.151515151515,5,1,0,50,0,0
144606,-115.357142857143,5,1,0,50,0,0
144702,-115.563506261181,5,1,0,50,0,0
144798,-115.770609318996,5,1,0,50,0,0
144894,-115.978456014363,5,1,0,50,0,0
144989,-116.187050359712,5,1,0,50,0,0
145085,-116.396396396396,5,1,0,50,0,0
145181,-116.606498194946,5,1,0,50,0,0
145276,-116.817359855335,5,1,0,50,0,0
145372,-117.028985507246,5,1,0,50,0,0
145468,-117.241379310345,5,1,0,50,0,0
145564,382.775119617225,5,1,0,50,1,0
145564,-117.454545454545,5,1,0,50,0,0
145659,-117.668488160291,5,1,0,50,0,0
145755,-117.883211678832,5,1,0,50,0,0
145850,-118.098720292505,5,1,0,50,0,0
145946,-118.315018315018,5,1,0,50,0,0
146042,-118.532110091743,5,1,0,50,0,0
146138,-118.75,5,1,0,50,0,0
146233,-118.968692449355,5,1,0,50,0,0
146329,-119.188191881919,5,1,0,50,0,0
146425,-119.408502772643,5,1,0,50,0,0
146520,-119.62962962963,5,1,0,50,0,0
146616,-119.851576994434,5,1,0,50,0,0
146712,-120.074349442379,5,1,0,50,0,0
146807,-120.297951582868,5,1,0,50,0,0
146903,-120.522388059701,5,1,0,50,0,0
146999,-120.747663551402,5,1,0,50,0,0
147095,-120.973782771536,5,1,0,50,0,0
147190,-121.200750469043,5,1,0,50,0,0
147286,-121.428571428571,5,1,0,50,0,0
147382,382.775119617225,5,1,0,50,1,0
147382,-121.65725047081,5,1,0,50,0,0
147477,-121.88679245283,5,1,0,50,0,0
147573,-122.117202268431,5,1,0,50,0,0
147669,-122.348484848485,5,1,0,50,0,0
147764,-122.58064516129,5,1,0,50,0,0
147860,-122.813688212928,5,1,0,50,0,0
147956,-123.047619047619,5,1,0,50,0,0
148051,-123.282442748092,5,1,0,50,0,0
148147,-123.518164435946,5,1,0,50,0,0
148243,-123.754789272031,5,1,0,50,0,0
148339,-123.992322456814,5,1,0,50,0,0
148434,-124.230769230769,5,1,0,50,0,0
148530,-124.470134874759,5,1,0,50,0,0
148626,-124.710424710425,5,1,0,50,0,0
148721,-124.95164410058,5,1,0,50,0,0
148817,-125.193798449612,5,1,0,50,0,0
148913,-125.436893203884,5,1,0,50,0,0
149008,-125.68093385214,5,1,0,50,0,0
149104,-125.925925925926,5,1,0,50,0,0
149200,382.775119617225,5,1,0,50,1,0
149200,-126.171875,5,1,0,50,0,0
149295,-126.418786692759,5,1,0,50,0,0
149391,-126.666666666667,5,1,0,50,0,0
149487,-126.915520628684,5,1,0,50,0,0
149583,-127.165354330709,5,1,0,50,0,0
149678,-127.41617357002,5,1,0,50,0,0
149774,-127.667984189723,5,1,0,50,0,0
149870,-127.920792079208,5,1,0,50,0,0
149965,-128.174603174603,5,1,0,50,0,0
150061,-128.429423459245,5,1,0,50,0,0
150157,-128.685258964143,5,1,0,50,0,0
150252,-128.942115768463,5,1,0,50,0,0
150348,-129.2,5,1,0,50,0,0
150444,-129.458917835671,5,1,0,50,0,0
150539,-129.718875502008,5,1,0,50,0,0
150635,-129.979879275654,5,1,0,50,0,0
150731,-130.241935483871,5,1,0,50,0,0
150827,-130.50505050505,5,1,0,50,0,0
150922,-130.769230769231,5,1,0,50,0,0
151019,382.775119617225,5,1,0,50,1,0
151019,-131.034482758621,5,1,0,50,0,0
151114,-131.30081300813,5,1,0,50,0,0
151209,-131.568228105906,5,1,0,50,0,0
151305,-131.836734693878,5,1,0,50,0,0
151401,-132.106339468303,5,1,0,50,0,0
151496,-132.377049180328,5,1,0,50,0,0
151592,-132.64887063655,5,1,0,50,0,0
151688,-132.921810699588,5,1,0,50,0,0
151784,-133.19587628866,5,1,0,50,0,0
151879,-133.471074380165,5,1,0,50,0,0
151975,-133.747412008282,5,1,0,50,0,0
152071,-134.02489626556,5,1,0,50,0,0
152166,-134.303534303534,5,1,0,50,0,0
152262,-134.583333333333,5,1,0,50,0,0
152358,-134.864300626305,5,1,0,50,0,0
152453,-135.146443514644,5,1,0,50,0,0
152549,-135.429769392034,5,1,0,50,0,0
152645,-135.714285714286,5,1,0,50,0,0
152740,-136,5,1,0,50,0,0
152837,382.775119617225,5,1,0,50,1,0
152837,-136.286919831224,5,1,0,50,0,0
152932,-136.575052854123,5,1,0,50,0,0
153028,-136.864406779661,5,1,0,50,0,0
153123,-137.154989384289,5,1,0,50,0,0
153219,-137.446808510638,5,1,0,50,0,0
153315,-137.73987206823,5,1,0,50,0,0
153410,-138.034188034188,5,1,0,50,0,0
153506,-138.329764453961,5,1,0,50,0,0
153602,-138.62660944206,5,1,0,50,0,0
153697,-138.924731182796,5,1,0,50,0,0
153793,-139.224137931035,5,1,0,50,0,0
153889,-139.524838012959,5,1,0,50,0,0
153984,-139.82683982684,5,1,0,50,0,0
154080,-140.130151843818,5,1,0,50,0,0
154176,-140.434782608696,5,1,0,50,0,0
154272,-140.740740740741,5,1,0,50,0,0
154367,-141.048034934498,5,1,0,50,0,0
154463,-141.356673960613,5,1,0,50,0,0
154559,-141.666666666667,5,1,0,50,0,0
154655,382.775119617225,5,1,0,50,1,0
154655,-141.978021978022,5,1,0,50,0,0
154750,-142.290748898678,5,1,0,50,0,0
154846,-142.604856512141,5,1,0,50,0,0
154941,-142.920353982301,5,1,0,50,0,0
155037,-143.237250554324,5,1,0,50,0,0
155133,-143.555555555556,5,1,0,50,0,0
155228,-143.875278396437,5,1,0,50,0,0
155324,-144.196428571429,5,1,0,50,0,0
155420,-144.519015659955,5,1,0,50,0,0
155516,-144.843049327354,5,1,0,50,0,0
155611,-145.168539325843,5,1,0,50,0,0
155707,-145.495495495496,5,1,0,50,0,0
155803,-145.823927765237,5,1,0,50,0,0
155898,-146.153846153846,5,1,0,50,0,0
155994,-146.485260770975,5,1,0,50,0,0
156090,-146.818181818182,5,1,0,50,0,0
156185,-147.152619589977,5,1,0,50,0,0
156281,-147.488584474886,5,1,0,50,0,0
156377,-147.826086956522,5,1,0,50,0,0
156473,382.775119617225,5,1,0,50,1,0
156473,-148.165137614679,5,1,0,50,0,0
156568,-148.505747126437,5,1,0,50,0,0
156664,-148.847926267281,5,1,0,50,0,0
156760,-149.19168591224,5,1,0,50,0,0
156855,-149.537037037037,5,1,0,50,0,0
156951,-149.883990719258,5,1,0,50,0,0
157047,-150.232558139535,5,1,0,50,0,0
157142,-150.582750582751,5,1,0,50,0,0
157238,-150.934579439252,5,1,0,50,0,0
157334,-151.288056206089,5,1,0,50,0,0
157429,-151.643192488263,5,1,0,50,0,0
157525,-152,5,1,0,50,0,0
157621,-152.358490566038,5,1,0,50,0,0
157717,-152.718676122931,5,1,0,50,0,0
157812,-153.080568720379,5,1,0,50,0,0
157908,-153.444180522565,5,1,0,50,0,0
158004,-153.809523809524,5,1,0,50,0,0
158099,-154.17661097852,5,1,0,50,0,0
158195,-154.545454545455,5,1,0,50,0,0
158291,382.775119617225,5,1,0,50,1,0
158291,-154.916067146283,5,1,0,50,0,0
158386,-155.288461538462,5,1,0,50,0,0
158482,-155.66265060241,5,1,0,50,0,0
158578,-156.038647342995,5,1,0,50,0,0
158673,-156.416464891041,5,1,0,50,0,0
158769,-156.796116504854,5,1,0,50,0,0
158865,-157.177615571776,5,1,0,50,0,0
158961,-157.560975609756,5,1,0,50,0,0
159056,-157.946210268949,5,1,0,50,0,0
159152,-158.333333333333,5,1,0,50,0,0
159248,-158.722358722359,5,1,0,50,0,0
159343,-159.113300492611,5,1,0,50,0,0
159439,-159.506172839506,5,1,0,50,0,0
159535,-159.90099009901,5,1,0,50,0,0
159630,-160.29776674938,5,1,0,50,0,0
159726,-160.696517412935,5,1,0,50,0,0
159822,-161.097256857855,5,1,0,50,0,0
159917,-161.5,5,1,0,50,0,0
160013,-161.904761904762,5,1,0,50,0,0
160109,382.775119617225,5,1,0,50,1,0
160109,-162.311557788945,5,1,0,50,0,0
160205,-162.72040302267,5,1,0,50,0,0
160300,-163.131313131313,5,1,0,50,0,0
160396,-163.544303797468,5,1,0,50,0,0
160492,-163.959390862944,5,1,0,50,0,0
160587,-164.376590330789,5,1,0,50,0,0
160683,-164.795918367347,5,1,0,50,0,0
160779,-165.217391304348,5,1,0,50,0,0
160874,-165.641025641026,5,1,0,50,0,0
160970,-166.066838046273,5,1,0,50,0,0
161066,-166.494845360825,5,1,0,50,0,0
161161,-166.925064599483,5,1,0,50,0,0
161257,-167.357512953368,5,1,0,50,0,0
161353,-167.792207792208,5,1,0,50,0,0
161449,-168.229166666667,5,1,0,50,0,0
161544,-168.668407310705,5,1,0,50,0,0
161640,-169.109947643979,5,1,0,50,0,0
161736,-169.553805774278,5,1,0,50,0,0
161831,-170,5,1,0,50,0,0
161928,382.775119617225,5,1,0,50,1,0
161928,-170.448548812665,5,1,0,50,0,0
162023,-170.899470899471,5,1,0,50,0,0
162118,-171.352785145889,5,1,0,50,0,0
162214,-171.808510638298,5,1,0,50,0,0
162310,-172.266666666667,5,1,0,50,0,0
162406,-172.727272727273,5,1,0,50,0,0
162501,-173.190348525469,5,1,0,50,0,0
162597,-173.655913978495,5,1,0,50,0,0
162693,-174.123989218329,5,1,0,50,0,0
162788,-174.594594594595,5,1,0,50,0,0
162884,-175.067750677507,5,1,0,50,0,0
162980,-175.54347826087,5,1,0,50,0,0
163075,-176.021798365123,5,1,0,50,0,0
163171,-176.502732240437,5,1,0,50,0,0
163267,-176.986301369863,5,1,0,50,0,0
163362,-177.472527472527,5,1,0,50,0,0
163458,-177.961432506887,5,1,0,50,0,0
163554,-178.453038674033,5,1,0,50,0,0
163650,-178.947368421053,5,1,0,50,0,0
163746,382.775119617225,5,1,0,50,1,0
163746,-179.444444444444,5,1,0,50,0,0
163841,-179.944289693593,5,1,0,50,0,0
163937,-180.446927374302,5,1,0,50,0,0
164032,-180.952380952381,5,1,0,50,0,0
164128,-181.460674157303,5,1,0,50,0,0
164224,-181.971830985916,5,1,0,50,0,0
164319,-182.485875706215,5,1,0,50,0,0
164415,-183.00283286119,5,1,0,50,0,0
164511,-183.522727272727,5,1,0,50,0,0
164606,-184.045584045584,5,1,0,50,0,0
164702,-184.571428571429,5,1,0,50,0,0
164798,-185.100286532951,5,1,0,50,0,0
164894,-185.632183908046,5,1,0,50,0,0
164989,-186.167146974063,5,1,0,50,0,0
165085,-186.705202312139,5,1,0,50,0,0
165181,-187.246376811594,5,1,0,50,0,0
165276,-187.790697674419,5,1,0,50,0,0
165372,-188.338192419825,5,1,0,50,0,0
165468,-188.888888888889,5,1,0,50,0,0
165564,382.775119617225,5,1,0,50,1,0
165564,-189.442815249267,5,1,0,50,0,0
165659,-190,5,1,0,50,0,0
165755,-190.560471976401,5,1,0,50,0,0
165850,-191.12426035503,5,1,0,50,0,0
165946,-191.691394658754,5,1,0,50,0,0
166042,-192.261904761905,5,1,0,50,0,0
166138,-192.835820895522,5,1,0,50,0,0
166233,-193.413173652695,5,1,0,50,0,0
166329,-193.993993993994,5,1,0,50,0,0
166425,-194.578313253012,5,1,0,50,0,0
166520,-195.166163141994,5,1,0,50,0,0
166616,-195.757575757576,5,1,0,50,0,0
166712,-196.352583586626,5,1,0,50,0,0
166807,-196.951219512195,5,1,0,50,0,0
166903,-197.553516819572,5,1,0,50,0,0
167286,-197.553516819572,5,1,0,70,0,0
167382,382.775119617225,5,1,0,70,1,0
167382,-133.166458072591,5,1,0,70,0,0
167477,-133,5,1,0,70,0,0
167573,-132.833957553059,5,1,0,70,0,0
167669,-132.668329177057,5,1,0,70,0,0
167764,-132.503113325031,5,1,0,70,0,0
167860,-132.338308457711,5,1,0,70,0,0
167956,-132.173913043478,5,1,0,70,0,0
168051,-132.009925558313,5,1,0,70,0,0
168147,-131.84634448575,5,1,0,70,0,0
168243,-131.683168316832,5,1,0,70,0,0
168338,-131.520395550062,5,1,0,70,0,0
168434,-131.358024691358,5,1,0,70,0,0
168530,-131.196054254007,5,1,0,70,0,0
168626,-131.034482758621,5,1,0,70,0,0
168721,-130.873308733087,5,1,0,70,0,0
168817,-130.712530712531,5,1,0,70,0,0
168913,-130.552147239264,5,1,0,70,0,0
169008,-130.392156862745,5,1,0,70,0,0
169104,-130.232558139535,5,1,0,70,0,0
169200,382.775119617225,5,1,0,70,1,0
169200,-130.073349633252,5,1,0,70,0,0
169295,-129.91452991453,5,1,0,70,0,0
169391,-129.756097560976,5,1,0,70,0,0
169487,-129.598051157125,5,1,0,70,0,0
169582,-129.440389294404,5,1,0,70,0,0
169678,-129.283110571081,5,1,0,70,0,0
169774,-129.126213592233,5,1,0,70,0,0
169870,-128.969696969697,5,1,0,70,0,0
169965,-128.813559322034,5,1,0,70,0,0
170061,-128.657799274486,5,1,0,70,0,0
170157,-128.502415458937,5,1,0,70,0,0
170252,-128.347406513872,5,1,0,70,0,0
170348,-128.192771084337,5,1,0,70,0,0
170444,-128.038507821901,5,1,0,70,0,0
170539,-127.884615384615,5,1,0,70,0,0
170635,-127.731092436975,5,1,0,70,0,0
170731,-127.57793764988,5,1,0,70,0,0
170826,-127.425149700599,5,1,0,70,0,0
170922,-127.272727272727,5,1,0,70,0,0
170976,-127.120669056153,5,1,0,70,0,0
171019,382.775119617225,5,1,0,70,1,0
171019,-127.120669056153,5,1,0,70,0,0
171114,-126.968973747017,5,1,0,70,0,0
171209,-126.817640047676,5,1,0,70,0,0
171305,-126.666666666667,5,1,0,70,0,0
171401,-126.516052318668,5,1,0,70,0,0
171496,-126.365795724466,5,1,0,70,0,0
171592,-126.215895610913,5,1,0,70,0,0
171688,-126.0663507109,5,1,0,70,0,0
171783,-125.917159763314,5,1,0,70,0,0
171879,-125.768321513002,5,1,0,70,0,0
171975,-125.619834710744,5,1,0,70,0,0
172070,-125.471698113208,5,1,0,70,0,0
172166,-125.323910482921,5,1,0,70,0,0
172262,-125.176470588235,5,1,0,70,0,0
172358,-125.02937720329,5,1,0,70,0,0
172453,-124.882629107981,5,1,0,70,0,0
172549,-124.736225087925,5,1,0,70,0,0
172645,-124.590163934426,5,1,0,70,0,0
172740,-124.444444444444,5,1,0,70,0,0
172837,382.775119617225,5,1,0,70,1,0
172837,-124.299065420561,5,1,0,70,0,0
172932,-124.154025670945,5,1,0,70,0,0
173027,-124.009324009324,5,1,0,70,0,0
173123,-123.864959254948,5,1,0,70,0,0
173219,-123.720930232558,5,1,0,70,0,0
173315,-123.577235772358,5,1,0,70,0,0
173410,-123.433874709977,5,1,0,70,0,0
173506,-123.290845886443,5,1,0,70,0,0
173602,-123.148148148148,5,1,0,70,0,0
173697,-123.005780346821,5,1,0,70,0,0
173793,-122.863741339492,5,1,0,70,0,0
173889,-122.722029988466,5,1,0,70,0,0
173984,-122.58064516129,5,1,0,70,0,0
174080,-122.439585730725,5,1,0,70,0,0
174176,-122.298850574713,5,1,0,70,0,0
174271,-122.158438576349,5,1,0,70,0,0
174367,-122.018348623853,5,1,0,70,0,0
174463,-121.878579610538,5,1,0,70,0,0
174559,-121.739130434783,5,1,0,70,0,0
174655,382.775119617225,5,1,0,70,1,0
174655,-121.6,5,1,0,70,0,0
174750,-121.461187214612,5,1,0,70,0,0
174846,-121.322690992018,5,1,0,70,0,0
174941,-121.184510250569,5,1,0,70,0,0
175037,-121.046643913538,5,1,0,70,0,0
175133,-120.909090909091,5,1,0,70,0,0
175228,-120.771850170261,5,1,0,70,0,0
175324,-120.634920634921,5,1,0,70,0,0
175420,-120.498301245753,5,1,0,70,0,0
175515,-120.361990950226,5,1,0,70,0,0
175611,-120.225988700565,5,1,0,70,0,0
175707,-120.090293453725,5,1,0,70,0,0
175803,-119.954904171364,5,1,0,70,0,0
175898,-119.81981981982,5,1,0,70,0,0
175994,-119.685039370079,5,1,0,70,0,0
176090,-119.550561797753,5,1,0,70,0,0
176185,-119.416386083053,5,1,0,70,0,0
176281,-119.282511210762,5,1,0,70,0,0
176377,-119.148936170213,5,1,0,70,0,0
176473,382.775119617225,5,1,0,70,1,0
176473,-119.015659955257,5,1,0,70,0,0
176568,-118.882681564246,5,1,0,70,0,0
176664,-118.75,5,1,0,70,0,0
176759,-118.617614269788,5,1,0,70,0,0
176855,-118.485523385301,5,1,0,70,0,0
176951,-118.353726362625,5,1,0,70,0,0
177047,-118.222222222222,5,1,0,70,0,0
177142,-118.091009988901,5,1,0,70,0,0
177238,-117.960088691796,5,1,0,70,0,0
177334,-117.829457364341,5,1,0,70,0,0
177429,-117.699115044248,5,1,0,70,0,0
177525,-117.569060773481,5,1,0,70,0,0
177621,-117.439293598234,5,1,0,70,0,0
177716,-117.309812568908,5,1,0,70,0,0
177812,-117.180616740088,5,1,0,70,0,0
177908,-117.051705170517,5,1,0,70,0,0
178004,-116.923076923077,5,1,0,70,0,0
178099,-116.794731064764,5,1,0,70,0,0
178195,-116.666666666667,5,1,0,70,0,0
178291,382.775119617225,5,1,0,70,1,0
178291,-116.538882803943,5,1,0,70,0,0
178386,-116.411378555799,5,1,0,70,0,0
178482,-116.284153005464,5,1,0,70,0,0
178578,-116.157205240175,5,1,0,70,0,0
178673,-116.030534351145,5,1,0,70,0,0
178769,-115.904139433551,5,1,0,70,0,0
178865,-115.778019586507,5,1,0,70,0,0
178960,-115.652173913043,5,1,0,70,0,0
179056,-115.526601520087,5,1,0,70,0,0
179152,-115.401301518438,5,1,0,70,0,0
179248,-115.276273022752,5,1,0,70,0,0
179343,-115.151515151515,5,1,0,70,0,0
179439,-115.027027027027,5,1,0,70,0,0
179535,-114.902807775378,5,1,0,70,0,0
179630,-114.778856526429,5,1,0,70,0,0
179726,-114.655172413793,5,1,0,70,0,0
179822,-114.531754574812,5,1,0,70,0,0
179917,-114.408602150538,5,1,0,70,0,0
180013,-114.285714285714,5,1,0,70,0,0
180109,382.775119617225,5,1,0,70,1,0
180109,-114.163090128755,5,1,0,70,0,0
180204,-114.040728831726,5,1,0,70,0,0
180300,-113.918629550321,5,1,0,70,0,0
180396,-113.79679144385,5,1,0,70,0,0
180492,-113.675213675214,5,1,0,70,0,0
180587,-113.553895410886,5,1,0,70,0,0
180683,-113.432835820896,5,1,0,70,0,0
180779,-113.312034078807,5,1,0,70,0,0
180874,-113.191489361702,5,1,0,70,0,0
180970,-113.071200850159,5,1,0,70,0,0
181066,-112.951167728238,5,1,0,70,0,0
181161,-112.831389183457,5,1,0,70,0,0
181257,-112.71186440678,5,1,0,70,0,0
181353,-112.592592592593,5,1,0,70,0,0
181448,-112.473572938689,5,1,0,70,0,0
181544,-112.354804646251,5,1,0,70,0,0
181640,-112.236286919831,5,1,0,70,0,0
181736,-112.118018967334,5,1,0,70,0,0
181831,-112,5,1,0,70,0,0
181928,382.775119617225,5,1,0,70,1,0
181928,-111.882229232387,5,1,0,70,0,0
182023,-111.764705882353,5,1,0,70,0,0
182118,-111.647429171039,5,1,0,70,0,0
182214,-111.530398322851,5,1,0,70,0,0
182310,-111.413612565445,5,1,0,70,0,0
182405,-111.297071129707,5,1,0,70,0,0
182501,-111.180773249739,5,1,0,70,0,0
182597,-111.064718162839,5,1,0,70,0,0
182693,-110.948905109489,5,1,0,70,0,0
182788,-110.833333333333,5,1,0,70,0,0
182884,-110.718002081165,5,1,0,70,0,0
182980,-110.602910602911,5,1,0,70,0,0
183075,-110.48805815161,5,1,0,70,0,0
183171,-110.373443983402,5,1,0,70,0,0
183267,-110.259067357513,5,1,0,70,0,0
183362,-110.144927536232,5,1,0,70,0,0
183458,-110.031023784902,5,1,0,70,0,0
183554,-109.917355371901,5,1,0,70,0,0
183649,-109.803921568627,5,1,0,70,0,0
183746,382.775119617225,5,1,0,70,1,0
183746,-109.690721649485,5,1,0,70,0,0
183841,-109.577754891864,5,1,0,70,0,0
183937,-109.465020576132,5,1,0,70,0,0
184032,-109.352517985612,5,1,0,70,0,0
184128,-109.240246406571,5,1,0,70,0,0
184224,-109.128205128205,5,1,0,70,0,0
184319,-109.016393442623,5,1,0,70,0,0
184415,-108.904810644831,5,1,0,70,0,0
184511,-108.79345603272,5,1,0,70,0,0
184606,-108.682328907048,5,1,0,70,0,0
184702,-108.571428571429,5,1,0,70,0,0
184798,-108.460754332314,5,1,0,70,0,0
184893,-108.350305498982,5,1,0,70,0,0
184989,-108.24008138352,5,1,0,70,0,0
185085,-108.130081300813,5,1,0,70,0,0
185181,-108.020304568528,5,1,0,70,0,0
185276,-107.910750507099,5,1,0,70,0,0
185372,-107.801418439716,5,1,0,70,0,0
185468,-107.692307692308,5,1,0,70,0,0
185564,382.775119617225,5,1,0,70,1,0
185564,-107.583417593529,5,1,0,70,0,0
185659,-107.474747474747,5,1,0,70,0,0
185755,-107.36629667003,5,1,0,70,0,0
185850,-107.258064516129,5,1,0,70,0,0
185946,-107.150050352467,5,1,0,70,0,0
186042,-107.042253521127,5,1,0,70,0,0
186137,-106.934673366834,5,1,0,70,0,0
186233,-106.827309236948,5,1,0,70,0,0
186329,-106.720160481444,5,1,0,70,0,0
186425,-106.613226452906,5,1,0,70,0,0
186520,-106.506506506506,5,1,0,70,0,0
186616,-106.4,5,1,0,70,0,0
186712,-106.293706293706,5,1,0,70,0,0
186807,-106.187624750499,5,1,0,70,0,0
186903,-106.081754735793,5,1,0,70,0,0
186999,-105.97609561753,5,1,0,70,0,0
187094,-105.870646766169,5,1,0,70,0,0
187190,-105.765407554672,5,1,0,70,0,0
187286,-105.660377358491,5,1,0,70,0,0
187382,382.775119617225,5,1,0,70,1,0
187382,-105.555555555556,5,1,0,70,0,0
187477,-105.450941526264,5,1,0,70,0,0
187573,-105.346534653465,5,1,0,70,0,0
187669,-105.242334322453,5,1,0,70,0,0
187764,-105.138339920949,5,1,0,70,0,0
187860,-105.034550839092,5,1,0,70,0,0
187956,-104.930966469428,5,1,0,70,0,0
188051,-104.827586206897,5,1,0,70,0,0
188147,-104.724409448819,5,1,0,70,0,0
188243,-104.621435594887,5,1,0,70,0,0
188338,-104.518664047151,5,1,0,70,0,0
188434,-104.41609421001,5,1,0,70,0,0
188530,-104.313725490196,5,1,0,70,0,0
188626,-104.211557296768,5,1,0,70,0,0
188721,-104.109589041096,5,1,0,70,0,0
188817,-104.007820136852,5,1,0,70,0,0
188913,-103.90625,5,1,0,70,0,0
189008,-103.80487804878,5,1,0,70,0,0
189104,-103.703703703704,5,1,0,70,0,0
189200,382.775119617225,5,1,0,70,1,0
189200,-103.602726387537,5,1,0,70,0,0
189295,-103.501945525292,5,1,0,70,0,0
189391,-103.401360544218,5,1,0,70,0,0
189487,-103.300970873786,5,1,0,70,0,0
189582,-103.200775945684,5,1,0,70,0,0
189678,-103.100775193798,5,1,0,70,0,0
189774,-103.000968054211,5,1,0,70,0,0
189870,-102.901353965184,5,1,0,70,0,0
189965,-102.80193236715,5,1,0,70,0,0
190061,-102.702702702703,5,1,0,70,0,0
190157,-102.603664416586,5,1,0,70,0,0
190252,-102.504816955684,5,1,0,70,0,0
190348,-102.406159769009,5,1,0,70,0,0
190444,-102.307692307692,5,1,0,70,0,0
190539,-102.209414024976,5,1,0,70,0,0
190635,-102.1113243762,5,1,0,70,0,0
190731,-102.013422818792,5,1,0,70,0,0
190826,-101.915708812261,5,1,0,70,0,0
190922,-101.818181818182,5,1,0,70,0,0
191019,382.775119617225,5,1,0,70,1,0
191019,-101.720841300191,5,1,0,70,0,0
191114,-101.623686723973,5,1,0,70,0,0
191209,-101.526717557252,5,1,0,70,0,0
191305,-101.429933269781,5,1,0,70,0,0
191401,-101.333333333333,5,1,0,70,0,0
191496,-101.236917221694,5,1,0,70,0,0
191592,-101.140684410646,5,1,0,70,0,0
191688,-101.044634377968,5,1,0,70,0,0
191783,-100.948766603416,5,1,0,70,0,0
191879,-100.85308056872,5,1,0,70,0,0
191975,-100.757575757576,5,1,0,70,0,0
192070,-100.662251655629,5,1,0,70,0,0
192166,-100.567107750473,5,1,0,70,0,0
192262,-100.472143531634,5,1,0,70,0,0
192358,-100.377358490566,5,1,0,70,0,0
192453,-100.282752120641,5,1,0,70,0,0
192549,-100.188323917137,5,1,0,70,0,0
192645,-100.094073377234,5,1,0,70,0,0
192740,-100,5,1,0,70,0,0
192789,-100,5,1,0,35,0,0
192837,382.775119617225,5,1,0,35,1,0
194655,382.775119617225,5,1,0,35,1,0
196377,-100,5,1,0,80,0,0
196473,382.775119617225,5,1,0,80,1,1
196473,-99.9014130791982,5,1,0,80,0,1
196568,-99.8030203545634,5,1,0,80,0,1
196664,-99.7048212528698,5,1,0,80,0,1
196760,-99.6068152031455,5,1,0,80,0,1
196855,-99.5090016366612,5,1,0,80,0,1
196951,-99.4113799869196,5,1,0,80,0,1
197047,-99.3139496896439,5,1,0,80,0,1
197142,-99.2167101827676,5,1,0,80,0,1
197238,-99.1196609064232,5,1,0,80,0,1
197334,-99.0228013029316,5,1,0,80,0,1
197429,-98.9261308167914,5,1,0,80,0,1
197525,-98.8296488946684,5,1,0,80,0,1
197621,-98.7333549853849,5,1,0,80,0,1
197717,-98.6372485399092,5,1,0,80,0,1
197812,-98.5413290113452,5,1,0,80,0,1
197908,-98.4455958549223,5,1,0,80,0,1
198004,-98.3500485279845,5,1,0,80,0,1
198099,-98.2546864899806,5,1,0,80,0,1
198195,-98.159509202454,5,1,0,80,0,1
198291,382.775119617225,5,1,0,80,1,1
198291,-98.0645161290323,5,1,0,80,0,1
198386,-97.9697067354173,5,1,0,80,0,1
198482,-97.8750804893754,5,1,0,80,0,1
198578,-97.7806368607269,5,1,0,80,0,1
198673,-97.6863753213368,5,1,0,80,0,1
198769,-97.5922953451043,5,1,0,80,0,1
198865,-97.4983964079538,5,1,0,80,0,1
198961,-97.4046779878244,5,1,0,80,0,1
199056,-97.3111395646607,5,1,0,80,0,1
199152,-97.2177806204029,5,1,0,80,0,1
199248,-97.1246006389776,5,1,0,80,0,1
199343,-97.0315991062879,5,1,0,80,0,1
199439,-96.9387755102041,5,1,0,80,0,1
199535,-96.8461293405543,5,1,0,80,0,1
199630,-96.7536600891152,5,1,0,80,0,1
199726,-96.6613672496026,5,1,0,80,0,1
199822,-96.569250317662,5,1,0,80,0,1
199917,-96.47730879086,5,1,0,80,0,1
200013,-96.3855421686747,5,1,0,80,0,1
200109,382.775119617225,5,1,0,80,1,1
200109,-96.2939499524865,5,1,0,80,0,1
200205,-96.2025316455696,5,1,0,80,0,1
200300,-96.1112867530825,5,1,0,80,0,1
200396,-96.0202147820594,5,1,0,80,0,1
200492,-95.9293152414011,5,1,0,80,0,1
200587,-95.8385876418663,5,1,0,80,0,1
200683,-95.748031496063,5,1,0,80,0,1
200779,-95.6576463184393,5,1,0,80,0,1
200874,-95.5674316252751,5,1,0,80,0,1
200970,-95.4773869346734,5,1,0,80,0,1
201066,-95.3875117665516,5,1,0,80,0,1
201161,-95.2978056426332,5,1,0,80,0,1
201257,-95.2082680864391,5,1,0,80,0,1
201353,-95.1188986232791,5,1,0,80,0,1
201449,-95.0296967802438,5,1,0,80,0,1
201544,-94.9406620861961,5,1,0,80,0,1
201640,-94.8517940717629,5,1,0,80,0,1
201736,-94.7630922693267,5,1,0,80,0,1
201831,-94.6745562130178,5,1,0,80,0,1
201928,382.775119617225,5,1,0,80,1,1
201928,-94.5861854387057,5,1,0,80,0,1
202023,-94.4979794839913,5,1,0,80,0,1
202118,-94.4099378881988,5,1,0,80,0,1
202214,-94.3220601923674,5,1,0,80,0,1
202310,-94.2343459392436,5,1,0,80,0,1
202406,-94.1467946732735,5,1,0,80,0,1
202501,-94.0594059405941,5,1,0,80,0,1
202597,-93.9721792890263,5,1,0,80,0,1
202693,-93.8851142680667,5,1,0,80,0,1
202788,-93.79821042888,5,1,0,80,0,1
202884,-93.711467324291,5,1,0,80,0,1
202980,-93.6248845087773,5,1,0,80,0,1
203075,-93.5384615384615,5,1,0,80,0,1
203171,-93.4521979711036,5,1,0,80,0,1
203267,-93.3660933660934,5,1,0,80,0,1
203362,-93.2801472844431,5,1,0,80,0,1
203458,-93.1943592887799,5,1,0,80,0,1
203554,-93.1087289433384,5,1,0,80,0,1
203650,-93.0232558139535,5,1,0,80,0,1
203746,382.775119617225,5,1,0,80,1,1
203746,-92.9379394680526,5,1,0,80,0,1
203841,-92.8527794746488,5,1,0,80,0,1
203937,-92.7677754043332,5,1,0,80,0,1
204032,-92.6829268292683,5,1,0,80,0,1
204128,-92.59823332318,5,1,0,80,0,1
204224,-92.5136944613512,5,1,0,80,0,1
204319,-92.4293098206142,5,1,0,80,0,1
204415,-92.3450789793439,5,1,0,80,0,1
204511,-92.2610015174507,5,1,0,80,0,1
204606,-92.1770770163736,5,1,0,80,0,1
204702,-92.093305059073,5,1,0,80,0,1
204798,-92.0096852300242,5,1,0,80,0,1
204894,-91.9262171152102,5,1,0,80,0,1
204989,-91.8429003021148,5,1,0,80,0,1
205085,-91.7597343797163,5,1,0,80,0,1
205181,-91.6767189384801,5,1,0,80,0,1
205276,-91.5938535703525,5,1,0,80,0,1
205372,-91.5111378687538,5,1,0,80,0,1
205468,-91.4285714285714,5,1,0,80,0,1
205564,382.775119617225,5,1,0,80,1,1
205564,-91.3461538461539,5,1,0,80,0,1
205659,-91.2638847193035,5,1,0,80,0,1
205755,-91.1817636472705,5,1,0,80,0,1
205850,-91.0997902307462,5,1,0,80,0,1
205946,-91.0179640718563,5,1,0,80,0,1
206042,-90.936284774155,5,1,0,80,0,1
206138,-90.8547519426181,5,1,0,80,0,1
206233,-90.7733651836369,5,1,0,80,0,1
206329,-90.6921241050119,5,1,0,80,0,1
206425,-90.6110283159464,5,1,0,80,0,1
206520,-90.5300774270399,5,1,0,80,0,1
206616,-90.4492710502826,5,1,0,80,0,1
206712,-90.3686087990488,5,1,0,80,0,1
206807,-90.2880902880903,5,1,0,80,0,1
206903,-90.2077151335312,5,1,0,80,0,1
206999,-90.127482952861,5,1,0,80,0,1
207095,-90.0473933649289,5,1,0,80,0,1
207190,-89.9674459899379,5,1,0,80,0,1
207286,-89.8876404494382,5,1,0,80,0,1
207382,382.775119617225,5,1,0,80,1,1
207382,-89.807976366322,5,1,0,80,0,1
207477,-89.728453364817,5,1,0,80,0,1
207573,-89.6490710704807,5,1,0,80,0,1
207669,-89.5698291101945,5,1,0,80,0,1
207764,-89.4907271121578,5,1,0,80,0,1
207860,-89.4117647058824,5,1,0,80,0,1
207956,-89.3329415221863,5,1,0,80,0,1
208051,-89.2542571931885,5,1,0,80,0,1
208147,-89.1757113523027,5,1,0,80,0,1
208243,-89.0973036342321,5,1,0,80,0,1
208339,-89.0190336749634,5,1,0,80,0,1
208434,-88.9409011117613,5,1,0,80,0,1
208530,-88.8629055831628,5,1,0,80,0,1
208626,-88.785046728972,5,1,0,80,0,1
208721,-88.7073241902539,5,1,0,80,0,1
208817,-88.6297376093295,5,1,0,80,0,1
208913,-88.5522866297699,5,1,0,80,0,1
209008,-88.4749708963912,5,1,0,80,0,1
209104,-88.3977900552486,5,1,0,80,0,1
209200,382.775119617225,5,1,0,80,1,1
209200,-88.3207437536316,5,1,0,80,0,1
209295,-88.2438316400581,5,1,0,80,0,1
209391,-88.1670533642692,5,1,0,80,0,1
209487,-88.090408577224,5,1,0,80,0,1
209583,-88.0138969310944,5,1,0,80,0,1
209678,-87.9375180792595,5,1,0,80,0,1
209774,-87.8612716763006,5,1,0,80,0,1
209870,-87.785157377996,5,1,0,80,0,1
209965,-87.7091748413157,5,1,0,80,0,1
210061,-87.6333237244163,5,1,0,80,0,1
210157,-87.5576036866359,5,1,0,80,0,1
210252,-87.4820143884892,5,1,0,80,0,1
210348,-87.4065554916619,5,1,0,80,0,1
210444,-87.331226659006,5,1,0,80,0,1
210539,-87.256027554535,5,1,0,80,0,1
210635,-87.1809578434184,5,1,0,80,0,1
210731,-87.1060171919771,5,1,0,80,0,1
210827,-87.0312052676782,5,1,0,80,0,1
210922,-86.9565217391304,5,1,0,80,0,1
211019,382.775119617225,5,1,0,80,1,1
211019,-87.1060171919771,5,1,0,80,0,1
211114,-87.256027554535,5,1,0,80,0,1
211210,-87.4065554916619,5,1,0,80,0,1
211306,-87.5576036866359,5,1,0,80,0,1
211401,-87.7091748413157,5,1,0,80,0,1
211497,-87.8612716763006,5,1,0,80,0,1
211593,-88.0138969310944,5,1,0,80,0,1
211688,-88.1670533642692,5,1,0,80,0,1
211784,-88.3207437536316,5,1,0,80,0,1
211880,-88.4749708963911,5,1,0,80,0,1
211975,-88.6297376093295,5,1,0,80,0,1
212071,-88.785046728972,5,1,0,80,0,1
212167,-88.9409011117613,5,1,0,80,0,1
212263,-89.0973036342321,5,1,0,80,0,1
212358,-89.2542571931885,5,1,0,80,0,1
212454,-89.4117647058823,5,1,0,80,0,1
212550,-89.5698291101945,5,1,0,80,0,1
212645,-89.728453364817,5,1,0,80,0,1
212741,-89.8876404494382,5,1,0,80,0,1
212837,382.775119617225,5,1,0,80,1,1
212837,-90.0473933649289,5,1,0,80,0,1
212932,-90.2077151335312,5,1,0,80,0,1
213028,-90.3686087990488,5,1,0,80,0,1
213124,-90.5300774270399,5,1,0,80,0,1
213219,-90.6921241050119,5,1,0,80,0,1
213315,-90.8547519426181,5,1,0,80,0,1
213411,-91.0179640718563,5,1,0,80,0,1
213507,-91.1817636472705,5,1,0,80,0,1
213602,-91.3461538461539,5,1,0,80,0,1
213698,-91.5111378687538,5,1,0,80,0,1
213794,-91.6767189384801,5,1,0,80,0,1
213889,-91.8429003021148,5,1,0,80,0,1
213985,-92.0096852300242,5,1,0,80,0,1
214081,-92.1770770163736,5,1,0,80,0,1
214176,-92.3450789793439,5,1,0,80,0,1
214272,-92.5136944613512,5,1,0,80,0,1
214368,-92.6829268292683,5,1,0,80,0,1
214463,-92.8527794746488,5,1,0,80,0,1
214559,-93.0232558139535,5,1,0,80,0,1
214655,382.775119617225,5,1,0,80,1,1
214655,-93.1943592887799,5,1,0,80,0,1
214751,-93.3660933660934,5,1,0,80,0,1
214846,-93.5384615384615,5,1,0,80,0,1
214942,-93.711467324291,5,1,0,80,0,1
215038,-93.8851142680667,5,1,0,80,0,1
215133,-94.0594059405941,5,1,0,80,0,1
215229,-94.2343459392436,5,1,0,80,0,1
215325,-94.4099378881988,5,1,0,80,0,1
215420,-94.5861854387057,5,1,0,80,0,1
215516,-94.7630922693267,5,1,0,80,0,1
215612,-94.9406620861961,5,1,0,80,0,1
215707,-95.1188986232791,5,1,0,80,0,1
215803,-95.2978056426332,5,1,0,80,0,1
215899,-95.4773869346734,5,1,0,80,0,1
215995,-95.6576463184393,5,1,0,80,0,1
216090,-95.8385876418663,5,1,0,80,0,1
216186,-96.0202147820594,5,1,0,80,0,1
216282,-96.2025316455696,5,1,0,80,0,1
216377,-96.3855421686747,5,1,0,80,0,1
216473,382.775119617225,5,1,0,80,1,1
216473,-96.569250317662,5,1,0,80,0,1
216569,-96.7536600891152,5,1,0,80,0,1
216664,-96.9387755102041,5,1,0,80,0,1
216760,-97.1246006389776,5,1,0,80,0,1
216856,-97.3111395646607,5,1,0,80,0,1
216952,-97.4983964079538,5,1,0,80,0,1
217047,-97.6863753213368,5,1,0,80,0,1
217143,-97.8750804893754,5,1,0,80,0,1
217239,-98.0645161290322,5,1,0,80,0,1
217334,-98.2546864899806,5,1,0,80,0,1
217430,-98.4455958549223,5,1,0,80,0,1
217526,-98.6372485399092,5,1,0,80,0,1
217621,-98.8296488946684,5,1,0,80,0,1
217717,-99.0228013029316,5,1,0,80,0,1
217813,-99.2167101827676,5,1,0,80,0,1
217908,-99.4113799869196,5,1,0,80,0,1
218004,-99.6068152031455,5,1,0,80,0,1
218100,-99.8030203545634,5,1,0,80,0,1
218196,-100,5,1,0,80,0,1
218291,382.775119617225,5,1,0,80,1,1
218291,-99.9014130791982,5,1,0,80,0,1
218386,-99.8030203545634,5,1,0,80,0,1
218482,-99.7048212528698,5,1,0,80,0,1
218578,-99.6068152031455,5,1,0,80,0,1
218673,-99.5090016366612,5,1,0,80,0,1
218769,-99.4113799869196,5,1,0,80,0,1
218865,-99.3139496896439,5,1,0,80,0,1
218960,-99.2167101827676,5,1,0,80,0,1
219056,-99.1196609064232,5,1,0,80,0,1
219152,-99.0228013029316,5,1,0,80,0,1
219247,-98.9261308167914,5,1,0,80,0,1
219343,-98.8296488946684,5,1,0,80,0,1
219439,-98.7333549853849,5,1,0,80,0,1
219535,-98.6372485399092,5,1,0,80,0,1
219630,-98.5413290113452,5,1,0,80,0,1
219726,-98.4455958549223,5,1,0,80,0,1
219822,-98.3500485279845,5,1,0,80,0,1
219917,-98.2546864899806,5,1,0,80,0,1
220013,-98.159509202454,5,1,0,80,0,1
220109,382.775119617225,5,1,0,80,1,1
220109,-98.0645161290323,5,1,0,80,0,1
220204,-97.9697067354173,5,1,0,80,0,1
220300,-97.8750804893754,5,1,0,80,0,1
220396,-97.7806368607269,5,1,0,80,0,1
220491,-97.6863753213368,5,1,0,80,0,1
220587,-97.5922953451043,5,1,0,80,0,1
220683,-97.4983964079538,5,1,0,80,0,1
220779,-97.4046779878244,5,1,0,80,0,1
220874,-97.3111395646607,5,1,0,80,0,1
220970,-97.2177806204029,5,1,0,80,0,1
221066,-97.1246006389776,5,1,0,80,0,1
221161,-97.0315991062879,5,1,0,80,0,1
221257,-96.9387755102041,5,1,0,80,0,1
221353,-96.8461293405543,5,1,0,80,0,1
221448,-96.7536600891152,5,1,0,80,0,1
221544,-96.6613672496026,5,1,0,80,0,1
221640,-96.569250317662,5,1,0,80,0,1
221735,-96.47730879086,5,1,0,80,0,1
221831,-96.3855421686747,5,1,0,80,0,1
221928,382.775119617225,5,1,0,80,1,1
221928,-96.2939499524865,5,1,0,80,0,1
222023,-96.2025316455696,5,1,0,80,0,1
222118,-96.1112867530825,5,1,0,80,0,1
222214,-96.0202147820594,5,1,0,80,0,1
222310,-95.9293152414011,5,1,0,80,0,1
222405,-95.8385876418663,5,1,0,80,0,1
222501,-95.748031496063,5,1,0,80,0,1
222597,-95.6576463184393,5,1,0,80,0,1
222692,-95.5674316252751,5,1,0,80,0,1
222788,-95.4773869346734,5,1,0,80,0,1
222884,-95.3875117665516,5,1,0,80,0,1
222979,-95.2978056426332,5,1,0,80,0,1
223075,-95.2082680864391,5,1,0,80,0,1
223171,-95.1188986232791,5,1,0,80,0,1
223267,-95.0296967802438,5,1,0,80,0,1
223362,-94.9406620861961,5,1,0,80,0,1
223458,-94.8517940717629,5,1,0,80,0,1
223554,-94.7630922693267,5,1,0,80,0,1
223649,-94.6745562130178,5,1,0,80,0,1
223746,382.775119617225,5,1,0,80,1,1
223746,-94.5861854387057,5,1,0,80,0,1
223841,-94.4979794839913,5,1,0,80,0,1
223936,-94.4099378881988,5,1,0,80,0,1
224032,-94.3220601923674,5,1,0,80,0,1
224128,-94.2343459392436,5,1,0,80,0,1
224224,-94.1467946732735,5,1,0,80,0,1
224319,-94.0594059405941,5,1,0,80,0,1
224415,-93.9721792890263,5,1,0,80,0,1
224511,-93.8851142680667,5,1,0,80,0,1
224606,-93.79821042888,5,1,0,80,0,1
224702,-93.711467324291,5,1,0,80,0,1
224798,-93.6248845087773,5,1,0,80,0,1
224893,-93.5384615384615,5,1,0,80,0,1
224989,-93.4521979711036,5,1,0,80,0,1
225085,-93.3660933660934,5,1,0,80,0,1
225180,-93.2801472844431,5,1,0,80,0,1
225276,-93.1943592887799,5,1,0,80,0,1
225372,-93.1087289433384,5,1,0,80,0,1
225468,-93.0232558139535,5,1,0,80,0,1
225564,382.775119617225,5,1,0,80,1,1
225564,-92.9379394680526,5,1,0,80,0,1
225659,-92.8527794746488,5,1,0,80,0,1
225755,-92.7677754043332,5,1,0,80,0,1
225850,-92.6829268292683,5,1,0,80,0,1
225946,-92.59823332318,5,1,0,80,0,1
226042,-92.5136944613512,5,1,0,80,0,1
226137,-92.4293098206142,5,1,0,80,0,1
226233,-92.3450789793439,5,1,0,80,0,1
226329,-92.2610015174507,5,1,0,80,0,1
226424,-92.1770770163736,5,1,0,80,0,1
226520,-92.093305059073,5,1,0,80,0,1
226616,-92.0096852300242,5,1,0,80,0,1
226712,-91.9262171152102,5,1,0,80,0,1
226807,-91.8429003021148,5,1,0,80,0,1
226903,-91.7597343797163,5,1,0,80,0,1
226999,-91.6767189384801,5,1,0,80,0,1
227094,-91.5938535703525,5,1,0,80,0,1
227190,-91.5111378687538,5,1,0,80,0,1
227286,-91.4285714285714,5,1,0,80,0,1
227382,382.775119617225,5,1,0,80,1,1
227382,-91.3461538461539,5,1,0,80,0,1
227477,-91.2638847193035,5,1,0,80,0,1
227573,-91.1817636472705,5,1,0,80,0,1
227668,-91.0997902307462,5,1,0,80,0,1
227764,-91.0179640718563,5,1,0,80,0,1
227860,-90.936284774155,5,1,0,80,0,1
227956,-90.8547519426181,5,1,0,80,0,1
228051,-90.7733651836369,5,1,0,80,0,1
228147,-90.6921241050119,5,1,0,80,0,1
228243,-90.6110283159464,5,1,0,80,0,1
228338,-90.5300774270399,5,1,0,80,0,1
228434,-90.4492710502826,5,1,0,80,0,1
228530,-90.3686087990488,5,1,0,80,0,1
228625,-90.2880902880903,5,1,0,80,0,1
228721,-90.2077151335312,5,1,0,80,0,1
228817,-90.127482952861,5,1,0,80,0,1
228913,-90.0473933649289,5,1,0,80,0,1
229008,-89.9674459899379,5,1,0,80,0,1
229104,-89.8876404494382,5,1,0,80,0,1
229200,382.775119617225,5,1,0,80,1,1
229200,-89.807976366322,5,1,0,80,0,1
229295,-89.728453364817,5,1,0,80,0,1
229391,-89.6490710704807,5,1,0,80,0,1
229487,-89.5698291101945,5,1,0,80,0,1
229582,-89.4907271121578,5,1,0,80,0,1
229678,-89.4117647058824,5,1,0,80,0,1
229774,-89.3329415221863,5,1,0,80,0,1
229869,-89.2542571931885,5,1,0,80,0,1
229965,-89.1757113523027,5,1,0,80,0,1
230061,-89.0973036342321,5,1,0,80,0,1
230157,-89.0190336749634,5,1,0,80,0,1
230252,-88.9409011117613,5,1,0,80,0,1
230348,-88.8629055831628,5,1,0,80,0,1
230444,-88.785046728972,5,1,0,80,0,1
230539,-88.7073241902539,5,1,0,80,0,1
230635,-88.6297376093295,5,1,0,80,0,1
230731,-88.5522866297699,5,1,0,80,0,1
230826,-88.4749708963912,5,1,0,80,0,1
230922,-88.3977900552486,5,1,0,80,0,1
231019,382.775119617225,5,1,0,80,1,1
231019,-88.3207437536316,5,1,0,80,0,1
231113,-88.2438316400581,5,1,0,80,0,1
231209,-88.1670533642692,5,1,0,80,0,1
231305,-88.090408577224,5,1,0,80,0,1
231401,-88.0138969310944,5,1,0,80,0,1
231496,-87.9375180792595,5,1,0,80,0,1
231592,-87.8612716763006,5,1,0,80,0,1
231688,-87.785157377996,5,1,0,80,0,1
231783,-87.7091748413157,5,1,0,80,0,1
231879,-87.6333237244163,5,1,0,80,0,1
231975,-87.5576036866359,5,1,0,80,0,1
232070,-87.4820143884892,5,1,0,80,0,1
232166,-87.4065554916619,5,1,0,80,0,1
232262,-87.331226659006,5,1,0,80,0,1
232357,-87.256027554535,5,1,0,80,0,1
232453,-87.1809578434184,5,1,0,80,0,1
232549,-87.1060171919771,5,1,0,80,0,1
232645,-87.0312052676782,5,1,0,80,0,1
232740,-86.9565217391304,5,1,0,80,0,1
232837,382.775119617225,5,1,0,80,1,0
232837,-86.9565217391304,5,1,0,80,0,0
233028,-86.9565217391304,5,1,0,70,0,0
234655,382.775119617225,5,1,0,70,1,0
236473,382.775119617225,5,1,0,70,1,0
237110,-100,5,1,0,35,0,0
238291,382.775119617225,5,1,0,35,1,0
240109,382.775119617225,5,1,0,35,1,0
241928,382.775119617225,5,1,0,35,1,0
243746,382.775119617225,5,1,0,35,1,0
245564,382.775119617225,5,1,0,35,1,0
247382,382.775119617225,5,1,0,35,1,0
249200,382.775119617225,5,1,0,35,1,0
251019,382.775119617225,5,1,0,35,1,0

[HitObjects]
256,192,110,5,4,0:0:0:0:
256,192,1928,1,12,0:0:0:0:
256,192,7382,5,4,0:0:0:0:
256,192,9200,1,12,0:0:0:0:
256,192,14176,5,0,0:0:0:0:
256,192,14368,1,0,0:0:0:0:
256,192,14463,1,8,0:0:0:0:
256,192,14655,1,4,0:0:0:0:
256,192,15229,1,0,0:0:0:0:
256,192,15420,1,0,0:0:0:0:
256,192,15516,1,0,0:0:0:0:
256,192,15707,1,8,0:0:0:0:
256,192,15899,1,8,0:0:0:0:
256,192,15994,1,0,0:0:0:0:
256,192,16186,1,0,0:0:0:0:
256,192,16281,1,0,0:0:0:0:
256,192,16473,1,8,0:0:0:0:
256,192,16664,1,0,0:0:0:0:
256,192,16760,1,0,0:0:0:0:
256,192,16951,1,8,0:0:0:0:
256,192,17142,1,8,0:0:0:0:
256,192,17238,1,0,0:0:0:0:
256,192,17429,1,8,0:0:0:0:
256,192,17621,1,0,0:0:0:0:
256,192,17812,1,0,0:0:0:0:
256,192,18004,1,0,0:0:0:0:
256,192,18099,1,0,0:0:0:0:
256,192,18195,1,8,0:0:0:0:
256,192,18291,1,8,0:0:0:0:
256,192,21928,5,4,0:0:0:0:
256,192,23746,1,12,0:0:0:0:
256,192,27382,12,0,29008,0:0:0:0:
256,192,29200,5,12,0:0:0:0:
256,192,31019,1,8,0:0:0:0:
256,192,31114,1,0,0:0:0:0:
256,192,31210,1,8,0:0:0:0:
256,192,31306,1,0,0:0:0:0:
256,192,31401,1,8,0:0:0:0:
256,192,31497,1,0,0:0:0:0:
256,192,31593,1,0,0:0:0:0:
256,192,31688,1,8,0:0:0:0:
256,192,31784,1,8,0:0:0:0:
256,192,31880,1,0,0:0:0:0:
256,192,31975,1,8,0:0:0:0:
256,192,32071,1,0,0:0:0:0:
256,192,32454,1,0,0:0:0:0:
256,192,32550,1,8,0:0:0:0:
256,192,32645,1,0,0:0:0:0:
256,192,32741,1,8,0:0:0:0:
256,192,32837,1,8,0:0:0:0:
256,192,36138,5,0,0:0:0:0:
256,192,36233,1,0,0:0:0:0:
256,192,36473,1,8,0:0:0:0:
256,192,37047,1,0,0:0:0:0:
256,192,37238,1,0,0:0:0:0:
256,192,37334,1,0,0:0:0:0:
256,192,37525,1,8,0:0:0:0:
256,192,37717,1,8,0:0:0:0:
256,192,37812,1,0,0:0:0:0:
256,192,38004,1,8,0:0:0:0:
256,192,38099,1,0,0:0:0:0:
256,192,38195,1,0,0:0:0:0:
256,192,38291,1,8,0:0:0:0:
256,192,39630,1,0,0:0:0:0:
256,192,39726,1,8,0:0:0:0:
256,192,39822,1,0,0:0:0:0:
256,192,39917,1,8,0:0:0:0:
256,192,40013,1,8,0:0:0:0:
256,192,40109,1,0,0:0:0:0:
256,192,40683,1,0,0:0:0:0:
256,192,40874,1,0,0:0:0:0:
256,192,40970,1,0,0:0:0:0:
256,192,41161,1,8,0:0:0:0:
256,192,41353,1,0,0:0:0:0:
256,192,41448,1,8,0:0:0:0:
256,192,41640,1,0,0:0:0:0:
256,192,41735,1,0,0:0:0:0:
256,192,41831,1,8,0:0:0:0:
256,192,41928,1,8,0:0:0:0:
256,192,43267,1,0,0:0:0:0:
256,192,43363,1,0,0:0:0:0:
256,192,43459,1,8,0:0:0:0:
256,192,43522,1,8,0:0:0:0:
256,192,43586,1,8,0:0:0:0:
256,192,43650,1,8,0:0:0:0:
256,192,43746,1,4,0:0:0:0:
256,192,45085,1,0,0:0:0:0:
256,192,45277,1,0,0:0:0:0:
256,192,45372,1,0,0:0:0:0:
256,192,45564,1,8,0:0:0:0:
256,192,45659,1,0,0:0:0:0:
256,192,45755,1,8,0:0:0:0:
256,192,45851,1,0,0:0:0:0:
256,192,45946,1,8,0:0:0:0:
256,192,46042,1,0,0:0:0:0:
256,192,46138,1,0,0:0:0:0:
256,192,46233,1,8,0:0:0:0:
256,192,46329,1,8,0:0:0:0:
256,192,46425,1,0,0:0:0:0:
256,192,46520,1,8,0:0:0:0:
256,192,46616,1,0,0:0:0:0:
256,192,46712,1,0,0:0:0:0:
256,192,46808,1,8,0:0:0:0:
256,192,46903,1,8,0:0:0:0:
256,192,46999,1,8,0:0:0:0:
256,192,47095,1,0,0:0:0:0:
256,192,47190,1,8,0:0:0:0:
256,192,47286,1,0,0:0:0:0:
256,192,47382,1,8,0:0:0:0:
256,192,51019,5,4,0:0:0:0:
256,192,51999,1,0,0:0:0:0:
256,192,52334,1,0,0:0:0:0:
256,192,52550,1,0,0:0:0:0:
256,192,52645,1,8,0:0:0:0:
256,192,52741,1,0,0:0:0:0:
256,192,52837,1,8,0:0:0:0:
256,192,53028,1,0,0:0:0:0:
256,192,53124,1,0,0:0:0:0:
256,192,53315,1,8,0:0:0:0:
256,192,53506,1,8,0:0:0:0:
256,192,53602,1,0,0:0:0:0:
256,192,53793,1,8,0:0:0:0:
256,192,53985,1,0,0:0:0:0:
256,192,54176,1,0,0:0:0:0:
256,192,54272,1,8,0:0:0:0:
256,192,54368,1,0,0:0:0:0:
256,192,54463,1,8,0:0:0:0:
256,192,54559,1,8,0:0:0:0:
256,192,54655,1,0,0:0:0:0:
256,192,54846,1,8,0:0:0:0:
256,192,54942,1,0,0:0:0:0:
256,192,55037,1,8,0:0:0:0:
256,192,55133,1,0,0:0:0:0:
256,192,55324,1,0,0:0:0:0:
256,192,55420,1,8,0:0:0:0:
256,192,55516,1,0,0:0:0:0:
256,192,55611,1,8,0:0:0:0:
256,192,55803,1,0,0:0:0:0:
256,192,55899,1,0,0:0:0:0:
256,192,55994,1,8,0:0:0:0:
256,192,56090,1,8,0:0:0:0:
256,192,56186,1,8,0:0:0:0:
256,192,56281,1,0,0:0:0:0:
256,192,56377,1,0,0:0:0:0:
256,192,56473,1,8,0:0:0:0:
256,192,56664,1,0,0:0:0:0:
256,192,56760,1,0,0:0:0:0:
256,192,56855,1,8,0:0:0:0:
256,192,56951,1,8,0:0:0:0:
256,192,57142,1,8,0:0:0:0:
256,192,57238,1,8,0:0:0:0:
256,192,57334,1,0,0:0:0:0:
256,192,57429,1,0,0:0:0:0:
256,192,57621,1,0,0:0:0:0:
256,192,57717,1,0,0:0:0:0:
256,192,57812,1,8,0:0:0:0:
256,192,57908,1,8,0:0:0:0:
256,192,58004,1,0,0:0:0:0:
256,192,58099,1,8,0:0:0:0:
256,192,58195,1,0,0:0:0:0:
256,192,58291,1,0,0:0:0:0:
256,192,58482,1,0,0:0:0:0:
256,192,58578,1,8,0:0:0:0:
256,192,58673,1,0,0:0:0:0:
256,192,58769,1,8,0:0:0:0:
256,192,58960,1,8,0:0:0:0:
256,192,59056,1,0,0:0:0:0:
256,192,59152,1,8,0:0:0:0:
256,192,59247,1,0,0:0:0:0:
256,192,59439,1,8,0:0:0:0:
256,192,59535,1,0,0:0:0:0:
256,192,59630,1,8,0:0:0:0:
256,192,59726,1,8,0:0:0:0:
256,192,59822,1,8,0:0:0:0:
256,192,59917,1,0,0:0:0:0:
256,192,60013,1,0,0:0:0:0:
256,192,60109,1,8,0:0:0:0:
256,192,60300,1,0,0:0:0:0:
256,192,60396,1,0,0:0:0:0:
256,192,60491,1,8,0:0:0:0:
256,192,60587,1,8,0:0:0:0:
256,192,60778,1,8,0:0:0:0:
256,192,60874,1,8,0:0:0:0:
256,192,60970,1,0,0:0:0:0:
256,192,61065,1,0,0:0:0:0:
256,192,61257,1,0,0:0:0:0:
256,192,61353,1,8,0:0:0:0:
256,192,61448,1,0,0:0:0:0:
256,192,61544,1,0,0:0:0:0:
256,192,61640,1,8,0:0:0:0:
256,192,61735,1,8,0:0:0:0:
256,192,61831,1,0,0:0:0:0:
256,192,61928,1,0,0:0:0:0:
256,192,62119,1,0,0:0:0:0:
256,192,62215,1,8,0:0:0:0:
256,192,62310,1,0,0:0:0:0:
256,192,62406,1,8,0:0:0:0:
256,192,62597,1,8,0:0:0:0:
256,192,62693,1,0,0:0:0:0:
256,192,62789,1,8,0:0:0:0:
256,192,62884,1,0,0:0:0:0:
256,192,63076,1,8,0:0:0:0:
256,192,63172,1,0,0:0:0:0:
256,192,63267,1,8,0:0:0:0:
256,192,63363,1,8,0:0:0:0:
256,192,63459,1,8,0:0:0:0:
256,192,63554,1,0,0:0:0:0:
256,192,63650,1,0,0:0:0:0:
256,192,63746,1,8,0:0:0:0:
256,192,63809,1,8,0:0:0:0:
256,192,63873,1,8,0:0:0:0:
256,192,63937,1,0,0:0:0:0:
256,192,64033,1,0,0:0:0:0:
256,192,64128,1,8,0:0:0:0:
256,192,64224,1,0,0:0:0:0:
256,192,64320,1,8,0:0:0:0:
256,192,64383,1,8,0:0:0:0:
256,192,64447,1,8,0:0:0:0:
256,192,64511,1,0,0:0:0:0:
256,192,64607,1,0,0:0:0:0:
256,192,64702,1,8,0:0:0:0:
256,192,64798,1,0,0:0:0:0:
256,192,64894,1,8,0:0:0:0:
256,192,64990,1,8,0:0:0:0:
256,192,65085,1,0,0:0:0:0:
256,192,65149,1,0,0:0:0:0:
256,192,65213,1,0,0:0:0:0:
256,192,65277,1,8,0:0:0:0:
256,192,65372,1,0,0:0:0:0:
256,192,65564,1,12,0:0:0:0:
256,192,65755,1,0,0:0:0:0:
256,192,65851,1,8,0:0:0:0:
256,192,65946,1,0,0:0:0:0:
256,192,66042,1,0,0:0:0:0:
256,192,66138,1,8,0:0:0:0:
256,192,66233,1,0,0:0:0:0:
256,192,66329,1,0,0:0:0:0:
256,192,66425,1,8,0:0:0:0:
256,192,66520,1,8,0:0:0:0:
256,192,66616,1,0,0:0:0:0:
256,192,66712,1,8,0:0:0:0:
256,192,66808,1,0,0:0:0:0:
256,192,66903,1,8,0:0:0:0:
256,192,66999,1,8,0:0:0:0:
256,192,67095,1,0,0:0:0:0:
256,192,67286,1,0,0:0:0:0:
256,192,67382,1,8,0:0:0:0:
256,192,67573,1,0,0:0:0:0:
256,192,67669,1,8,0:0:0:0:
256,192,67764,1,0,0:0:0:0:
256,192,67860,1,0,0:0:0:0:
256,192,67956,1,8,0:0:0:0:
256,192,68051,1,0,0:0:0:0:
256,192,68147,1,0,0:0:0:0:
256,192,68243,1,8,0:0:0:0:
256,192,68338,1,8,0:0:0:0:
256,192,68434,1,0,0:0:0:0:
256,192,68530,1,8,0:0:0:0:
256,192,68721,1,8,0:0:0:0:
256,192,68817,1,8,0:0:0:0:
256,192,68913,1,0,0:0:0:0:
256,192,69008,1,8,0:0:0:0:
256,192,69104,1,0,0:0:0:0:
256,192,69200,1,0,0:0:0:0:
256,192,69391,1,0,0:0:0:0:
256,192,69487,1,8,0:0:0:0:
256,192,69582,1,0,0:0:0:0:
256,192,69678,1,0,0:0:0:0:
256,192,69774,1,8,0:0:0:0:
256,192,69869,1,0,0:0:0:0:
256,192,69965,1,0,0:0:0:0:
256,192,70061,1,8,0:0:0:0:
256,192,70156,1,8,0:0:0:0:
256,192,70252,1,0,0:0:0:0:
256,192,70348,1,8,0:0:0:0:
256,192,70444,1,0,0:0:0:0:
256,192,70539,1,8,0:0:0:0:
256,192,70635,1,8,0:0:0:0:
256,192,70731,1,0,0:0:0:0:
256,192,70922,1,0,0:0:0:0:
256,192,71018,1,8,0:0:0:0:
256,192,71209,1,0,0:0:0:0:
256,192,71305,1,8,0:0:0:0:
256,192,71400,1,0,0:0:0:0:
256,192,71496,1,0,0:0:0:0:
256,192,71592,1,8,0:0:0:0:
256,192,71687,1,0,0:0:0:0:
256,192,71783,1,0,0:0:0:0:
256,192,71879,1,8,0:0:0:0:
256,192,71974,1,8,0:0:0:0:
256,192,72070,1,0,0:0:0:0:
256,192,72166,1,8,0:0:0:0:
256,192,72357,1,8,0:0:0:0:
256,192,72453,1,8,0:0:0:0:
256,192,72549,1,0,0:0:0:0:
256,192,72644,1,8,0:0:0:0:
256,192,72740,1,0,0:0:0:0:
256,192,72836,1,0,0:0:0:0:
256,192,73027,1,0,0:0:0:0:
256,192,73123,1,8,0:0:0:0:
256,192,73218,1,8,0:0:0:0:
256,192,73314,1,0,0:0:0:0:
256,192,73410,1,0,0:0:0:0:
256,192,73505,1,0,0:0:0:0:
256,192,73601,1,8,0:0:0:0:
256,192,73697,1,8,0:0:0:0:
256,192,73792,1,0,0:0:0:0:
256,192,73888,1,0,0:0:0:0:
256,192,73984,1,0,0:0:0:0:
256,192,74080,1,8,0:0:0:0:
256,192,74175,1,0,0:0:0:0:
256,192,74271,1,0,0:0:0:0:
256,192,74367,1,8,0:0:0:0:
256,192,74558,1,0,0:0:0:0:
256,192,74654,1,8,0:0:0:0:
256,192,74845,1,8,0:0:0:0:
256,192,74941,1,8,0:0:0:0:
256,192,75036,1,0,0:0:0:0:
256,192,75132,1,8,0:0:0:0:
256,192,75228,1,0,0:0:0:0:
256,192,75323,1,0,0:0:0:0:
256,192,75419,1,8,0:0:0:0:
256,192,75515,1,8,0:0:0:0:
256,192,75610,1,0,0:0:0:0:
256,192,75706,1,8,0:0:0:0:
256,192,75802,1,0,0:0:0:0:
256,192,75993,1,8,0:0:0:0:
256,192,76089,1,0,0:0:0:0:
256,192,76185,1,8,0:0:0:0:
256,192,76280,1,8,0:0:0:0:
256,192,76376,1,0,0:0:0:0:
256,192,76473,1,0,0:0:0:0:
256,192,76664,1,0,0:0:0:0:
256,192,76760,1,8,0:0:0:0:
256,192,76855,1,8,0:0:0:0:
256,192,76951,1,0,0:0:0:0:
256,192,77047,1,0,0:0:0:0:
256,192,77142,1,0,0:0:0:0:
256,192,77238,1,8,0:0:0:0:
256,192,77334,1,8,0:0:0:0:
256,192,77429,1,0,0:0:0:0:
256,192,77525,1,0,0:0:0:0:
256,192,77621,1,0,0:0:0:0:
256,192,77717,1,8,0:0:0:0:
256,192,77812,1,0,0:0:0:0:
256,192,77908,1,0,0:0:0:0:
256,192,78004,1,8,0:0:0:0:
256,192,78195,1,0,0:0:0:0:
256,192,78291,1,8,0:0:0:0:
256,192,78482,1,8,0:0:0:0:
256,192,78578,1,8,0:0:0:0:
256,192,78673,1,0,0:0:0:0:
256,192,78769,1,8,0:0:0:0:
256,192,78865,1,0,0:0:0:0:
256,192,78960,1,0,0:0:0:0:
256,192,79056,1,8,0:0:0:0:
256,192,79152,1,8,0:0:0:0:
256,192,79247,1,0,0:0:0:0:
256,192,79343,1,8,0:0:0:0:
256,192,79439,1,0,0:0:0:0:
256,192,79630,1,8,0:0:0:0:
256,192,79726,1,0,0:0:0:0:
256,192,79822,1,8,0:0:0:0:
256,192,79917,1,0,0:0:0:0:
256,192,80109,1,12,0:0:0:0:
256,192,80300,1,0,0:0:0:0:
256,192,80396,1,8,0:0:0:0:
256,192,80491,1,0,0:0:0:0:
256,192,80587,1,8,0:0:0:0:
256,192,80683,1,0,0:0:0:0:
256,192,80778,1,0,0:0:0:0:
256,192,80874,1,8,0:0:0:0:
256,192,80970,1,8,0:0:0:0:
256,192,81065,1,0,0:0:0:0:
256,192,81161,1,8,0:0:0:0:
256,192,81257,1,0,0:0:0:0:
256,192,81353,1,8,0:0:0:0:
256,192,81448,1,0,0:0:0:0:
256,192,81544,1,0,0:0:0:0:
256,192,81640,1,8,0:0:0:0:
256,192,81831,1,0,0:0:0:0:
256,192,81927,1,8,0:0:0:0:
256,192,82118,1,8,0:0:0:0:
256,192,82214,1,8,0:0:0:0:
256,192,82309,1,0,0:0:0:0:
256,192,82405,1,0,0:0:0:0:
256,192,82501,1,8,0:0:0:0:
256,192,82597,1,0,0:0:0:0:
256,192,82692,1,8,0:0:0:0:
256,192,82788,1,8,0:0:0:0:
256,192,82884,1,0,0:0:0:0:
256,192,82979,1,0,0:0:0:0:
256,192,83075,1,8,0:0:0:0:
256,192,83266,1,8,0:0:0:0:
256,192,83362,1,0,0:0:0:0:
256,192,83458,1,8,0:0:0:0:
256,192,83553,1,8,0:0:0:0:
256,192,83649,1,0,0:0:0:0:
256,192,83745,1,0,0:0:0:0:
256,192,83936,1,0,0:0:0:0:
256,192,84032,1,8,0:0:0:0:
256,192,84128,1,0,0:0:0:0:
256,192,84223,1,8,0:0:0:0:
256,192,84319,1,0,0:0:0:0:
256,192,84415,1,0,0:0:0:0:
256,192,84510,1,8,0:0:0:0:
256,192,84606,1,8,0:0:0:0:
256,192,84702,1,0,0:0:0:0:
256,192,84797,1,8,0:0:0:0:
256,192,84893,1,0,0:0:0:0:
256,192,84989,1,8,0:0:0:0:
256,192,85085,1,0,0:0:0:0:
256,192,85180,1,0,0:0:0:0:
256,192,85276,1,8,0:0:0:0:
256,192,85467,1,0,0:0:0:0:
256,192,85563,1,8,0:0:0:0:
256,192,85754,1,8,0:0:0:0:
256,192,85850,1,8,0:0:0:0:
256,192,85946,1,0,0:0:0:0:
256,192,86042,1,0,0:0:0:0:
256,192,86137,1,8,0:0:0:0:
256,192,86233,1,0,0:0:0:0:
256,192,86329,1,8,0:0:0:0:
256,192,86424,1,8,0:0:0:0:
256,192,86520,1,0,0:0:0:0:
256,192,86616,1,0,0:0:0:0:
256,192,86711,1,8,0:0:0:0:
256,192,86903,1,8,0:0:0:0:
256,192,86998,1,0,0:0:0:0:
256,192,87094,1,8,0:0:0:0:
256,192,87190,1,8,0:0:0:0:
256,192,87381,1,4,0:0:0:0:
256,192,87573,1,8,0:0:0:0:
256,192,87668,1,8,0:0:0:0:
256,192,87764,1,0,0:0:0:0:
256,192,87860,1,0,0:0:0:0:
256,192,87955,1,8,0:0:0:0:
256,192,88051,1,0,0:0:0:0:
256,192,88147,1,0,0:0:0:0:
256,192,88242,1,8,0:0:0:0:
256,192,88338,1,8,0:0:0:0:
256,192,88434,1,0,0:0:0:0:
256,192,88530,1,8,0:0:0:0:
256,192,88625,1,0,0:0:0:0:
256,192,88721,1,8,0:0:0:0:
256,192,88817,1,0,0:0:0:0:
256,192,88912,1,8,0:0:0:0:
256,192,89104,1,0,0:0:0:0:
256,192,89199,1,8,0:0:0:0:
256,192,89391,1,0,0:0:0:0:
256,192,89486,1,8,0:0:0:0:
256,192,89582,1,0,0:0:0:0:
256,192,89678,1,8,0:0:0:0:
256,192,89774,1,0,0:0:0:0:
256,192,89869,1,0,0:0:0:0:
256,192,89965,1,8,0:0:0:0:
256,192,90061,1,8,0:0:0:0:
256,192,90156,1,0,0:0:0:0:
256,192,90252,1,8,0:0:0:0:
256,192,90348,1,0,0:0:0:0:
256,192,90539,1,8,0:0:0:0:
256,192,90635,1,0,0:0:0:0:
256,192,90731,1,8,0:0:0:0:
256,192,90826,1,8,0:0:0:0:
256,192,90922,1,0,0:0:0:0:
256,192,91018,1,0,0:0:0:0:
256,192,91209,1,8,0:0:0:0:
256,192,91305,1,8,0:0:0:0:
256,192,91400,1,0,0:0:0:0:
256,192,91496,1,0,0:0:0:0:
256,192,91592,1,8,0:0:0:0:
256,192,91687,1,0,0:0:0:0:
256,192,91783,1,0,0:0:0:0:
256,192,91879,1,8,0:0:0:0:
256,192,91975,1,8,0:0:0:0:
256,192,92070,1,0,0:0:0:0:
256,192,92166,1,8,0:0:0:0:
256,192,92262,1,0,0:0:0:0:
256,192,92357,1,8,0:0:0:0:
256,192,92453,1,0,0:0:0:0:
256,192,92549,1,8,0:0:0:0:
256,192,92837,1,12,0:0:0:0:
256,192,94655,1,4,0:0:0:0:
256,192,95229,1,0,0:0:0:0:
256,192,95779,1,0,0:0:0:0:
256,192,96473,1,8,0:0:0:0:
256,192,97047,1,0,0:0:0:0:
256,192,97621,1,0,0:0:0:0:
256,192,98291,1,0,0:0:0:0:
256,192,98865,1,0,0:0:0:0:
256,192,99439,1,0,0:0:0:0:
256,192,100109,1,8,0:0:0:0:
256,192,100204,1,0,0:0:0:0:
256,192,100300,1,8,0:0:0:0:
256,192,100396,1,0,0:0:0:0:
256,192,100491,1,8,0:0:0:0:
256,192,100587,1,8,0:0:0:0:
256,192,100683,1,0,0:0:0:0:
256,192,100778,1,0,0:0:0:0:
256,192,100874,1,8,0:0:0:0:
256,192,100970,1,0,0:0:0:0:
256,192,101065,1,8,0:0:0:0:
256,192,101161,1,0,0:0:0:0:
256,192,101257,1,0,0:0:0:0:
256,192,101353,1,8,0:0:0:0:
256,192,101448,1,8,0:0:0:0:
256,192,101544,1,8,0:0:0:0:
256,192,101640,1,0,0:0:0:0:
256,192,101735,1,8,0:0:0:0:
256,192,101831,1,0,0:0:0:0:
256,192,101928,1,0,0:0:0:0:
256,192,102502,1,0,0:0:0:0:
256,192,103076,1,0,0:0:0:0:
256,192,103746,1,8,0:0:0:0:
256,192,104320,1,0,0:0:0:0:
256,192,104894,1,0,0:0:0:0:
256,192,105277,1,8,0:0:0:0:
256,192,105372,1,8,0:0:0:0:
256,192,105468,1,8,0:0:0:0:
256,192,105564,1,0,0:0:0:0:
256,192,106138,1,0,0:0:0:0:
256,192,106712,1,0,0:0:0:0:
256,192,107382,1,8,0:0:0:0:
256,192,107477,1,0,0:0:0:0:
256,192,107573,1,8,0:0:0:0:
256,192,107669,1,0,0:0:0:0:
256,192,107764,1,8,0:0:0:0:
256,192,107860,1,8,0:0:0:0:
256,192,107956,1,0,0:0:0:0:
256,192,108051,1,0,0:0:0:0:
256,192,108147,1,8,0:0:0:0:
256,192,108243,1,0,0:0:0:0:
256,192,108338,1,8,0:0:0:0:
256,192,108434,1,8,0:0:0:0:
256,192,108530,1,0,0:0:0:0:
256,192,108626,1,0,0:0:0:0:
256,192,108721,1,8,0:0:0:0:
256,192,108817,1,8,0:0:0:0:
256,192,108913,1,8,0:0:0:0:
256,192,109008,1,0,0:0:0:0:
256,192,109104,1,8,0:0:0:0:
256,192,109200,1,0,0:0:0:0:
256,192,109391,1,0,0:0:0:0:
256,192,109487,1,0,0:0:0:0:
256,192,109774,1,8,0:0:0:0:
256,192,109965,1,8,0:0:0:0:
256,192,110061,1,0,0:0:0:0:
256,192,110348,1,0,0:0:0:0:
256,192,110539,1,0,0:0:0:0:
256,192,110731,1,0,0:0:0:0:
256,192,110826,1,0,0:0:0:0:
256,192,110922,1,0,0:0:0:0:
256,192,111019,1,8,0:0:0:0:
256,192,111210,1,8,0:0:0:0:
256,192,111306,1,0,0:0:0:0:
256,192,111593,1,0,0:0:0:0:
256,192,111784,1,0,0:0:0:0:
256,192,111880,1,0,0:0:0:0:
256,192,112167,1,8,0:0:0:0:
256,192,112358,1,8,0:0:0:0:
256,192,112550,1,0,0:0:0:0:
256,192,112645,1,0,0:0:0:0:
256,192,112741,1,8,0:0:0:0:
256,192,112837,1,8,0:0:0:0:
256,192,113028,1,0,0:0:0:0:
256,192,113124,1,0,0:0:0:0:
256,192,113411,1,8,0:0:0:0:
256,192,113602,1,8,0:0:0:0:
256,192,113698,1,0,0:0:0:0:
256,192,113985,1,0,0:0:0:0:
256,192,114176,1,0,0:0:0:0:
256,192,114368,1,8,0:0:0:0:
256,192,114463,1,0,0:0:0:0:
256,192,114559,1,0,0:0:0:0:
256,192,114655,1,8,0:0:0:0:
256,192,114750,1,0,0:0:0:0:
256,192,114846,1,8,0:0:0:0:
256,192,114942,1,0,0:0:0:0:
256,192,115037,1,8,0:0:0:0:
256,192,115133,1,8,0:0:0:0:
256,192,115229,1,0,0:0:0:0:
256,192,115324,1,8,0:0:0:0:
256,192,115420,1,0,0:0:0:0:
256,192,115516,1,8,0:0:0:0:
256,192,115611,1,8,0:0:0:0:
256,192,115707,1,0,0:0:0:0:
256,192,115803,1,8,0:0:0:0:
256,192,115899,1,0,0:0:0:0:
256,192,115994,1,8,0:0:0:0:
256,192,116090,1,8,0:0:0:0:
256,192,116186,1,8,0:0:0:0:
256,192,116281,1,0,0:0:0:0:
256,192,116377,1,8,0:0:0:0:
256,192,116473,1,0,0:0:0:0:
256,192,116664,1,0,0:0:0:0:
256,192,116760,1,0,0:0:0:0:
256,192,117047,1,8,0:0:0:0:
256,192,117238,1,8,0:0:0:0:
256,192,117334,1,0,0:0:0:0:
256,192,117621,1,0,0:0:0:0:
256,192,117812,1,0,0:0:0:0:
256,192,118004,1,0,0:0:0:0:
256,192,118099,1,0,0:0:0:0:
256,192,118195,1,0,0:0:0:0:
256,192,118291,1,8,0:0:0:0:
256,192,118482,1,8,0:0:0:0:
256,192,118578,1,0,0:0:0:0:
256,192,118865,1,0,0:0:0:0:
256,192,119056,1,0,0:0:0:0:
256,192,119152,1,0,0:0:0:0:
256,192,119343,1,8,0:0:0:0:
256,192,119535,1,0,0:0:0:0:
256,192,119630,1,0,0:0:0:0:
256,192,119822,1,8,0:0:0:0:
256,192,119917,1,0,0:0:0:0:
256,192,120013,1,8,0:0:0:0:
256,192,120109,1,8,0:0:0:0:
256,192,120300,1,0,0:0:0:0:
256,192,120396,1,0,0:0:0:0:
256,192,120683,1,8,0:0:0:0:
256,192,120874,1,0,0:0:0:0:
256,192,120970,1,8,0:0:0:0:
256,192,121257,1,0,0:0:0:0:
256,192,121448,1,0,0:0:0:0:
256,192,121640,1,8,0:0:0:0:
256,192,121735,1,8,0:0:0:0:
256,192,121831,1,0,0:0:0:0:
256,192,121928,1,8,0:0:0:0:
256,192,122023,1,0,0:0:0:0:
256,192,122119,1,8,0:0:0:0:
256,192,122215,1,0,0:0:0:0:
256,192,122310,1,8,0:0:0:0:
256,192,122406,1,8,0:0:0:0:
256,192,122502,1,0,0:0:0:0:
256,192,122597,1,8,0:0:0:0:
256,192,122693,1,0,0:0:0:0:
256,192,122789,1,8,0:0:0:0:
256,192,122884,1,0,0:0:0:0:
256,192,122980,1,0,0:0:0:0:
256,192,123076,1,8,0:0:0:0:
256,192,123172,1,0,0:0:0:0:
256,192,123267,1,8,0:0:0:0:
256,192,123363,1,8,0:0:0:0:
256,192,123459,1,8,0:0:0:0:
256,192,123554,1,0,0:0:0:0:
256,192,123650,1,8,0:0:0:0:
256,192,123746,1,0,0:0:0:0:
256,192,123937,1,8,0:0:0:0:
256,192,124033,1,0,0:0:0:0:
256,192,124128,1,8,0:0:0:0:
256,192,124224,1,0,0:0:0:0:
256,192,124320,1,0,0:0:0:0:
256,192,124511,1,8,0:0:0:0:
256,192,124607,1,8,0:0:0:0:
256,192,124702,1,0,0:0:0:0:
256,192,124798,1,0,0:0:0:0:
256,192,124894,1,8,0:0:0:0:
256,192,125085,1,8,0:0:0:0:
256,192,125181,1,8,0:0:0:0:
256,192,125277,1,8,0:0:0:0:
256,192,125372,1,0,0:0:0:0:
256,192,125468,1,0,0:0:0:0:
256,192,125564,1,8,0:0:0:0:
256,192,125755,1,8,0:0:0:0:
256,192,125851,1,0,0:0:0:0:
256,192,125946,1,8,0:0:0:0:
256,192,126042,1,0,0:0:0:0:
256,192,126138,1,0,0:0:0:0:
256,192,126329,1,8,0:0:0:0:
256,192,126425,1,8,0:0:0:0:
256,192,126520,1,0,0:0:0:0:
256,192,126616,1,0,0:0:0:0:
256,192,126712,1,8,0:0:0:0:
256,192,126903,1,8,0:0:0:0:
256,192,126999,1,8,0:0:0:0:
256,192,127095,1,8,0:0:0:0:
256,192,127190,1,0,0:0:0:0:
256,192,127286,1,0,0:0:0:0:
256,192,127382,1,8,0:0:0:0:
256,192,127573,1,0,0:0:0:0:
256,192,127669,1,8,0:0:0:0:
256,192,127764,1,0,0:0:0:0:
256,192,127860,1,0,0:0:0:0:
256,192,127956,1,8,0:0:0:0:
256,192,128051,1,0,0:0:0:0:
256,192,128147,1,8,0:0:0:0:
256,192,128243,1,8,0:0:0:0:
256,192,128338,1,0,0:0:0:0:
256,192,128434,1,8,0:0:0:0:
256,192,128530,1,0,0:0:0:0:
256,192,128626,1,0,0:0:0:0:
256,192,128721,1,8,0:0:0:0:
256,192,128817,1,8,0:0:0:0:
256,192,128913,1,8,0:0:0:0:
256,192,129008,1,0,0:0:0:0:
256,192,129104,1,0,0:0:0:0:
256,192,129200,1,8,0:0:0:0:
256,192,129391,1,0,0:0:0:0:
256,192,129487,1,8,0:0:0:0:
256,192,129582,1,0,0:0:0:0:
256,192,129678,1,0,0:0:0:0:
256,192,129774,1,8,0:0:0:0:
256,192,129869,1,0,0:0:0:0:
256,192,129965,1,8,0:0:0:0:
256,192,130061,1,8,0:0:0:0:
256,192,130156,1,0,0:0:0:0:
256,192,130252,1,8,0:0:0:0:
256,192,130348,1,0,0:0:0:0:
256,192,130444,1,0,0:0:0:0:
256,192,130539,1,8,0:0:0:0:
256,192,130635,1,8,0:0:0:0:
256,192,130731,1,8,0:0:0:0:
256,192,130826,1,0,0:0:0:0:
256,192,130922,1,0,0:0:0:0:
256,192,131019,1,8,0:0:0:0:
256,192,131210,1,0,0:0:0:0:
256,192,131306,1,0,0:0:0:0:
256,192,131401,1,8,0:0:0:0:
256,192,131497,1,8,0:0:0:0:
256,192,131593,1,0,0:0:0:0:
256,192,131784,1,8,0:0:0:0:
256,192,131880,1,0,0:0:0:0:
256,192,131975,1,0,0:0:0:0:
256,192,132071,1,0,0:0:0:0:
256,192,132167,1,8,0:0:0:0:
256,192,132358,1,8,0:0:0:0:
256,192,132454,1,8,0:0:0:0:
256,192,132550,1,8,0:0:0:0:
256,192,132645,1,0,0:0:0:0:
256,192,132741,1,0,0:0:0:0:
256,192,132837,1,8,0:0:0:0:
256,192,133028,1,0,0:0:0:0:
256,192,133124,1,0,0:0:0:0:
256,192,133219,1,8,0:0:0:0:
256,192,133315,1,8,0:0:0:0:
256,192,133411,1,0,0:0:0:0:
256,192,133602,1,8,0:0:0:0:
256,192,133698,1,0,0:0:0:0:
256,192,133793,1,0,0:0:0:0:
256,192,133889,1,0,0:0:0:0:
256,192,133985,1,8,0:0:0:0:
256,192,134176,1,8,0:0:0:0:
256,192,134272,1,8,0:0:0:0:
256,192,134368,1,8,0:0:0:0:
256,192,134463,1,0,0:0:0:0:
256,192,134559,1,0,0:0:0:0:
256,192,134655,1,8,0:0:0:0:
256,192,134846,1,0,0:0:0:0:
256,192,134942,1,0,0:0:0:0:
256,192,135037,1,0,0:0:0:0:
256,192,135229,1,8,0:0:0:0:
256,192,135420,1,0,0:0:0:0:
256,192,135516,1,0,0:0:0:0:
256,192,135611,1,0,0:0:0:0:
256,192,135803,1,8,0:0:0:0:
256,192,135994,1,8,0:0:0:0:
256,192,136090,1,8,0:0:0:0:
256,192,136186,1,8,0:0:0:0:
256,192,136281,1,0,0:0:0:0:
256,192,136377,1,0,0:0:0:0:
256,192,136473,1,8,0:0:0:0:
256,192,136664,1,0,0:0:0:0:
256,192,136760,1,0,0:0:0:0:
256,192,136855,1,0,0:0:0:0:
256,192,137047,1,8,0:0:0:0:
256,192,137238,1,8,0:0:0:0:
256,192,137334,1,0,0:0:0:0:
256,192,137429,1,0,0:0:0:0:
256,192,137621,1,8,0:0:0:0:
256,192,137812,1,8,0:0:0:0:
256,192,137908,1,8,0:0:0:0:
256,192,138004,1,8,0:0:0:0:
256,192,138099,1,0,0:0:0:0:
256,192,138195,1,0,0:0:0:0:
256,192,138291,1,8,0:0:0:0:
256,192,138482,1,0,0:0:0:0:
256,192,138578,1,0,0:0:0:0:
256,192,138673,1,0,0:0:0:0:
256,192,138865,1,8,0:0:0:0:
256,192,139056,1,0,0:0:0:0:
256,192,139152,1,0,0:0:0:0:
256,192,139247,1,0,0:0:0:0:
256,192,139439,1,8,0:0:0:0:
256,192,139630,1,8,0:0:0:0:
256,192,139726,1,8,0:0:0:0:
256,192,139822,1,8,0:0:0:0:
256,192,139917,1,0,0:0:0:0:
256,192,140013,1,0,0:0:0:0:
256,192,140109,1,8,0:0:0:0:
256,192,140300,1,0,0:0:0:0:
256,192,140396,1,0,0:0:0:0:
256,192,140491,1,8,0:0:0:0:
256,192,140683,1,0,0:0:0:0:
256,192,140874,1,8,0:0:0:0:
256,192,140970,1,8,0:0:0:0:
256,192,141065,1,0,0:0:0:0:
256,192,141257,1,8,0:0:0:0:
256,192,141448,1,8,0:0:0:0:
256,192,141544,1,8,0:0:0:0:
256,192,141640,1,8,0:0:0:0:
256,192,141735,1,0,0:0:0:0:
256,192,141831,1,0,0:0:0:0:
256,192,141928,1,8,0:0:0:0:
256,192,142119,1,0,0:0:0:0:
256,192,142215,1,0,0:0:0:0:
256,192,142310,1,0,0:0:0:0:
256,192,142502,1,8,0:0:0:0:
256,192,142693,1,0,0:0:0:0:
256,192,142884,1,8,0:0:0:0:
256,192,143076,1,0,0:0:0:0:
256,192,143172,1,0,0:0:0:0:
256,192,143267,1,0,0:0:0:0:
256,192,143459,1,8,0:0:0:0:
256,192,143650,1,0,0:0:0:0:
256,192,143746,1,8,0:0:0:0:
256,192,143937,1,0,0:0:0:0:
256,192,144033,1,0,0:0:0:0:
256,192,144128,1,0,0:0:0:0:
256,192,144320,1,0,0:0:0:0:
256,192,144415,1,0,0:0:0:0:
256,192,144511,1,0,0:0:0:0:
256,192,144702,1,8,0:0:0:0:
256,192,144894,1,0,0:0:0:0:
256,192,144990,1,0,0:0:0:0:
256,192,145085,1,0,0:0:0:0:
256,192,145277,1,8,0:0:0:0:
256,192,145468,1,0,0:0:0:0:
256,192,145564,1,8,0:0:0:0:
256,192,145755,1,0,0:0:0:0:
256,192,145851,1,0,0:0:0:0:
256,192,145946,1,0,0:0:0:0:
256,192,146138,1,8,0:0:0:0:
256,192,146329,1,0,0:0:0:0:
256,192,146520,1,8,0:0:0:0:
256,192,146712,1,0,0:0:0:0:
256,192,146808,1,0,0:0:0:0:
256,192,146903,1,0,0:0:0:0:
256,192,147095,1,8,0:0:0:0:
256,192,147286,1,0,0:0:0:0:
256,192,147382,1,8,0:0:0:0:
256,192,147573,1,0,0:0:0:0:
256,192,147669,1,0,0:0:0:0:
256,192,147764,1,0,0:0:0:0:
256,192,147956,1,0,0:0:0:0:
256,192,148051,1,0,0:0:0:0:
256,192,148147,1,0,0:0:0:0:
256,192,148338,1,8,0:0:0:0:
256,192,148530,1,0,0:0:0:0:
256,192,148626,1,0,0:0:0:0:
256,192,148721,1,0,0:0:0:0:
256,192,148913,1,8,0:0:0:0:
256,192,149104,1,0,0:0:0:0:
256,192,149200,1,8,0:0:0:0:
256,192,149391,1,0,0:0:0:0:
256,192,149487,1,0,0:0:0:0:
256,192,149582,1,0,0:0:0:0:
256,192,149774,1,8,0:0:0:0:
256,192,149965,1,0,0:0:0:0:
256,192,150156,1,8,0:0:0:0:
256,192,150348,1,0,0:0:0:0:
256,192,150444,1,0,0:0:0:0:
256,192,150539,1,0,0:0:0:0:
256,192,150731,1,8,0:0:0:0:
256,192,150922,1,0,0:0:0:0:
256,192,151019,1,8,0:0:0:0:
256,192,151210,1,0,0:0:0:0:
256,192,151306,1,0,0:0:0:0:
256,192,151401,1,0,0:0:0:0:
256,192,151593,1,0,0:0:0:0:
256,192,151688,1,0,0:0:0:0:
256,192,151784,1,0,0:0:0:0:
256,192,151975,1,8,0:0:0:0:
256,192,152167,1,0,0:0:0:0:
256,192,152263,1,0,0:0:0:0:
256,192,152358,1,0,0:0:0:0:
256,192,152550,1,8,0:0:0:0:
256,192,152741,1,0,0:0:0:0:
256,192,152837,1,8,0:0:0:0:
256,192,153028,1,0,0:0:0:0:
256,192,153124,1,0,0:0:0:0:
256,192,153219,1,0,0:0:0:0:
256,192,153411,1,8,0:0:0:0:
256,192,153602,1,0,0:0:0:0:
256,192,153793,1,8,0:0:0:0:
256,192,153985,1,0,0:0:0:0:
256,192,154081,1,0,0:0:0:0:
256,192,154176,1,0,0:0:0:0:
256,192,154368,1,8,0:0:0:0:
256,192,154559,1,0,0:0:0:0:
256,192,154655,1,8,0:0:0:0:
256,192,154846,1,0,0:0:0:0:
256,192,154942,1,0,0:0:0:0:
256,192,155037,1,0,0:0:0:0:
256,192,155229,1,0,0:0:0:0:
256,192,155324,1,0,0:0:0:0:
256,192,155420,1,0,0:0:0:0:
256,192,155611,1,8,0:0:0:0:
256,192,155803,1,0,0:0:0:0:
256,192,155899,1,0,0:0:0:0:
256,192,155994,1,0,0:0:0:0:
256,192,156186,1,8,0:0:0:0:
256,192,156377,1,0,0:0:0:0:
256,192,156473,1,8,0:0:0:0:
256,192,156664,1,0,0:0:0:0:
256,192,156760,1,0,0:0:0:0:
256,192,157047,1,0,0:0:0:0:
256,192,157142,1,0,0:0:0:0:
256,192,157429,1,8,0:0:0:0:
256,192,157621,1,0,0:0:0:0:
256,192,157717,1,0,0:0:0:0:
256,192,158004,1,8,0:0:0:0:
256,192,158195,1,0,0:0:0:0:
256,192,158291,1,8,0:0:0:0:
256,192,158482,1,0,0:0:0:0:
256,192,158578,1,0,0:0:0:0:
256,192,158865,1,0,0:0:0:0:
256,192,158960,1,0,0:0:0:0:
256,192,159247,1,8,0:0:0:0:
256,192,159439,1,0,0:0:0:0:
256,192,159535,1,0,0:0:0:0:
256,192,159822,1,8,0:0:0:0:
256,192,160013,1,0,0:0:0:0:
256,192,160109,1,8,0:0:0:0:
256,192,160300,1,0,0:0:0:0:
256,192,160396,1,0,0:0:0:0:
256,192,160683,1,0,0:0:0:0:
256,192,160778,1,0,0:0:0:0:
256,192,161065,1,8,0:0:0:0:
256,192,161257,1,0,0:0:0:0:
256,192,161353,1,0,0:0:0:0:
256,192,161640,1,8,0:0:0:0:
256,192,161831,1,0,0:0:0:0:
256,192,161928,1,8,0:0:0:0:
256,192,162119,1,0,0:0:0:0:
256,192,162215,1,0,0:0:0:0:
256,192,162502,1,0,0:0:0:0:
256,192,162597,1,0,0:0:0:0:
256,192,162884,1,8,0:0:0:0:
256,192,163076,1,0,0:0:0:0:
256,192,163172,1,0,0:0:0:0:
256,192,163459,1,8,0:0:0:0:
256,192,163650,1,0,0:0:0:0:
256,192,163746,1,8,0:0:0:0:
256,192,163937,1,0,0:0:0:0:
256,192,164033,1,0,0:0:0:0:
256,192,164128,1,0,0:0:0:0:
256,192,164320,1,0,0:0:0:0:
256,192,164415,1,0,0:0:0:0:
256,192,164511,1,0,0:0:0:0:
256,192,164702,1,8,0:0:0:0:
256,192,164894,1,0,0:0:0:0:
256,192,164990,1,0,0:0:0:0:
256,192,165085,1,0,0:0:0:0:
256,192,165277,1,8,0:0:0:0:
256,192,165468,1,0,0:0:0:0:
256,192,165564,1,8,0:0:0:0:
256,192,165755,1,0,0:0:0:0:
256,192,165851,1,0,0:0:0:0:
256,192,165946,1,0,0:0:0:0:
256,192,166138,1,0,0:0:0:0:
256,192,166233,1,0,0:0:0:0:
256,192,166329,1,0,0:0:0:0:
256,192,166520,1,8,0:0:0:0:
256,192,166712,1,0,0:0:0:0:
256,192,166808,1,0,0:0:0:0:
256,192,166903,1,8,0:0:0:0:
256,192,167382,1,8,0:0:0:0:
256,192,167573,1,0,0:0:0:0:
256,192,167669,1,0,0:0:0:0:
256,192,167764,1,0,0:0:0:0:
256,192,167860,1,0,0:0:0:0:
256,192,167956,1,8,0:0:0:0:
256,192,168147,1,0,0:0:0:0:
256,192,168243,1,0,0:0:0:0:
256,192,168338,1,0,0:0:0:0:
256,192,168434,1,0,0:0:0:0:
256,192,168530,1,8,0:0:0:0:
256,192,168721,1,0,0:0:0:0:
256,192,168817,1,0,0:0:0:0:
256,192,168913,1,8,0:0:0:0:
256,192,169008,1,8,0:0:0:0:
256,192,169104,1,0,0:0:0:0:
256,192,169200,1,8,0:0:0:0:
256,192,169391,1,0,0:0:0:0:
256,192,169487,1,0,0:0:0:0:
256,192,169582,1,0,0:0:0:0:
256,192,169678,1,0,0:0:0:0:
256,192,169774,1,8,0:0:0:0:
256,192,169965,1,0,0:0:0:0:
256,192,170061,1,0,0:0:0:0:
256,192,170156,1,0,0:0:0:0:
256,192,170252,1,0,0:0:0:0:
256,192,170348,1,8,0:0:0:0:
256,192,170539,1,0,0:0:0:0:
256,192,170635,1,0,0:0:0:0:
256,192,170731,1,8,0:0:0:0:
256,192,170826,1,8,0:0:0:0:
256,192,170922,1,0,0:0:0:0:
256,192,171018,1,8,0:0:0:0:
256,192,171210,1,8,0:0:0:0:
256,192,171306,1,8,0:0:0:0:
256,192,171401,1,0,0:0:0:0:
256,192,171497,1,0,0:0:0:0:
256,192,171593,1,8,0:0:0:0:
256,192,171784,1,0,0:0:0:0:
256,192,171880,1,0,0:0:0:0:
256,192,171975,1,8,0:0:0:0:
256,192,172071,1,0,0:0:0:0:
256,192,172167,1,8,0:0:0:0:
256,192,172358,1,0,0:0:0:0:
256,192,172454,1,8,0:0:0:0:
256,192,172550,1,8,0:0:0:0:
256,192,172645,1,0,0:0:0:0:
256,192,172741,1,0,0:0:0:0:
256,192,172837,1,8,0:0:0:0:
256,192,173028,1,8,0:0:0:0:
256,192,173124,1,8,0:0:0:0:
256,192,173219,1,0,0:0:0:0:
256,192,173315,1,0,0:0:0:0:
256,192,173411,1,8,0:0:0:0:
256,192,173602,1,0,0:0:0:0:
256,192,173698,1,0,0:0:0:0:
256,192,173793,1,8,0:0:0:0:
256,192,173889,1,0,0:0:0:0:
256,192,173985,1,8,0:0:0:0:
256,192,174176,1,0,0:0:0:0:
256,192,174272,1,8,0:0:0:0:
256,192,174368,1,8,0:0:0:0:
256,192,174463,1,0,0:0:0:0:
256,192,174559,1,0,0:0:0:0:
256,192,174655,1,8,0:0:0:0:
256,192,174750,1,0,0:0:0:0:
256,192,174846,1,8,0:0:0:0:
256,192,174942,1,8,0:0:0:0:
256,192,175037,1,0,0:0:0:0:
256,192,175133,1,0,0:0:0:0:
256,192,175229,1,8,0:0:0:0:
256,192,175324,1,0,0:0:0:0:
256,192,175420,1,8,0:0:0:0:
256,192,175516,1,8,0:0:0:0:
256,192,175611,1,0,0:0:0:0:
256,192,175707,1,0,0:0:0:0:
256,192,175803,1,8,0:0:0:0:
256,192,175899,1,0,0:0:0:0:
256,192,175994,1,8,0:0:0:0:
256,192,176090,1,0,0:0:0:0:
256,192,176186,1,8,0:0:0:0:
256,192,176281,1,8,0:0:0:0:
256,192,176377,1,0,0:0:0:0:
256,192,176473,1,8,0:0:0:0:
256,192,176568,1,0,0:0:0:0:
256,192,176664,1,8,0:0:0:0:
256,192,176760,1,8,0:0:0:0:
256,192,176855,1,0,0:0:0:0:
256,192,176951,1,0,0:0:0:0:
256,192,177047,1,8,0:0:0:0:
256,192,177142,1,0,0:0:0:0:
256,192,177238,1,8,0:0:0:0:
256,192,177334,1,8,0:0:0:0:
256,192,177429,1,0,0:0:0:0:
256,192,177525,1,0,0:0:0:0:
256,192,177621,1,8,0:0:0:0:
256,192,177717,1,0,0:0:0:0:
256,192,177812,1,8,0:0:0:0:
256,192,177908,1,0,0:0:0:0:
256,192,178004,1,8,0:0:0:0:
256,192,178099,1,8,0:0:0:0:
256,192,178195,1,0,0:0:0:0:
256,192,178291,1,8,0:0:0:0:
256,192,178386,1,0,0:0:0:0:
256,192,178482,1,0,0:0:0:0:
256,192,178578,1,8,0:0:0:0:
256,192,178673,1,8,0:0:0:0:
256,192,178769,1,0,0:0:0:0:
256,192,178865,1,0,0:0:0:0:
256,192,178960,1,8,0:0:0:0:
256,192,179056,1,0,0:0:0:0:
256,192,179152,1,8,0:0:0:0:
256,192,179247,1,8,0:0:0:0:
256,192,179343,1,0,0:0:0:0:
256,192,179439,1,8,0:0:0:0:
256,192,179535,1,0,0:0:0:0:
256,192,179630,1,8,0:0:0:0:
256,192,179726,1,8,0:0:0:0:
256,192,179822,1,8,0:0:0:0:
256,192,179917,1,0,0:0:0:0:
256,192,180013,1,0,0:0:0:0:
256,192,180109,1,8,0:0:0:0:
256,192,180204,1,0,0:0:0:0:
256,192,180300,1,0,0:0:0:0:
256,192,180396,1,8,0:0:0:0:
256,192,180491,1,8,0:0:0:0:
256,192,180587,1,0,0:0:0:0:
256,192,180683,1,0,0:0:0:0:
256,192,180778,1,8,0:0:0:0:
256,192,180874,1,0,0:0:0:0:
256,192,180970,1,8,0:0:0:0:
256,192,181065,1,8,0:0:0:0:
256,192,181161,1,0,0:0:0:0:
256,192,181257,1,8,0:0:0:0:
256,192,181353,1,0,0:0:0:0:
256,192,181448,1,8,0:0:0:0:
256,192,181544,1,8,0:0:0:0:
256,192,181640,1,8,0:0:0:0:
256,192,181735,1,0,0:0:0:0:
256,192,181831,1,0,0:0:0:0:
256,192,181928,1,8,0:0:0:0:
256,192,182023,1,8,0:0:0:0:
256,192,182119,1,0,0:0:0:0:
256,192,182215,1,0,0:0:0:0:
256,192,182310,1,8,0:0:0:0:
256,192,182406,1,0,0:0:0:0:
256,192,182502,1,8,0:0:0:0:
256,192,182597,1,8,0:0:0:0:
256,192,182693,1,0,0:0:0:0:
256,192,182789,1,0,0:0:0:0:
256,192,182884,1,8,0:0:0:0:
256,192,182980,1,0,0:0:0:0:
256,192,183076,1,8,0:0:0:0:
256,192,183172,1,8,0:0:0:0:
256,192,183267,1,0,0:0:0:0:
256,192,183363,1,0,0:0:0:0:
256,192,183459,1,0,0:0:0:0:
256,192,183554,1,0,0:0:0:0:
256,192,183650,1,0,0:0:0:0:
256,192,183746,1,8,0:0:0:0:
256,192,183841,1,8,0:0:0:0:
256,192,183937,1,0,0:0:0:0:
256,192,184033,1,0,0:0:0:0:
256,192,184128,1,8,0:0:0:0:
256,192,184224,1,0,0:0:0:0:
256,192,184320,1,8,0:0:0:0:
256,192,184415,1,0,0:0:0:0:
256,192,184511,1,8,0:0:0:0:
256,192,184607,1,8,0:0:0:0:
256,192,184702,1,0,0:0:0:0:
256,192,184798,1,0,0:0:0:0:
256,192,184894,1,8,0:0:0:0:
256,192,184990,1,0,0:0:0:0:
256,192,185085,1,8,0:0:0:0:
256,192,185181,1,8,0:0:0:0:
256,192,185277,1,8,0:0:0:0:
256,192,185372,1,0,0:0:0:0:
256,192,185468,1,0,0:0:0:0:
256,192,185564,1,8,0:0:0:0:
256,192,185659,1,8,0:0:0:0:
256,192,185755,1,0,0:0:0:0:
256,192,185851,1,0,0:0:0:0:
256,192,185946,1,8,0:0:0:0:
256,192,186042,1,0,0:0:0:0:
256,192,186138,1,8,0:0:0:0:
256,192,186233,1,8,0:0:0:0:
256,192,186329,1,0,0:0:0:0:
256,192,186425,1,0,0:0:0:0:
256,192,186520,1,8,0:0:0:0:
256,192,186616,1,0,0:0:0:0:
256,192,186712,1,8,0:0:0:0:
256,192,186808,1,8,0:0:0:0:
256,192,186903,1,0,0:0:0:0:
256,192,186999,1,0,0:0:0:0:
256,192,187095,1,0,0:0:0:0:
256,192,187190,1,0,0:0:0:0:
256,192,187286,1,0,0:0:0:0:
256,192,187382,1,8,0:0:0:0:
256,192,187477,1,8,0:0:0:0:
256,192,187573,1,0,0:0:0:0:
256,192,187669,1,0,0:0:0:0:
256,192,187764,1,8,0:0:0:0:
256,192,187860,1,0,0:0:0:0:
256,192,187956,1,8,0:0:0:0:
256,192,188051,1,0,0:0:0:0:
256,192,188147,1,8,0:0:0:0:
256,192,188243,1,8,0:0:0:0:
256,192,188338,1,0,0:0:0:0:
256,192,188434,1,0,0:0:0:0:
256,192,188530,1,8,0:0:0:0:
256,192,188626,1,0,0:0:0:0:
256,192,188721,1,8,0:0:0:0:
256,192,188817,1,8,0:0:0:0:
256,192,188913,1,8,0:0:0:0:
256,192,189008,1,0,0:0:0:0:
256,192,189200,1,12,0:0:0:0:
256,192,189391,1,0,0:0:0:0:
256,192,189487,1,0,0:0:0:0:
256,192,189582,1,8,0:0:0:0:
256,192,189678,1,0,0:0:0:0:
256,192,189774,1,8,0:0:0:0:
256,192,189869,1,0,0:0:0:0:
256,192,189965,1,8,0:0:0:0:
256,192,190061,1,0,0:0:0:0:
256,192,190156,1,8,0:0:0:0:
256,192,190252,1,8,0:0:0:0:
256,192,190348,1,0,0:0:0:0:
256,192,190444,1,8,0:0:0:0:
256,192,190539,1,0,0:0:0:0:
256,192,190635,1,0,0:0:0:0:
256,192,190731,1,8,0:0:0:0:
256,192,190826,1,0,0:0:0:0:
256,192,190922,1,8,0:0:0:0:
256,192,191019,1,0,0:0:0:0:
256,192,191114,1,8,0:0:0:0:
256,192,191210,1,8,0:0:0:0:
256,192,191306,1,0,0:0:0:0:
256,192,191401,1,8,0:0:0:0:
256,192,191497,1,8,0:0:0:0:
256,192,191593,1,0,0:0:0:0:
256,192,191688,1,0,0:0:0:0:
256,192,191784,1,0,0:0:0:0:
256,192,191880,1,8,0:0:0:0:
256,192,191975,1,8,0:0:0:0:
256,192,192071,1,8,0:0:0:0:
256,192,192167,1,0,0:0:0:0:
256,192,192263,1,8,0:0:0:0:
256,192,192358,1,0,0:0:0:0:
256,192,192454,1,8,0:0:0:0:
256,192,192550,1,8,0:0:0:0:
256,192,192645,1,8,0:0:0:0:
256,192,192741,1,8,0:0:0:0:
256,192,192837,12,0,195803,0:0:0:0:
256,192,196473,5,12,0:0:0:0:
256,192,196664,1,0,0:0:0:0:
256,192,196760,1,8,0:0:0:0:
256,192,196855,1,0,0:0:0:0:
256,192,196951,1,0,0:0:0:0:
256,192,197047,1,8,0:0:0:0:
256,192,197142,1,0,0:0:0:0:
256,192,197238,1,0,0:0:0:0:
256,192,197334,1,8,0:0:0:0:
256,192,197429,1,8,0:0:0:0:
256,192,197525,1,0,0:0:0:0:
256,192,197621,1,8,0:0:0:0:
256,192,197717,1,0,0:0:0:0:
256,192,197812,1,8,0:0:0:0:
256,192,197908,1,8,0:0:0:0:
256,192,198004,1,0,0:0:0:0:
256,192,198099,1,0,0:0:0:0:
256,192,198195,1,0,0:0:0:0:
256,192,198291,1,8,0:0:0:0:
256,192,198386,1,8,0:0:0:0:
256,192,198482,1,0,0:0:0:0:
256,192,198578,1,8,0:0:0:0:
256,192,198673,1,0,0:0:0:0:
256,192,198769,1,0,0:0:0:0:
256,192,198865,1,8,0:0:0:0:
256,192,198960,1,0,0:0:0:0:
256,192,199056,1,0,0:0:0:0:
256,192,199152,1,8,0:0:0:0:
256,192,199247,1,8,0:0:0:0:
256,192,199343,1,0,0:0:0:0:
256,192,199439,1,8,0:0:0:0:
256,192,199535,1,0,0:0:0:0:
256,192,199630,1,8,0:0:0:0:
256,192,199726,1,8,0:0:0:0:
256,192,199822,1,0,0:0:0:0:
256,192,199917,1,8,0:0:0:0:
256,192,200013,1,0,0:0:0:0:
256,192,200109,1,0,0:0:0:0:
256,192,200204,1,8,0:0:0:0:
256,192,200300,1,0,0:0:0:0:
256,192,200396,1,8,0:0:0:0:
256,192,200491,1,0,0:0:0:0:
256,192,200587,1,0,0:0:0:0:
256,192,200683,1,8,0:0:0:0:
256,192,200778,1,0,0:0:0:0:
256,192,200874,1,0,0:0:0:0:
256,192,200970,1,8,0:0:0:0:
256,192,201065,1,8,0:0:0:0:
256,192,201161,1,0,0:0:0:0:
256,192,201257,1,8,0:0:0:0:
256,192,201353,1,0,0:0:0:0:
256,192,201448,1,8,0:0:0:0:
256,192,201544,1,8,0:0:0:0:
256,192,201640,1,0,0:0:0:0:
256,192,201735,1,0,0:0:0:0:
256,192,201831,1,0,0:0:0:0:
256,192,201928,1,8,0:0:0:0:
256,192,202023,1,8,0:0:0:0:
256,192,202119,1,0,0:0:0:0:
256,192,202215,1,8,0:0:0:0:
256,192,202310,1,0,0:0:0:0:
256,192,202406,1,0,0:0:0:0:
256,192,202502,1,8,0:0:0:0:
256,192,202597,1,0,0:0:0:0:
256,192,202693,1,0,0:0:0:0:
256,192,202789,1,8,0:0:0:0:
256,192,202884,1,8,0:0:0:0:
256,192,202980,1,0,0:0:0:0:
256,192,203076,1,8,0:0:0:0:
256,192,203172,1,0,0:0:0:0:
256,192,203267,1,8,0:0:0:0:
256,192,203363,1,8,0:0:0:0:
256,192,203459,1,0,0:0:0:0:
256,192,203554,1,8,0:0:0:0:
256,192,203650,1,0,0:0:0:0:
256,192,203746,1,0,0:0:0:0:
256,192,203841,1,8,0:0:0:0:
256,192,203937,1,0,0:0:0:0:
256,192,204033,1,8,0:0:0:0:
256,192,204128,1,8,0:0:0:0:
256,192,204224,1,0,0:0:0:0:
256,192,204320,1,0,0:0:0:0:
256,192,204415,1,0,0:0:0:0:
256,192,204511,1,8,0:0:0:0:
256,192,204607,1,8,0:0:0:0:
256,192,204702,1,0,0:0:0:0:
256,192,204798,1,0,0:0:0:0:
256,192,204894,1,0,0:0:0:0:
256,192,204990,1,8,0:0:0:0:
256,192,205085,1,0,0:0:0:0:
256,192,205181,1,0,0:0:0:0:
256,192,205277,1,8,0:0:0:0:
256,192,205372,1,0,0:0:0:0:
256,192,205468,1,0,0:0:0:0:
256,192,205564,1,8,0:0:0:0:
256,192,205659,1,0,0:0:0:0:
256,192,205755,1,8,0:0:0:0:
256,192,205851,1,8,0:0:0:0:
256,192,205946,1,0,0:0:0:0:
256,192,206042,1,8,0:0:0:0:
256,192,206138,1,0,0:0:0:0:
256,192,206233,1,0,0:0:0:0:
256,192,206329,1,8,0:0:0:0:
256,192,206425,1,8,0:0:0:0:
256,192,206520,1,0,0:0:0:0:
256,192,206616,1,8,0:0:0:0:
256,192,206712,1,0,0:0:0:0:
256,192,206808,1,8,0:0:0:0:
256,192,206903,1,8,0:0:0:0:
256,192,206999,1,0,0:0:0:0:
256,192,207095,1,8,0:0:0:0:
256,192,207190,1,8,0:0:0:0:
256,192,207286,1,0,0:0:0:0:
256,192,207382,1,0,0:0:0:0:
256,192,207477,1,8,0:0:0:0:
256,192,207573,1,0,0:0:0:0:
256,192,207669,1,8,0:0:0:0:
256,192,207764,1,8,0:0:0:0:
256,192,207860,1,0,0:0:0:0:
256,192,207956,1,0,0:0:0:0:
256,192,208051,1,0,0:0:0:0:
256,192,208147,1,8,0:0:0:0:
256,192,208243,1,8,0:0:0:0:
256,192,208338,1,0,0:0:0:0:
256,192,208434,1,0,0:0:0:0:
256,192,208530,1,0,0:0:0:0:
256,192,208626,1,8,0:0:0:0:
256,192,208721,1,0,0:0:0:0:
256,192,208817,1,0,0:0:0:0:
256,192,208913,1,8,0:0:0:0:
256,192,209008,1,0,0:0:0:0:
256,192,209104,1,0,0:0:0:0:
256,192,209200,1,8,0:0:0:0:
256,192,209295,1,0,0:0:0:0:
256,192,209391,1,8,0:0:0:0:
256,192,209487,1,8,0:0:0:0:
256,192,209582,1,0,0:0:0:0:
256,192,209678,1,8,0:0:0:0:
256,192,209774,1,0,0:0:0:0:
256,192,209869,1,0,0:0:0:0:
256,192,209965,1,8,0:0:0:0:
256,192,210061,1,8,0:0:0:0:
256,192,210156,1,0,0:0:0:0:
256,192,210252,1,8,0:0:0:0:
256,192,210348,1,0,0:0:0:0:
256,192,210444,1,0,0:0:0:0:
256,192,210539,1,8,0:0:0:0:
256,192,210635,1,0,0:0:0:0:
256,192,210731,1,8,0:0:0:0:
256,192,210826,1,0,0:0:0:0:
256,192,211019,1,12,0:0:0:0:
256,192,211210,1,0,0:0:0:0:
256,192,211306,1,8,0:0:0:0:
256,192,211401,1,0,0:0:0:0:
256,192,211497,1,8,0:0:0:0:
256,192,211593,1,0,0:0:0:0:
256,192,211688,1,0,0:0:0:0:
256,192,211784,1,8,0:0:0:0:
256,192,211880,1,8,0:0:0:0:
256,192,211975,1,0,0:0:0:0:
256,192,212071,1,8,0:0:0:0:
256,192,212167,1,0,0:0:0:0:
256,192,212263,1,8,0:0:0:0:
256,192,212358,1,0,0:0:0:0:
256,192,212454,1,0,0:0:0:0:
256,192,212550,1,8,0:0:0:0:
256,192,212645,1,0,0:0:0:0:
256,192,212741,1,0,0:0:0:0:
256,192,212837,1,8,0:0:0:0:
256,192,212932,1,0,0:0:0:0:
256,192,213028,1,8,0:0:0:0:
256,192,213124,1,8,0:0:0:0:
256,192,213219,1,0,0:0:0:0:
256,192,213315,1,0,0:0:0:0:
256,192,213411,1,8,0:0:0:0:
256,192,213506,1,0,0:0:0:0:
256,192,213602,1,8,0:0:0:0:
256,192,213698,1,8,0:0:0:0:
256,192,213793,1,0,0:0:0:0:
256,192,213889,1,0,0:0:0:0:
256,192,213985,1,8,0:0:0:0:
256,192,214081,1,0,0:0:0:0:
256,192,214176,1,8,0:0:0:0:
256,192,214272,1,0,0:0:0:0:
256,192,214368,1,8,0:0:0:0:
256,192,214463,1,8,0:0:0:0:
256,192,214559,1,0,0:0:0:0:
256,192,214655,1,0,0:0:0:0:
256,192,214750,1,8,0:0:0:0:
256,192,214846,1,0,0:0:0:0:
256,192,214942,1,8,0:0:0:0:
256,192,215037,1,0,0:0:0:0:
256,192,215133,1,8,0:0:0:0:
256,192,215229,1,0,0:0:0:0:
256,192,215324,1,0,0:0:0:0:
256,192,215420,1,8,0:0:0:0:
256,192,215516,1,8,0:0:0:0:
256,192,215611,1,0,0:0:0:0:
256,192,215707,1,8,0:0:0:0:
256,192,215803,1,0,0:0:0:0:
256,192,215899,1,8,0:0:0:0:
256,192,215994,1,0,0:0:0:0:
256,192,216090,1,0,0:0:0:0:
256,192,216186,1,8,0:0:0:0:
256,192,216281,1,8,0:0:0:0:
256,192,216377,1,0,0:0:0:0:
256,192,216473,1,8,0:0:0:0:
256,192,216568,1,0,0:0:0:0:
256,192,216664,1,8,0:0:0:0:
256,192,216760,1,8,0:0:0:0:
256,192,216855,1,0,0:0:0:0:
256,192,216951,1,0,0:0:0:0:
256,192,217047,1,8,0:0:0:0:
256,192,217142,1,0,0:0:0:0:
256,192,217238,1,8,0:0:0:0:
256,192,217334,1,8,0:0:0:0:
256,192,217429,1,0,0:0:0:0:
256,192,217525,1,0,0:0:0:0:
256,192,217621,1,8,0:0:0:0:
256,192,217717,1,0,0:0:0:0:
256,192,217812,1,8,0:0:0:0:
256,192,217908,1,0,0:0:0:0:
256,192,218004,1,8,0:0:0:0:
256,192,218099,1,8,0:0:0:0:
256,192,218291,1,4,0:0:0:0:
256,192,218482,1,8,0:0:0:0:
256,192,218578,1,8,0:0:0:0:
256,192,218673,1,0,0:0:0:0:
256,192,218769,1,0,0:0:0:0:
256,192,218865,1,8,0:0:0:0:
256,192,218960,1,8,0:0:0:0:
256,192,219056,1,0,0:0:0:0:
256,192,219152,1,8,0:0:0:0:
256,192,219247,1,8,0:0:0:0:
256,192,219343,1,0,0:0:0:0:
256,192,219439,1,8,0:0:0:0:
256,192,219535,1,0,0:0:0:0:
256,192,219630,1,8,0:0:0:0:
256,192,219726,1,0,0:0:0:0:
256,192,219822,1,8,0:0:0:0:
256,192,219917,1,8,0:0:0:0:
256,192,220013,1,0,0:0:0:0:
256,192,220109,1,8,0:0:0:0:
256,192,220204,1,0,0:0:0:0:
256,192,220300,1,8,0:0:0:0:
256,192,220396,1,8,0:0:0:0:
256,192,220491,1,0,0:0:0:0:
256,192,220587,1,8,0:0:0:0:
256,192,220683,1,0,0:0:0:0:
256,192,220778,1,0,0:0:0:0:
256,192,220874,1,8,0:0:0:0:
256,192,220970,1,8,0:0:0:0:
256,192,221065,1,0,0:0:0:0:
256,192,221161,1,8,0:0:0:0:
256,192,221257,1,0,0:0:0:0:
256,192,221353,1,8,0:0:0:0:
256,192,221448,1,8,0:0:0:0:
256,192,221544,1,0,0:0:0:0:
256,192,221640,1,8,0:0:0:0:
256,192,221735,1,8,0:0:0:0:
256,192,221831,1,0,0:0:0:0:
256,192,221928,1,0,0:0:0:0:
256,192,222023,1,8,0:0:0:0:
256,192,222119,1,8,0:0:0:0:
256,192,222215,1,8,0:0:0:0:
256,192,222310,1,0,0:0:0:0:
256,192,222406,1,0,0:0:0:0:
256,192,222502,1,8,0:0:0:0:
256,192,222597,1,8,0:0:0:0:
256,192,222693,1,0,0:0:0:0:
256,192,222789,1,8,0:0:0:0:
256,192,222884,1,8,0:0:0:0:
256,192,222980,1,0,0:0:0:0:
256,192,223076,1,8,0:0:0:0:
256,192,223172,1,0,0:0:0:0:
256,192,223267,1,8,0:0:0:0:
256,192,223363,1,0,0:0:0:0:
256,192,223459,1,8,0:0:0:0:
256,192,223554,1,0,0:0:0:0:
256,192,223650,1,8,0:0:0:0:
256,192,223746,1,8,0:0:0:0:
256,192,223841,1,0,0:0:0:0:
256,192,223937,1,8,0:0:0:0:
256,192,224033,1,8,0:0:0:0:
256,192,224128,1,0,0:0:0:0:
256,192,224224,1,8,0:0:0:0:
256,192,224320,1,0,0:0:0:0:
256,192,224415,1,0,0:0:0:0:
256,192,224511,1,8,0:0:0:0:
256,192,224607,1,8,0:0:0:0:
256,192,224702,1,0,0:0:0:0:
256,192,224798,1,8,0:0:0:0:
256,192,224894,1,0,0:0:0:0:
256,192,224990,1,8,0:0:0:0:
256,192,225085,1,8,0:0:0:0:
256,192,225181,1,0,0:0:0:0:
256,192,225277,1,8,0:0:0:0:
256,192,225372,1,0,0:0:0:0:
256,192,225564,1,12,0:0:0:0:
256,192,225755,1,0,0:0:0:0:
256,192,225851,1,0,0:0:0:0:
256,192,225946,1,8,0:0:0:0:
256,192,226042,1,8,0:0:0:0:
256,192,226138,1,8,0:0:0:0:
256,192,226233,1,8,0:0:0:0:
256,192,226329,1,0,0:0:0:0:
256,192,226425,1,8,0:0:0:0:
256,192,226520,1,8,0:0:0:0:
256,192,226616,1,8,0:0:0:0:
256,192,226712,1,8,0:0:0:0:
256,192,226808,1,0,0:0:0:0:
256,192,226903,1,0,0:0:0:0:
256,192,226999,1,0,0:0:0:0:
256,192,227095,1,8,0:0:0:0:
256,192,227190,1,0,0:0:0:0:
256,192,227286,1,0,0:0:0:0:
256,192,227382,1,8,0:0:0:0:
256,192,227477,1,0,0:0:0:0:
256,192,227573,1,8,0:0:0:0:
256,192,227669,1,8,0:0:0:0:
256,192,227764,1,0,0:0:0:0:
256,192,227860,1,0,0:0:0:0:
256,192,227956,1,0,0:0:0:0:
256,192,228051,1,0,0:0:0:0:
256,192,228147,1,8,0:0:0:0:
256,192,228243,1,0,0:0:0:0:
256,192,228338,1,8,0:0:0:0:
256,192,228434,1,0,0:0:0:0:
256,192,228530,1,8,0:0:0:0:
256,192,228626,1,8,0:0:0:0:
256,192,228721,1,8,0:0:0:0:
256,192,228817,1,0,0:0:0:0:
256,192,228913,1,8,0:0:0:0:
256,192,229008,1,0,0:0:0:0:
256,192,229200,1,12,0:0:0:0:
256,192,229391,1,0,0:0:0:0:
256,192,229487,1,0,0:0:0:0:
256,192,229582,1,8,0:0:0:0:
256,192,229678,1,8,0:0:0:0:
256,192,229774,1,8,0:0:0:0:
256,192,229869,1,0,0:0:0:0:
256,192,229965,1,8,0:0:0:0:
256,192,230061,1,0,0:0:0:0:
256,192,230156,1,8,0:0:0:0:
256,192,230252,1,8,0:0:0:0:
256,192,230348,1,0,0:0:0:0:
256,192,230444,1,8,0:0:0:0:
256,192,230539,1,8,0:0:0:0:
256,192,230635,1,0,0:0:0:0:
256,192,230731,1,8,0:0:0:0:
256,192,230826,1,0,0:0:0:0:
256,192,231019,1,12,0:0:0:0:
256,192,231210,1,8,0:0:0:0:
256,192,231306,1,0,0:0:0:0:
256,192,231401,1,8,0:0:0:0:
256,192,231497,1,8,0:0:0:0:
256,192,231593,1,0,0:0:0:0:
256,192,231688,1,0,0:0:0:0:
256,192,231784,1,8,0:0:0:0:
256,192,231880,1,0,0:0:0:0:
256,192,231975,1,8,0:0:0:0:
256,192,232071,1,8,0:0:0:0:
256,192,232167,1,0,0:0:0:0:
256,192,232263,1,0,0:0:0:0:
256,192,232358,1,8,0:0:0:0:
256,192,232454,1,0,0:0:0:0:
256,192,232550,1,8,0:0:0:0:
256,192,232645,1,8,0:0:0:0:
256,192,232837,1,12,0:0:0:0:
256,192,235946,1,8,0:0:0:0:
256,192,236600,1,0,0:0:0:0:
256,192,236791,1,8,0:0:0:0:
256,192,236983,1,0,0:0:0:0:
256,192,237174,12,0,240109,0:0:0:0:
