osu file format v14

[General]
AudioFilename: audio.mp3
AudioLeadIn: 0
PreviewTime: 210276
Countdown: 0
SampleSet: Soft
StackLeniency: 0.7
Mode: 0
LetterboxInBreaks: 0
WidescreenStoryboard: 0

[Editor]
Bookmarks: 12816,37361,78088,79906,83543,86634,89725,183906,185179,234997,246270
DistanceSpacing: 1.6
BeatDivisor: 4
GridSize: 8
TimelineZoom: 1

[Metadata]
Title:Slow Dance
TitleUnicode:Slow Dance
Artist:Suneohair
ArtistUnicode:スネオヘアー
Creator:Darkknes
Version:Dance With Me
Source:
Tags:
BeatmapID:1992725
BeatmapSetID:954507

[Difficulty]
HPDrainRate:6
CircleSize:4.5
OverallDifficulty:8
ApproachRate:9
SliderMultiplier:1.6
SliderTickRate:1

[Events]
//Background and Video events
0,0,"ytj6Oo.jpg",0,0
//Break Periods
2,73743,75361
2,201743,208943
//Storyboard Layer 0 (Background)
//Storyboard Layer 1 (Fail)
//Storyboard Layer 2 (Pass)
//Storyboard Layer 3 (Foreground)
//Storyboard Layer 4 (Overlay)
//Storyboard Sound Samples

[TimingPoints]
816,363.636363636364,4,2,22,70,1,0
1535,-133.333333333333,4,2,22,70,0,0
2080,-100,4,2,22,70,0,0
2808,-133.333333333333,4,2,22,70,0,0
6626,-100,4,2,22,70,0,0
114634,-83.3333333333333,4,2,22,70,0,0
115361,-74.0740740740741,4,2,22,70,0,0
117179,-80,4,2,22,70,0,1
135725,-74.0740740740741,4,2,22,70,0,1
136452,-80,4,2,22,70,0,1
140452,-100,4,2,22,70,0,0
163725,-100,4,2,22,70,0,0
186997,-80,4,2,22,70,0,0
198634,-100,4,2,22,70,0,0
209543,-80,4,2,22,70,0,0
210270,-79.9999999999999,4,2,22,70,0,1
233543,-100,4,2,22,70,0,0
250997,-83.3333333333333,4,2,22,70,0,1
252816,-76.9230769230769,4,2,22,70,0,1
257179,-86.9565217391304,4,2,22,70,0,1
280088,-333.333333333333,4,2,22,70,0,0

[Colours]
Combo1 : 58,220,62
Combo2 : 255,26,31
Combo3 : 92,222,203
Combo4 : 255,105,180

[HitObjects]
109,42,816,6,0,P|181:106|181:170,1,160
13,250,1543,2,0,P|69:234|141:250,1,120.000004577637
253,282,2088,2,0,P|229:250|221:202,1,80
114,138,2452,2,0,P|170:122|218:138,1,80
281,143,2816,2,0,P|353:159|409:143,1,120.000004577637
476,94,3361,2,0,L|476:158,1,60.0000022888184
416,230,3725,6,0,P|424:286|400:350,2,120.000004577637,2|0|0,0:0|0:0|0:0,0:0:0:0:
328,165,4634,1,0,0:0:0:0:
434,147,4816,1,0,0:0:0:0:
328,252,4997,2,0,P|248:284|160:244,1,180.000006866455
196,60,5906,2,0,P|185:92|191:133,1,60.0000022888184
274,245,6270,2,0,P|277:213|266:184,1,60.0000022888184
219,307,6634,6,0,P|291:323|363:259,1,160
409,23,7361,2,0,L|385:183,1,160
281,255,7906,2,0,L|281:175,1,80
187,86,8270,2,0,L|192:165,1,80
258,37,8634,2,0,P|179:6|110:120,1,240
186,240,9361,5,0,0:0:0:0:
186,240,9543,2,0,P|202:200|186:80,1,160,2|0,0:0|0:0,0:0:0:0:
25,283,10270,2,0,P|68:269|104:272,1,80
247,325,10634,1,0,0:0:0:0:
247,325,10816,2,0,P|330:305|238:305,1,240
199,176,11725,5,8,0:0:0:0:
199,176,11906,1,8,0:0:0:0:
307,134,12088,5,8,0:0:0:0:
307,134,12270,1,8,0:0:0:0:
408,86,12452,6,0,B|435:120|435:120|430:173,1,80,6|0,0:0|0:0,0:0:0:0:
336,216,12816,2,0,B|335:258|335:258|360:289,1,80,10|0,0:0|0:0,0:0:0:0:
470,349,13179,1,4,0:0:0:0:
509,227,13361,1,4,0:0:0:0:
416,138,13543,1,8,0:0:0:0:
256,192,13725,2,0,P|250:231|254:271,1,80,0|4,0:0|0:0,0:0:0:0:
336,152,14088,2,0,P|340:112|337:72,1,80,0|8,0:0|0:0,0:0:0:0:
256,192,14452,2,0,P|336:232|420:183,1,160,0|4,0:0|0:0,0:0:0:0:
480,40,14997,6,0,P|443:70|424:104,1,80,8|0,0:0|0:0,0:0:0:0:
397,209,15361,2,0,B|365:289|429:289|389:369,2,160,4|8|4,0:0|0:0|0:0,0:0:0:0:
314,182,16270,1,4,0:0:0:0:
420,145,16452,1,8,0:0:0:0:
367,245,16634,6,0,P|290:259|257:126,1,240,0|8,0:0|0:0,0:0:0:0:
337,32,17361,1,0,0:0:0:0:
253,129,17543,1,4,0:0:0:0:
183,21,17725,1,4,0:0:0:0:
152,144,17906,1,8,0:0:0:0:
59,55,18088,1,0,0:0:0:0:
16,175,18270,2,0,B|33:214|33:214|68:248,1,80,4|0,0:0|0:0,0:0:0:0:
188,252,18634,2,0,L|183:166,1,80,8|0,0:0|0:0,0:0:0:0:
108,170,18997,5,4,0:0:0:0:
261,184,19179,1,4,0:0:0:0:
194,74,19361,1,8,0:0:0:0:
108,170,19543,2,0,P|104:227|114:257,1,80,0|4,0:0|0:0,0:0:0:0:
261,184,19906,2,0,P|232:145|192:124,1,80,0|8,0:0|0:0,0:0:0:0:
94,63,20270,2,0,P|181:62|253:35,1,160,0|4,0:0|0:0,0:0:0:0:
376,21,20816,5,8,0:0:0:0:
469,107,20997,1,4,0:0:0:0:
359,134,21179,2,0,P|354:175|359:222,1,80,4|0,0:0|0:0,0:0:0:0:
271,308,21543,2,0,P|276:264|271:220,1,80,8|0,0:0|0:0,0:0:0:0:
274,99,21906,5,4,0:0:0:0:
360,219,22088,1,4,0:0:0:0:
428,110,22270,1,8,0:0:0:0:
360,219,22452,2,0,B|280:251|280:195|192:227,1,160
136,336,22997,5,8,0:0:0:0:
299,119,23179,1,4,0:0:0:0:
92,201,23361,2,0,P|34:178|96:136,1,160,10|8,0:0|0:0,0:0:0:0:
212,150,23906,1,8,0:0:0:0:
212,150,24088,2,0,P|257:144|308:136,1,80,6|0,0:0|0:0,0:0:0:0:
426,190,24452,1,8,0:0:0:0:
306,293,24634,6,0,P|254:303|226:320,1,80,0|4,0:0|0:0,0:0:0:0:
141,204,24997,2,0,P|162:166|167:112,1,80,4|8,0:0|0:0,0:0:0:0:
310,102,25361,2,0,P|328:137|377:164,1,80,0|4,0:0|0:0,0:0:0:0:
444,277,25725,1,0,0:0:0:0:
339,268,25906,2,0,L|346:353,1,80,8|0,0:0|0:0,0:0:0:0:
241,246,26270,1,4,0:0:0:0:
149,357,26452,2,0,L|142:272,1,80,4|8,0:0|0:0,0:0:0:0:
80,160,26816,1,0,0:0:0:0:
84,162,26997,6,0,B|192:160,1,80,4|0,0:0|0:0,0:0:0:0:
46,272,27361,1,8,0:0:0:0:
171,245,27543,1,0,0:0:0:0:
101,352,27725,1,4,0:0:0:0:
101,352,27906,1,4,0:0:0:0:
54,166,28088,5,8,0:0:0:0:
171,245,28270,1,0,0:0:0:0:
46,272,28452,1,4,0:0:0:0:
173,128,28634,1,0,0:0:0:0:
45,87,28816,2,0,P|45:139|58:176,1,80,8|0,0:0|0:0,0:0:0:0:
46,272,29179,1,4,0:0:0:0:
46,272,29361,1,4,0:0:0:0:
171,245,29543,2,0,P|217:241|273:258,1,80,8|0,0:0|0:0,0:0:0:0:
368,295,29906,5,4,0:0:0:0:
443,191,30088,1,0,0:0:0:0:
317,166,30270,2,0,L|209:148,1,80,8|0,0:0|0:0,0:0:0:0:
112,129,30634,1,4,0:0:0:0:
226,51,30816,1,4,0:0:0:0:
155,214,30997,1,8,0:0:0:0:
37,162,31179,2,0,P|31:116|48:66,1,80,0|4,0:0|0:0,0:0:0:0:
155,214,31543,2,0,P|160:268|143:315,1,80,0|8,0:0|0:0,0:0:0:0:
59,215,31906,6,0,P|90:148|193:125,1,160,0|4,0:0|0:0,0:0:0:0:
283,157,32452,1,8,0:0:0:0:
155,214,32634,1,4,0:0:0:0:
239,69,32816,2,0,P|350:86|388:139,1,160,4|8,0:0|0:0,0:0:0:0:
458,62,33361,2,0,P|478:148|425:235,1,160,0|4,0:0|0:0,0:0:0:0:
506,289,33906,2,0,P|413:311|342:271,1,160,8|4,0:0|0:0,0:0:0:0:
106,187,34634,5,8,0:0:0:0:
91,314,34816,1,0,0:0:0:0:
120,190,34997,1,4,0:0:0:0:
176,304,35179,1,4,0:0:0:0:
134,185,35361,2,0,P|135:145|100:85,1,80,10|0,0:0|0:0,0:0:0:0:
254,54,35725,2,0,P|242:98|249:150,1,80,6|0,0:0|0:0,0:0:0:0:
306,242,36088,5,8,0:0:0:0:
408,319,36270,2,0,P|428:278|428:239,1,80,0|4,0:0|0:0,0:0:0:0:
275,50,36634,2,0,P|255:84|253:124,1,80,4|8,0:0|0:0,0:0:0:0:
306,242,36998,2,0,P|325:207|329:167,1,80,0|4,0:0|0:0,0:0:0:0:
164,42,37361,2,0,P|144:76|142:116,1,80,0|8,0:0|0:0,0:0:0:0:
195,234,37725,2,0,P|214:199|218:159,1,80,0|4,0:0|0:0,0:0:0:0:
312,50,38088,5,4,0:0:0:0:
164,42,38270,1,8,0:0:0:0:
269,139,38452,2,0,P|348:149|406:97,1,160,0|2,0:0|0:0,0:0:0:0:
312,50,38997,1,8,0:0:0:0:
372,245,39179,1,0,0:0:0:0:
269,139,39361,1,4,0:0:0:0:
262,283,39543,1,4,0:0:0:0:
361,149,39725,2,0,P|366:100|364:53,1,80,8|0,0:0|0:0,0:0:0:0:
237,62,40088,5,4,0:0:0:0:
187,180,40270,1,0,0:0:0:0:
262,283,40452,2,0,P|305:271|340:272,1,80,8|0,0:0|0:0,0:0:0:0:
463,309,40816,5,4,0:0:0:0:
440,183,40997,1,4,0:0:0:0:
324,127,41179,2,0,P|284:126|245:137,1,80,8|0,0:0|0:0,0:0:0:0:
136,206,41543,5,4,0:0:0:0:
163,331,41725,1,0,0:0:0:0:
284,231,41906,2,0,P|233:235|188:251,1,80,8|0,0:0|0:0,0:0:0:0:
91,302,42270,1,4,0:0:0:0:
232,342,42452,1,4,0:0:0:0:
170,170,42634,1,8,0:0:0:0:
91,302,42816,6,0,P|139:276|169:236,1,80,0|4,0:0|0:0,0:0:0:0:
257,178,43179,2,0,L|254:264,1,80,0|8,0:0|0:0,0:0:0:0:
347,169,43543,2,0,P|375:141|411:124,1,80,0|4,0:0|0:0,0:0:0:0:
347,13,43906,2,0,P|297:29|244:25,1,80,4|8,0:0|0:0,0:0:0:0:
180,121,44270,6,0,L|210:298,1,160,4|2,0:0|0:0,0:0:0:0:
326,325,44816,1,8,0:0:0:0:
207,277,44997,1,0,0:0:0:0:
322,222,45179,2,0,P|370:231|428:329,1,160,4|8,0:0|0:0,0:0:0:0:
326,325,45725,1,4,0:0:0:0:
210,282,45906,2,0,P|199:222|257:130,1,160,4|8,0:0|0:0,0:0:0:0:
309,13,46452,1,4,0:0:0:0:
351,184,46634,2,0,P|353:238|290:193,1,160,10|4,0:0|0:0,0:0:0:0:
266,78,47179,5,8,0:0:0:0:
125,29,47361,2,0,P|87:74|83:120,1,80,6|0,0:0|0:0,0:0:0:0:
128,213,47725,2,0,P|157:175|166:129,1,80,8|0,0:0|0:0,0:0:0:0:
38,165,48088,2,0,L|33:333,1,160,4|8,0:0|0:0,0:0:0:0:
154,281,48634,6,0,P|195:266|258:272,1,80,0|4,0:0|0:0,0:0:0:0:
341,329,48997,2,0,P|387:337|443:321,1,80,0|8,0:0|0:0,0:0:0:0:
433,203,49361,2,0,L|264:189,1,160,0|2,0:0|0:0,0:0:0:0:
145,182,49906,1,8,0:0:0:0:
208,293,50088,1,4,0:0:0:0:
270,181,50270,2,0,L|301:23,2,160,4|8|4,0:0|0:0|0:0,0:0:0:0:
156,239,51179,5,4,0:0:0:0:
266,303,51361,1,8,0:0:0:0:
227,192,51543,2,0,P|118:166|86:289,1,240,0|8,0:0|0:0,0:0:0:0:
110,18,52270,5,0,0:0:0:0:
35,141,52452,1,4,0:0:0:0:
175,109,52634,1,4,0:0:0:0:
43,49,52816,1,8,0:0:0:0:
105,178,52997,1,0,0:0:0:0:
43,49,53179,6,0,P|23:83|21:123,1,80,4|0,0:0|0:0,0:0:0:0:
81,252,53543,2,0,P|100:217|104:177,1,80,8|0,0:0|0:0,0:0:0:0:
129,35,53906,2,0,P|186:29|273:84,1,160,4|8,0:0|0:0,0:0:0:0:
238,235,54452,6,0,P|233:274|214:309,1,80,0|4,0:0|0:0,0:0:0:0:
161,191,54816,2,0,P|163:151|182:116,1,80,0|8,0:0|0:0,0:0:0:0:
274,5,55179,2,0,P|289:59|270:175,1,160,0|4,0:0|0:0,0:0:0:0:
200,284,55725,1,8,0:0:0:0:
327,218,55906,1,4,0:0:0:0:
195,159,56088,2,0,P|134:145|40:174,2,160,4|8|4,0:0|0:0|0:0,0:0:0:0:
327,218,56997,2,0,P|374:243|428:241,1,80,0|8,0:0|0:0,0:0:0:0:
334,115,57361,2,0,P|268:142|277:301,1,240,0|8,0:0|0:0,0:0:0:0:
327,218,58088,5,4,0:0:0:0:
140,276,58270,1,8,0:0:0:0:
209,149,58452,1,0,0:0:0:0:
159,37,58634,1,8,0:0:0:0:
159,37,58816,1,8,0:0:0:0:
20,74,58997,6,0,P|0:108|-1:148,1,80,6|0,0:0|0:0,0:0:0:0:
51,266,59361,2,0,P|70:231|74:191,1,80,8|0,0:0|0:0,0:0:0:0:
177,89,59725,2,0,L|156:285,1,160,4|8,0:0|0:0,0:0:0:0:
303,254,60270,6,0,P|298:214|279:179,1,80,0|4,0:0|0:0,0:0:0:0:
227,298,60634,2,0,P|229:337|248:372,1,80,0|8,0:0|0:0,0:0:0:0:
380,315,60997,2,0,P|394:235|370:159,1,160,0|4,0:0|0:0,0:0:0:0:
232,118,61543,5,8,0:0:0:0:
304,242,61725,1,4,0:0:0:0:
324,116,61906,2,0,P|295:45|197:40,2,160,4|8|4,0:0|0:0|0:0,0:0:0:0:
231,211,62816,2,8,L|143:201,1,80,4|8,0:0|0:0,0:0:0:0:
57,98,63179,2,0,L|229:119,1,160,0|2,0:0|0:0,0:0:0:0:
334,200,63725,5,8,0:0:0:0:
403,74,63906,1,0,0:0:0:0:
268,125,64088,2,0,P|245:182|241:210,1,80,4|4,0:0|0:0,0:0:0:0:
173,72,64452,2,0,P|150:129|146:157,1,80,8|0,0:0|0:0,0:0:0:0:
126,320,64816,6,0,P|133:271|126:230,1,80,4|0,0:0|0:0,0:0:0:0:
60,138,65180,2,0,P|49:181|55:233,1,80,8|0,0:0|0:0,0:0:0:0:
152,113,65543,2,0,P|111:63|18:53,1,160,4|8,0:0|0:0,0:0:0:0:
1,194,66088,6,0,L|22:277,1,80,0|4,0:0|0:0,0:0:0:0:
138,356,66452,2,0,L|111:269,1,80,0|8,0:0|0:0,0:0:0:0:
173,147,66816,2,0,L|228:308,1,160,0|4,0:0|0:0,0:0:0:0:
108,212,67361,1,8,0:0:0:0:
277,211,67543,1,4,0:0:0:0:
237,83,67725,2,0,P|152:65|79:122,2,160,4|8|0,0:0|0:0|0:0,0:0:0:0:
277,211,68634,2,0,L|276:312,1,80,4|8,0:0|0:0,0:0:0:0:
363,176,68997,2,0,P|296:129|216:143,1,160,0|2,0:0|0:0,0:0:0:0:
122,244,69543,5,8,0:0:0:0:
119,109,69725,1,0,0:0:0:0:
207,221,69906,1,4,0:0:0:0:
26,102,70088,1,8,0:0:0:0:
26,102,70270,1,8,0:0:0:0:
39,245,70452,1,4,0:0:0:0:
192,64,70634,1,6,0:0:0:0:
256,192,70725,12,0,73543,0:0:0:0:
148,113,76452,5,4,0:0:0:0:
148,113,76816,2,0,P|139:158|143:200,1,80,8|0,0:0|0:0,0:0:0:0:
231,304,77179,1,4,0:0:0:0:
98,248,77361,1,4,0:0:0:0:
217,167,77543,5,8,0:0:0:0:
328,256,77725,2,0,P|330:301|324:337,1,80,0|4,0:0|0:0,0:0:0:0:
208,168,78088,2,0,P|202:128|204:88,1,80,0|8,0:0|0:0,0:0:0:0:
336,256,78452,2,0,P|338:301|332:337,1,80,0|4,0:0|0:0,0:0:0:0:
200,168,78815,2,0,P|194:128|196:88,1,80,4|8,0:0|0:0,0:0:0:0:
72,72,79179,5,0,0:0:0:0:
10,206,79361,2,0,B|66:258|66:258|166:262,1,160,4|8,0:0|0:0,0:0:0:0:
289,225,79906,2,0,B|233:173|233:173|149:169,1,160,2|4,0:0|0:0,0:0:0:0:
31,85,80452,2,0,L|195:89,1,160,8|4,0:0|0:0,0:0:0:0:
330,52,80997,6,0,B|357:93|357:93|359:146,1,80,2|8,0:0|0:0,0:0:0:0:
380,250,81361,1,0,0:0:0:0:
242,283,81543,1,4,0:0:0:0:
385,296,81725,1,4,0:0:0:0:
280,197,81906,2,0,L|156:193,1,120,8|0,0:0|0:0,0:0:0:0:
120,208,82270,6,0,B|118:262|118:262|143:305,2,80,6|0|8,0:0|0:0|0:0,0:0:0:0:
166,71,82816,2,0,L|259:68,1,80,0|4,0:0|0:0,0:0:0:0:
373,135,83179,2,0,L|288:140,1,80,4|8,0:0|0:0,0:0:0:0:
168,81,83543,2,0,L|261:78,1,80,0|4,0:0|0:0,0:0:0:0:
375,145,83906,2,0,L|290:150,1,80,0|8,0:0|0:0,0:0:0:0:
172,226,84270,2,0,L|265:223,1,80,0|4,0:0|0:0,0:0:0:0:
379,292,84634,2,0,L|289:295,1,80,4|8,0:0|0:0,0:0:0:0:
154,298,84997,1,0,0:0:0:0:
154,298,85179,6,0,P|138:239|146:200,1,80,4|0,0:0|0:0,0:0:0:0:
224,46,85543,1,8,0:0:0:0:
177,181,85724,1,0,0:0:0:0:
85,69,85906,1,4,0:0:0:0:
85,69,86088,1,4,0:0:0:0:
224,46,86270,2,0,B|243:83|243:83|244:127,1,80,8|0,0:0|0:0,0:0:0:0:
85,69,86634,5,4,0:0:0:0:
224,46,86816,1,0,0:0:0:0:
177,181,86998,2,0,B|134:185|134:185|97:174,1,80,8|0,0:0|0:0,0:0:0:0:
85,69,87361,1,4,0:0:0:0:
224,46,87543,1,4,0:0:0:0:
272,181,87725,2,0,B|265:225|265:225|229:273,1,80,8|0,0:0|0:0,0:0:0:0:
114,316,88088,5,4,0:0:0:0:
54,184,88270,1,0,0:0:0:0:
176,107,88452,2,0,B|170:151|170:151|151:186,1,80,8|0,0:0|0:0,0:0:0:0:
36,268,88816,1,4,0:0:0:0:
179,261,88997,1,4,0:0:0:0:
93,118,89179,1,8,0:0:0:0:
179,261,89361,6,0,B|195:209|195:209|194:173,1,80,0|4,0:0|0:0,0:0:0:0:
108,40,89725,2,0,B|92:92|92:92|93:128,1,80,0|8,0:0|0:0,0:0:0:0:
8,234,90088,2,0,L|190:176,1,160,0|4,0:0|0:0,0:0:0:0:
295,133,90634,1,8,0:0:0:0:
155,97,90816,1,4,0:0:0:0:
241,211,90997,6,0,P|343:208|382:164,1,160,4|8,0:0|0:0,0:0:0:0:
312,56,91543,1,2,0:0:0:0:
203,131,91725,6,0,P|152:229|186:300,1,160,4|8,0:0|0:0,0:0:0:0:
306,292,92270,1,2,0:0:0:0:
293,148,92452,2,0,P|262:66|178:42,1,160,4|8,0:0|0:0,0:0:0:0:
63,208,92997,1,4,0:0:0:0:
182,288,93179,2,0,L|205:122,1,160,8|4,0:0|0:0,0:0:0:0:
296,237,93725,5,8,0:0:0:0:
287,93,93906,2,0,P|250:53|203:43,1,80,6|0,0:0|0:0,0:0:0:0:
82,44,94270,2,0,P|115:86|175:97,1,80,8|0,0:0|0:0,0:0:0:0:
287,93,94634,1,4,0:0:0:0:
258,234,94816,1,4,0:0:0:0:
287,93,94997,6,0,P|302:55|299:13,1,80,8|0,2:0|2:0,2:0:0:0:
258,234,95361,2,0,P|243:278|250:327,1,80,4|0,0:0|0:0,0:0:0:0:
343,177,95725,2,0,P|381:193|422:189,1,80,8|0,2:0|2:0,2:0:0:0:
201,148,96089,2,0,P|157:133|108:141,1,80,4|4,0:0|0:0,0:0:0:0:
3,213,96452,1,8,0:0:0:0:
31,71,96634,1,0,0:0:0:0:
93,201,96816,6,0,P|89:248|71:292,1,80,4|0,0:0|0:0,0:0:0:0:
202,351,97179,2,0,P|189:313|187:273,1,80,8|0,0:0|0:0,0:0:0:0:
212,130,97543,1,4,0:0:0:0:
93,201,97725,1,4,0:0:0:0:
139,65,97906,2,0,P|195:43|304:101,1,160,8|4,0:0|0:0,0:0:0:0:
435,322,98634,5,8,0:0:0:0:
305,258,98816,1,0,0:0:0:0:
393,162,98997,2,0,L|387:263,1,80,4|4,0:0|0:0,0:0:0:0:
293,351,99361,1,8,0:0:0:0:
214,230,99543,1,0,0:0:0:0:
304,117,99725,6,0,P|308:167|300:209,1,80,4|0,0:0|0:0,0:0:0:0:
214,309,100088,2,0,P|209:269|213:229,1,80,8|0,0:0|0:0,0:0:0:0:
230,85,100452,1,4,0:0:0:0:
123,181,100634,1,4,0:0:0:0:
265,161,100816,2,0,P|342:163|367:175,1,80,8|0,0:0|0:0,0:0:0:0:
432,277,101179,2,0,P|392:282|353:274,1,80,4|0,0:0|0:0,0:0:0:0:
214,231,101543,2,0,P|174:223|135:228,1,80,8|0,0:0|0:0,0:0:0:0:
40,337,101906,2,0,P|45:283|28:235,1,80,4|4,0:0|0:0,0:0:0:0:
106,130,102270,5,8,0:0:0:0:
13,240,102452,1,0,0:0:0:0:
18,95,102634,2,0,P|52:55|175:73,1,160,4|8,0:0|0:0,0:0:0:0:
252,158,103179,1,0,0:0:0:0:
165,272,103361,2,0,L|152:161,1,80,4|4,0:0|0:0,0:0:0:0:
153,54,103725,2,0,P|229:27|313:48,1,160,8|4,0:0|0:0,0:0:0:0:
391,158,104270,5,0,0:0:0:0:
326,29,104452,1,8,0:0:0:0:
313,172,104634,1,0,0:0:0:0:
428,86,104816,1,4,0:0:0:0:
443,228,104997,1,4,0:0:0:0:
313,172,105179,2,0,P|255:168|194:195,1,120,8|0,0:0|0:0,0:0:0:0:
179,213,105543,6,0,P|186:155|167:111,1,80,6|0,0:0|0:0,0:0:0:0:
59,11,105906,2,0,P|52:69|71:113,1,80,8|0,0:0|0:0,0:0:0:0:
214,55,106270,2,0,P|156:48|112:67,1,80,4|4,0:0|0:0,0:0:0:0:
17,169,106634,2,0,P|62:180|112:165,1,80,8|0,0:0|0:0,0:0:0:0:
255,136,106997,2,0,L|260:238,1,80,4|0,0:0|0:0,0:0:0:0:
186,341,107361,2,0,L|179:244,1,80,8|0,0:0|0:0,0:0:0:0:
255,136,107725,2,0,L|259:224,1,80,4|4,0:0|0:0,0:0:0:0:
348,328,108088,2,0,L|342:227,1,80,8|0,0:0|0:0,0:0:0:0:
335,103,108452,6,0,P|361:69|480:46,2,160,4|8|4,0:0|0:0|0:0,0:0:0:0:
417,221,109361,1,4,0:0:0:0:
277,184,109543,2,0,L|185:183,1,80,8|0,0:0|0:0,0:0:0:0:
78,264,109906,2,0,P|86:208|49:108,1,160,4|8,0:0|0:0,0:0:0:0:
195,131,110452,1,0,0:0:0:0:
90,31,110634,1,4,0:0:0:0:
90,31,110816,1,4,0:0:0:0:
0,140,110997,2,0,L|11:235,1,80,8|0,0:0|0:0,0:0:0:0:
42,360,111361,6,0,P|120:326|224:336,1,160,6|8,0:0|0:0,0:0:0:0:
335,349,111906,1,0,0:0:0:0:
314,206,112088,1,4,0:0:0:0:
314,206,112270,1,4,0:0:0:0:
170,199,112452,2,0,L|187:290,1,80,8|0,0:0|0:0,0:0:0:0:
249,148,112816,2,0,P|175:106|87:144,1,160,4|8,0:0|0:0,0:0:0:0:
17,238,113361,5,0,0:0:0:0:
25,94,113543,1,4,0:0:0:0:
25,94,113725,1,4,0:0:0:0:
184,277,113906,2,0,P|181:230|170:199,1,80,8|0,0:0|0:0,0:0:0:0:
25,94,114270,6,0,P|63:79|113:78,1,80,4|0,0:0|0:0,0:0:0:0:
244,144,114634,2,0,P|193:162|139:165,1,95.9999970703126,8|0,0:0|0:0,0:0:0:0:
74,296,114997,2,0,P|117:273|183:275,1,95.9999970703126,4|4,0:0|0:0,0:0:0:0:
336,321,115361,2,0,P|301:263|247:229,1,108.000000411987,8|0,0:0|0:0,0:0:0:0:
37,111,115725,2,0,P|95:108|149:89,1,108.000000411987,4|8,0:0|0:0,0:0:0:0:
323,34,116088,5,4,0:0:0:0:
289,225,116270,1,4,0:0:0:0:
450,115,116452,2,0,P|345:139|226:93,1,216.000000823975,8|8,0:0|0:0,0:0:0:0:
53,143,116997,1,8,0:0:0:0:
192,178,117179,2,0,P|227:242|195:364,1,200,6|8,0:0|0:0,0:0:0:0:
305,208,117725,1,0,0:0:0:0:
219,92,117906,1,4,0:0:0:0:
104,179,118088,1,4,0:0:0:0:
193,291,118270,6,0,P|242:288|332:302,1,100,8|0,0:0|0:0,0:0:0:0:
451,319,118634,2,0,P|474:268|426:126,1,200,4|8,0:0|0:0,0:0:0:0:
300,51,119179,1,0,0:0:0:0:
194,171,119361,2,0,P|191:233|204:275,1,100,4|4,0:0|0:0,0:0:0:0:
358,303,119725,2,0,P|361:241|348:199,1,100,8|0,0:0|0:0,0:0:0:0:
237,64,120088,2,0,P|183:41|42:72,1,200,4|8,0:0|0:0,0:0:0:0:
33,247,120634,5,0,0:0:0:0:
23,67,120816,1,4,0:0:0:0:
23,67,120997,1,4,0:0:0:0:
159,184,121179,2,0,P|162:235|140:294,1,100,8|0,0:0|0:0,0:0:0:0:
145,99,121543,2,0,P|196:111|240:175,1,100,4|0,0:0|0:0,0:0:0:0:
273,318,121906,2,0,L|306:217,1,100,8|0,0:0|0:0,0:0:0:0:
467,332,122270,2,0,P|412:320|377:282,1,100,4|4,0:0|0:0,0:0:0:0:
333,127,122634,2,0,L|300:235,1,100,8|0,0:0|0:0,0:0:0:0:
415,101,122997,6,0,P|347:42|255:87,1,200,4|8,0:0|0:0,0:0:0:0:
147,255,123543,1,0,0:0:0:0:
235,297,123725,1,4,0:0:0:0:
257,139,123906,1,4,0:0:0:0:
147,255,124088,1,8,0:0:0:0:
338,247,124270,1,0,0:0:0:0:
167,153,124452,2,0,P|87:175|45:278,1,200,4|8,0:0|0:0,0:0:0:0:
22,117,124997,1,0,0:0:0:0:
147,255,125179,5,4,0:0:0:0:
147,255,125361,1,4,0:0:0:0:
258,140,125543,1,8,0:0:0:0:
102,102,125725,1,0,0:0:0:0:
147,255,125906,2,0,P|190:276|248:269,1,100,4|0,0:0|0:0,0:0:0:0:
323,172,126270,2,0,P|280:151|224:158,1,100,8|0,0:0|0:0,0:0:0:0:
78,213,126634,5,4,0:0:0:0:
20,63,126816,1,4,0:0:0:0:
198,43,126997,2,0,L|202:158,1,100,8|0,0:0|0:0,0:0:0:0:
150,316,127361,1,4,0:0:0:0:
333,271,127543,1,8,0:0:0:0:
109,238,127725,1,4,0:0:0:0:
318,183,127906,1,4,0:0:0:0:
150,316,128088,2,0,P|83:322|31:203,1,200,8|4,0:0|0:0,0:0:0:0:
96,51,128634,5,4,0:0:0:0:
109,238,128816,2,0,L|323:243,1,200,6|8,0:0|0:0,0:0:0:0:
455,138,129361,1,0,0:0:0:0:
278,103,129543,1,4,0:0:0:0:
417,216,129725,1,4,0:0:0:0:
336,31,129906,2,0,P|263:15|192:116,1,200,8|4,0:0|0:0,0:0:0:0:
192,264,130452,1,0,0:0:0:0:
347,175,130634,2,0,L|278:103,1,100,8|0,0:0|0:0,0:0:0:0:
98,117,130997,5,4,0:0:0:0:
247,206,131179,1,4,0:0:0:0:
150,53,131361,2,0,P|84:31|18:134,1,200,8|4,0:0|0:0,0:0:0:0:
43,297,131906,1,0,0:0:0:0:
98,117,132088,2,0,L|203:154,1,100,8|0,0:0|0:0,0:0:0:0:
394,285,132452,5,4,0:0:0:0:
326,141,132634,1,4,0:0:0:0:
472,206,132816,2,0,L|492:311,1,100,8|0,0:0|0:0,0:0:0:0:
311,317,133179,2,0,L|291:212,1,100,4|0,0:0|0:0,0:0:0:0:
397,72,133543,2,0,L|417:177,1,100,8|0,0:0|0:0,0:0:0:0:
288,200,133906,5,4,0:0:0:0:
448,208,134088,1,4,0:0:0:0:
318,337,134270,2,0,P|266:353|202:324,1,100,8|0,0:0|0:0,0:0:0:0:
30,180,134634,2,0,L|237:193,1,200,4|8,0:0|0:0,0:0:0:0:
351,239,135179,1,0,0:0:0:0:
175,278,135361,1,4,0:0:0:0:
175,278,135543,1,4,0:0:0:0:
356,156,135725,2,0,P|434:255|378:315,1,216.000000823975,8|4,0:0|0:0,0:0:0:0:
138,115,136452,6,0,L|146:223,1,100,8|0,0:0|0:0,0:0:0:0:
239,74,136816,2,0,P|292:59|345:67,1,100,4|4,0:0|0:0,0:0:0:0:
478,137,137179,2,0,P|420:157|375:153,1,100,8|0,0:0|0:0,0:0:0:0:
239,74,137543,2,0,L|265:280,1,200,4|8,0:0|0:0,0:0:0:0:
392,367,138088,5,0,0:0:0:0:
349,212,138270,1,4,0:0:0:0:
264,348,138452,1,4,0:0:0:0:
318,124,138634,2,0,P|398:134|437:240,1,200,8|4,0:0|0:0,0:0:0:0:
346,367,139179,5,8,0:0:0:0:
262,217,139361,1,4,0:0:0:0:
418,250,139543,1,4,0:0:0:0:
227,303,139725,2,0,P|170:245|211:134,1,200,8|4,0:0|0:0,0:0:0:0:
291,41,140270,1,4,0:0:0:0:
322,215,140452,6,0,P|318:269|326:314,1,80,6|0,0:0|0:0,0:0:0:0:
419,187,140816,2,0,P|423:133|415:88,1,80,8|0,0:0|0:0,0:0:0:0:
292,39,141179,2,0,P|221:49|134:37,1,160,4|8,0:0|0:0,0:0:0:0:
43,149,141725,6,0,P|45:99|32:51,1,80,0|4,0:0|0:0,0:0:0:0:
133,179,142088,2,0,P|131:229|144:277,1,80,0|8,0:0|0:0,0:0:0:0:
214,135,142452,2,0,B|297:110|297:151|375:126,1,160,0|4,0:0|0:0,0:0:0:0:
433,257,142997,2,0,P|444:197|441:166,1,80,8|0,0:0|0:0,0:0:0:0:
365,55,143361,6,0,P|284:34|193:64,2,160,4|8|4,0:0|0:0|0:0,0:0:0:0:
442,178,144270,2,8,P|442:218|433:257,1,80,4|8,0:0|0:0,0:0:0:0:
321,349,144634,2,0,P|323:271|350:179,1,160,2|0,0:0|0:0,0:0:0:0:
404,61,145179,5,8,0:0:0:0:
453,196,145361,1,0,0:0:0:0:
328,124,145543,1,4,0:0:0:0:
471,114,145725,1,4,0:0:0:0:
362,207,145906,1,8,0:0:0:0:
404,61,146088,1,0,0:0:0:0:
453,196,146270,6,0,P|440:246|437:297,1,80,4|0,0:0|0:0,0:0:0:0:
305,333,146634,2,0,P|257:325|212:326,1,80,8|0,0:0|0:0,0:0:0:0:
102,250,146997,2,0,P|118:181|95:61,1,160,4|8,0:0|0:0,0:0:0:0:
23,210,147543,6,0,P|14:252|23:295,1,80,0|4,0:0|0:0,0:0:0:0:
182,292,147906,2,0,P|191:250|182:207,1,80,0|8,0:0|0:0,0:0:0:0:
69,125,148270,2,0,P|148:138|222:101,1,160,0|4,0:0|0:0,0:0:0:0:
355,150,148816,1,8,0:0:0:0:
317,11,148997,1,4,0:0:0:0:
218,104,149179,2,0,P|201:188|224:266,2,160,4|8|4,0:0|0:0|0:0,0:0:0:0:
317,11,150088,2,0,P|325:68|318:117,1,80,4|8,0:0|0:0,0:0:0:0:
217,103,150452,2,0,P|247:218|320:176,1,240,0|8,0:0|0:0,0:0:0:0:
447,176,151179,5,4,0:0:0:0:
320,177,151361,2,0,P|235:203|214:287,1,160,8|8,0:0|0:0,0:0:0:0:
287,358,151906,1,8,0:0:0:0:
373,275,152088,6,0,L|287:256,1,80,6|0,0:0|0:0,0:0:0:0:
173,299,152452,2,0,L|259:318,1,80,8|0,0:0|0:0,0:0:0:0:
171,214,152816,2,0,P|111:250|98:334,1,160,4|8,0:0|0:0,0:0:0:0:
24,197,153361,2,0,L|14:117,1,80,0|4,0:0|0:0,0:0:0:0:
107,7,153725,2,0,L|97:87,1,80,0|8,0:0|0:0,0:0:0:0:
160,210,154088,2,0,P|238:234|318:196,1,160,0|4,0:0|0:0,0:0:0:0:
429,126,154634,5,8,0:0:0:0:
385,263,154816,1,4,0:0:0:0:
343,125,154997,2,0,P|296:57|216:25,2,160,4|8|4,0:0|0:0|0:0,0:0:0:0:
274,251,155906,2,0,P|260:208|264:164,1,80,4|8,0:0|0:0,0:0:0:0:
367,272,156270,2,0,P|296:349|186:295,1,240,2|8,0:0|0:0,0:0:0:0:
120,171,156997,1,0,0:0:0:0:
88,311,157179,5,4,0:0:0:0:
200,220,157361,1,4,0:0:0:0:
56,231,157543,1,8,0:0:0:0:
178,306,157725,1,0,0:0:0:0:
120,171,157906,6,0,P|81:146|17:147,1,80,4|0,0:0|0:0,0:0:0:0:
178,306,158270,2,0,P|210:328|249:336,1,80,8|0,0:0|0:0,0:0:0:0:
391,307,158634,2,0,P|402:238|366:130,1,160,4|8,0:0|0:0,0:0:0:0:
260,43,159179,2,0,P|251:92|259:130,1,80,0|4,0:0|0:0,0:0:0:0:
315,270,159543,2,0,P|319:230|310:191,1,80,0|8,0:0|0:0,0:0:0:0:
175,142,159906,2,0,L|198:324,1,160,0|4,0:0|0:0,0:0:0:0:
260,171,160452,5,8,0:0:0:0:
101,189,160634,1,4,0:0:0:0:
195,300,160816,2,0,P|246:311|356:273,2,160,4|8|4,0:0|0:0|0:0,0:0:0:0:
101,189,161725,2,0,L|100:273,1,80,4|8,0:0|0:0,0:0:0:0:
186,153,162088,2,0,P|128:106|38:116,1,160,0|8,0:0|0:0,0:0:0:0:
6,261,162634,1,4,0:0:0:0:
19,117,162816,1,4,0:0:0:0:
117,220,162997,2,0,P|209:237|259:182,1,160,8|8,0:0|0:0,0:0:0:0:
308,63,163543,5,8,0:0:0:0:
165,83,163725,2,0,P|166:122|174:163,1,80,4|0,0:0|0:0,0:0:0:0:
68,261,164088,2,0,P|67:222|59:181,1,80,8|0,0:0|0:0,0:0:0:0:
78,38,164452,1,4,0:0:0:0:
21,170,164634,1,4,0:0:0:0:
165,83,164816,2,0,P|213:84|272:100,1,80,8|0,0:0|0:0,0:0:0:0:
348,190,165179,6,0,P|300:189|241:173,1,80,4|0,0:0|0:0,0:0:0:0:
160,279,165543,1,8,0:0:0:0:
126,138,165725,1,0,0:0:0:0:
237,228,165906,2,0,P|250:274|241:325,1,80,4|4,0:0|0:0,0:0:0:0:
126,138,166270,2,0,P|113:92|122:41,1,80,8|0,0:0|0:0,0:0:0:0:
232,145,166634,5,4,0:0:0:0:
337,46,166816,1,0,0:0:0:0:
232,145,166997,2,0,P|229:191|254:248,1,80,8|0,0:0|0:0,0:0:0:0:
335,331,167361,2,0,P|345:292|341:252,1,80,4|4,0:0|0:0,0:0:0:0:
441,60,167725,2,0,L|425:245,1,160,8|4,0:0|0:0,0:0:0:0:
249,325,168452,5,8,0:0:0:0:
392,289,168634,1,0,0:0:0:0:
289,187,168816,1,4,0:0:0:0:
289,187,168997,1,4,0:0:0:0:
168,266,169179,2,0,P|157:311|168:358,1,80,8|0,0:0|0:0,0:0:0:0:
292,265,169543,6,0,P|297:219|276:164,1,80,4|0,0:0|0:0,0:0:0:0:
180,92,169906,2,0,P|175:138|196:193,1,80,8|0,0:0|0:0,0:0:0:0:
220,310,170270,1,4,0:0:0:0:
288,186,170452,1,4,0:0:0:0:
180,92,170634,2,0,P|133:94|81:122,1,80,8|0,0:0|0:0,0:0:0:0:
27,228,170997,2,0,P|74:226|126:198,1,80,4|0,0:0|0:0,0:0:0:0:
243,175,171361,5,8,0:0:0:0:
170,299,171543,1,0,0:0:0:0:
142,159,171725,2,0,P|156:115|184:89,1,80,4|4,0:0|0:0,0:0:0:0:
310,31,172088,1,8,0:0:0:0:
386,153,172270,1,0,0:0:0:0:
243,175,172452,2,0,P|229:238|254:334,2,160,4|8|4,0:0|0:0|0:0,0:0:0:0:
310,31,173361,5,4,0:0:0:0:
386,153,173543,1,8,0:0:0:0:
254,93,173725,1,0,0:0:0:0:
394,62,173906,1,4,0:0:0:0:
394,62,174088,1,8,0:0:0:0:
297,169,174270,2,0,L|296:262,1,80,4|4,0:0|0:0,0:0:0:0:
173,326,174634,2,0,P|113:308|9:325,1,160,8|12,0:0|0:0,0:0:0:0:
76,189,175179,1,8,0:0:0:0:
185,95,175361,6,0,L|176:207,1,80,6|0,0:0|0:0,0:0:0:0:
278,279,175725,2,0,L|287:167,1,80,8|0,0:0|0:0,0:0:0:0:
325,61,176088,1,4,0:0:0:0:
185,95,176270,1,4,0:0:0:0:
319,148,176452,2,0,P|375:150|412:137,1,80,8|0,0:0|0:0,0:0:0:0:
185,95,176816,2,0,P|129:93|92:106,1,80,4|0,0:0|0:0,0:0:0:0:
13,209,177179,6,0,P|69:211|106:198,1,80,8|0,0:0|0:0,0:0:0:0:
234,229,177543,1,4,0:0:0:0:
234,229,177725,1,4,0:0:0:0:
308,106,177906,2,0,L|313:22,1,80,8|0,0:0|0:0,0:0:0:0:
185,95,178270,2,0,P|99:105|19:66,2,160,4|8|4,0:0|0:0|0:0,0:0:0:0:
312,26,179179,1,4,0:0:0:0:
318,169,179361,2,0,L|321:253,1,80,8|0,0:0|0:0,0:0:0:0:
405,131,179725,2,0,P|367:88|256:94,1,160,4|8,0:0|0:0,0:0:0:0:
146,159,180270,5,0,0:0:0:0:
179,299,180452,1,4,0:0:0:0:
179,299,180634,1,4,0:0:0:0:
306,231,180816,2,0,P|312:168|379:121,1,120,8|0,0:0|0:0,0:0:0:0:
384,100,181179,2,0,P|349:71|326:33,1,80,6|0,0:0|0:0,0:0:0:0:
188,73,181543,2,0,L|178:164,1,80,8|0,0:0|0:0,0:0:0:0:
243,281,181906,5,4,0:0:0:0:
258,137,182088,1,4,0:0:0:0:
118,171,182270,2,0,P|112:219|127:262,1,80,8|0,0:0|0:0,0:0:0:0:
180,117,182634,2,0,P|110:89|37:151,1,160,4|8,0:0|0:0,0:0:0:0:
24,256,183179,5,0,0:0:0:0:
142,348,183361,1,4,0:0:0:0:
142,348,183543,1,4,0:0:0:0:
129,204,183725,2,0,L|50:195,1,80,8|0,0:0|0:0,0:0:0:0:
180,117,184088,6,0,L|259:126,1,80,4|0,0:0|0:0,0:0:0:0:
349,239,184452,2,0,L|270:230,1,80,8|0,0:0|0:0,0:0:0:0:
400,152,184815,2,0,L|479:161,1,80,4|0,0:0|0:0,0:0:0:0:
392,64,185179,2,0,L|313:55,1,80,8|0,0:0|0:0,0:0:0:0:
159,23,185543,5,4,0:0:0:0:
122,236,185725,1,8,0:0:0:0:
306,124,185906,1,4,0:0:0:0:
91,152,186088,1,4,0:0:0:0:
278,44,186270,2,0,P|372:68|388:144,1,160,8|8,0:0|0:0,0:0:0:0:
346,257,186816,1,8,0:0:0:0:
257,124,186997,6,0,L|237:239,1,100,4|0,0:0|0:0,0:0:0:0:
94,292,187361,2,0,L|112:177,1,100,8|0,0:0|0:0,0:0:0:0:
42,46,187725,1,4,0:0:0:0:
11,202,187906,1,4,0:0:0:0:
151,124,188088,2,0,L|254:122,1,100,8|0,0:0|0:0,0:0:0:0:
382,214,188452,2,0,L|174:213,1,200,4|8,0:0|0:0,0:0:0:0:
22,203,188997,5,0,0:0:0:0:
99,342,189179,1,4,0:0:0:0:
120,183,189361,1,4,0:0:0:0:
1,291,189543,1,8,0:0:0:0:
160,276,189725,1,0,0:0:0:0:
22,203,189906,2,0,P|2:142|71:20,1,200,4|8,0:0|0:0,0:0:0:0:
220,35,190452,5,0,0:0:0:0:
132,168,190634,1,4,0:0:0:0:
59,26,190816,1,4,0:0:0:0:
193,111,190997,2,0,P|215:145|225:209,1,100,8|0,0:0|0:0,0:0:0:0:
167,353,191361,2,0,P|145:319|135:255,1,100,4|0,0:0|0:0,0:0:0:0:
301,101,191725,2,0,P|326:145|328:200,1,100,8|0,0:0|0:0,0:0:0:0:
293,350,192089,2,0,P|271:316|258:254,1,100,4|4,0:0|0:0,0:0:0:0:
400,68,192452,2,0,P|418:111|412:181,1,100,8|0,0:0|0:0,0:0:0:0:
401,323,192816,6,0,P|350:265|317:140,1,200,6|8,0:0|0:0,0:0:0:0:
223,18,193361,1,0,0:0:0:0:
213,177,193543,1,4,0:0:0:0:
332,70,193725,1,4,0:0:0:0:
296,225,193906,1,8,0:0:0:0:
408,110,194088,1,0,0:0:0:0:
213,177,194270,6,0,P|206:255|299:321,1,200,4|8,0:0|0:0,0:0:0:0:
457,324,194816,1,0,0:0:0:0:
308,228,194997,1,4,0:0:0:0:
308,228,195179,1,4,0:0:0:0:
409,125,195361,6,0,P|408:182|390:238,1,100,8|0,0:0|0:0,0:0:0:0:
490,89,195725,2,0,P|421:44|323:96,1,200,4|8,0:0|0:0,0:0:0:0:
236,226,196270,1,0,0:0:0:0:
98,189,196452,2,0,P|79:228|72:297,1,100,4|4,0:0|0:0,0:0:0:0:
209,317,196816,2,0,P|228:278|234:218,1,100,8|0,0:0|0:0,0:0:0:0:
211,63,197179,2,0,P|192:102|185:159,1,100,4|0,0:0|0:0,0:0:0:0:
322,191,197543,2,0,P|341:152|343:88,1,100,8|0,0:0|0:0,0:0:0:0:
452,214,197906,1,4,0:0:0:0:
435,54,198088,5,10,0:0:0:0:
435,54,198270,1,10,0:0:0:0:
268,123,198452,1,4,0:0:0:0:
433,134,198634,1,6,0:0:0:0:
256,192,198725,12,2,201543,0:0:0:0:
103,151,209543,5,8,0:0:0:0:
66,307,209725,1,8,0:0:0:0:
186,202,209906,5,8,0:0:0:0:
27,226,210088,1,8,0:0:0:0:
182,299,210270,2,0,P|268:270|374:310,1,200,4|8,0:0|0:0,0:0:0:0:
377,143,210816,5,0,0:0:0:0:
467,274,210997,1,4,0:0:0:0:
467,274,211179,1,4,0:0:0:0:
480,123,211361,2,0,P|452:74|392:48,1,100,8|0,0:0|0:0,0:0:0:0:
256,23,211725,6,0,L|270:227,1,200,4|8,0:0|0:0,0:0:0:0:
362,352,212270,1,0,0:0:0:0:
369,191,212452,1,4,0:0:0:0:
369,191,212634,1,4,0:0:0:0:
175,170,212816,2,0,L|181:296,1,100,8|0,0:0|0:0,0:0:0:0:
257,128,213179,2,0,P|200:78|83:131,1,200,4|8,0:0|0:0,0:0:0:0:
40,267,213725,5,0,0:0:0:0:
14,109,213906,1,4,0:0:0:0:
14,109,214088,1,4,0:0:0:0:
175,170,214270,2,0,L|175:275,1,100,8|0,0:0|0:0,0:0:0:0:
266,137,214634,2,0,P|312:145|385:129,1,100,4|0,0:0|0:0,0:0:0:0:
237,45,214997,2,0,P|191:37|121:48,1,100,8|0,0:0|0:0,0:0:0:0:
70,188,215361,1,4,0:0:0:0:
70,188,215543,1,4,0:0:0:0:
208,268,215725,6,0,P|261:278|319:269,1,100,8|0,0:0|0:0,0:0:0:0:
329,114,216088,2,0,P|398:129|456:244,1,200,4|8,0:0|0:0,0:0:0:0:
363,367,216634,1,0,0:0:0:0:
364,206,216816,1,4,0:0:0:0:
364,206,216997,1,4,0:0:0:0:
259,326,217179,2,0,P|199:332|150:322,1,100,8|0,0:0|0:0,0:0:0:0:
0,328,217543,6,0,L|11:114,1,200,4|8,0:0|0:0,0:0:0:0:
159,71,218088,1,0,0:0:0:0:
2,35,218270,1,4,0:0:0:0:
2,35,218452,1,4,0:0:0:0:
108,154,218634,6,0,P|163:160|239:138,1,100,8|0,0:0|0:0,0:0:0:0:
287,36,218997,2,0,P|342:30|415:49,1,100,4|0,0:0|0:0,0:0:0:0:
406,197,219361,2,0,P|397:249|399:313,1,100,8|0,0:0|0:0,0:0:0:0:
236,297,219725,1,4,0:0:0:0:
236,297,219906,1,4,0:0:0:0:
312,170,220088,6,0,P|322:121|312:64,1,100,8|0,0:0|0:0,0:0:0:0:
171,144,220452,2,0,P|161:193|169:252,1,100,4|0,0:0|0:0,0:0:0:0:
59,121,220816,2,0,P|69:72|63:15,1,100,8|4,0:0|0:0,0:0:0:0:
0,221,221179,2,0,P|44:295|173:288,1,200,8|8,0:0|0:0,0:0:0:0:
312,184,221725,1,8,0:0:0:0:
185,122,221906,6,0,L|169:227,1,100,6|0,0:0|0:0,0:0:0:0:
312,184,222270,2,0,L|326:84,1,100,8|0,0:0|0:0,0:0:0:0:
176,27,222634,1,4,0:0:0:0:
176,27,222816,1,4,0:0:0:0:
57,133,222997,2,0,L|54:250,1,100,8|0,0:0|0:0,0:0:0:0:
192,295,223361,2,0,P|245:256|384:263,1,200,4|8,0:0|0:0,0:0:0:0:
250,358,223906,5,0,0:0:0:0:
230,165,224088,1,4,0:0:0:0:
230,165,224270,1,4,0:0:0:0:
382,213,224452,2,0,L|395:320,1,100,8|0,0:0|0:0,0:0:0:0:
477,172,224816,2,0,P|464:99|353:64,1,200,4|8,0:0|0:0,0:0:0:0:
231,165,225361,1,0,0:0:0:0:
390,144,225543,1,4,0:0:0:0:
390,144,225725,1,4,0:0:0:0:
246,67,225906,6,0,P|231:121|232:173,1,100,8|0,0:0|0:0,0:0:0:0:
96,217,226270,2,0,P|81:271|83:318,1,100,4|0,0:0|0:0,0:0:0:0:
212,350,226634,2,0,P|227:296|228:243,1,100,8|0,0:0|0:0,0:0:0:0:
143,116,226997,1,4,0:0:0:0:
143,116,227179,1,4,0:0:0:0:
290,177,227361,2,0,L|403:185,1,100,8|0,0:0|0:0,0:0:0:0:
280,65,227725,6,0,P|231:31|92:42,1,200,4|8,0:0|0:0,0:0:0:0:
23,181,228270,1,0,0:0:0:0:
176,227,228452,1,4,0:0:0:0:
176,227,228634,1,4,0:0:0:0:
73,350,228816,2,0,L|79:236,1,100,8|0,0:0|0:0,0:0:0:0:
226,136,229179,2,0,P|293:203|255:300,1,200,4|8,0:0|0:0,0:0:0:0:
108,336,229725,5,0,0:0:0:0:
19,186,229906,1,4,0:0:0:0:
19,186,230088,1,4,0:0:0:0:
132,73,230270,2,0,P|178:65|254:93,1,100,8|0,0:0|0:0,0:0:0:0:
306,218,230634,2,0,L|326:113,1,100,4|0,0:0|0:0,0:0:0:0:
449,19,230997,2,0,L|431:123,1,100,8|0,0:0|0:0,0:0:0:0:
399,275,231361,1,4,0:0:0:0:
399,275,231543,1,4,0:0:0:0:
234,272,231725,6,0,P|183:260|126:268,1,100,8|0,0:0|0:0,0:0:0:0:
12,162,232088,2,0,P|32:117|34:58,1,100,4|8,0:0|0:0,0:0:0:0:
173,109,232452,1,4,0:0:0:0:
107,255,232634,1,4,0:0:0:0:
94,61,232816,2,0,P|181:24|267:80,1,200,8|8,0:0|0:0,0:0:0:0:
323,224,233361,1,8,0:0:0:0:
382,110,233543,6,0,L|380:23,1,80,6|0,0:0|0:0,0:0:0:0:
323,224,233906,2,0,L|325:311,1,80,8|0,0:0|0:0,0:0:0:0:
428,229,234270,1,4,0:0:0:0:
428,229,234452,1,4,0:0:0:0:
291,136,234634,2,0,P|240:126|201:133,1,80,8|0,0:0|0:0,0:0:0:0:
122,220,234997,2,0,P|173:230|212:223,1,80,4|0,0:0|0:0,0:0:0:0:
372,170,235361,2,0,P|380:122|354:70,1,80,8|0,0:0|0:0,0:0:0:0:
175,68,235725,2,0,P|167:115|175:151,1,80,4|4,0:0|0:0,0:0:0:0:
276,222,236088,6,0,L|267:115,1,80,8|0,0:0|0:0,0:0:0:0:
343,36,236452,2,0,P|428:58|472:118,2,160,4|8|4,0:0|0:0|0:0,0:0:0:0:
216,53,237361,1,4,0:0:0:0:
71,138,237543,2,0,P|66:200|77:233,1,80,8|0,0:0|0:0,0:0:0:0:
149,317,237906,2,0,P|195:300|324:311,1,160,4|8,0:0|0:0,0:0:0:0:
399,217,238452,1,0,0:0:0:0:
429,341,238634,1,4,0:0:0:0:
429,341,238816,1,4,0:0:0:0:
487,227,238997,6,0,P|476:172|441:135,1,80,8|0,0:0|0:0,0:0:0:0:
348,92,239361,2,0,L|352:183,1,80,4|0,0:0|0:0,0:0:0:0:
223,182,239725,2,0,L|211:278,1,80,8|0,0:0|0:0,0:0:0:0:
328,316,240088,1,4,0:0:0:0:
328,316,240270,1,4,0:0:0:0:
353,190,240452,2,0,P|345:137|322:95,1,80,8|0,0:0|0:0,0:0:0:0:
223,47,240816,2,0,L|245:143,1,80,4|0,0:0|0:0,0:0:0:0:
165,228,241179,2,0,P|150:184|147:150,1,80,8|0,0:0|0:0,0:0:0:0:
33,89,241543,5,4,0:0:0:0:
33,89,241725,1,4,0:0:0:0:
151,41,241906,2,0,P|222:35|257:46,1,80,8|0,0:0|0:0,0:0:0:0:
347,88,242270,2,0,P|356:168|316:249,2,160,4|8|4,0:0|0:0|0:0,0:0:0:0:
236,152,243179,5,4,0:0:0:0:
284,33,243361,1,8,0:0:0:0:
151,41,243543,1,0,0:0:0:0:
236,152,243725,2,0,B|221:231|221:231|235:313,1,160,4|8,0:0|0:0,0:0:0:0:
317,212,244270,1,4,0:0:0:0:
309,84,244452,2,0,B|261:65|261:65|213:65,1,80,8|4,0:0|0:0,0:0:0:0:
88,82,244816,1,0,0:0:0:0:
214,149,244997,1,8,0:0:0:0:
107,275,245179,6,0,P|149:279|203:264,1,80,6|0,0:0|0:0,0:0:0:0:
289,195,245543,2,0,L|289:286,1,80,8|0,0:0|0:0,0:0:0:0:
188,195,245906,1,4,0:0:0:0:
188,195,246088,1,4,0:0:0:0:
79,126,246270,6,0,P|77:80|57:39,1,80,8|0,0:0|0:0,0:0:0:0:
191,68,246634,2,0,P|255:84|293:79,1,80,4|0,0:0|0:0,0:0:0:0:
188,195,246997,2,0,P|163:235|154:270,1,80,8|0,0:0|0:0,0:0:0:0:
37,212,247361,5,4,0:0:0:0:
37,212,247543,1,4,0:0:0:0:
56,338,247725,2,0,P|108:356|158:340,1,80,8|0,0:0|0:0,0:0:0:0:
247,298,248088,2,0,P|312:288|415:312,2,160,4|8|4,0:0|0:0|0:0,0:0:0:0:
124,335,248997,1,4,0:0:0:0:
149,215,249179,2,0,L|166:111,1,80,8|0,0:0|0:0,0:0:0:0:
199,287,249543,6,0,P|123:296|66:238,1,160,4|8,0:0|0:0,0:0:0:0:
64,113,250088,1,0,0:0:0:0:
178,171,250270,1,4,0:0:0:0:
53,200,250452,1,4,0:0:0:0:
258,127,250634,2,0,P|261:179|259:216,1,80,8|0,0:0|0:0,0:0:0:0:
137,346,250997,2,0,P|129:288|132:221,1,95.9999970703126,4|0,0:0|0:0,0:0:0:0:
258,127,251361,2,0,P|261:179|256:238,1,95.9999970703126,8|0,0:0|0:0,0:0:0:0:
87,187,251725,2,0,P|84:129|88:67,1,95.9999970703126,4|4,0:0|0:0,0:0:0:0:
257,127,252088,6,0,P|308:137|368:134,1,95.9999970703126,8|0,0:0|0:0,0:0:0:0:
443,283,252452,2,0,P|382:279|339:285,1,95.9999970703126,4|0,0:0|0:0,0:0:0:0:
162,246,252816,2,0,P|217:241|270:229,1,103.999995239258,8|0,0:0|0:0,0:0:0:0:
419,125,253179,2,0,P|357:123|311:115,1,103.999995239258,4|4,0:0|0:0,0:0:0:0:
130,79,253543,5,8,0:0:0:0:
59,252,253725,1,0,0:0:0:0:
200,149,253906,2,0,P|232:101|254:51,1,103.999995239258,4|0,0:0|0:0,0:0:0:0:
355,215,254270,2,0,P|356:277|368:328,1,103.999995239258,8|0,0:0|0:0,0:0:0:0:
177,300,254634,2,0,P|115:302|60:317,1,103.999995239258,4|4,0:0|0:0,0:0:0:0:
62,124,254997,5,8,0:0:0:0:
243,169,255179,1,4,0:0:0:0:
108,38,255361,1,4,0:0:0:0:
117,225,255543,5,8,0:0:0:0:
207,61,255725,1,4,0:0:0:0:
207,61,255906,1,4,0:0:0:0:
350,181,256088,6,0,P|322:240|182:257,1,207.999990478516,8|8,0:0|0:0,0:0:0:0:
64,160,256634,2,0,L|72:224,1,51.999997619629,4|0,0:0|0:0,0:0:0:0:
86,294,256816,1,4,0:0:0:0:
165,159,256997,1,0,0:0:0:0:
216,248,257179,2,0,L|328:228,1,92.0000017547608,10|0,0:0|0:0,0:0:0:0:
396,133,257543,2,0,L|200:163,1,184.000003509522,4|8,0:0|0:0,0:0:0:0:
135,306,258088,6,0,P|148:250|146:210,1,92.0000017547608,0|4,0:0|0:0,0:0:0:0:
80,63,258452,2,0,P|80:120|94:162,1,92.0000017547608,0|8,0:0|0:0,0:0:0:0:
233,238,258816,2,0,B|329:264|330:208|431:238,1,184.000003509522,0|4,0:0|0:0,0:0:0:0:
283,130,259361,1,8,0:0:0:0:
408,48,259543,1,4,0:0:0:0:
480,184,259725,2,0,P|480:252|395:335,2,184.000003509522,4|8|4,0:0|0:0|0:0,0:0:0:0:
408,48,260634,6,0,P|396:95|405:149,1,92.0000017547608,4|8,0:0|0:0,0:0:0:0:
304,242,260997,2,0,P|239:259|125:232,1,184.000003509522,4|0,0:0|0:0,0:0:0:0:
4,120,261543,2,0,P|52:106|100:106,1,92.0000017547608,8|0,0:0|0:0,0:0:0:0:
256,138,261906,1,4,0:0:0:0:
103,203,262088,1,4,0:0:0:0:
190,61,262270,1,8,0:0:0:0:
220,223,262452,1,4,0:0:0:0:
220,223,262634,2,0,L|219:318,1,92.0000017547608,4|0,0:0|0:0,0:0:0:0:
103,203,262997,6,0,L|105:106,1,92.0000017547608,8|0,0:0|0:0,0:0:0:0:
10,248,263361,2,0,P|86:304|174:270,1,184.000003509522,4|8,0:0|0:0,0:0:0:0:
307,194,263906,2,0,L|399:192,1,92.0000017547608,0|4,0:0|0:0,0:0:0:0:
255,108,264270,2,0,L|152:106,1,92.0000017547608,0|8,0:0|0:0,0:0:0:0:
307,194,264634,2,0,P|350:108|312:27,1,184.000003509522,2|4,0:0|0:0,0:0:0:0:
163,106,265179,1,8,0:0:0:0:
301,196,265361,1,4,0:0:0:0:
234,44,265543,2,0,P|160:15|71:78,2,184.000003509522,4|8|4,0:0|0:0|0:0,0:0:0:0:
371,135,266452,6,0,P|426:155|475:155,1,92.0000017547608,4|8,0:0|0:0,0:0:0:0:
338,41,266816,2,0,P|287:126|305:217,1,184.000003509522,2|0,0:0|0:0,0:0:0:0:
184,325,267361,2,0,P|184:278|170:229,1,92.0000017547608,8|4,0:0|0:0,0:0:0:0:
80,95,267725,2,0,P|26:63|59:139,1,184.000003509522,8|8,0:0|0:0,0:0:0:0:
199,164,268270,1,8,0:0:0:0:
331,64,268452,2,0,P|280:60|234:71,1,92.0000017547608,4|0,0:0|0:0,0:0:0:0:
108,168,268816,2,0,P|159:172|205:161,1,92.0000017547608,8|0,0:0|0:0,0:0:0:0:
364,155,269179,2,0,L|355:351,1,184.000003509522,4|8,0:0|0:0,0:0:0:0:
444,197,269725,6,0,L|439:95,1,92.0000017547608,0|4,0:0|0:0,0:0:0:0:
282,143,270088,2,0,L|274:247,1,92.0000017547608,0|8,0:0|0:0,0:0:0:0:
362,92,270452,2,0,P|276:55|201:100,1,184.000003509522
118,239,270997,1,8,0:0:0:0:
78,77,271179,1,0,0:0:0:0:
228,147,271361,2,0,P|248:204|225:327,2,184.000003509522,4|8|0,0:0|0:0|0:0,0:0:0:0:
62,137,272270,2,0,P|48:182|56:232,1,92.0000017547608,4|8,0:0|0:0,0:0:0:0:
133,372,272634,2,0,P|150:267|139:190,1,184.000003509522,0|2,0:0|0:0,0:0:0:0:
95,30,273179,5,8,0:0:0:0:
12,173,273361,1,0,0:0:0:0:
167,116,273543,1,4,0:0:0:0:
9,62,273725,1,4,0:0:0:0:
108,193,273906,1,8,0:0:0:0:
95,30,274088,1,0,0:0:0:0:
12,173,274270,2,0,P|0:220|1:266,1,92.0000017547608,6|0,0:0|0:0,0:0:0:0:
134,362,274634,2,0,P|146:315|145:269,1,92.0000017547608,8|0,0:0|0:0,0:0:0:0:
250,143,274997,6,0,P|241:228|256:335,1,184.000003509522,4|8,0:0|0:0,0:0:0:0:
395,237,275543,2,0,P|376:189|341:156,1,92.0000017547608,0|4,0:0|0:0,0:0:0:0:
469,47,275906,2,0,P|463:92|474:144,1,92.0000017547608,0|8,0:0|0:0,0:0:0:0:
326,54,276270,2,0,P|276:48|139:73,1,184.000003509522,0|4,0:0|0:0,0:0:0:0:
36,196,276816,1,8,0:0:0:0:
76,36,276997,1,4,0:0:0:0:
191,155,277179,2,0,P|214:206|217:271,1,92.0000017547608,4|0,0:0|0:0,0:0:0:0:
36,196,277543,2,0,P|43:150|63:109,1,92.0000017547608,8|0,0:0|0:0,0:0:0:0:
214,40,277906,5,4,0:0:0:0:
214,40,278088,1,4,0:0:0:0:
198,204,278270,1,8,0:0:0:0:
303,75,278452,2,0,B|404:51|404:101|487:76,1,184.000003509522,0|10,0:0|0:0,0:0:0:0:
490,242,278997,1,4,0:0:0:0:
512,66,279179,1,4,0:0:0:0:
366,238,279361,2,0,P|258:222|207:155,1,184.000003509522,8|8,0:0|0:0,0:0:0:0:
138,68,279906,1,4,0:0:0:0:
138,68,280088,6,0,B|66:33|66:33|81:245,1,287.999991210938,0|2,0:0|0:0,0:0:0:0:
231,324,282997,2,0,P|297:314|375:339,1,143.999995605469
396,253,284452,2,0,L|350:239,1,47.9999985351563,2|0,0:0|0:0,0:0:0:0:
332,154,285179,2,0,L|287:172,1,47.9999985351563,2|0,0:0|0:0,0:0:0:0:
202,205,285906,2,0,B|146:227|146:227|204:49,1,239.999992675781
294,69,288088,6,0,L|277:117,1,47.9999985351563,2|0,0:0|0:0,0:0:0:0:
319,190,288816,2,0,P|244:197|193:153,1,143.999995605469
177,70,290270,2,0,L|129:79,1,47.9999985351563,2|0,0:0|0:0,0:0:0:0:
54,172,290997,2,0,L|108:161,1,47.9999985351563,2|0,0:0|0:0,0:0:0:0:
191,140,291725,2,0,L|208:334,1,191.999994140625
304,53,293906,6,0,L|312:111,1,47.9999985351563,2|2,0:0|0:0,0:0:0:0:
336,183,294634,2,0,B|263:209|272:169|194:190,1,143.999995605469,2|0,0:0|0:0,0:0:0:0:
107,196,296088,2,0,P|115:173|119:139,1,47.9999985351563,2|0,0:0|0:0,0:0:0:0:
33,135,296816,2,0,P|22:164|18:188,1,47.9999985351563,2|0,0:0|0:0,0:0:0:0:
24,266,297543,2,0,P|80:255|223:268,1,191.999994140625,2|0,0:0|0:0,0:0:0:0:
354,164,299725,2,0,P|384:176|402:189,2,47.9999985351563,2|0|2,0:0|0:0|0:0,0:0:0:0:
268,149,300816,5,0,0:0:0:0:
268,149,300997,2,0,L|195:136,1,71.9999978027344
87,225,301906,2,0,L|141:209,1,47.9999985351563,2|0,0:0|0:0,0:0:0:0:
272,268,302634,2,0,L|218:252,1,47.9999985351563,2|0,0:0|0:0,0:0:0:0:
117,278,303361,2,0,L|133:273,1,11.9999996337891
256,192,303543,12,2,307725,0:0:0:0:
