osu file format v14

[General]
AudioFilename: audio.mp3
AudioLeadIn: 0
PreviewTime: 44470
Countdown: 1
SampleSet: Soft
StackLeniency: 0.7
Mode: 0
LetterboxInBreaks: 0
WidescreenStoryboard: 1

[Editor]
Bookmarks: 1086,15855,23239,41701,45393,84162
DistanceSpacing: 1
BeatDivisor: 4
GridSize: 8
TimelineZoom: 3.099999

[Metadata]
Title:Mosaic Kakera (TV Size)
TitleUnicode:モザイクカケラ (TV Size)
Artist:SunSet Swish
ArtistUnicode:サンセット スウィッシュ
Creator:Tanzeem
Version:Hard
Source:コードギアス 反逆のルルーシュ
Tags:Code Geass Lelouch of the Rebellion Hangyaku No Ending Anime Japanese 2 second 2nd SSS j-pop jpop pop Passion
BeatmapID:2694416
BeatmapSetID:931912

[Difficulty]
HPDrainRate:4
CircleSize:3.5
OverallDifficulty:6
ApproachRate:6.5
SliderMultiplier:1.2
SliderTickRate:1

[Events]
//Background and Video events
0,0,"rsz_jusjpns.jpg",0,0
Video,-500,"video.mp4"
//Break Periods
//Storyboard Layer 0 (Background)
//Storyboard Layer 1 (Fail)
//Storyboard Layer 2 (Pass)
//Storyboard Layer 3 (Foreground)
//Storyboard Layer 4 (Overlay)
//Storyboard Sound Samples

[TimingPoints]
1086,461.538461538462,4,2,1,30,1,0
14009,-80,4,2,1,40,0,0
15855,-80,4,2,1,45,0,0
21162,-90.9090909090909,4,2,1,40,0,0
22547,-90.9090909090909,4,2,2,30,0,0
23239,-100,4,2,2,40,0,0
38009,-80,4,2,2,50,0,0
41701,-80,4,2,2,55,0,0
43547,-80,4,2,1,60,0,0
45393,-66.6666666666667,4,2,1,65,0,1
84162,-100,4,2,1,45,0,0
86932,-121.951219512195,4,2,1,45,0,0
89239,-100,4,2,1,5,0,0

[Colours]
Combo1 : 255,147,147
Combo2 : 125,125,255
Combo3 : 168,255,168
Combo4 : 179,255,255

[HitObjects]
101,255,393,6,0,P|56:242|29:240,2,60,2|2|2,0:2|0:2|0:2,0:2:0:0:
155,311,1086,5,2,0:2:0:0:
272,353,1547,6,0,P|302:358|337:353,1,60,2|2,0:2|0:2,0:2:0:0:
396,306,2009,1,2,0:2:0:0:
491,221,2470,6,0,P|477:181|474:164,1,60,2|2,0:2|0:2,0:2:0:0:
499,90,2932,1,2,0:2:0:0:
392,22,3393,6,0,P|348:14|321:16,1,60,2|2,0:2|0:2,0:2:0:0:
275,73,3855,1,2,0:2:0:0:
275,73,4086,1,2,0:2:0:0:
198,30,4316,2,0,L|134:37,1,60,2|2,0:2|0:2,0:2:0:0:
33,15,4778,6,0,P|58:53|59:133,1,120,2|2,0:2|0:2,0:2:0:0:
14,196,5470,1,2,0:2:0:0:
14,196,5701,1,2,0:2:0:0:
66,313,6162,2,0,L|126:305,1,60,2|2,0:2|0:2,0:2:0:0:
209,270,6624,2,0,P|202:242|201:209,1,60,2|2,0:2|0:2,0:2:0:0:
226,136,7086,1,2,0:2:0:0:
194,65,7316,1,2,0:2:0:0:
345,25,7778,2,0,P|380:24|412:34,2,60,2|2|2,0:2|0:2|0:2,0:2:0:0:
323,100,8470,5,2,0:2:0:0:
424,168,8932,6,0,P|432:205|433:242,1,60,2|2,0:2|0:2,0:2:0:0:
422,304,9393,1,2,0:2:0:0:
270,342,9855,5,2,0:2:0:0:
270,342,10086,1,2,0:2:0:0:
195,362,10316,2,0,P|122:338|53:339,2,120,2|2|2,0:2|0:2|0:2,0:2:0:0:
323,273,11701,1,2,0:2:0:0:
217,158,12162,6,0,B|171:141|131:168|131:168|91:195|46:178,1,180,2|2,0:2|0:2,0:2:0:0:
19,104,13086,2,0,P|66:50|164:73,1,180,2|0,0:2|0:2,0:2:0:0:
234,125,14009,6,0,P|281:109|313:107,1,75,4|0,1:2|3:2,0:2:0:0:
327,67,14355,2,0,P|374:83|406:85,1,75,4|0,1:2|3:2,0:2:0:0:
438,63,14701,1,4,1:2:0:0:
500,147,14932,2,0,P|509:196|508:241,1,75,8|2,3:2|0:2,0:2:0:0:
480,311,15393,1,10,3:2:0:0:
379,348,15624,1,2,3:2:0:0:
362,336,15739,1,0,3:2:0:0:
343,328,15855,6,0,P|304:320|255:325,1,75,6|2,1:2|0:2,0:2:0:0:
180,362,16316,1,10,0:2:0:0:
83,346,16547,2,0,P|101:287|85:195,1,150,6|2,1:2|0:2,0:2:0:0:
22,128,17239,1,10,0:2:0:0:
88,57,17470,6,0,B|166:49|142:94|230:86,1,150,6|2,1:2|0:2,0:2:0:0:
300,40,18162,1,8,0:2:0:0:
382,43,18393,2,0,B|411:111|411:111|399:184,1,150,2|2,0:2|1:2,0:2:0:0:
395,268,19086,1,10,0:2:0:0:
428,342,19316,1,2,1:2:0:0:
350,368,19547,6,0,P|306:361|273:364,1,75,6|2,1:2|0:2,0:2:0:0:
204,296,20009,1,10,0:2:0:0:
276,231,20239,2,0,P|286:181|285:130,1,75,6|0,1:2|0:2,0:2:0:0:
351,83,20701,1,2,0:2:0:0:
287,18,20932,1,10,0:2:0:0:
196,39,21162,6,0,B|151:59|142:106|142:106|133:154|96:176|96:176|99:129|79:89|42:66|-5:66,1,330.000010070801,6|0,1:2|0:2,0:2:0:0:
10,163,22547,1,8,0:2:0:0:
42,241,22778,2,0,L|32:320,1,66.0000020141602,0|0,0:2|0:2,0:2:0:0:
102,370,23239,5,0,1:2:0:0:
175,324,23470,2,0,P|211:322|248:327,1,60,2|8,0:2|0:2,0:2:0:0:
313,356,23932,2,0,P|363:365|443:354,1,120,2|2,1:2|0:0,0:0:0:0:
471,283,24624,1,10,0:2:0:0:
446,203,24855,6,0,P|447:165|455:138,1,60,2|0,0:2|1:2,0:2:0:0:
509,81,25316,2,0,P|508:43|500:16,1,60,2|8,0:2|0:2,0:2:0:0:
419,6,25778,1,2,1:2:0:0:
262,66,26239,1,2,0:2:0:0:
323,123,26470,1,10,0:2:0:0:
274,191,26701,1,2,0:2:0:0:
301,270,26932,6,0,B|213:259|213:259|177:287,1,120,2|10,1:2|0:2,0:2:0:0:
139,346,27624,1,2,1:2:0:0:
7,241,28086,1,2,0:2:0:0:
60,176,28316,1,10,0:2:0:0:
23,100,28547,1,2,0:2:0:0:
76,34,28778,6,0,B|143:28|122:66|197:59,1,120,2|8,1:2|0:2,0:2:0:0:
262,103,29470,2,0,P|305:60|379:63,1,120,2|0,1:2|0:2,0:2:0:0:
444,41,30162,2,0,L|436:104,1,60,10|0,0:2|0:2,0:2:0:0:
492,163,30624,5,0,1:2:0:0:
448,235,30855,2,0,L|456:307,1,60,2|10,0:0|0:0,0:0:0:0:
397,355,31316,2,0,P|349:341|268:343,1,120,0|0,1:2|0:2,0:2:0:0:
208,295,32009,1,10,0:2:0:0:
260,229,32239,6,0,P|266:197|265:159,1,60,2|0,0:2|1:2,0:2:0:0:
335,121,32701,2,0,P|328:89|329:51,1,60,2|8,0:2|0:2,0:2:0:0:
253,23,33162,2,0,B|186:17|207:55|132:48,1,120,2|0,1:2|0:2,0:2:0:0:
60,17,33855,2,0,L|52:80,1,60,8|0,0:2|0:2,0:2:0:0:
76,157,34316,5,2,1:2:0:0:
151,119,34547,1,2,0:2:0:0:
196,189,34778,1,10,0:2:0:0:
126,246,35009,2,0,P|73:237|11:262,1,120,2|0,1:2|0:2,0:2:0:0:
3,350,35701,1,10,0:2:0:0:
90,370,35932,1,2,1:2:0:0:
172,335,36162,6,0,P|213:326|237:327,1,60,2|0,1:2|0:2,0:2:0:0:
286,248,36624,2,0,P|256:247|227:239,1,60,10|0,0:2|1:2,0:2:0:0:
150,183,37086,2,0,L|142:246,1,60,2|0,0:2|0:2,0:2:0:0:
61,272,37547,2,0,L|53:212,1,60,10|0,0:2|0:2,0:2:0:0:
7,117,38009,6,0,P|59:81|147:97,1,150,6|8,1:2|0:2,0:2:0:0:
223,40,38701,1,2,1:2:0:0:
264,128,38932,2,0,L|244:286,1,150,2|8,0:2|0:2,0:2:0:0:
309,350,39624,1,2,0:2:0:0:
359,266,39855,6,0,P|366:224|364:177,1,75,2|0,1:2|0:2,0:2:0:0:
347,163,40201,2,0,P|340:121|342:74,1,75,2|0,0:2|0:2,0:2:0:0:
372,49,40547,1,2,1:2:0:0:
466,47,40778,6,0,P|473:89|471:136,1,75,2|0,0:2|0:2,0:2:0:0:
454,150,41124,2,0,P|447:192|449:239,1,75,2|0,0:2|0:2,0:2:0:0:
476,264,41470,1,2,0:2:0:0:
492,354,41701,6,0,P|462:348|432:347,3,37.5,2|0|2|0,1:2|0:2|0:2|0:2,0:2:0:0:
415,362,42162,2,0,P|385:368|355:369,3,37.5,2|0|2|0,1:2|0:2|0:2|0:2,0:2:0:0:
342,339,42624,2,0,P|312:333|282:332,3,37.5,2|0|2|0,1:2|0:2|0:2|0:2,0:2:0:0:
267,355,43086,2,0,P|237:361|207:362,3,37.5,2|0|2|0,1:2|0:2|0:2|0:2,0:2:0:0:
187,333,43547,6,0,P|176:288|186:245,1,75,10|0,1:2|0:2,0:2:0:0:
279,204,44009,2,0,P|285:161|283:127,1,75,10|0,1:2|0:2,0:2:0:0:
208,42,44470,2,0,L|151:35,1,37.5,2|0,3:2|3:2,0:2:0:0:
96,57,44701,1,2,3:2:0:0:
89,72,44816,1,8,0:2:0:0:
85,89,44932,1,10,0:2:0:0:
26,171,45162,2,0,L|30:208,1,37.5,2|0,3:2|3:2,0:2:0:0:
0,301,45393,6,0,P|48:292|95:295,1,90.0000034332277,6|0,1:2|0:2,0:2:0:0:
165,342,45855,1,10,0:2:0:0:
251,366,46086,1,2,0:2:0:0:
335,337,46316,2,0,P|356:290|353:241,1,90.0000034332277,2|0,1:2|1:2,0:2:0:0:
285,196,46778,1,10,0:2:0:0:
218,135,47009,1,2,0:2:0:0:
247,50,47239,6,0,P|284:27|338:21,1,90.0000034332277,2|0,1:2|0:2,0:2:0:0:
428,32,47701,1,10,0:2:0:0:
403,118,47932,1,2,0:2:0:0:
474,172,48162,1,2,1:2:0:0:
501,257,48393,1,2,1:2:0:0:
448,330,48624,1,10,0:2:0:0:
359,344,48855,1,2,0:2:0:0:
295,279,49086,6,0,B|248:268|211:299|211:299|174:331|127:320,1,180.000006866455,2|10,1:2|0:2,0:2:0:0:
44,357,49778,1,2,0:2:0:0:
0,277,50009,2,0,B|38:196|38:196|20:108,1,180.000006866455,2|10,1:2|0:2,1:2:0:0:
49,22,50701,1,2,0:2:0:0:
137,6,50932,5,2,1:2:0:0:
217,46,51162,1,2,0:2:0:0:
297,5,51393,1,10,0:2:0:0:
347,79,51624,2,0,L|334:182,1,90.0000034332277,2|0,0:2|1:2,0:2:0:0:
258,215,52086,1,2,1:2:0:0:
173,184,52316,1,10,0:2:0:0:
115,253,52547,1,2,0:2:0:0:
158,332,52778,6,0,P|203:338|254:324,1,90.0000034332277,2|0,1:2|0:2,0:2:0:0:
330,297,53239,1,10,0:2:0:0:
407,342,53470,1,2,0:2:0:0:
479,291,53701,2,0,P|467:240|465:178,1,90.0000034332277,2|0,1:2|1:2,0:2:0:0:
497,117,54162,1,10,0:2:0:0:
461,34,54393,1,2,0:2:0:0:
368,13,54624,5,2,1:2:0:0:
356,102,54855,1,2,0:2:0:0:
282,154,55086,2,0,P|227:127|143:138,1,135.000005149841,10|0,0:2|0:2,0:2:0:0:
112,146,55547,2,0,L|124:46,1,90.0000034332277,2|0,1:2|1:2,0:2:0:0:
39,21,56009,2,0,L|29:110,1,90.0000034332277,10|0,0:2|0:2,0:2:0:0:
129,177,56470,6,0,B|60:197|96:226|20:249,1,135.000005149841,2|0,1:2|0:2,0:2:0:0:
1,274,56932,2,0,P|-7:318|1:366,1,90.0000034332277,8|0,0:2|0:2,0:2:0:0:
124,344,57393,2,0,B|212:333|212:333|248:361,1,135.000005149841,2|0,1:2|0:2,0:2:0:0:
284,360,57855,2,0,P|307:323|314:274,1,90.0000034332277,8|0,0:2|0:2,0:2:0:0:
230,177,58316,5,4,1:2:0:0:
290,86,58547,1,8,0:2:0:0:
298,70,58662,1,8,0:2:0:0:
302,58,58778,1,4,1:2:0:0:
393,19,59009,1,8,0:2:0:0:
397,31,59125,1,8,0:2:0:0:
405,47,59240,1,4,1:2:0:0:
498,119,59470,6,0,L|494:148,3,30.0000011444092,10|8|8|10,0:2|0:2|0:2|0:2,0:2:0:0:
397,189,59932,1,10,0:0:0:0:
495,262,60162,6,0,L|506:359,1,90.0000034332277,6|0,1:2|0:2,0:2:0:0:
419,378,60624,1,10,0:2:0:0:
337,339,60855,1,2,0:2:0:0:
248,356,61086,2,0,L|260:259,1,90.0000034332277,2|0,1:2|1:2,0:2:0:0:
315,196,61547,1,10,0:2:0:0:
349,112,61778,1,2,0:2:0:0:
299,37,62009,6,0,P|253:33|208:41,1,90.0000034332277,2|0,1:2|0:2,0:2:0:0:
130,82,62470,1,10,0:2:0:0:
45,49,62701,1,2,0:2:0:0:
7,130,62932,2,0,P|18:184|19:314,1,180.000006866455,2|10,1:2|0:2,0:2:0:0:
94,358,63624,1,2,0:2:0:0:
171,312,63855,6,0,B|218:301|255:332|255:332|292:364|339:353,1,180.000006866455,2|10,1:2|0:2,0:2:0:0:
394,281,64547,1,2,0:2:0:0:
333,214,64778,2,0,P|322:164|321:118,1,90.0000034332277,2|0,1:2|1:2,0:2:0:0:
362,44,65239,1,10,0:2:0:0:
450,28,65470,1,2,0:2:0:0:
502,101,65701,5,2,1:2:0:0:
458,179,65932,1,2,0:2:0:0:
494,261,66162,1,10,0:2:0:0:
435,329,66393,2,0,P|383:312|335:314,1,90.0000034332277,2|0,0:2|1:2,0:2:0:0:
260,288,66855,1,2,1:2:0:0:
169,289,67086,1,10,0:2:0:0:
100,346,67316,1,2,0:2:0:0:
10,353,67547,6,0,P|0:307|5:258,1,90.0000034332277,2|0,1:2|0:2,0:2:0:0:
67,198,68009,1,10,0:2:0:0:
31,115,68239,1,2,0:2:0:0:
89,42,68470,2,0,P|139:44|189:33,1,90.0000034332277,2|0,1:2|1:2,0:2:0:0:
264,11,68932,1,10,0:2:0:0:
339,58,69162,1,2,0:2:0:0:
330,147,69393,6,0,P|342:193|284:258,1,135.000005149841,2|0,1:2|0:2,0:2:0:0:
246,248,69855,2,0,P|258:294|260:346,1,90.0000034332277,10|0,0:2|0:2,0:2:0:0:
349,350,70316,2,0,B|420:328|420:328|483:350,1,135.000005149841,2|0,1:2|0:2,0:2:0:0:
498,308,70778,2,0,L|510:216,1,90.0000034332277,10|0,0:2|0:2,0:2:0:0:
471,137,71239,6,0,B|397:120|414:165|340:154,1,135.000005149841,6|0,1:2|0:2,0:2:0:0:
300,132,71701,1,8,0:2:0:0:
350,57,71932,1,2,0:2:0:0:
263,15,72162,2,0,P|203:10|160:29,1,90.0000034332277,2|0,1:2|1:2,0:2:0:0:
163,38,72509,1,2,0:2:0:0:
159,51,72624,1,10,0:2:0:0:
90,109,72855,1,2,0:2:0:0:
12,47,73086,6,0,P|3:95|8:144,1,90.0000034332277,12|0,0:2|0:2,0:2:0:0:
33,222,73547,1,0,1:2:0:0:
124,154,73778,2,0,P|143:200|146:251,1,90.0000034332277,8|0,3:2|1:2,0:2:0:0:
85,328,74239,1,10,3:2:0:0:
12,257,74470,1,10,3:2:0:0:
109,229,74701,1,10,3:2:0:0:
189,315,74932,6,0,P|236:326|289:316,1,90.0000034332277,6|0,1:2|0:2,0:2:0:0:
355,260,75393,1,10,0:2:0:0:
444,302,75624,1,2,0:2:0:0:
479,206,75855,2,0,L|491:102,1,90.0000034332277,2|0,1:2|1:2,0:2:0:0:
382,10,76316,2,0,P|364:55|319:83,1,90.0000034332277,14|2,0:2|0:2,0:2:0:0:
217,78,76778,6,0,P|236:134|239:170,1,90.0000034332277,2|0,1:2|0:2,0:2:0:0:
285,241,77239,1,10,0:2:0:0:
370,213,77470,1,2,0:2:0:0:
422,285,77701,1,2,1:2:0:0:
369,356,77932,1,2,1:2:0:0:
285,327,78162,1,10,0:2:0:0:
206,371,78393,1,2,0:2:0:0:
116,360,78624,6,0,B|78:279|78:279|96:191,1,180.000006866455,2|10,1:2|0:2,1:2:0:0:
34,124,79316,1,2,0:2:0:0:
0,40,79547,2,0,P|49:25|96:29,1,90.0000034332277,2|0,1:2|1:2,0:2:0:0:
175,9,80009,1,10,0:2:0:0:
219,87,80239,1,2,0:2:0:0:
307,103,80470,5,2,1:2:0:0:
367,36,80701,1,2,0:2:0:0:
457,35,80932,1,10,0:2:0:0:
505,112,81162,2,0,P|512:165|511:214,1,90.0000034332277,2|0,0:2|1:2,0:2:0:0:
502,290,81624,1,2,1:2:0:0:
467,373,81855,1,10,0:2:0:0:
384,336,82086,1,2,0:2:0:0:
301,372,82316,6,0,P|243:362|209:340,1,90.0000034332277,2|0,1:2|0:2,0:2:0:0:
157,278,82778,1,10,0:2:0:0:
195,196,83009,1,2,0:2:0:0:
143,122,83239,2,0,P|201:112|235:90,1,90.0000034332277,2|0,1:2|1:2,0:2:0:0:
302,46,83701,1,10,0:2:0:0:
388,84,83932,1,2,0:2:0:0:
472,28,84162,6,0,P|488:72|484:148,2,120,2|2|2,0:2|0:2|0:2,0:2:0:0:
356,108,85547,1,2,0:2:0:0:
236,32,86009,6,0,P|193:17|119:38,1,120,2|0,0:2|0:2,0:2:0:0:
62,93,86701,1,2,0:2:0:0:
101,169,86932,6,0,B|147:215|209:215|209:215|201:261|201:261|256:316|256:316|310:261|310:261|303:215|303:215|366:215|412:169,1,492.000007507324,2|0,0:2|0:2,0:2:0:0:
