osu file format v14

[General]
AudioFilename: audio.mp3
AudioLeadIn: 0
PreviewTime: 44534
Countdown: 0
SampleSet: Normal
StackLeniency: 0.7
Mode: 1
LetterboxInBreaks: 0
WidescreenStoryboard: 1

[Editor]
DistanceSpacing: 1
BeatDivisor: 4
GridSize: 32
TimelineZoom: 1

[Metadata]
Title:Mosaic Kakera (TV Size)
TitleUnicode:モザイクカケラ (TV Size)
Artist:SunSet Swish
ArtistUnicode:サンセット スウィッシュ
Creator:D0UG
Version:Muzukashii
Source:コードギアス 反逆のルルーシュ
Tags:j-pop jpop pop anime japanese ed 2 2nd second ending theme Code Geass Lelouch of the Rebellion hangyaku C.C. CC passion SSS
BeatmapID:3521947
BeatmapSetID:1723196

[Difficulty]
HPDrainRate:6.5
CircleSize:2
OverallDifficulty:5
ApproachRate:7
SliderMultiplier:1.4
SliderTickRate:1

[Events]
//Background and Video events
Video,-1100,"video.mp4"
0,0,"bg.jpg",0,50
//Break Periods
//Storyboard Layer 0 (Background)
//Storyboard Layer 1 (Fail)
//Storyboard Layer 2 (Pass)
//Storyboard Layer 3 (Foreground)
//Storyboard Layer 4 (Overlay)
//Storyboard Sound Samples

[TimingPoints]
1092,461.538461538462,4,1,0,65,1,0
14015,-100,4,1,0,70,0,0
45399,-90.9090909090909,4,1,0,85,0,1
73092,-90.9090909090909,4,1,0,80,0,0
74938,-90.9090909090909,4,1,0,85,0,1
84168,-90.9090909090909,4,1,0,60,0,0
86938,-90.9090909090909,4,1,0,50,0,0

[HitObjects]
256,192,1092,5,8,0:0:0:0:
256,192,1553,1,8,0:0:0:0:
256,192,1784,1,0,0:0:0:0:
256,192,2015,1,8,0:0:0:0:
256,192,2476,1,0,0:0:0:0:
256,192,2707,1,0,0:0:0:0:
256,192,2938,1,8,0:0:0:0:
256,192,3399,1,0,0:0:0:0:
256,192,3630,1,0,0:0:0:0:
256,192,3861,1,8,0:0:0:0:
256,192,4322,1,0,0:0:0:0:
256,192,4784,1,8,0:0:0:0:
256,192,5245,1,0,0:0:0:0:
256,192,5476,1,0,0:0:0:0:
256,192,5707,1,8,0:0:0:0:
256,192,6168,1,8,0:0:0:0:
256,192,6630,1,8,0:0:0:0:
256,192,7092,1,0,0:0:0:0:
256,192,7322,1,0,0:0:0:0:
256,192,7784,1,8,0:0:0:0:
256,192,8015,1,0,0:0:0:0:
256,192,8476,1,8,0:0:0:0:
256,192,8938,1,0,0:0:0:0:
256,192,9168,1,0,0:0:0:0:
256,192,9399,1,8,0:0:0:0:
256,192,9861,1,8,0:0:0:0:
256,192,10092,1,0,0:0:0:0:
256,192,10322,1,8,0:0:0:0:
256,192,10784,1,8,0:0:0:0:
256,192,11245,1,0,0:0:0:0:
256,192,11707,1,0,0:0:0:0:
256,192,12168,1,8,0:0:0:0:
256,192,12861,1,8,0:0:0:0:
256,192,14015,1,12,0:0:0:0:
256,192,14361,1,12,0:0:0:0:
256,192,14707,1,12,0:0:0:0:
256,192,14938,1,0,0:0:0:0:
256,192,15053,1,0,0:0:0:0:
256,192,15168,1,0,0:0:0:0:
256,192,15399,1,0,0:0:0:0:
256,192,15630,1,0,0:0:0:0:
256,192,15861,1,12,0:0:0:0:
256,192,16092,1,0,0:0:0:0:
256,192,16207,1,0,0:0:0:0:
256,192,16322,1,0,0:0:0:0:
256,192,16553,1,12,0:0:0:0:
256,192,17015,1,0,0:0:0:0:
256,192,17245,1,8,0:0:0:0:
256,192,17476,1,12,0:0:0:0:
256,192,17938,1,8,0:0:0:0:
256,192,18168,1,0,0:0:0:0:
256,192,18399,1,8,0:0:0:0:
256,192,18861,1,0,0:0:0:0:
256,192,19092,1,8,0:0:0:0:
256,192,19322,1,0,0:0:0:0:
256,192,19553,1,12,0:0:0:0:
256,192,19784,1,8,0:0:0:0:
256,192,19899,1,8,0:0:0:0:
256,192,20015,1,8,0:0:0:0:
256,192,20245,1,12,0:0:0:0:
256,192,20707,1,0,0:0:0:0:
256,192,20822,1,0,0:0:0:0:
256,192,20938,1,0,0:0:0:0:
256,192,21168,1,12,0:0:0:0:
256,192,22553,5,0,0:0:0:0:
256,192,22784,1,8,0:0:0:0:
256,192,23245,1,0,0:0:0:0:
256,192,23476,1,8,0:0:0:0:
256,192,23707,1,0,0:0:0:0:
256,192,23938,1,8,0:0:0:0:
256,192,24399,1,0,0:0:0:0:
256,192,24630,1,8,0:0:0:0:
256,192,24861,1,8,0:0:0:0:
256,192,24976,1,8,0:0:0:0:
256,192,25092,1,8,0:0:0:0:
256,192,25322,1,0,0:0:0:0:
256,192,25553,1,8,0:0:0:0:
256,192,25784,1,0,0:0:0:0:
256,192,26245,1,0,0:0:0:0:
256,192,26476,1,0,0:0:0:0:
256,192,26707,1,0,0:0:0:0:
256,192,26938,1,8,0:0:0:0:
256,192,27399,1,8,0:0:0:0:
256,192,27630,1,0,0:0:0:0:
256,192,28322,1,8,0:0:0:0:
256,192,28553,1,0,0:0:0:0:
256,192,28784,1,8,0:0:0:0:
256,192,29245,1,8,0:0:0:0:
256,192,29476,1,0,0:0:0:0:
256,192,29938,1,0,0:0:0:0:
256,192,30168,1,8,0:0:0:0:
256,192,30630,1,0,0:0:0:0:
256,192,30861,1,8,0:0:0:0:
256,192,31092,1,8,0:0:0:0:
256,192,31322,1,8,0:0:0:0:
256,192,31784,1,0,0:0:0:0:
256,192,32015,1,8,0:0:0:0:
256,192,32245,1,0,0:0:0:0:
256,192,32361,1,0,0:0:0:0:
256,192,32476,1,0,0:0:0:0:
256,192,32707,1,8,0:0:0:0:
256,192,32938,1,0,0:0:0:0:
256,192,33168,1,8,0:0:0:0:
256,192,33630,1,0,0:0:0:0:
256,192,33861,1,8,0:0:0:0:
256,192,34322,1,0,0:0:0:0:
256,192,34553,1,0,0:0:0:0:
256,192,34784,1,0,0:0:0:0:
256,192,35015,1,8,0:0:0:0:
256,192,35707,1,8,0:0:0:0:
256,192,35938,1,8,0:0:0:0:
256,192,36053,1,8,0:0:0:0:
256,192,36168,1,8,0:0:0:0:
256,192,36399,1,0,0:0:0:0:
256,192,36630,1,8,0:0:0:0:
256,192,37092,1,8,0:0:0:0:
256,192,37322,1,8,0:0:0:0:
256,192,37553,1,0,0:0:0:0:
256,192,38015,1,8,0:0:0:0:
256,192,38476,1,8,0:0:0:0:
256,192,38707,1,0,0:0:0:0:
256,192,38938,1,8,0:0:0:0:
256,192,39399,1,8,0:0:0:0:
256,192,39630,1,0,0:0:0:0:
256,192,39861,1,8,0:0:0:0:
256,192,40207,1,8,0:0:0:0:
256,192,40322,1,8,0:0:0:0:
256,192,40553,1,0,0:0:0:0:
256,192,40784,1,8,0:0:0:0:
256,192,41130,1,8,0:0:0:0:
256,192,41245,1,8,0:0:0:0:
256,192,41476,1,0,0:0:0:0:
256,192,41707,1,8,0:0:0:0:
256,192,42168,1,0,0:0:0:0:
256,192,42630,1,0,0:0:0:0:
256,192,43092,1,0,0:0:0:0:
256,192,43553,1,12,0:0:0:0:
256,192,44015,1,12,0:0:0:0:
256,192,44476,1,0,0:0:0:0:
256,192,45399,1,12,0:0:0:0:
256,192,45861,1,8,0:0:0:0:
256,192,46092,1,0,0:0:0:0:
256,192,46207,1,0,0:0:0:0:
256,192,46322,1,0,0:0:0:0:
256,192,46553,1,0,0:0:0:0:
256,192,46784,1,8,0:0:0:0:
256,192,47015,1,8,0:0:0:0:
256,192,47130,1,8,0:0:0:0:
256,192,47245,1,8,0:0:0:0:
256,192,47707,1,8,0:0:0:0:
256,192,47938,1,8,0:0:0:0:
256,192,48168,1,0,0:0:0:0:
256,192,48399,1,0,0:0:0:0:
256,192,48630,1,8,0:0:0:0:
256,192,48861,1,0,0:0:0:0:
256,192,49092,1,8,0:0:0:0:
256,192,49553,1,8,0:0:0:0:
256,192,49784,1,0,0:0:0:0:
256,192,50015,1,0,0:0:0:0:
256,192,50476,1,8,0:0:0:0:
256,192,50707,1,0,0:0:0:0:
256,192,50822,1,0,0:0:0:0:
256,192,50938,1,0,0:0:0:0:
256,192,51168,1,8,0:0:0:0:
256,192,51399,1,0,0:0:0:0:
256,192,51630,1,8,0:0:0:0:
256,192,52092,1,8,0:0:0:0:
256,192,52207,1,8,0:0:0:0:
256,192,52322,1,8,0:0:0:0:
256,192,52553,1,0,0:0:0:0:
256,192,52784,1,8,0:0:0:0:
256,192,53245,1,8,0:0:0:0:
256,192,53476,1,0,0:0:0:0:
256,192,53707,1,8,0:0:0:0:
256,192,53938,1,0,0:0:0:0:
256,192,54168,1,8,0:0:0:0:
256,192,54399,1,8,0:0:0:0:
256,192,54630,1,0,0:0:0:0:
256,192,55092,1,8,0:0:0:0:
256,192,55322,1,0,0:0:0:0:
256,192,55553,1,0,0:0:0:0:
256,192,55668,1,0,0:0:0:0:
256,192,55784,1,0,0:0:0:0:
256,192,56015,1,8,0:0:0:0:
256,192,56476,1,8,0:0:0:0:
256,192,56707,1,0,0:0:0:0:
256,192,56938,1,8,0:0:0:0:
256,192,57399,1,8,0:0:0:0:
256,192,57630,1,0,0:0:0:0:
256,192,57861,1,8,0:0:0:0:
256,192,58322,1,12,0:0:0:0:
256,192,58784,1,12,0:0:0:0:
256,192,59245,1,12,0:0:0:0:
256,192,59476,1,8,0:0:0:0:
256,192,59592,1,8,0:0:0:0:
256,192,59707,1,8,0:0:0:0:
256,192,59938,1,0,0:0:0:0:
256,192,60168,1,12,0:0:0:0:
256,192,60630,1,8,0:0:0:0:
256,192,60861,1,0,0:0:0:0:
256,192,60976,1,0,0:0:0:0:
256,192,61092,1,0,0:0:0:0:
256,192,61322,1,0,0:0:0:0:
256,192,61553,1,8,0:0:0:0:
256,192,61784,1,8,0:0:0:0:
256,192,61899,1,8,0:0:0:0:
256,192,62015,1,8,0:0:0:0:
256,192,62476,1,8,0:0:0:0:
256,192,62707,1,0,0:0:0:0:
256,192,62938,1,8,0:0:0:0:
256,192,63168,1,0,0:0:0:0:
256,192,63399,1,8,0:0:0:0:
256,192,63630,1,8,0:0:0:0:
256,192,63861,1,8,0:0:0:0:
256,192,64322,1,8,0:0:0:0:
256,192,64553,1,0,0:0:0:0:
256,192,64784,1,0,0:0:0:0:
256,192,65245,1,8,0:0:0:0:
256,192,65707,1,8,0:0:0:0:
256,192,65938,1,0,0:0:0:0:
256,192,66168,1,8,0:0:0:0:
256,192,66399,1,0,0:0:0:0:
256,192,66861,1,8,0:0:0:0:
256,192,66976,1,8,0:0:0:0:
256,192,67092,1,8,0:0:0:0:
256,192,67322,1,0,0:0:0:0:
256,192,67553,1,8,0:0:0:0:
256,192,68015,1,8,0:0:0:0:
256,192,68245,1,8,0:0:0:0:
256,192,68476,1,0,0:0:0:0:
256,192,68707,1,0,0:0:0:0:
256,192,68938,1,8,0:0:0:0:
256,192,69168,1,0,0:0:0:0:
256,192,69399,1,8,0:0:0:0:
256,192,69861,1,8,0:0:0:0:
256,192,70092,1,0,0:0:0:0:
256,192,70322,1,8,0:0:0:0:
256,192,70784,1,8,0:0:0:0:
256,192,71245,1,12,0:0:0:0:
256,192,71707,1,8,0:0:0:0:
256,192,71938,1,0,0:0:0:0:
256,192,72053,1,0,0:0:0:0:
256,192,72168,1,0,0:0:0:0:
256,192,72399,1,8,0:0:0:0:
256,192,72630,1,8,0:0:0:0:
256,192,72861,1,0,0:0:0:0:
256,192,73092,1,12,0:0:0:0:
256,192,73322,1,0,0:0:0:0:
256,192,73438,1,0,0:0:0:0:
256,192,73553,1,0,0:0:0:0:
256,192,73784,1,4,0:0:0:0:
256,192,74245,1,8,0:0:0:0:
256,192,74476,1,8,0:0:0:0:
256,192,74707,1,0,0:0:0:0:
256,192,74938,1,12,0:0:0:0:
256,192,75399,1,8,0:0:0:0:
256,192,75630,1,0,0:0:0:0:
256,192,75745,1,0,0:0:0:0:
256,192,75861,1,0,0:0:0:0:
256,192,76092,1,0,0:0:0:0:
256,192,76322,1,12,0:0:0:0:
256,192,76553,1,0,0:0:0:0:
256,192,76668,1,0,0:0:0:0:
256,192,76784,1,0,0:0:0:0:
256,192,77245,1,8,0:0:0:0:
256,192,77476,1,0,0:0:0:0:
256,192,77707,1,8,0:0:0:0:
256,192,77938,1,8,0:0:0:0:
256,192,78168,1,8,0:0:0:0:
256,192,78399,1,0,0:0:0:0:
256,192,78630,1,8,0:0:0:0:
256,192,79092,1,8,0:0:0:0:
256,192,79322,1,8,0:0:0:0:
256,192,79553,1,0,0:0:0:0:
256,192,80015,1,8,0:0:0:0:
256,192,80245,1,8,0:0:0:0:
256,192,80361,1,8,0:0:0:0:
256,192,80476,1,8,0:0:0:0:
256,192,80707,1,0,0:0:0:0:
256,192,80938,1,8,0:0:0:0:
256,192,81168,1,0,0:0:0:0:
256,192,81630,1,0,0:0:0:0:
256,192,81861,1,8,0:0:0:0:
256,192,82092,1,0,0:0:0:0:
256,192,82322,1,8,0:0:0:0:
256,192,82784,1,8,0:0:0:0:
256,192,83015,1,0,0:0:0:0:
256,192,83130,1,0,0:0:0:0:
256,192,83245,1,0,0:0:0:0:
256,192,83476,1,0,0:0:0:0:
256,192,83707,1,8,0:0:0:0:
256,192,83938,1,0,0:0:0:0:
256,192,84168,1,8,0:0:0:0:
256,192,84630,1,0,0:0:0:0:
256,192,85092,1,0,0:0:0:0:
256,192,85553,1,0,0:0:0:0:
256,192,86015,1,8,0:0:0:0:
256,192,86707,1,8,0:0:0:0:
256,192,86938,12,0,89246,0:0:0:0:
