osu file format v14

[General]
AudioFilename: audio.mp3
AudioLeadIn: 0
PreviewTime: 44643
Countdown: 0
SampleSet: Soft
StackLeniency: 0.5
Mode: 0
LetterboxInBreaks: 0
WidescreenStoryboard: 1

[Editor]
DistanceSpacing: 1
BeatDivisor: 8
GridSize: 8
TimelineZoom: 2.2

[Metadata]
Title:Mosaic Kakera (TV Size)
TitleUnicode:モザイクカケラ (TV Size)
Artist:SunSet Swish
ArtistUnicode:SunSet Swish
Creator:Ayayano
Version:Light Insane
Source:コードギアス 反逆のルルーシュ
Tags:Masayuki Sakamoto 坂本昌之 sony music japan SME サンセット スウィッシュ [Arc] Kazarii code geass lelouch of the rebellion hangyaku no ending anime japanese 2 second 2nd sss j-pop jpop pop passion mozaiku 佐伯 大介 Daisuke Saeki 石田 順三 Junzo Ishida 冨田 勇樹 Yu-ki Tomita
BeatmapID:4324109
BeatmapSetID:2059940

[Difficulty]
HPDrainRate:4.5
CircleSize:4
OverallDifficulty:7
ApproachRate:8
SliderMultiplier:1.8
SliderTickRate:1

[Events]
//Background and Video events
0,0,"c2test_waifu2x_art_noise1_scale.png",0,0
//Break Periods
//Storyboard Layer 0 (Background)
//Storyboard Layer 1 (Fail)
//Storyboard Layer 2 (Pass)
//Storyboard Layer 3 (Foreground)
//Storyboard Layer 4 (Overlay)
//Storyboard Sound Samples

[TimingPoints]
-760,461.538461538462,4,2,1,30,1,0
1086,-125,4,2,1,30,0,0
13086,-200,4,2,1,30,0,0
14009,-83.3333333333333,4,2,1,60,0,0
15740,-62.5,4,2,1,60,0,0
16316,-83.3333333333333,4,2,1,60,0,0
16547,-62.5,4,2,1,60,0,0
17470,-62.5,4,2,1,60,0,0
17932,-83.3333333333333,4,2,1,60,0,0
19547,-62.5,4,2,1,60,0,0
20240,-83.3333333333333,4,2,1,60,0,0
21163,-125,4,2,1,30,0,0
23240,-166.666666666667,4,2,1,40,0,0
34316,-166.666666666667,4,2,1,50,0,0
35009,-125,4,2,1,50,0,0
38009,-100,4,2,1,55,0,0
38932,-125,4,2,1,55,0,0
41701,-125,4,2,1,40,0,0
42163,-111.111111111111,4,2,1,45,0,0
42624,-125,4,2,1,50,0,0
43086,-90.9090909090909,4,2,1,55,0,0
43547,-71.4285714285714,4,2,1,65,0,0
44932,-100,4,2,1,65,0,0
45393,-62.5,4,2,1,70,0,1
45855,-71.4285714285714,4,2,1,70,0,0
58316,-71.4285714285714,4,2,1,70,0,1
58547,-71.4285714285714,4,2,1,70,0,0
58778,-71.4285714285714,4,2,1,70,0,1
59009,-62.5,4,2,1,70,0,0
59240,-62.5,4,2,1,70,0,1
59470,-62.5,4,2,1,70,0,0
59701,-62.5,4,2,1,70,0,1
59932,-62.5,4,2,1,70,0,0
60163,-62.5,4,2,1,70,0,1
60624,-71.4285714285714,4,2,1,70,0,0
71240,-55.5555555555556,4,2,1,70,0,1
71701,-71.4285714285714,4,2,1,70,0,0
72163,-71.4285714285714,4,2,1,70,0,0
73086,-71.4285714285714,4,2,1,70,0,1
73547,-71.4285714285714,4,2,1,70,0,0
73778,-71.4285714285714,4,2,1,70,0,1
74009,-71.4285714285714,4,2,1,70,0,0
74240,-71.4285714285714,4,2,1,70,0,1
74355,-71.4285714285714,4,2,1,70,0,0
74470,-71.4285714285714,4,2,1,70,0,1
74586,-71.4285714285714,4,2,1,70,0,0
74701,-71.4285714285714,4,2,1,70,0,1
74816,-71.4285714285714,4,2,1,70,0,0
74932,-62.5,4,2,1,75,0,1
75393,-55.5555555555556,4,2,1,75,0,1
75855,-71.4285714285714,4,2,1,75,0,1
84163,-83.3333333333333,4,2,1,60,0,0
84624,-100,4,2,1,60,0,0
85086,-125,4,2,1,60,0,0
86009,-166.666666666667,4,2,1,60,0,0
89240,-166.666666666667,4,2,1,5,0,0

[Colours]
Combo1 : 221,183,94
Combo2 : 123,174,102
Combo3 : 14,154,122

[HitObjects]
418,358,1086,6,0,P|411:316|408:283,1,72,2|0,0:0|0:0,0:0:0:0:
443,220,1547,1,2,0:2:0:0:
443,220,1778,1,2,0:2:0:0:
335,245,2009,2,0,P|342:202|345:167,1,72,2|0,0:0|0:0,0:0:0:0:
400,118,2470,1,2,0:0:0:0:
400,118,2701,1,2,0:0:0:0:
337,37,2932,6,0,P|293:33|207:84,1,144,2|2,0:0|0:0,0:0:0:0:
130,70,3624,1,2,0:0:0:0:
130,70,3855,2,0,P|143:120|148:147,1,72,2|2,0:0|0:0,0:0:0:0:
83,206,4316,2,0,P|72:165|64:129,1,72,2|2,0:0|0:0,0:0:0:0:
3,242,4778,6,0,P|60:238|138:303,1,144,2|2,0:0|0:0,0:0:0:0:
206,282,5470,1,2,0:0:0:0:
262,341,5701,2,0,P|283:281|293:259,1,72,2|0,0:0|0:0,0:0:0:0:
265,194,6163,1,2,0:0:0:0:
265,194,6393,1,2,0:0:0:0:
358,246,6624,5,2,0:0:0:0:
415,194,6855,1,2,0:0:0:0:
481,237,7086,1,2,0:0:0:0:
481,237,7316,1,2,0:0:0:0:
265,194,7778,2,0,P|226:205|184:214,2,72,6|2|2,0:0|0:0|0:0,0:0:0:0:
358,246,8470,6,0,P|348:203|376:92,1,144,6|2,0:0|0:0,0:0:0:0:
414,51,9163,1,2,0:0:0:0:
414,51,9393,2,0,P|378:74|254:80,1,144,2|2,0:0|0:0,0:0:0:0:
181,124,10086,5,2,0:0:0:0:
181,124,10201,1,0,3:0:0:0:
181,124,10316,2,0,P|145:96|42:82,3,144,6|2|2|2,0:0|0:0|0:0|0:0,0:0:0:0:
101,8,11932,5,0,3:0:0:0:
101,8,12047,1,0,3:0:0:0:
101,8,12163,2,0,P|114:64|145:227,1,216,6|0,0:0|0:0,0:0:0:0:
87,373,13086,2,0,P|45:356|51:271,1,135,2|0,0:0|0:0,0:0:0:0:
143,285,14009,6,0,L|152:211,1,53.9999983520508,4|8,1:0|0:3,0:0:0:0:
104,166,14240,1,12,3:0:0:0:
104,166,14355,2,0,L|21:158,1,53.9999983520508,6|8,1:2|0:3,0:0:0:0:
229,223,14586,1,12,3:3:0:0:
229,223,14701,2,0,L|300:228,1,53.9999983520508,6|8,1:2|0:3,0:0:0:0:
364,181,14932,1,12,3:0:0:0:
381,150,15047,1,8,3:0:0:0:
371,120,15163,1,4,3:0:0:0:
278,148,15393,1,12,3:0:0:0:
302,307,15624,5,0,0:0:0:0:
302,307,15740,1,4,3:0:0:0:
302,307,15855,2,0,P|383:283|503:325,1,216,6|0,1:0|0:0,0:0:0:0:
509,328,16316,2,0,P|513:289|517:258,1,53.9999983520508,10|0,0:0|0:0,0:0:0:0:
423,374,16547,2,0,P|434:294|450:139,1,216,6|0,1:0|0:0,0:0:0:0:
448,159,17009,1,2,0:0:0:0:
406,98,17240,1,10,0:0:0:0:
474,6,17470,6,0,P|395:71|317:49,1,144,6|0,1:0|0:0,0:0:0:0:
209,118,17932,2,0,P|178:78|179:54,1,53.9999983520508,2|0,0:0|0:0,0:0:0:0:
227,13,18163,2,0,P|276:55|276:137,1,107.999996704102,8|2,0:0|0:0,0:0:0:0:
222,205,18624,1,4,3:0:0:0:
222,205,18855,1,6,3:0:0:0:
161,254,19086,2,0,P|76:241|34:237,1,107.999996704102,8|0,0:0|0:0,0:0:0:0:
209,120,19547,6,0,P|293:137|366:147,2,144,6|0|10,1:0|0:0|0:0,0:0:0:0:
53,0,20240,2,0,P|7:70|26:157,1,161.999995056153,6|0,1:0|0:0,0:0:0:0:
17,143,20701,1,0,0:0:0:0:
88,190,20932,2,0,P|103:159|92:121,1,53.9999983520508,10|0,0:0|0:0,0:0:0:0:
0,264,21163,6,0,P|53:231|205:231,1,216,6|0,1:0|0:0,0:0:0:0:
437,200,22547,1,8,0:0:0:0:
398,266,22778,2,0,L|374:151,1,108,4|0,0:0|0:0,0:0:0:0:
478,72,23240,6,0,L|462:127,1,53.9999983520508,6|0,3:0|0:0,0:0:0:0:
437,200,23701,1,8,0:0:0:0:
375,160,23932,2,0,L|270:137,1,107.999996704102,6|2,3:0|0:0,0:0:0:0:
198,161,24624,1,10,0:0:0:0:
139,56,24855,1,2,0:0:0:0:
70,190,25086,5,6,3:0:0:0:
70,190,25316,1,6,3:0:0:0:
120,134,25547,1,8,0:0:0:0:
145,211,25778,2,0,L|70:224,1,53.9999983520508,6|0,3:0|0:0,0:0:0:0:
47,307,26240,1,0,0:0:0:0:
47,307,26470,2,0,L|119:291,1,53.9999983520508,8|0,0:0|0:0,0:0:0:0:
182,359,26932,6,0,L|299:382,1,107.999996704102,6|8,3:0|0:0,0:0:0:0:
351,331,27624,2,0,L|362:270,1,53.9999983520508,6|0,3:0|0:0,0:0:0:0:
316,220,28086,1,0,0:0:0:0:
316,220,28316,2,0,L|250:229,1,53.9999983520508,8|0,0:0|0:0,0:0:0:0:
434,302,28778,6,0,L|507:292,2,53.9999983520508,6|0|8,3:0|0:0|0:0,0:0:0:0:
394,367,29470,2,0,L|378:251,1,107.999996704102,6|2,3:0|0:0,0:0:0:0:
426,144,30163,1,10,0:0:0:0:
426,144,30624,6,0,L|361:130,1,53.9999983520508,6|0,3:0|0:0,0:0:0:0:
333,67,31086,1,8,0:0:0:0:
310,184,31316,2,0,L|200:205,1,107.999996704102,6|2,3:0|0:0,0:0:0:0:
141,161,32009,1,10,0:0:0:0:
92,273,32240,1,2,0:0:0:0:
68,201,32470,5,6,3:0:0:0:
68,201,32701,1,6,3:0:0:0:
174,276,32932,1,8,0:0:0:0:
134,343,33163,2,0,L|26:354,1,107.999996704102,6|0,3:0|0:0,0:0:0:0:
174,276,33855,2,0,L|240:286,1,53.9999983520508,8|0,0:0|0:0,0:0:0:0:
304,259,34316,5,6,3:0:0:0:
210,369,34547,1,2,0:0:0:0:
142,202,34778,1,2,0:0:0:0:
26,354,35009,2,0,P|50:307|51:211,1,144,2|2,0:0|0:0,0:0:0:0:
175,113,35701,1,10,0:0:0:0:
175,113,35932,1,2,0:0:0:0:
134,42,36163,6,0,P|95:81|107:125,1,72,6|0,3:0|0:0,0:0:0:0:
232,167,36624,2,0,P|280:150|306:140,1,72,10|6,0:0|3:0,0:0:0:0:
356,89,37086,1,2,0:0:0:0:
412,195,37316,1,2,0:0:0:0:
473,141,37547,1,10,0:0:0:0:
473,141,37778,1,4,3:0:0:0:
501,231,38009,6,0,P|408:239|353:321,1,180,6|8,3:0|0:0,0:0:0:0:
265,250,38701,1,6,3:0:0:0:
265,250,38932,2,0,P|206:249|146:165,1,144,2|8,0:0|0:0,0:0:0:0:
203,134,39624,1,2,0:0:0:0:
101,258,39855,6,0,P|36:273|10:282,1,72,6|0,3:0|0:0,0:0:0:0:
31,275,40201,1,0,3:0:0:0:
31,275,40316,2,0,P|46:211|52:171,1,72,8|6,0:0|3:0,0:0:0:0:
184,215,40778,2,0,P|170:267|158:328,2,108,2|2|2,0:0|0:0|0:0,0:0:0:0:
2,93,41701,6,0,L|5:128,3,36,14|2|2|2,3:0|0:0|0:0|0:0,0:0:0:0:
72,50,42163,2,0,L|77:9,3,40.4999987640381,14|2|2|2,3:0|0:0|0:0|0:0,0:0:0:0:
115,124,42624,1,14,3:0:0:0:
139,134,42739,1,2,0:0:0:0:
165,132,42854,1,2,0:0:0:0:
190,121,42970,1,2,0:0:0:0:
209,102,43085,1,14,3:0:0:0:
227,82,43200,1,2,0:0:0:0:
250,69,43316,1,2,0:0:0:0:
277,63,43431,1,2,0:0:0:0:
303,74,43547,6,0,L|369:89,1,62.9999980773926,14|0,0:0|0:0,0:0:0:0:
512,200,43778,1,4,3:0:0:0:
355,168,44009,6,0,L|416:154,1,62.9999980773926,14|0,0:0|0:0,0:0:0:0:
485,72,44240,1,4,3:0:0:0:
434,249,44470,5,14,3:0:0:0:
479,327,44701,1,2,0:0:0:0:
479,327,44816,1,8,0:0:0:0:
479,327,44932,1,10,0:0:0:0:
420,378,45163,1,14,3:0:0:0:
310,302,45393,6,0,B|215:295|258:349|147:331,1,144,6|0,1:0|0:0,0:0:0:0:
173,334,45855,2,0,P|183:298|189:265,1,62.9999980773926,10|0,0:0|0:0,0:0:0:0:
89,223,46086,2,0,P|100:170|106:148,1,62.9999980773926,2|0,3:0|0:0,0:0:0:0:
178,133,46316,1,6,3:0:0:0:
178,133,46547,1,4,3:0:0:0:
97,72,46778,2,0,P|188:89|242:51,1,125.999996154785,10|2,0:0|0:0,0:0:0:0:
247,6,47124,5,0,0:0:0:0:
247,6,47240,2,0,P|329:-5|378:20,1,125.999996154785,6|0,3:0|0:0,0:0:0:0:
366,11,47701,2,0,L|347:85,1,62.9999980773926,10|0,0:0|0:0,0:0:0:0:
444,138,47932,2,0,L|459:76,1,62.9999980773926,2|0,0:0|0:0,0:0:0:0:
364,174,48163,1,6,3:0:0:0:
364,174,48393,1,6,3:0:0:0:
422,245,48624,1,10,0:0:0:0:
304,277,48855,1,2,0:0:0:0:
354,368,49086,6,0,P|313:319|248:311,1,125.999996154785,6|0,3:0|0:0,0:0:0:0:
188,249,49432,1,0,3:0:0:0:
188,249,49547,2,0,P|155:268|141:292,1,62.9999980773926,10|0,0:0|0:0,0:0:0:0:
147,369,49778,1,2,0:0:0:0:
125,178,50009,6,0,P|110:242|153:294,1,125.999996154785,6|0,3:0|0:0,0:0:0:0:
262,222,50355,1,0,3:0:0:0:
262,222,50470,2,0,P|252:180|246:145,1,62.9999980773926,10|0,0:0|0:0,0:0:0:0:
343,130,50701,2,0,P|335:94|327:53,1,62.9999980773926,2|0,0:0|0:0,0:0:0:0:
260,24,50932,5,6,3:0:0:0:
260,24,51163,1,2,0:0:0:0:
406,73,51393,1,10,0:0:0:0:
249,160,51624,1,2,0:0:0:0:
314,113,51855,1,4,3:0:0:0:
314,113,52086,1,6,3:0:0:0:
390,204,52316,1,10,0:0:0:0:
348,309,52547,1,2,0:0:0:0:
236,351,52778,6,0,B|202:270|251:306|202:206,1,125.999996154785,6|0,3:0|0:0,0:0:0:0:
212,229,53240,2,0,P|173:242|138:259,1,62.9999980773926,10|0,0:0|0:0,0:0:0:0:
30,217,53470,2,0,P|60:207|88:195,1,62.9999980773926,2|0,0:0|0:0,0:0:0:0:
122,125,53701,1,6,3:0:0:0:
122,125,53932,1,4,3:0:0:0:
27,29,54163,2,0,P|6:91|52:137,1,125.999996154785,10|2,0:0|0:0,0:0:0:0:
88,195,54509,5,0,0:0:0:0:
88,195,54624,2,0,P|152:217|212:260,1,125.999996154785,6|2,3:0|0:0,0:0:0:0:
346,179,55086,2,0,L|318:335,1,125.999996154785,10|0,0:0|3:0,0:0:0:0:
256,343,55432,1,0,3:0:0:0:
256,343,55547,1,6,3:0:0:0:
323,303,55778,1,4,3:0:0:0:
244,182,56009,1,10,0:0:0:0:
443,319,56470,6,0,B|376:336|409:371|305:390,1,125.999996154785,6|0,3:0|0:0,0:0:0:0:
336,382,56932,2,0,L|354:301,1,62.9999980773926,10|0,0:0|0:0,0:0:0:0:
247,257,57163,2,0,L|262:182,1,62.9999980773926,2|0,0:0|0:0,0:0:0:0:
177,288,57393,1,6,3:0:0:0:
177,288,57624,1,4,3:0:0:0:
115,229,57855,2,0,P|119:160|151:101,1,125.999996154785,8|0,0:0|0:0,0:0:0:0:
0,321,58316,6,0,P|9:351|15:381,1,62.9999980773926,6|0,2:0|0:0,0:0:0:0:
101,364,58547,5,0,3:0:0:0:
101,364,58663,1,8,0:0:0:0:
101,364,58778,2,0,P|91:333|85:303,1,62.9999980773926,6|0,0:0|0:0,0:0:0:0:
201,216,59009,5,0,3:0:0:0:
201,216,59124,1,8,0:0:0:0:
201,216,59240,2,0,P|210:186|218:144,1,72,6|0,0:0|0:0,0:0:0:0:
302,179,59470,21,10,0:0:0:0:
302,179,59547,5,8,0:0:0:0:
302,179,59624,21,8,0:0:0:0:
302,179,59702,22,0,P|291:209|284:250,1,72,14|0,0:0|0:0,0:0:0:0:
379,358,59932,5,10,0:0:0:0:
379,358,60009,21,8,0:0:0:0:
379,358,60086,5,8,0:0:0:0:
379,358,60163,6,0,B|389:266|420:311|424:210,1,144,6|0,1:0|0:0,0:0:0:0:
423,223,60624,2,0,P|460:237|505:258,1,62.9999980773926,10|0,0:0|0:0,0:0:0:0:
362,121,60855,2,0,P|393:133|421:142,1,62.9999980773926,2|0,0:0|0:0,0:0:0:0:
488,103,61086,1,6,3:0:0:0:
488,103,61316,1,4,3:0:0:0:
405,12,61547,2,0,P|344:26|264:38,1,125.999996154785,10|2,0:0|0:0,0:0:0:0:
230,96,61893,5,0,0:0:0:0:
230,96,62009,2,0,P|161:63|93:50,1,125.999996154785,6|0,3:0|0:0,0:0:0:0:
113,52,62470,2,0,P|96:91|87:124,1,62.9999980773926,10|0,0:0|0:0,0:0:0:0:
13,162,62701,2,0,P|31:213|35:236,1,62.9999980773926,2|0,0:0|0:0,0:0:0:0:
108,256,62932,1,6,3:0:0:0:
108,256,63163,1,2,0:0:0:0:
56,384,63393,1,10,0:0:0:0:
56,384,63624,1,2,0:0:0:0:
2,316,63855,6,0,P|61:290|128:308,1,125.999996154785,6|0,3:0|0:0,0:0:0:0:
188,260,64201,1,0,3:0:0:0:
188,260,64316,2,0,P|221:289|226:317,1,62.9999980773926,10|0,0:0|0:0,0:0:0:0:
199,381,64547,1,2,0:0:0:0:
249,193,64778,6,0,P|250:276|196:319,1,125.999996154785,6|0,3:0|0:0,0:0:0:0:
118,222,65124,1,0,3:0:0:0:
118,222,65240,2,0,P|125:181|130:154,1,62.9999980773926,10|0,0:0|0:0,0:0:0:0:
40,127,65470,2,0,P|47:92|52:59,1,62.9999980773926,2|0,0:0|0:0,0:0:0:0:
134,40,65701,5,6,3:0:0:0:
134,40,65932,1,2,0:0:0:0:
31,209,66163,1,10,0:0:0:0:
128,159,66393,1,2,0:0:0:0:
194,212,66624,1,4,3:0:0:0:
194,212,66855,1,6,3:0:0:0:
257,167,67086,1,10,0:0:0:0:
354,236,67316,1,2,0:0:0:0:
464,143,67547,6,0,P|479:75|431:25,1,125.999996154785,6|0,3:0|0:0,0:0:0:0:
447,33,68009,2,0,P|397:47|366:52,1,62.9999980773926,10|0,0:0|0:0,0:0:0:0:
276,85,68240,2,0,P|208:62|171:57,1,62.9999980773926,2|0,0:0|0:0,0:0:0:0:
176,1,68470,1,6,3:0:0:0:
176,1,68701,1,4,3:0:0:0:
217,146,68932,1,10,0:0:0:0:
315,8,69163,1,2,0:0:0:0:
142,99,69393,6,0,P|133:179|178:218,1,125.999996154785,6|0,3:0|0:0,0:0:0:0:
118,273,69740,1,0,0:0:0:0:
118,273,69855,2,0,P|189:249|283:240,1,125.999996154785,10|0,0:0|0:0,0:0:0:0:
424,232,70316,2,0,P|379:219|358:211,1,62.9999980773926,6|0,3:0|0:0,0:0:0:0:
252,312,70547,2,0,P|297:302|320:299,1,62.9999980773926,4|0,3:0|0:0,0:0:0:0:
360,365,70778,1,10,0:0:0:0:
345,100,71240,6,0,B|353:53|300:36|300:36|245:72|242:152|325:194,1,242.999992584229,6|0,1:0|0:0,0:0:0:0:
289,169,71701,2,0,P|258:158|210:152,1,62.9999980773926,8|0,0:3|0:3,0:3:0:0:
175,210,71932,2,0,P|123:223|106:226,1,62.9999980773926,2|0,0:3|0:3,0:3:0:0:
53,181,72163,1,6,3:0:0:0:
53,181,72393,1,6,3:0:0:0:
164,290,72624,1,8,0:0:0:0:
45,373,72855,1,2,0:0:0:0:
92,257,73086,5,12,0:0:0:0:
131,367,73316,1,8,3:0:0:0:
131,367,73547,1,4,3:0:0:0:
260,194,73778,5,14,0:0:0:0:
239,268,74009,1,4,3:0:0:0:
146,63,74240,5,10,0:0:0:0:
344,156,74470,5,10,0:0:0:0:
164,290,74701,5,10,0:0:0:0:
260,194,74932,6,0,P|321:245|320:320,1,144,6|0,1:0|0:0,0:0:0:0:
76,184,75393,2,0,P|53:103|28:18,1,161.999995056153,14|0,0:0|0:0,0:0:0:0:
164,290,75855,1,6,3:0:0:0:
164,290,76086,1,4,3:0:0:0:
108,352,76316,2,0,P|124:275|145:222,1,125.999996154785,14|0,0:0|0:0,0:0:0:0:
156,131,76663,5,8,3:0:0:0:
156,131,76778,2,0,P|172:209|197:260,1,125.999996154785,6|0,3:0|0:0,0:0:0:0:
191,250,77240,2,0,P|241:259|271:268,1,62.9999980773926,10|0,0:0|0:0,0:0:0:0:
335,217,77470,2,0,P|386:230|403:234,1,62.9999980773926,10|0,3:0|0:0,0:0:0:0:
453,295,77701,1,6,3:0:0:0:
453,295,77932,1,6,3:0:0:0:
334,341,78163,1,10,0:0:0:0:
434,166,78393,1,6,3:0:0:0:
507,365,78624,6,0,P|442:314|382:307,1,125.999996154785,6|0,3:0|0:0,0:0:0:0:
361,243,78970,1,4,3:0:0:0:
361,243,79086,2,0,L|350:170,1,62.9999980773926,10|0,0:0|0:0,0:0:0:0:
249,299,79316,2,0,L|260:367,1,62.9999980773926,10|0,3:0|0:0,0:0:0:0:
334,341,79547,1,6,3:0:0:0:
334,341,79778,1,4,3:0:0:0:
228,213,80009,1,10,0:0:0:0:
157,346,80240,1,10,3:0:0:0:
249,299,80470,5,6,3:0:0:0:
249,299,80701,1,6,3:0:0:0:
139,184,80932,1,10,0:0:0:0:
310,139,81163,1,10,3:0:0:0:
228,213,81393,1,4,3:0:0:0:
228,213,81624,1,6,3:0:0:0:
194,128,81855,2,0,P|179:48|179:-11,1,125.999996154785,10|10,0:0|3:0,0:0:0:0:
259,8,82201,5,0,0:0:0:0:
259,8,82316,2,0,P|335:25|400:39,1,125.999996154785,6|0,3:0|0:0,0:0:0:0:
146,48,82778,2,0,P|70:31|5:17,1,125.999996154785,10|10,0:0|3:0,0:0:0:0:
0,94,83124,1,0,0:0:0:0:
0,94,83240,1,6,3:0:0:0:
71,175,83470,1,4,3:0:0:0:
0,244,83701,1,10,0:0:0:0:
74,67,83932,1,14,3:0:0:0:
171,293,84163,5,2,3:0:0:0:
171,293,84624,1,2,0:0:0:0:
125,230,85086,5,2,0:0:0:0:
183,155,85547,5,2,0:0:0:0:
74,67,86009,5,2,0:0:0:0:
256,192,86124,12,0,89240,0:0:0:0:
