osu file format v14

[General]
AudioFilename: audio.mp3
AudioLeadIn: 0
PreviewTime: 108135
Countdown: 0
SampleSet: Soft
StackLeniency: 0.6
Mode: 0
LetterboxInBreaks: 0
SkinPreference:-+Seouless'+v7+16-9
WidescreenStoryboard: 0

[Editor]
Bookmarks: 49981,175520,265981
DistanceSpacing: 1.8
BeatDivisor: 4
GridSize: 32
TimelineZoom: 1.9

[Metadata]
Title:Mosaic Kakera
TitleUnicode:Mosaic Kakera
Artist:SunSet Swish
ArtistUnicode:SunSet Swish
Creator:SquareTude
Version:Secret Weapon
Source:Code Geass: Lelouch of the Rebellion
Tags:
BeatmapID:2040109
BeatmapSetID:974659

[Difficulty]
HPDrainRate:5
CircleSize:3.8
OverallDifficulty:8.8
ApproachRate:9
SliderMultiplier:1.6
SliderTickRate:1

[Events]
//Background and Video events
0,0,"thumb-1920-457869.jpg",0,0
//Break Periods
2,160489,174620
//Storyboard Layer 0 (Background)
//Storyboard Layer 1 (Fail)
//Storyboard Layer 2 (Pass)
//Storyboard Layer 3 (Foreground)
//Storyboard Sound Samples

[TimingPoints]
5674,461.538461538462,4,2,2,45,1,0
17674,-133.333333333333,4,2,2,45,0,0
18597,-100,4,2,2,60,0,0
19520,-100,4,3,4,60,0,0
19750,-100,4,3,3,60,0,0
20443,-100,4,2,1,60,0,0
25750,-200,4,2,1,60,0,0
26904,-200,4,2,2,60,0,0
27827,-133.333333333333,4,2,2,60,0,0
49058,-100,4,3,4,60,0,0
49289,-100,4,2,2,60,0,0
49981,-80,4,2,1,60,0,1
64058,-80,4,3,3,60,0,1
64750,-80,4,2,1,60,0,1
78712,-100,4,2,2,60,0,0
79520,-100,4,2,1,60,0,0
84827,-133.333333333333,4,2,1,60,0,0
85981,-133.333333333333,4,2,2,60,0,0
109058,-80,4,2,1,60,0,1
137674,-80,4,3,3,60,0,1
138135,-80,4,2,1,60,0,1
138366,-80,4,3,3,60,0,1
138597,-80,4,2,1,60,0,1
152674,-80,4,3,3,60,0,1
153366,-200,4,2,2,60,0,0
154058,-153.846153846154,4,2,2,60,0,0
154750,-500,4,2,2,60,0,0
157058,-200,4,2,2,60,0,0
157750,-153.846153846154,4,2,2,60,0,0
158443,-333.333333333333,4,2,2,60,0,0
175520,-222.222222222222,4,2,2,60,0,0
186597,-133.333333333333,4,2,2,60,0,0
188674,-285.714285714286,4,2,1,60,0,0
190404,-133.333333333333,4,2,2,60,0,0
192135,-80,4,2,1,60,0,1
220058,-80,4,3,4,60,0,1
220289,-80,4,2,1,60,0,1
220520,-80,4,3,4,60,0,1
220750,-80,4,2,1,60,0,1
220981,-80,4,3,3,60,0,1
221674,-80,4,2,1,60,0,1
250289,-80,4,3,3,60,0,1
250520,-80,4,2,2,60,0,1
250750,-80,4,3,3,60,0,1
250866,-80,4,2,2,60,0,1
250981,-80,4,3,3,60,0,1
251212,-80,4,2,1,60,0,0

[Colours]
Combo1 : 191,0,96
Combo2 : 0,96,191
Combo3 : 191,0,0
Combo4 : 96,0,191

[HitObjects]
256,192,1058,12,0,4520,0:0:0:0:
422,42,4981,5,0,0:0:0:0:
422,42,5212,1,0,0:0:0:0:
422,42,5443,1,0,0:0:0:0:
422,42,5674,2,0,P|396:82|381:122,1,80,2|0,0:0|0:0,0:0:0:0:
281,24,6135,5,0,0:0:0:0:
221,109,6366,1,0,0:0:0:0:
286,194,6597,2,0,P|310:238|326:278,1,80,2|0,0:0|0:0,0:0:0:0:
188,337,7058,5,0,0:0:0:0:
286,373,7289,1,0,0:0:0:0:
176,311,7520,2,0,P|153:299|79:292,1,80,2|0,0:0|0:0,0:0:0:0:
197,183,7981,5,0,0:0:0:0:
101,208,8212,1,0,0:0:0:0:
31,95,8443,1,2,0:0:0:0:
127,120,8674,1,0,0:0:0:0:
141,12,8904,1,2,0:0:0:0:
57,71,9135,1,0,0:0:0:0:
25,172,9366,6,0,P|20:231|47:343,1,160,2|0,0:0|0:0,0:0:0:0:
141,231,10058,1,0,0:0:0:0:
201,321,10289,2,0,P|238:346|299:352,1,80,2|0,0:0|0:0,0:0:0:0:
411,276,10750,5,0,0:0:0:0:
311,281,10981,1,0,0:0:0:0:
406,362,11212,1,2,0:0:0:0:
456,268,11443,1,0,0:0:0:0:
382,195,11674,1,2,0:0:0:0:
415,97,11904,2,0,P|451:64|492:50,1,80,2|0,0:0|0:0,0:0:0:0:
341,3,12366,5,0,0:0:0:0:
341,3,12597,1,2,0:0:0:0:
341,3,12827,1,0,0:0:0:0:
341,3,13058,2,0,P|299:23|241:21,1,80,2|0,0:0|0:0,0:0:0:0:
108,106,13520,5,0,0:0:0:0:
170,3,13750,1,0,0:0:0:0:
132,122,13981,2,0,P|128:183|137:237,1,80,2|0,0:0|0:0,0:0:0:0:
324,91,14443,5,0,0:0:0:0:
225,111,14674,1,0,0:0:0:0:
337,208,14904,2,0,L|336:113,1,80,2|0,0:0|0:0,0:0:0:0:
216,224,15366,2,0,L|216:144,1,80,0|0,0:0|0:0,0:0:0:0:
412,121,15827,6,0,P|363:134|317:117,1,80,2|0,0:0|0:0,0:0:0:0:
188,58,16289,2,0,P|227:51|264:64,1,80,0|0,0:0|0:0,0:0:0:0:
100,145,16750,6,0,B|67:181|67:181|95:319,1,160,2|0,0:0|0:0,0:0:0:0:
323,231,17443,1,0,0:0:0:0:
323,231,17674,2,0,P|271:205|216:224,1,120.000004577637,2|0,0:0|0:0,0:0:0:0:
215,11,18597,6,0,L|205:109,1,80,4|0,0:1|0:0,0:0:0:0:
193,132,18943,1,4,0:0:0:0:
193,132,19058,2,0,L|200:201,1,40,0|0,0:0|0:0,0:0:0:0:
213,267,19289,1,4,0:0:0:0:
109,183,19520,5,0,0:0:0:0:
83,168,19635,1,0,0:0:0:0:
53,164,19750,1,0,0:0:0:0:
24,171,19866,1,0,0:0:0:0:
0,188,19981,1,0,0:0:0:0:
12,316,20212,1,0,0:0:0:0:
12,316,20327,1,0,0:0:0:0:
12,316,20443,5,4,0:1:0:0:
160,261,20674,1,2,0:3:0:0:
39,321,20904,1,8,0:0:0:0:
180,353,21135,6,0,B|255:327|255:327|357:353,1,160,4|2,0:0|0:3,0:0:0:0:
437,119,21827,1,8,0:0:0:0:
437,119,22058,6,0,P|403:190|430:264,1,160,4|2,0:1|0:3,0:0:0:0:
361,42,22750,1,8,0:0:0:0:
283,171,22981,1,0,0:0:0:0:
216,22,23212,1,2,0:3:0:0:
216,22,23443,1,2,0:3:0:0:
367,80,23674,1,10,0:0:0:0:
196,123,23904,1,2,0:3:0:0:
196,123,24020,1,2,0:3:0:0:
196,123,24135,6,0,L|104:118,1,80,4|0,0:1|0:0,0:0:0:0:
245,230,24597,1,8,0:0:0:0:
245,230,24827,6,0,L|72:242,1,160,4|2,0:0|0:3,0:0:0:0:
294,357,25520,1,8,0:0:0:0:
294,357,25750,6,0,B|251:369|211:350|211:350|188:353|171:366|171:366|126:343|88:349,1,200,4|2,0:3|0:0,0:0:0:0:
26,298,27135,1,8,0:3:0:0:
68,220,27366,1,0,0:0:0:0:
68,220,27597,1,0,0:0:0:0:
22,76,27827,6,0,L|22:149,1,60.0000022888184,8|0,0:0|0:0,0:0:0:0:
110,51,28289,1,8,0:3:0:0:
110,51,28520,2,0,P|149:44|194:49,1,60.0000022888184,10|0,0:0|0:0,0:0:0:0:
251,106,28981,1,0,0:0:0:0:
344,64,29212,1,8,0:3:0:0:
430,114,29443,1,0,0:0:0:0:
430,114,29674,6,0,L|426:178,1,60.0000022888184,8|0,0:0|0:0,0:0:0:0:
362,291,30135,1,8,0:3:0:0:
362,291,30366,2,0,L|358:227,1,60.0000022888184,10|0,0:0|0:0,0:0:0:0:
444,333,30827,1,0,0:0:0:0:
364,384,31058,1,8,0:3:0:0:
273,323,31289,1,2,0:0:0:0:
273,323,31520,6,0,P|230:307|163:300,1,90.0000034332277,8|0,0:0|0:0,0:0:0:0:
112,283,31981,1,8,0:3:0:0:
112,283,32212,2,0,P|141:278|168:265,1,60.0000022888184,10|0,0:0|0:0,0:0:0:0:
220,189,32674,1,0,0:0:0:0:
169,103,32904,1,8,0:3:0:0:
231,16,33135,1,0,0:0:0:0:
231,16,33366,6,0,L|317:15,1,60.0000022888184,8|0,0:0|0:0,0:0:0:0:
87,66,33827,1,8,0:3:0:0:
87,66,34058,2,0,L|173:65,1,60.0000022888184,10|0,0:0|0:0,0:0:0:0:
14,0,34520,1,0,0:0:0:0:
14,0,34750,1,8,0:3:0:0:
14,0,34981,1,2,0:0:0:0:
15,126,35212,6,0,L|22:204,1,60.0000022888184,8|0,0:0|0:0,0:0:0:0:
147,134,35674,1,8,0:3:0:0:
147,134,35904,2,0,P|91:110|68:113,1,60.0000022888184,8|0,0:0|0:0,0:0:0:0:
20,185,36366,1,0,0:0:0:0:
76,275,36597,1,8,0:3:0:0:
42,371,36827,1,0,0:0:0:0:
42,371,37058,6,0,P|90:350|123:348,1,60.0000022888184,8|0,0:0|0:0,0:0:0:0:
188,261,37520,1,8,0:3:0:0:
188,261,37751,2,0,P|209:309|211:342,1,60.0000022888184,8|0,0:0|0:0,0:0:0:0:
110,195,38212,1,0,0:0:0:0:
203,165,38443,1,8,0:3:0:0:
279,232,38674,1,0,0:0:0:0:
279,232,38904,5,10,0:0:0:0:
202,126,39135,1,0,0:0:0:0:
188,261,39366,1,8,0:3:0:0:
306,197,39597,2,0,P|345:182|373:184,1,60.0000022888184,10|0,0:0|0:0,0:0:0:0:
454,217,40058,1,0,0:0:0:0:
493,131,40289,1,8,0:3:0:0:
402,38,40520,1,2,0:0:0:0:
402,38,40750,6,0,L|405:120,1,60.0000022888184,8|0,0:0|0:0,0:0:0:0:
287,18,41212,2,0,L|284:100,1,60.0000022888184,8|8,0:3|0:0,0:0:0:0:
144,19,41674,2,0,P|198:0|229:1,1,60.0000022888184,2|0,0:0|0:0,0:0:0:0:
217,144,42135,2,0,P|187:137|160:124,1,60.0000022888184,8|0,0:3|0:0,0:0:0:0:
284,77,42597,6,0,B|308:103|308:103|300:208,1,120.000004577637,10|8,0:0|0:3,0:0:0:0:
254,282,43289,1,10,0:0:0:0:
254,282,43520,2,0,P|222:250|132:250,1,120.000004577637,2|8,0:0|0:3,0:0:0:0:
66,297,44212,1,0,0:0:0:0:
66,297,44443,6,0,P|55:259|55:224,1,60.0000022888184,10|0,0:0|0:0,0:0:0:0:
69,207,44789,2,0,P|80:169|80:134,1,60.0000022888184,2|0,0:0|0:0,0:0:0:0:
71,121,45135,1,8,0:3:0:0:
164,32,45366,2,0,L|242:39,1,60.0000022888184,2|0,0:0|0:0,0:0:0:0:
257,59,45712,2,0,L|316:53,1,60.0000022888184,2|0,0:0|0:0,0:0:0:0:
352,64,46058,1,8,0:3:0:0:
220,175,46289,5,2,0:3:0:0:
385,218,46520,1,0,0:0:0:0:
266,93,46750,1,2,0:3:0:0:
301,269,46981,1,0,0:0:0:0:
352,64,47212,5,2,0:3:0:0:
139,179,47443,1,0,0:0:0:0:
363,347,47674,1,2,0:3:0:0:
256,65,47904,1,0,0:0:0:0:
206,360,48135,5,10,0:0:0:0:
333,32,48366,1,0,0:0:0:0:
372,375,48597,5,10,0:0:0:0:
243,33,48828,1,0,0:0:0:0:
38,155,49058,6,0,P|51:117|74:84,1,80,0|0,0:0|0:0,0:0:0:0:
131,220,49404,1,8,0:1:0:0:
131,220,49520,2,0,P|144:274|142:286,1,40,8|0,0:1|0:0,0:0:0:0:
115,373,49750,1,8,0:0:0:0:
115,373,49866,1,0,0:0:0:0:
115,373,49981,6,0,P|158:344|218:353,1,100,6|0,0:1|0:0,0:0:0:0:
382,384,50443,5,8,0:1:0:0:
239,258,50674,1,0,0:0:0:0:
412,176,50904,1,2,0:1:0:0:
412,176,51020,1,0,0:0:0:0:
412,176,51135,1,2,0:1:0:0:
288,350,51366,5,8,0:1:0:0:
302,180,51597,1,0,0:0:0:0:
415,378,51827,2,0,L|413:269,1,100,2|0,0:1|0:0,0:0:0:0:
308,66,52289,5,8,0:1:0:0:
217,228,52520,1,0,0:0:0:0:
216,47,52750,1,2,0:1:0:0:
318,262,52981,1,2,0:1:0:0:
328,24,53212,1,8,0:1:0:0:
201,262,53443,1,0,0:0:0:0:
201,262,53558,1,0,0:0:0:0:
201,262,53674,6,0,P|146:297|47:270,1,150,2|0,0:1|0:0,0:0:0:0:
40,255,54135,1,8,0:1:0:0:
247,363,54366,1,0,0:0:0:0:
247,363,54481,1,0,0:0:0:0:
247,363,54597,1,2,0:1:0:0:
123,200,54827,1,2,0:1:0:0:
30,384,55058,5,8,0:1:0:0:
197,270,55289,1,0,0:0:0:0:
22,172,55520,1,2,0:1:0:0:
116,344,55750,1,2,0:0:0:0:
175,122,55981,1,8,0:1:0:0:
39,289,56212,2,0,P|20:346|43:403,1,100,2|2,0:0|0:1,0:0:0:0:
247,363,56674,5,2,0:1:0:0:
197,270,56904,1,8,0:1:0:0:
242,146,57135,1,0,0:0:0:0:
150,0,57366,2,0,L|153:111,1,100,2|0,0:1|0:0,0:0:0:0:
192,241,57827,1,8,0:1:0:0:
329,38,58058,1,0,0:0:0:0:
329,38,58174,1,0,0:0:0:0:
329,38,58289,2,0,P|270:38|223:70,1,100,2|2,0:1|0:1,0:0:0:0:
174,266,58750,5,8,0:1:0:0:
297,140,58981,1,0,0:0:0:0:
320,285,59212,2,0,L|312:389,1,100,2|0,0:1|0:0,0:0:0:0:
410,174,59674,2,0,L|310:166,1,100,8|0,0:1|0:0,0:0:0:0:
496,267,60135,6,0,L|503:167,1,100,2|2,0:1|0:1,0:0:0:0:
413,366,60597,2,0,L|512:373,1,100,8|0,0:1|0:0,0:0:0:0:
296,292,61058,6,0,B|255:278|226:290|226:290|210:304|210:304|173:316|110:298,1,150,2|0,0:1|0:0,0:0:0:0:
109,287,61520,2,0,P|113:237|140:196,1,100,8|0,0:1|0:0,0:0:0:0:
191,173,61866,1,0,0:0:0:0:
191,173,61981,2,0,P|186:123|159:82,1,100,2|2,0:1|0:1,0:0:0:0:
208,270,62443,1,8,0:1:0:0:
97,168,62674,1,0,0:0:0:0:
109,379,62904,5,4,0:0:0:0:
206,133,63135,1,0,0:0:0:0:
289,384,63366,5,4,0:0:0:0:
43,287,63597,1,0,0:0:0:0:
311,226,63827,5,0,0:0:0:0:
86,290,64058,1,0,0:0:0:0:
86,290,64174,1,0,0:0:0:0:
86,290,64289,1,0,0:0:0:0:
358,312,64520,5,0,0:0:0:0:
382,316,64635,1,0,0:0:0:0:
407,314,64750,2,0,P|421:261|406:213,1,100,4|0,0:0|0:0,0:0:0:0:
246,81,65212,5,8,0:1:0:0:
322,264,65443,1,0,0:0:0:0:
168,131,65674,2,0,P|154:78|169:30,1,100,2|2,0:1|0:1,0:0:0:0:
180,277,66135,5,8,0:1:0:0:
324,155,66366,1,0,0:0:0:0:
140,280,66597,2,0,L|34:275,1,100,2|0,0:1|0:0,0:0:0:0:
139,132,67058,5,8,0:1:0:0:
358,197,67289,1,0,0:0:0:0:
358,197,67404,1,0,0:0:0:0:
358,197,67520,1,2,0:1:0:0:
223,340,67751,1,2,0:1:0:0:
351,105,67981,1,8,0:1:0:0:
385,345,68212,1,0,0:0:0:0:
270,142,68443,6,0,P|261:92|285:42,1,100,2|0,0:1|0:0,0:0:0:0:
434,229,68904,1,8,0:1:0:0:
217,231,69135,1,0,0:0:0:0:
399,318,69366,6,0,P|449:327|499:303,1,100,2|2,0:1|0:1,0:0:0:0:
351,105,69827,1,8,0:1:0:0:
291,313,70058,1,0,0:0:0:0:
291,313,70174,1,0,0:0:0:0:
291,313,70289,5,2,0:1:0:0:
220,97,70520,1,2,0:0:0:0:
434,229,70750,1,8,0:1:0:0:
171,326,70981,1,2,0:0:0:0:
171,326,71097,1,0,0:0:0:0:
171,326,71212,1,2,0:1:0:0:
330,143,71443,5,2,0:1:0:0:
353,384,71674,1,8,0:1:0:0:
234,194,71904,1,0,0:0:0:0:
95,384,72135,2,0,P|74:318|92:268,1,100,2|0,0:1|0:0,0:0:0:0:
201,119,72597,5,8,0:1:0:0:
171,326,72827,1,0,0:0:0:0:
267,179,73058,2,0,P|288:113|270:63,1,100,2|2,0:1|0:1,0:0:0:0:
46,211,73520,5,8,0:1:0:0:
261,274,73750,1,0,0:0:0:0:
73,89,73981,2,0,B|59:137|59:137|75:194,1,100,2|0,0:1|0:0,0:0:0:0:
270,41,74443,2,0,B|284:89|284:89|270:137,1,100,8|0,0:1|0:0,0:0:0:0:
94,0,74904,6,0,B|142:-14|142:-14|190:-1,1,100,2|2,0:1|0:1,0:0:0:0:
259,235,75366,2,0,B|210:248|210:248|162:234,1,100,8|0,0:1|0:0,0:0:0:0:
373,55,75827,2,0,B|415:101|415:101|399:259,1,200,2|8,0:1|0:1,0:0:0:0:
148,272,76520,1,0,0:0:0:0:
148,272,76750,6,0,P|188:228|322:277,1,200,2|8,0:1|0:1,0:0:0:0:
369,376,77443,1,2,0:0:0:0:
369,376,77558,1,2,0:0:0:0:
369,376,77674,6,0,P|310:352|240:357,1,100,2|0,0:0|0:0,0:0:0:0:
239,346,78020,2,0,P|180:370|110:365,1,100,2|0,0:0|0:0,0:0:0:0:
108,363,78366,2,0,P|84:304|89:234,1,100,2|0,0:0|0:0,0:0:0:0:
100,236,78712,6,0,P|111:190|110:148,1,80,8|0,0:0|0:0,0:0:0:0:
130,119,79058,2,0,P|145:155|168:188,1,80,8|0,0:0|0:0,0:0:0:0:
197,218,79404,1,0,0:0:0:0:
197,218,79520,5,4,0:1:0:0:
186,30,79750,1,2,0:3:0:0:
276,273,79981,1,8,0:0:0:0:
389,67,80212,6,0,B|352:103|352:103|371:234,1,160,4|2,0:0|0:3,0:0:0:0:
485,363,80904,1,8,0:0:0:0:
485,363,81135,6,0,P|398:308|319:341,1,160,4|2,0:1|0:3,0:0:0:0:
245,373,81827,1,8,0:0:0:0:
123,329,82058,1,0,0:0:0:0:
255,214,82289,1,2,0:3:0:0:
255,214,82520,1,2,0:3:0:0:
86,324,82750,1,8,0:0:0:0:
283,384,82981,1,2,0:3:0:0:
283,384,83097,1,2,0:3:0:0:
283,384,83212,6,0,L|288:280,1,80,4|2,0:1|0:3,0:0:0:0:
151,135,83674,1,8,0:0:0:0:
151,135,83904,6,0,L|154:214,1,80,4|0,0:0|0:0,0:0:0:0:
321,130,84366,1,2,0:3:0:0:
219,36,84597,1,8,0:0:0:0:
271,216,84827,6,0,P|336:228|359:41,1,300.000011444092,4|0,0:3|0:0,0:0:0:0:
285,46,86212,1,8,0:3:0:0:
321,130,86443,1,2,0:0:0:0:
275,214,86674,1,0,0:0:0:0:
275,214,86789,1,0,0:0:0:0:
275,214,86904,6,0,P|253:258|250:286,1,60.0000022888184,8|0,0:0|0:0,0:0:0:0:
186,353,87366,1,8,0:3:0:0:
186,353,87597,2,0,P|177:324|162:298,1,60.0000022888184,10|0,0:0|0:0,0:0:0:0:
62,273,88058,1,0,0:0:0:0:
120,204,88289,1,8,0:3:0:0:
64,133,88520,1,0,0:0:0:0:
64,133,88750,6,0,P|55:95|57:71,1,60.0000022888184,8|0,0:0|0:0,0:0:0:0:
129,21,89212,1,8,0:3:0:0:
129,21,89442,2,0,P|167:12|191:14,1,60.0000022888184,10|0,0:0|0:0,0:0:0:0:
247,83,89904,1,0,0:0:0:0:
305,160,90135,1,8,0:3:0:0:
366,77,90366,1,2,0:0:0:0:
366,77,90597,6,0,P|397:65|479:86,1,120.000004577637,8|8,0:0|0:3,0:0:0:0:
445,262,91289,2,0,B|413:243|413:243|419:152,1,120.000004577637,10|0,0:0|0:0,0:0:0:0:
511,334,91981,1,8,0:3:0:0:
428,369,92212,1,0,0:0:0:0:
349,316,92443,1,8,0:0:0:0:
269,359,92674,5,2,0:0:0:0:
269,359,92904,1,8,0:3:0:0:
163,273,93135,5,10,0:0:0:0:
163,273,93365,1,0,0:0:0:0:
130,127,93597,5,2,0:0:0:0:
130,127,93827,1,8,0:3:0:0:
172,6,94058,5,2,0:0:0:0:
172,6,94288,1,8,0:0:0:0:
228,202,95674,1,8,0:3:0:0:
182,124,95904,1,0,0:0:0:0:
182,124,96135,6,0,P|151:110|120:110,1,60.0000022888184,8|0,0:0|0:0,0:0:0:0:
52,162,96597,1,8,0:3:0:0:
119,300,96827,1,8,0:0:0:0:
119,300,96943,1,0,0:0:0:0:
119,300,97058,2,0,P|126:337|130:372,1,60.0000022888184,0|0,0:0|0:0,0:0:0:0:
193,234,97520,1,8,0:3:0:0:
270,297,97750,1,0,0:0:0:0:
270,297,97981,5,10,0:0:0:0:
188,127,98212,1,0,0:0:0:0:
119,300,98443,1,8,0:3:0:0:
267,169,98674,2,0,P|277:123|238:53,1,120.000004577637,10|0,0:0|0:0,0:0:0:0:
76,169,99366,1,8,0:3:0:0:
76,169,99597,6,0,P|118:188|154:179,1,60.0000022888184,2|8,0:0|0:0,0:0:0:0:
192,122,100058,1,0,0:0:0:0:
267,171,100289,1,8,0:3:0:0:
267,171,100520,2,0,P|300:175|340:165,1,60.0000022888184,8|2,0:0|0:0,0:0:0:0:
400,119,100981,1,0,0:0:0:0:
400,119,101212,2,0,L|402:45,1,60.0000022888184,8|0,0:3|0:0,0:0:0:0:
475,229,101674,6,0,L|483:360,1,120.000004577637,10|8,0:0|0:3,0:0:0:0:
355,216,102366,1,10,0:0:0:0:
355,216,102597,6,0,L|349:352,1,120.000004577637,2|8,0:0|0:3,0:0:0:0:
254,150,103289,1,0,0:0:0:0:
254,150,103520,6,0,L|244:237,1,60.0000022888184,10|0,0:0|0:0,0:0:0:0:
272,243,103866,2,0,L|282:330,1,60.0000022888184,2|0,0:0|0:0,0:0:0:0:
263,342,104212,1,8,0:3:0:0:
133,313,104443,2,0,P|91:307|58:314,1,60.0000022888184,2|0,0:0|0:0,0:0:0:0:
39,285,104789,2,0,P|36:255|42:225,1,60.0000022888184,2|0,0:0|0:0,0:0:0:0:
66,191,105135,1,8,0:3:0:0:
215,109,105366,5,2,0:3:0:0:
338,165,105597,1,0,0:0:0:0:
163,184,105827,1,2,0:3:0:0:
369,89,106058,1,0,0:0:0:0:
141,53,106289,5,2,0:3:0:0:
420,180,106520,1,0,0:0:0:0:
90,238,106750,1,2,0:3:0:0:
449,60,106981,1,0,0:0:0:0:
112,22,107212,5,10,0:0:0:0:
139,369,107443,1,0,0:0:0:0:
259,12,107674,5,10,0:0:0:0:
286,359,107905,1,0,0:0:0:0:
246,145,108135,5,8,0:0:0:0:
235,140,108212,1,8,0:0:0:0:
223,136,108289,1,8,0:0:0:0:
211,135,108366,5,8,0:0:0:0:
6,122,108597,1,8,0:1:0:0:
76,312,108827,1,2,0:0:0:0:
76,312,108943,1,2,0:0:0:0:
76,312,109058,2,0,L|84:202,1,100,6|0,0:1|0:0,0:0:0:0:
111,25,109520,5,8,0:1:0:0:
175,249,109750,1,0,0:0:0:0:
208,0,109981,2,0,L|215:99,1,100,2|2,0:1|0:1,0:0:0:0:
287,268,110443,5,8,0:1:0:0:
91,129,110674,1,0,0:0:0:0:
303,74,110904,2,0,L|460:64,1,150,2|0,0:1|0:0,0:0:0:0:
495,60,111366,5,8,0:1:0:0:
431,283,111597,1,0,0:0:0:0:
303,74,111827,1,2,0:1:0:0:
303,74,111943,1,0,0:1:0:0:
303,74,112058,1,2,0:1:0:0:
512,195,112289,5,8,0:1:0:0:
318,319,112520,1,0,0:0:0:0:
397,85,112750,2,0,L|408:224,1,100,2|0,0:1|0:0,0:0:0:0:
208,334,113212,5,8,0:1:0:0:
415,276,113443,1,0,0:0:0:0:
173,347,113674,2,0,L|72:338,1,100,2|2,0:1|0:1,0:0:0:0:
337,378,114135,5,8,0:1:0:0:
275,168,114366,1,0,0:0:0:0:
275,168,114481,1,0,0:0:0:0:
275,168,114597,1,2,0:1:0:0:
161,378,114828,1,0,0:0:0:0:
193,126,115058,1,8,0:1:0:0:
263,319,115289,1,0,0:0:0:0:
263,319,115404,1,0,0:0:0:0:
263,319,115520,2,0,L|264:255,2,50,2|0|2,0:1|0:1|0:1,0:0:0:0:
315,100,115981,5,8,0:1:0:0:
286,362,116212,1,0,0:0:0:0:
139,186,116443,2,0,P|92:167|30:184,1,100,2|0,0:1|0:0,0:0:0:0:
261,162,116904,5,8,0:1:0:0:
85,258,117135,1,0,0:0:0:0:
300,244,117366,2,0,P|251:252|205:233,1,100,2|2,0:1|0:1,0:0:0:0:
282,0,117827,5,8,0:1:0:0:
261,162,118058,1,0,0:0:0:0:
368,18,118289,2,0,P|387:71|374:121,1,100,2|0,0:1|0:0,0:0:0:0:
252,257,118750,2,0,P|244:211|263:157,1,100,8|0,0:1|0:0,0:0:0:0:
395,289,119212,6,0,P|410:348|393:398,1,100,2|2,0:1|0:1,0:0:0:0:
353,207,119674,2,0,P|401:196|446:215,1,100,8|0,0:1|0:0,0:0:0:0:
312,340,120135,6,0,L|181:342,1,100,2|0,0:1|0:0,0:0:0:0:
62,260,120597,1,8,0:1:0:0:
251,263,120827,1,0,0:0:0:0:
386,131,121058,1,2,0:1:0:0:
255,0,121289,1,2,0:1:0:0:
124,132,121520,1,8,0:1:0:0:
313,135,121750,1,0,0:0:0:0:
143,34,121981,5,8,0:0:0:0:
417,133,122212,1,2,0:3:0:0:
110,237,122443,5,8,0:0:0:0:
442,131,122674,1,2,0:3:0:0:
180,351,122904,5,8,0:0:0:0:
234,52,123135,1,2,0:3:0:0:
279,370,123366,5,8,0:0:0:0:
327,38,123597,1,2,0:3:0:0:
78,243,123827,6,0,P|137:273|184:262,1,100,4|0,0:0|0:0,0:0:0:0:
156,88,124289,5,8,0:1:0:0:
327,38,124520,1,0,0:0:0:0:
327,38,124635,1,0,0:0:0:0:
327,38,124750,2,0,P|389:58|422:97,1,100,2|2,0:1|0:1,0:0:0:0:
421,301,125212,5,8,0:1:0:0:
325,162,125443,1,0,0:0:0:0:
209,376,125674,2,0,P|207:326|232:278,1,100,2|0,0:1|0:0,0:0:0:0:
439,268,126135,5,8,0:1:0:0:
251,129,126366,1,0,0:0:0:0:
251,129,126481,1,0,0:0:0:0:
251,129,126597,5,2,0:1:0:0:
301,349,126827,1,2,0:1:0:0:
399,129,127058,1,8,0:1:0:0:
187,207,127289,1,0,0:0:0:0:
403,312,127520,2,0,L|398:141,1,150,2|0,0:1|0:0,0:0:0:0:
399,129,127981,5,8,0:1:0:0:
212,307,128212,1,0,0:0:0:0:
212,307,128327,1,0,0:0:0:0:
212,307,128443,2,0,L|216:195,1,100,2|2,0:1|0:1,0:0:0:0:
102,3,128904,5,8,0:1:0:0:
270,123,129135,1,0,0:0:0:0:
64,227,129366,1,2,0:1:0:0:
188,62,129597,1,0,0:0:0:0:
190,291,129827,1,8,0:1:0:0:
16,107,130058,1,0,0:0:0:0:
16,107,130174,1,0,0:0:0:0:
16,107,130289,1,2,0:1:0:0:
270,123,130520,5,2,0:1:0:0:
64,227,130750,1,8,0:1:0:0:
324,222,130981,1,2,0:1:0:0:
107,5,131212,2,0,L|107:128,1,100,2|0,0:1|0:0,0:0:0:0:
222,257,131674,5,8,0:1:0:0:
188,62,131904,1,0,0:0:0:0:
324,322,132135,2,0,L|324:222,1,100,2|2,0:1|0:1,0:0:0:0:
241,164,132597,5,8,0:1:0:0:
491,175,132827,1,0,0:0:0:0:
491,175,132943,1,0,0:0:0:0:
491,175,133058,2,0,B|442:193|442:193|372:175,1,100,2|0,0:1|0:0,0:0:0:0:
268,38,133520,2,0,B|317:20|317:20|387:38,1,100,8|0,0:1|0:0,0:0:0:0:
291,244,133981,6,0,B|242:262|242:262|172:244,1,100,2|2,0:1|0:1,0:0:0:0:
68,112,134443,2,0,B|117:94|117:94|187:112,1,100,8|0,0:1|0:0,0:0:0:0:
56,314,134904,6,0,L|61:208,1,100,6|0,0:1|0:0,0:0:0:0:
68,112,135250,1,2,0:0:0:0:
68,112,135366,1,8,0:1:0:0:
162,321,135597,5,2,0:0:0:0:
162,321,135712,1,2,0:0:0:0:
162,321,135827,1,8,0:1:0:0:
230,79,136058,5,2,0:0:0:0:
230,79,136174,1,2,0:0:0:0:
230,79,136289,1,8,0:1:0:0:
346,332,136520,5,2,0:0:0:0:
346,332,136635,1,2,0:0:0:0:
346,332,136750,1,8,0:1:0:0:
401,49,136981,5,2,0:0:0:0:
401,49,137097,1,2,0:0:0:0:
401,49,137212,6,0,L|398:101,5,33.3333333333333,8|8|8|8|8|8,0:0|0:0|0:0|0:0|0:0|0:0,0:0:0:0:
329,152,137674,6,0,P|313:205|315:224,1,50,0|0,0:3|0:0,0:0:0:0:
369,277,137904,2,0,P|380:299|384:323,1,50,0|0,0:3|0:0,0:0:0:0:
294,360,138135,6,0,L|251:353,2,33.3333333333333,8|8|8,0:0|0:0|0:0,0:0:0:0:
159,299,138366,2,0,L|202:292,2,33.3333333333333,0|0|0,0:0|0:0|0:0,0:0:0:0:
80,366,138597,6,0,P|56:318|79:241,1,100,4|0,0:1|0:0,0:0:0:0:
101,190,138943,1,0,0:0:0:0:
101,190,139058,1,8,0:0:0:0:
288,203,139289,6,0,L|183:197,1,100,4|0,0:0|0:0,0:0:0:0:
368,88,139750,1,2,0:3:0:0:
152,36,139981,6,0,L|251:30,1,100,4|0,0:3|0:0,0:0:0:0:
368,260,140443,1,0,0:0:0:0:
271,116,140674,1,2,0:3:0:0:
463,39,140904,2,0,L|470:105,1,50,8|0,0:0|0:0,0:0:0:0:
490,193,141135,1,0,0:0:0:0:
490,193,141250,1,0,0:0:0:0:
490,193,141366,6,0,L|432:198,1,50,2|0,0:3|0:0,0:0:0:0:
368,260,141597,2,0,L|318:255,1,50,0|0,0:0|0:0,0:0:0:0:
185,193,141827,1,8,0:0:0:0:
209,315,142058,1,0,0:0:0:0:
100,237,142289,6,0,P|89:188|103:141,1,100,4|0,0:3|0:0,0:0:0:0:
271,116,142750,1,8,0:0:0:0:
422,303,142981,6,0,P|432:254|419:206,1,100,4|0,0:1|0:0,0:0:0:0:
183,87,143443,1,0,0:0:0:0:
55,362,143674,6,0,L|174:363,1,100,4|0,0:0|0:0,0:0:0:0:
257,28,144135,2,0,P|229:4|200:-3,1,50,0|0,0:0|0:0,0:0:0:0:
319,143,144366,2,0,L|320:70,1,50,2|0,0:3|0:0,0:0:0:0:
256,265,144597,2,0,L|255:192,1,50,8|0,0:0|0:0,0:0:0:0:
330,340,144827,1,0,0:0:0:0:
330,340,144943,1,0,0:0:0:0:
330,340,145058,1,8,0:0:0:0:
162,273,145289,5,0,0:0:0:0:
176,79,145520,1,0,0:0:0:0:
396,0,145750,1,0,0:0:0:0:
512,222,145981,6,0,P|463:214|417:233,1,100,4|0,0:1|0:0,0:0:0:0:
183,369,146443,1,8,0:0:0:0:
63,137,146674,6,0,L|71:34,1,100,4|0,0:0|0:0,0:0:0:0:
274,336,147135,1,0,0:0:0:0:
418,76,147366,6,0,L|425:175,1,100,4|0,0:3|0:0,0:0:0:0:
280,37,147827,1,0,0:0:0:0:
280,37,148058,1,2,0:3:0:0:
189,228,148289,1,8,0:0:0:0:
189,228,148404,1,0,0:0:0:0:
189,228,148520,1,0,0:0:0:0:
185,19,148750,5,2,0:3:0:0:
278,255,148981,1,0,0:0:0:0:
106,73,149212,1,8,0:0:0:0:
352,200,149443,1,0,0:0:0:0:
105,367,149674,6,0,P|91:309|111:263,1,100,4|0,0:3|0:0,0:0:0:0:
400,115,150135,1,8,0:0:0:0:
182,317,150366,6,0,L|301:326,1,100,4|0,0:1|0:0,0:0:0:0:
458,247,150827,1,0,0:0:0:0:
149,175,151058,1,12,0:0:0:0:
510,165,151289,6,0,P|459:149|391:174,1,100,0|0,0:0|0:0,0:0:0:0:
281,324,151750,5,8,0:0:0:0:
212,201,151981,1,2,0:3:0:0:
268,75,152212,1,2,0:3:0:0:
373,197,152443,1,2,0:3:0:0:
281,324,152674,5,0,0:0:0:0:
190,233,152904,1,0,0:0:0:0:
93,285,153135,1,0,0:0:0:0:
13,217,153366,6,0,P|2:169|13:132,1,80,2|0,0:0|0:0,0:0:0:0:
155,127,154058,6,0,P|167:185|154:238,1,103.999995239258,2|0,0:0|0:0,0:0:0:0:
21,113,154750,6,0,P|76:84|135:104,1,128,2|0,0:0|0:0,0:0:0:0:
213,175,157058,6,0,P|255:194|304:188,1,80,2|0,0:0|0:0,0:0:0:0:
296,55,157750,6,0,P|229:55|194:73,1,103.999995239258,2|0,0:0|0:0,0:0:0:0:
330,183,158443,6,0,L|323:79,1,95.9999970703126,2|0,0:0|0:0,0:0:0:0:
329,37,160289,1,0,0:0:0:0:
324,40,175520,6,0,P|302:82|294:110,1,71.9999978027344,4|0,0:0|0:0,0:0:0:0:
332,185,176212,1,8,0:0:0:0:
332,185,176443,2,0,P|347:236|348:265,1,71.9999978027344,8|0,0:1|0:0,0:0:0:0:
253,346,177135,1,0,0:0:0:0:
175,384,177366,5,0,0:0:0:0:
111,325,177597,1,0,0:0:0:0:
32,359,177827,1,0,0:0:0:0:
98,175,178058,1,8,0:0:0:0:
98,175,178289,2,0,P|129:158|169:156,1,71.9999978027344,8|0,0:1|0:0,0:0:0:0:
216,35,178981,1,0,0:0:0:0:
216,35,179212,6,0,P|259:56|295:58,1,71.9999978027344,8|0,0:0|0:0,0:0:0:0:
396,193,179904,1,8,0:0:0:0:
396,193,180135,2,0,L|398:110,1,71.9999978027344,8|0,0:1|0:0,0:0:0:0:
305,33,180827,1,0,0:0:0:0:
305,33,180943,1,0,0:0:0:0:
305,33,181058,5,8,0:0:0:0:
224,0,181289,1,0,0:0:0:0:
154,51,181520,1,0,0:0:0:0:
39,124,181750,1,8,0:0:0:0:
39,124,181981,2,0,P|45:161|33:195,1,71.9999978027344,8|0,0:1|0:0,0:0:0:0:
64,35,182674,1,0,0:0:0:0:
152,137,182904,6,0,P|183:158|209:168,1,53.9999983520508,8|0,0:0|0:0,0:0:0:0:
237,175,183366,2,0,P|258:159|273:151,1,35.9999989013672,0|8,0:0|0:0,0:0:0:0:
417,143,183827,1,8,0:1:0:0:
305,230,184289,1,0,0:0:0:0:
359,66,184520,1,0,0:0:0:0:
359,66,184750,6,0,P|399:51|442:56,1,71.9999978027344,8|0,0:0|0:0,0:0:0:0:
386,273,185443,1,8,0:0:0:0:
277,87,185674,1,8,0:1:0:0:
327,163,185904,1,0,0:0:0:0:
405,198,186135,1,8,0:1:0:0:
479,154,186366,1,0,0:0:0:0:
326,103,186597,6,0,L|327:180,1,60.0000022888184,6|0,0:0|0:0,0:0:0:0:
232,33,187058,1,8,0:1:0:0:
231,32,187289,2,0,L|231:92,1,60.0000022888184,4|0,0:1|0:0,0:0:0:0:
69,16,187750,1,8,0:0:0:0:
69,16,187981,2,0,P|103:1|142:8,1,60.0000022888184,8|0,0:1|0:0,0:0:0:0:
138,267,188443,1,8,0:0:0:0:
138,267,188674,6,0,B|89:214|89:214|110:89,1,195.999994018555,4|0,0:3|0:0,0:0:0:0:
292,31,190635,5,2,0:0:0:0:
312,52,190750,1,0,0:0:0:0:
325,79,190865,1,0,0:0:0:0:
328,109,190981,1,2,0:0:0:0:
319,145,191097,2,0,P|308:170|305:186,1,30.0000011444092,0|0,0:0|0:0,0:0:0:0:
320,287,191327,1,0,0:0:0:0:
286,270,191442,5,2,0:0:0:0:
249,270,191557,1,0,0:0:0:0:
215,286,191673,1,2,0:0:0:0:
72,365,191904,1,2,0:0:0:0:
22,201,192135,2,0,L|36:86,1,100,4|0,0:1|0:0,0:0:0:0:
167,363,192597,5,8,0:1:0:0:
228,100,192827,1,0,0:0:0:0:
228,100,192943,1,0,0:0:0:0:
228,100,193058,2,0,L|236:212,1,100,2|2,0:1|0:1,0:0:0:0:
321,55,193520,5,8,0:1:0:0:
119,201,193750,1,0,0:0:0:0:
361,330,193981,2,0,L|476:316,1,100,2|0,0:1|0:0,0:0:0:0:
230,106,194443,5,8,0:1:0:0:
465,230,194674,1,0,0:0:0:0:
232,228,194904,1,2,0:1:0:0:
473,137,195135,1,2,0:1:0:0:
205,77,195366,1,8,0:1:0:0:
326,301,195597,1,0,0:0:0:0:
420,59,195827,6,0,L|413:230,1,150,2|0,0:1|0:0,0:0:0:0:
440,319,196289,2,0,P|388:293|318:312,1,100,8|0,0:1|0:0,0:0:0:0:
271,350,196635,1,0,0:0:0:0:
271,350,196750,6,0,P|219:376|149:357,1,100,2|2,0:1|0:1,0:0:0:0:
16,249,197212,1,8,0:1:0:0:
208,283,197443,1,0,0:0:0:0:
43,364,197674,5,2,0:1:0:0:
174,183,197904,1,2,0:0:0:0:
62,14,198135,1,8,0:1:0:0:
216,188,198366,1,2,0:0:0:0:
216,188,198481,1,0,0:0:0:0:
216,188,198597,1,2,0:1:0:0:
403,290,198827,5,0,0:0:0:0:
334,94,199058,1,8,0:1:0:0:
405,308,199289,1,0,0:0:0:0:
426,65,199520,2,0,P|393:18|325:0,1,100,2|0,0:1|0:0,0:0:0:0:
175,161,199981,5,8,0:1:0:0:
334,94,200212,1,0,0:0:0:0:
159,252,200443,2,0,P|114:229|88:188,1,100,2|2,0:1|0:1,0:0:0:0:
262,28,200904,5,8,0:1:0:0:
250,302,201135,1,0,0:0:0:0:
250,302,201250,1,0,0:0:0:0:
250,302,201366,1,2,0:1:0:0:
438,317,201597,1,0,0:0:0:0:
286,138,201827,1,8,0:1:0:0:
89,188,202058,5,0,0:0:0:0:
89,188,202174,1,0,0:0:0:0:
89,188,202289,1,2,0:1:0:0:
219,337,202520,1,2,0:1:0:0:
300,106,202750,1,8,0:1:0:0:
423,320,202981,1,0,0:0:0:0:
199,121,203212,2,0,L|188:268,1,100,2|0,0:1|0:0,0:0:0:0:
302,346,203674,5,8,0:1:0:0:
107,282,203904,1,0,0:0:0:0:
107,77,204135,1,2,0:1:0:0:
302,14,204366,1,2,0:1:0:0:
422,180,204597,1,8,0:1:0:0:
302,346,204827,1,0,0:0:0:0:
107,282,205058,6,0,P|164:254|220:277,1,100,6|0,0:1|0:0,0:0:0:0:
226,284,205404,1,0,0:0:0:0:
226,284,205520,1,6,0:0:0:0:
468,339,205750,5,8,0:0:0:0:
466,326,205827,1,8,0:0:0:0:
463,313,205904,1,8,0:0:0:0:
458,301,205981,1,6,0:0:0:0:
312,183,206212,5,8,0:0:0:0:
307,195,206289,1,8,0:0:0:0:
304,208,206366,1,8,0:0:0:0:
302,221,206443,1,6,0:1:0:0:
459,108,206674,5,8,0:0:0:0:
457,95,206751,1,8,0:0:0:0:
454,82,206828,1,8,0:0:0:0:
449,70,206904,2,0,L|336:72,1,100,4|0,0:0|0:0,0:0:0:0:
226,284,207366,5,8,0:1:0:0:
10,91,207597,1,0,0:0:0:0:
10,91,207712,1,0,0:0:0:0:
10,91,207827,2,0,L|123:93,1,100,2|2,0:1|0:1,0:0:0:0:
319,217,208289,5,8,0:1:0:0:
189,50,208520,1,0,0:0:0:0:
129,269,208750,2,0,L|130:169,1,100,2|0,0:1|0:0,0:0:0:0:
285,336,209212,5,8,0:1:0:0:
222,142,209443,1,0,0:0:0:0:
222,142,209558,1,0,0:0:0:0:
222,142,209674,1,2,0:1:0:0:
379,305,209905,1,2,0:1:0:0:
317,80,210135,5,8,0:1:0:0:
112,165,210366,1,0,0:0:0:0:
285,336,210597,2,0,P|286:270|320:223,1,100,2|0,0:1|0:0,0:0:0:0:
423,78,211058,5,8,0:1:0:0:
379,305,211289,1,0,0:0:0:0:
512,107,211520,2,0,P|511:41|477:-6,1,100,2|2,0:1|0:1,0:0:0:0:
236,155,211981,5,8,0:1:0:0:
428,78,212212,1,0,0:0:0:0:
428,78,212327,1,0,0:0:0:0:
428,78,212443,1,2,0:1:0:0:
179,65,212674,1,0,0:0:0:0:
395,172,212904,1,8,0:1:0:0:
177,242,213135,1,0,0:0:0:0:
177,242,213250,1,0,0:0:0:0:
177,242,213366,1,2,0:1:0:0:
275,21,213597,5,2,0:1:0:0:
322,281,213827,1,8,0:1:0:0:
271,42,214058,1,0,0:0:0:0:
93,293,214289,2,0,P|79:238|100:179,1,100,2|0,0:1|0:0,0:0:0:0:
351,241,214750,5,8,0:1:0:0:
177,242,214981,1,0,0:0:0:0:
433,294,215212,2,0,P|447:239|426:180,1,100,2|2,0:1|0:1,0:0:0:0:
239,55,215674,5,8,0:1:0:0:
267,301,215904,1,0,0:0:0:0:
144,13,216135,2,0,P|134:61|148:109,1,100,2|0,0:1|0:0,0:0:0:0:
355,261,216597,2,0,P|368:213|359:164,1,100,8|0,0:1|0:0,0:0:0:0:
148,109,217058,6,0,P|138:157|152:205,1,100,2|2,0:1|0:1,0:0:0:0:
351,358,217520,2,0,P|364:310|355:261,1,100,8|0,0:1|0:0,0:0:0:0:
53,344,217981,6,0,L|182:338,1,100,4|0,0:0|0:0,0:0:0:0:
247,336,218327,1,0,0:0:0:0:
247,336,218443,1,8,0:1:0:0:
61,182,218674,1,0,0:0:0:0:
61,182,218789,1,0,0:0:0:0:
61,182,218904,5,2,0:1:0:0:
245,54,219135,1,2,0:1:0:0:
427,220,219366,1,8,0:1:0:0:
129,306,219597,1,0,0:0:0:0:
247,11,219827,1,12,0:1:0:0:
368,320,220058,5,0,0:0:0:0:
386,81,220289,1,2,0:1:0:0:
101,56,220519,1,0,0:0:0:0:
73,341,220750,1,2,0:1:0:0:
397,369,220981,5,0,0:0:0:0:
427,35,221212,1,0,0:0:0:0:
70,5,221443,1,0,0:0:0:0:
235,240,221674,2,0,P|283:250|329:233,1,100,4|0,0:1|0:0,0:0:0:0:
119,65,222135,5,8,0:1:0:0:
24,323,222366,1,0,0:0:0:0:
24,323,222481,1,0,0:0:0:0:
24,323,222597,2,0,P|8:260|26:215,1,100,2|2,0:1|0:1,0:0:0:0:
329,233,223058,5,12,0:1:0:0:
130,152,223289,1,0,0:0:0:0:
369,318,223520,2,0,P|320:328|274:311,1,100,2|0,0:1|0:0,0:0:0:0:
335,140,223981,5,8,0:1:0:0:
469,238,224212,1,0,0:0:0:0:
263,79,224443,1,2,0:1:0:0:
110,225,224674,1,2,0:1:0:0:
322,0,224904,5,8,0:1:0:0:
497,99,225135,1,0,0:0:0:0:
253,216,225366,2,0,L|415:206,1,150,2|0,0:1|0:0,0:0:0:0:
494,202,225827,5,8,0:1:0:0:
262,81,226058,1,0,0:0:0:0:
476,302,226289,2,0,L|349:310,1,100,2|2,0:1|0:1,0:0:0:0:
198,384,226750,5,8,0:1:0:0:
26,279,226981,1,0,0:0:0:0:
26,279,227097,1,0,0:0:0:0:
26,279,227212,1,2,0:1:0:0:
185,137,227443,1,0,0:0:0:0:
90,366,227674,1,8,0:1:0:0:
15,137,227904,1,0,0:0:0:0:
15,137,228020,1,0,0:0:0:0:
15,137,228135,1,2,0:1:0:0:
265,232,228366,5,2,0:1:0:0:
43,138,228597,1,8,0:1:0:0:
272,75,228827,1,0,0:0:0:0:
175,285,229058,2,0,L|185:398,1,100,2|0,0:1|0:0,0:0:0:0:
402,340,229520,5,8,0:1:0:0:
265,232,229750,1,0,0:0:0:0:
433,125,229981,2,0,L|423:238,1,100,2|2,0:1|0:1,0:0:0:0:
241,127,230443,5,8,0:1:0:0:
390,19,230673,1,0,0:0:0:0:
390,19,230674,1,0,0:0:0:0:
390,19,230904,2,0,L|281:16,1,100,2|0,0:1|0:0,0:0:0:0:
85,314,231366,2,0,L|184:311,1,100,8|0,0:1|0:0,0:0:0:0:
19,126,231827,6,0,L|11:259,1,100,2|2,0:1|0:1,0:0:0:0:
244,200,232289,2,0,L|237:100,1,100,8|0,0:1|0:0,0:0:0:0:
85,314,232750,6,0,P|148:352|215:338,1,100,2|0,0:1|0:0,0:0:0:0:
306,292,233097,1,0,0:0:0:0:
306,292,233212,2,0,P|379:294|428:342,1,100,8|0,0:1|0:0,0:0:0:0:
512,384,233558,1,0,0:0:0:0:
512,384,233674,1,2,0:1:0:0:
402,171,233904,1,2,0:1:0:0:
337,384,234135,1,8,0:1:0:0:
486,224,234366,1,0,0:0:0:0:
200,173,234597,5,4,0:0:0:0:
432,276,234827,1,2,0:1:0:0:
306,52,235058,5,4,0:0:0:0:
112,292,235288,1,2,0:1:0:0:
369,179,235520,5,4,0:0:0:0:
71,60,235750,1,2,0:1:0:0:
86,384,235981,5,4,0:0:0:0:
432,276,236211,1,2,0:1:0:0:
205,18,236443,6,0,P|156:102|186:195,1,200,4|8,0:1|0:1,0:0:0:0:
467,93,237135,1,0,0:0:0:0:
467,93,237250,1,0,0:0:0:0:
467,93,237366,1,2,0:1:0:0:
258,115,237597,1,2,0:1:0:0:
401,239,237827,1,8,0:1:0:0:
356,53,238058,1,0,0:0:0:0:
219,219,238289,6,0,P|153:245|95:220,1,100,2|0,0:1|0:0,0:0:0:0:
1,124,238750,1,8,0:1:0:0:
217,48,238981,1,0,0:0:0:0:
217,48,239097,1,0,0:0:0:0:
217,48,239212,1,2,0:1:0:0:
43,228,239443,1,2,0:1:0:0:
95,19,239674,1,8,0:1:0:0:
219,219,239904,1,0,0:0:0:0:
340,33,240135,5,2,0:1:0:0:
310,201,240366,1,0,0:0:0:0:
340,369,240597,1,8,0:1:0:0:
486,195,240827,5,0,0:0:0:0:
334,168,241058,1,2,0:1:0:0:
184,195,241289,1,2,0:1:0:0:
325,334,241520,5,8,0:1:0:0:
349,198,241751,1,0,0:0:0:0:
325,63,241982,1,2,0:1:0:0:
199,194,242212,5,0,0:0:0:0:
322,216,242443,1,8,0:1:0:0:
443,194,242674,1,0,0:0:0:0:
443,194,242789,1,0,0:0:0:0:
443,194,242904,5,2,0:1:0:0:
172,197,243135,1,2,0:1:0:0:
479,193,243366,1,8,0:1:0:0:
135,196,243597,1,0,0:0:0:0:
293,29,243827,6,0,B|331:88|331:88|313:219,1,200,2|8,0:1|0:1,0:0:0:0:
202,381,244520,1,0,0:0:0:0:
202,381,244635,1,0,0:0:0:0:
202,381,244750,1,2,0:1:0:0:
313,216,244981,1,2,0:1:0:0:
96,182,245212,1,8,0:1:0:0:
273,302,245443,6,0,P|321:310|367:292,1,100,0|2,0:0|0:1,0:0:0:0:
192,132,245904,1,0,0:0:0:0:
116,340,246135,1,8,0:1:0:0:
102,71,246366,1,0,0:0:0:0:
102,71,246481,1,0,0:0:0:0:
102,71,246597,1,2,0:1:0:0:
199,286,246827,1,2,0:1:0:0:
198,0,247058,1,8,0:1:0:0:
124,228,247289,1,0,0:0:0:0:
431,124,247520,5,2,0:1:0:0:
259,126,247751,1,0,0:0:0:0:
87,128,247981,1,8,0:1:0:0:
283,309,248212,6,0,L|282:242,1,50,2|0,0:1|0:0,0:0:0:0:
281,154,248443,2,0,L|280:87,1,50,2|0,0:1|0:0,0:0:0:0:
279,0,248673,1,2,0:1:0:0:
120,178,248904,5,8,0:1:0:0:
259,177,249134,1,0,0:0:0:0:
398,175,249365,1,2,0:1:0:0:
238,29,249597,5,0,0:0:0:0:
237,154,249827,1,8,0:1:0:0:
235,279,250058,1,0,0:0:0:0:
327,103,250289,6,0,P|385:71|442:88,1,100,0|0,0:0|0:0,0:0:0:0:
484,142,250635,1,0,0:0:0:0:
484,142,250750,2,0,L|483:208,1,50,0|0,0:0|0:0,0:0:0:0:
440,322,250981,1,0,0:0:0:0:
238,29,251212,5,4,0:1:0:0:
256,192,251327,12,4,265981,0:3:0:0:
