osu file format v14

[General]
AudioFilename: audio.mp3
AudioLeadIn: 0
PreviewTime: 62586
Countdown: 0
SampleSet: Normal
StackLeniency: 0.7
Mode: 3
LetterboxInBreaks: 0
SpecialStyle: 0
WidescreenStoryboard: 1

[Editor]
DistanceSpacing: 2
BeatDivisor: 8
GridSize: 4
TimelineZoom: 1

[Metadata]
Title:Jiu Zui De Hu Die (DJ He Peng Version) (Cut Ver.)
TitleUnicode:酒醉的蝴蝶(DJ何鹏版)(Cut Ver.)
Artist:Sun Yi Qi
ArtistUnicode:孙艺琪
Creator:Seiran-
Version:Hard owo
Source:
Tags:chinese pop electronic electropop Female vocal remix 女声版
BeatmapID:3496953
BeatmapSetID:1711401

[Difficulty]
HPDrainRate:8
CircleSize:4
OverallDifficulty:8
ApproachRate:5
SliderMultiplier:1.4
SliderTickRate:1

[Events]
//Background and Video events
0,0,"47E2CF0BCC353B75484E9437E44B7D3B.jpg",0,0
//Break Periods
//Storyboard Layer 0 (Background)
//Storyboard Layer 1 (Fail)
//Storyboard Layer 2 (Pass)
//Storyboard Layer 3 (Foreground)
//Storyboard Layer 4 (Overlay)
//Storyboard Sound Samples

[TimingPoints]
2586,631.578947368421,4,1,1,30,1,0

[HitObjects]
64,192,1954,5,0,0:0:0:0:
192,192,2112,1,0,0:0:0:0:
320,192,2270,1,0,0:0:0:0:
448,192,2428,1,0,0:0:0:0:
192,192,2586,1,0,0:0:0:0:
64,192,2586,1,0,0:0:0:0:
320,192,2901,1,0,0:0:0:0:
64,192,3217,1,0,0:0:0:0:
448,192,3217,1,0,0:0:0:0:
192,192,3533,1,0,0:0:0:0:
320,192,3849,1,0,0:0:0:0:
448,192,3849,1,0,0:0:0:0:
192,192,4164,1,0,0:0:0:0:
64,192,4480,1,0,0:0:0:0:
448,192,4480,1,0,0:0:0:0:
320,192,4638,1,0,0:0:0:0:
192,192,4796,1,0,0:0:0:0:
448,192,4954,1,0,0:0:0:0:
320,192,5112,1,0,0:0:0:0:
64,192,5112,1,0,0:0:0:0:
192,192,5349,1,0,0:0:0:0:
448,192,5428,1,0,0:0:0:0:
320,192,5743,1,0,0:0:0:0:
64,192,5743,1,0,0:0:0:0:
192,192,6059,1,0,0:0:0:0:
320,192,6375,1,0,0:0:0:0:
448,192,6375,1,0,0:0:0:0:
64,192,6691,1,0,0:0:0:0:
192,192,7007,1,0,0:0:0:0:
448,192,7007,1,0,0:0:0:0:
64,192,7164,1,0,0:0:0:0:
320,192,7322,1,0,0:0:0:0:
448,192,7480,1,0,0:0:0:0:
192,192,7638,1,0,0:0:0:0:
64,192,7638,1,0,0:0:0:0:
320,192,7954,1,0,0:0:0:0:
448,192,8270,1,0,0:0:0:0:
64,192,8270,1,0,0:0:0:0:
192,192,8586,1,0,0:0:0:0:
448,192,8901,1,0,0:0:0:0:
320,192,8901,1,0,0:0:0:0:
192,192,9217,1,0,0:0:0:0:
64,192,9533,1,0,0:0:0:0:
448,192,9533,1,0,0:0:0:0:
320,192,9691,1,0,0:0:0:0:
192,192,9849,1,0,0:0:0:0:
448,192,10007,1,0,0:0:0:0:
320,192,10164,1,0,0:0:0:0:
64,192,10164,1,0,0:0:0:0:
192,192,10401,1,0,0:0:0:0:
320,192,10480,1,0,0:0:0:0:
64,192,10796,1,0,0:0:0:0:
448,192,10796,1,0,0:0:0:0:
192,192,11112,1,0,0:0:0:0:
320,192,11428,1,0,0:0:0:0:
448,192,11428,1,0,0:0:0:0:
192,192,11743,1,0,0:0:0:0:
64,192,12059,1,0,0:0:0:0:
448,192,12059,1,0,0:0:0:0:
320,192,12217,1,0,0:0:0:0:
192,192,12375,1,0,0:0:0:0:
448,192,12533,1,0,0:0:0:0:
320,192,12691,1,0,0:0:0:0:
192,192,12691,1,0,0:0:0:0:
64,192,12691,1,0,0:0:0:0:
64,192,13007,1,0,0:0:0:0:
192,192,13164,1,0,0:0:0:0:
320,192,13322,1,0,0:0:0:0:
448,192,13322,1,0,0:0:0:0:
64,192,13322,1,0,0:0:0:0:
320,192,13638,1,0,0:0:0:0:
192,192,13796,1,0,0:0:0:0:
64,192,13954,1,0,0:0:0:0:
448,192,13954,1,0,0:0:0:0:
320,192,14270,1,0,0:0:0:0:
192,192,14586,1,0,0:0:0:0:
64,192,14586,1,0,0:0:0:0:
448,192,14586,1,0,0:0:0:0:
192,192,14901,1,0,0:0:0:0:
320,192,15059,1,0,0:0:0:0:
448,192,15217,1,0,0:0:0:0:
64,192,15217,1,0,0:0:0:0:
320,192,15533,1,0,0:0:0:0:
448,192,15849,1,0,0:0:0:0:
64,192,15849,1,0,0:0:0:0:
320,192,15849,1,0,0:0:0:0:
64,192,16164,1,0,0:0:0:0:
192,192,16322,1,0,0:0:0:0:
448,192,16480,1,0,0:0:0:0:
320,192,16480,1,0,0:0:0:0:
192,192,16796,1,0,0:0:0:0:
64,192,17112,1,0,0:0:0:0:
448,192,17112,1,0,0:0:0:0:
320,192,17112,1,0,0:0:0:0:
192,192,17428,1,0,0:0:0:0:
64,192,17743,1,0,0:0:0:0:
320,192,17743,1,0,0:0:0:0:
448,192,18059,1,0,0:0:0:0:
192,192,18217,1,0,0:0:0:0:
64,192,18375,1,0,0:0:0:0:
320,192,18375,1,0,0:0:0:0:
448,192,18375,1,0,0:0:0:0:
192,192,18691,1,0,0:0:0:0:
320,192,18849,1,0,0:0:0:0:
448,192,19007,1,0,0:0:0:0:
64,192,19007,1,0,0:0:0:0:
192,192,19322,1,0,0:0:0:0:
448,192,19638,1,0,0:0:0:0:
64,192,19638,1,0,0:0:0:0:
192,192,19638,1,0,0:0:0:0:
320,192,19796,1,0,0:0:0:0:
192,192,19954,1,0,0:0:0:0:
448,192,20112,1,0,0:0:0:0:
320,192,20270,1,0,0:0:0:0:
192,192,20270,1,0,0:0:0:0:
64,192,20270,1,0,0:0:0:0:
448,192,20585,1,0,0:0:0:0:
192,192,20743,1,0,0:0:0:0:
320,192,20901,1,0,0:0:0:0:
448,192,20901,1,0,0:0:0:0:
64,192,20901,1,0,0:0:0:0:
192,192,21217,1,0,0:0:0:0:
64,192,21533,1,0,0:0:0:0:
320,192,21533,1,0,0:0:0:0:
448,192,21691,1,0,0:0:0:0:
192,192,21849,1,0,0:0:0:0:
64,192,21849,1,0,0:0:0:0:
320,192,22007,1,0,0:0:0:0:
448,192,22164,1,0,0:0:0:0:
192,192,22164,1,0,0:0:0:0:
64,192,22164,1,0,0:0:0:0:
64,192,22796,1,0,0:0:0:0:
320,192,22796,1,0,0:0:0:0:
448,192,22796,1,0,0:0:0:0:
320,192,23112,1,0,0:0:0:0:
448,192,23428,1,0,0:0:0:0:
64,192,23428,1,0,0:0:0:0:
64,192,23743,1,0,0:0:0:0:
448,192,24059,1,0,0:0:0:0:
192,192,24059,1,0,0:0:0:0:
192,192,24375,1,0,0:0:0:0:
64,192,24691,1,0,0:0:0:0:
320,192,24691,1,0,0:0:0:0:
320,192,25007,1,0,0:0:0:0:
448,192,25322,1,0,0:0:0:0:
192,192,25322,1,0,0:0:0:0:
192,192,25638,1,0,0:0:0:0:
448,192,25954,1,0,0:0:0:0:
64,192,25954,1,0,0:0:0:0:
64,192,26270,1,0,0:0:0:0:
320,192,26585,1,0,0:0:0:0:
448,192,26585,1,0,0:0:0:0:
320,192,26901,1,0,0:0:0:0:
448,192,27059,1,0,0:0:0:0:
192,192,27217,1,0,0:0:0:0:
64,192,27217,1,0,0:0:0:0:
192,192,27533,1,0,0:0:0:0:
320,192,27849,1,0,0:0:0:0:
448,192,27849,1,0,0:0:0:0:
320,192,28164,1,0,0:0:0:0:
448,192,28480,1,0,0:0:0:0:
64,192,28480,1,0,0:0:0:0:
64,192,28796,1,0,0:0:0:0:
320,192,29112,1,0,0:0:0:0:
448,192,29112,1,0,0:0:0:0:
320,192,29428,1,0,0:0:0:0:
192,192,29743,1,0,0:0:0:0:
64,192,29743,1,0,0:0:0:0:
64,192,30059,1,0,0:0:0:0:
192,192,30375,1,0,0:0:0:0:
448,192,30375,1,0,0:0:0:0:
448,192,30691,1,0,0:0:0:0:
320,192,31007,1,0,0:0:0:0:
64,192,31007,1,0,0:0:0:0:
64,192,31322,1,0,0:0:0:0:
192,192,31638,1,0,0:0:0:0:
448,192,31638,1,0,0:0:0:0:
448,192,31954,1,0,0:0:0:0:
320,192,32112,1,0,0:0:0:0:
192,192,32270,1,0,0:0:0:0:
64,192,32270,1,0,0:0:0:0:
192,192,32586,1,0,0:0:0:0:
320,192,32901,1,0,0:0:0:0:
448,192,32901,1,0,0:0:0:0:
64,192,33059,1,0,0:0:0:0:
320,192,33217,1,0,0:0:0:0:
64,192,33375,1,0,0:0:0:0:
192,192,33533,1,0,0:0:0:0:
448,192,33533,1,0,0:0:0:0:
448,192,33849,1,0,0:0:0:0:
320,192,34164,1,0,0:0:0:0:
64,192,34164,1,0,0:0:0:0:
192,192,34322,1,0,0:0:0:0:
448,192,34480,1,0,0:0:0:0:
192,192,34638,1,0,0:0:0:0:
320,192,34796,1,0,0:0:0:0:
448,192,34796,1,0,0:0:0:0:
192,192,35112,1,0,0:0:0:0:
64,192,35428,1,0,0:0:0:0:
448,192,35428,1,0,0:0:0:0:
192,192,35586,1,0,0:0:0:0:
448,192,35743,1,0,0:0:0:0:
192,192,35901,1,0,0:0:0:0:
320,192,36059,1,0,0:0:0:0:
448,192,36059,1,0,0:0:0:0:
192,192,36375,1,0,0:0:0:0:
64,192,36691,1,0,0:0:0:0:
320,192,36691,1,0,0:0:0:0:
448,192,36849,1,0,0:0:0:0:
192,192,37007,1,0,0:0:0:0:
448,192,37164,1,0,0:0:0:0:
64,192,37322,1,0,0:0:0:0:
192,192,37322,1,0,0:0:0:0:
320,192,37638,1,0,0:0:0:0:
448,192,37954,1,0,0:0:0:0:
64,192,37954,1,0,0:0:0:0:
320,192,38112,1,0,0:0:0:0:
64,192,38270,1,0,0:0:0:0:
320,192,38428,1,0,0:0:0:0:
192,192,38586,1,0,0:0:0:0:
448,192,38586,1,0,0:0:0:0:
192,192,38901,1,0,0:0:0:0:
320,192,39217,1,0,0:0:0:0:
448,192,39217,1,0,0:0:0:0:
64,192,39375,1,0,0:0:0:0:
320,192,39533,1,0,0:0:0:0:
192,192,39691,1,0,0:0:0:0:
64,192,39849,1,0,0:0:0:0:
448,192,39849,1,0,0:0:0:0:
320,192,40164,1,0,0:0:0:0:
64,192,40480,1,0,0:0:0:0:
448,192,40480,1,0,0:0:0:0:
192,192,40480,1,0,0:0:0:0:
320,192,40796,1,0,0:0:0:0:
192,192,40954,1,0,0:0:0:0:
320,192,41112,1,0,0:0:0:0:
448,192,41112,1,0,0:0:0:0:
64,192,41112,1,0,0:0:0:0:
192,192,41428,1,0,0:0:0:0:
64,192,41743,1,0,0:0:0:0:
448,192,41743,1,0,0:0:0:0:
320,192,41901,1,0,0:0:0:0:
192,192,42059,1,0,0:0:0:0:
64,192,42059,1,0,0:0:0:0:
448,192,42217,1,0,0:0:0:0:
320,192,42375,1,0,0:0:0:0:
64,192,42375,1,0,0:0:0:0:
192,192,42375,1,0,0:0:0:0:
64,192,43007,1,0,0:0:0:0:
320,192,43007,1,0,0:0:0:0:
448,192,43007,1,0,0:0:0:0:
192,192,43322,1,0,0:0:0:0:
64,192,43322,1,0,0:0:0:0:
320,192,43480,1,0,0:0:0:0:
448,192,43638,1,0,0:0:0:0:
64,192,43638,1,0,0:0:0:0:
320,192,43954,1,0,0:0:0:0:
448,192,43954,1,0,0:0:0:0:
320,192,44270,1,0,0:0:0:0:
64,192,44270,1,0,0:0:0:0:
448,192,44428,1,0,0:0:0:0:
320,192,44586,1,0,0:0:0:0:
64,192,44586,1,0,0:0:0:0:
448,192,44743,1,0,0:0:0:0:
64,192,44901,1,0,0:0:0:0:
192,192,44901,1,0,0:0:0:0:
448,192,45217,1,0,0:0:0:0:
192,192,45217,1,0,0:0:0:0:
64,192,45533,1,0,0:0:0:0:
320,192,45533,1,0,0:0:0:0:
192,192,45849,1,0,0:0:0:0:
448,192,45849,1,0,0:0:0:0:
320,192,46007,1,0,0:0:0:0:
448,192,46164,1,0,0:0:0:0:
64,192,46164,1,0,0:0:0:0:
320,192,46480,1,0,0:0:0:0:
192,192,46480,1,0,0:0:0:0:
320,192,46796,1,0,0:0:0:0:
64,192,46796,1,0,0:0:0:0:
448,192,47112,1,0,0:0:0:0:
192,192,47112,1,0,0:0:0:0:
320,192,47270,1,0,0:0:0:0:
192,192,47349,1,0,0:0:0:0:
64,192,47428,1,0,0:0:0:0:
448,192,47428,1,0,0:0:0:0:
320,192,47743,1,0,0:0:0:0:
64,192,47743,1,0,0:0:0:0:
192,192,48059,1,0,0:0:0:0:
448,192,48059,1,0,0:0:0:0:
64,192,48375,1,0,0:0:0:0:
320,192,48375,1,0,0:0:0:0:
448,192,48533,1,0,0:0:0:0:
192,192,48691,1,0,0:0:0:0:
64,192,48691,1,0,0:0:0:0:
192,192,49007,1,0,0:0:0:0:
448,192,49007,1,0,0:0:0:0:
320,192,49322,1,0,0:0:0:0:
64,192,49322,1,0,0:0:0:0:
448,192,49638,1,0,0:0:0:0:
192,192,49638,1,0,0:0:0:0:
64,192,49796,1,0,0:0:0:0:
320,192,49954,1,0,0:0:0:0:
448,192,49954,1,0,0:0:0:0:
320,192,50270,1,0,0:0:0:0:
64,192,50270,1,0,0:0:0:0:
192,192,50586,1,0,0:0:0:0:
64,192,50586,1,0,0:0:0:0:
192,192,50901,1,0,0:0:0:0:
448,192,50901,1,0,0:0:0:0:
320,192,51059,1,0,0:0:0:0:
448,192,51217,1,0,0:0:0:0:
64,192,51217,1,0,0:0:0:0:
320,192,51533,1,0,0:0:0:0:
64,192,51533,1,0,0:0:0:0:
192,192,51849,1,0,0:0:0:0:
448,192,51849,1,0,0:0:0:0:
320,192,52164,1,0,0:0:0:0:
64,192,52164,1,0,0:0:0:0:
192,192,52322,1,0,0:0:0:0:
320,192,52401,1,0,0:0:0:0:
448,192,52480,1,0,0:0:0:0:
64,192,52480,1,0,0:0:0:0:
192,192,52796,1,0,0:0:0:0:
64,192,52796,1,0,0:0:0:0:
192,192,53112,1,0,0:0:0:0:
448,192,53112,1,0,0:0:0:0:
320,192,53428,1,0,0:0:0:0:
64,192,53428,1,0,0:0:0:0:
448,192,53586,1,0,0:0:0:0:
192,192,53743,1,0,0:0:0:0:
64,192,53743,1,0,0:0:0:0:
320,192,54059,1,0,0:0:0:0:
64,192,54059,1,0,0:0:0:0:
448,192,54375,1,0,0:0:0:0:
192,192,54375,1,0,0:0:0:0:
64,192,54533,1,0,0:0:0:0:
448,192,54691,1,0,0:0:0:0:
192,192,54691,1,0,0:0:0:0:
64,192,54849,1,0,0:0:0:0:
448,192,55007,1,0,0:0:0:0:
320,192,55007,1,0,0:0:0:0:
320,192,55322,1,0,0:0:0:0:
64,192,55322,1,0,0:0:0:0:
192,192,55638,1,0,0:0:0:0:
448,192,55638,1,0,0:0:0:0:
192,192,55954,1,0,0:0:0:0:
64,192,55954,1,0,0:0:0:0:
448,192,56112,1,0,0:0:0:0:
320,192,56270,1,0,0:0:0:0:
64,192,56270,1,0,0:0:0:0:
192,192,56586,1,0,0:0:0:0:
448,192,56586,1,0,0:0:0:0:
64,192,56901,1,0,0:0:0:0:
192,192,56901,1,0,0:0:0:0:
64,192,57217,1,0,0:0:0:0:
448,192,57217,1,0,0:0:0:0:
192,192,57375,1,0,0:0:0:0:
320,192,57454,1,0,0:0:0:0:
448,192,57533,1,0,0:0:0:0:
64,192,57533,1,0,0:0:0:0:
192,192,57849,1,0,0:0:0:0:
320,192,57849,1,0,0:0:0:0:
320,192,58164,1,0,0:0:0:0:
64,192,58164,1,0,0:0:0:0:
192,192,58480,1,0,0:0:0:0:
448,192,58480,1,0,0:0:0:0:
64,192,58638,1,0,0:0:0:0:
320,192,58796,1,0,0:0:0:0:
448,192,58796,1,0,0:0:0:0:
320,192,59112,1,0,0:0:0:0:
64,192,59112,1,0,0:0:0:0:
192,192,59428,1,0,0:0:0:0:
64,192,59428,1,0,0:0:0:0:
448,192,59743,1,0,0:0:0:0:
192,192,59743,1,0,0:0:0:0:
64,192,59901,1,0,0:0:0:0:
320,192,60059,1,0,0:0:0:0:
448,192,60059,1,0,0:0:0:0:
320,192,60375,1,0,0:0:0:0:
64,192,60375,1,0,0:0:0:0:
192,192,60691,1,0,0:0:0:0:
64,192,60691,1,0,0:0:0:0:
448,192,60691,1,0,0:0:0:0:
320,192,61007,1,0,0:0:0:0:
448,192,61007,1,0,0:0:0:0:
192,192,61164,1,0,0:0:0:0:
320,192,61322,1,0,0:0:0:0:
448,192,61322,1,0,0:0:0:0:
64,192,61322,1,0,0:0:0:0:
192,192,61638,1,0,0:0:0:0:
64,192,61638,1,0,0:0:0:0:
320,192,61796,1,0,0:0:0:0:
64,192,61954,1,0,0:0:0:0:
448,192,61954,1,0,0:0:0:0:
192,192,62112,1,0,0:0:0:0:
320,192,62270,1,0,0:0:0:0:
448,192,62270,1,0,0:0:0:0:
192,192,62428,1,0,0:0:0:0:
64,192,62586,1,0,0:0:0:0:
448,192,62586,1,0,0:0:0:0:
320,192,62586,1,0,0:0:0:0:
192,192,62743,1,0,0:0:0:0:
320,192,62901,1,0,0:0:0:0:
448,192,63059,1,0,0:0:0:0:
64,192,63217,1,0,0:0:0:0:
192,192,63217,1,0,0:0:0:0:
320,192,63217,1,0,0:0:0:0:
192,192,63533,1,0,0:0:0:0:
448,192,63533,1,0,0:0:0:0:
320,192,63849,1,0,0:0:0:0:
448,192,63849,1,0,0:0:0:0:
64,192,63849,1,0,0:0:0:0:
192,192,64164,1,0,0:0:0:0:
64,192,64164,1,0,0:0:0:0:
320,192,64322,1,0,0:0:0:0:
448,192,64480,1,0,0:0:0:0:
64,192,64480,1,0,0:0:0:0:
192,192,64480,1,0,0:0:0:0:
320,192,64796,1,0,0:0:0:0:
64,192,65112,1,0,0:0:0:0:
192,192,65112,1,0,0:0:0:0:
320,192,65428,1,0,0:0:0:0:
64,192,65743,1,0,0:0:0:0:
448,192,65743,1,0,0:0:0:0:
192,192,65743,1,0,0:0:0:0:
320,192,66059,1,0,0:0:0:0:
192,192,66059,1,0,0:0:0:0:
192,192,66375,1,0,0:0:0:0:
64,192,66375,1,0,0:0:0:0:
448,192,66375,1,0,0:0:0:0:
320,192,66691,1,0,0:0:0:0:
64,192,66691,1,0,0:0:0:0:
192,192,67007,1,0,0:0:0:0:
448,192,67007,1,0,0:0:0:0:
320,192,67007,1,0,0:0:0:0:
64,192,67322,1,0,0:0:0:0:
320,192,67638,1,0,0:0:0:0:
192,192,67638,1,0,0:0:0:0:
448,192,67954,1,0,0:0:0:0:
64,192,67954,1,0,0:0:0:0:
192,192,68112,1,0,0:0:0:0:
64,192,68270,1,0,0:0:0:0:
320,192,68270,1,0,0:0:0:0:
448,192,68270,1,0,0:0:0:0:
320,192,68586,1,0,0:0:0:0:
64,192,68586,1,0,0:0:0:0:
320,192,68743,1,0,0:0:0:0:
192,192,68901,1,0,0:0:0:0:
448,192,68901,1,0,0:0:0:0:
64,192,68901,1,0,0:0:0:0:
448,192,69217,1,0,0:0:0:0:
192,192,69217,1,0,0:0:0:0:
320,192,69375,1,0,0:0:0:0:
448,192,69533,1,0,0:0:0:0:
64,192,69533,1,0,0:0:0:0:
192,192,69533,1,0,0:0:0:0:
192,192,69849,1,0,0:0:0:0:
320,192,70164,1,0,0:0:0:0:
448,192,70164,1,0,0:0:0:0:
192,192,70480,1,0,0:0:0:0:
64,192,70796,1,0,0:0:0:0:
448,192,70796,1,0,0:0:0:0:
320,192,70796,1,0,0:0:0:0:
64,192,71112,1,0,0:0:0:0:
192,192,71112,1,0,0:0:0:0:
320,192,71270,1,0,0:0:0:0:
192,192,71428,1,0,0:0:0:0:
64,192,71428,1,0,0:0:0:0:
448,192,71428,1,0,0:0:0:0:
448,192,71743,1,0,0:0:0:0:
320,192,71743,1,0,0:0:0:0:
192,192,71901,1,0,0:0:0:0:
448,192,72059,1,0,0:0:0:0:
64,192,72059,1,0,0:0:0:0:
320,192,72059,1,0,0:0:0:0:
320,192,72375,1,0,0:0:0:0:
192,192,72691,1,0,0:0:0:0:
448,192,72691,1,0,0:0:0:0:
64,192,73007,1,0,0:0:0:0:
448,192,73322,1,0,0:0:0:0:
320,192,73322,1,0,0:0:0:0:
192,192,73322,1,0,0:0:0:0:
320,192,73638,1,0,0:0:0:0:
64,192,73638,1,0,0:0:0:0:
192,192,73954,1,0,0:0:0:0:
64,192,73954,1,0,0:0:0:0:
448,192,73954,1,0,0:0:0:0:
320,192,74270,1,0,0:0:0:0:
448,192,74270,1,0,0:0:0:0:
192,192,74428,1,0,0:0:0:0:
64,192,74586,1,0,0:0:0:0:
448,192,74586,1,0,0:0:0:0:
320,192,74586,1,0,0:0:0:0:
192,192,74901,1,0,0:0:0:0:
448,192,75217,1,0,0:0:0:0:
320,192,75217,1,0,0:0:0:0:
192,192,75533,1,0,0:0:0:0:
448,192,75849,1,0,0:0:0:0:
64,192,75849,1,0,0:0:0:0:
320,192,75849,1,0,0:0:0:0:
192,192,76164,1,0,0:0:0:0:
320,192,76164,1,0,0:0:0:0:
320,192,76480,1,0,0:0:0:0:
448,192,76480,1,0,0:0:0:0:
64,192,76480,1,0,0:0:0:0:
192,192,76796,1,0,0:0:0:0:
448,192,76796,1,0,0:0:0:0:
320,192,77112,1,0,0:0:0:0:
64,192,77112,1,0,0:0:0:0:
192,192,77112,1,0,0:0:0:0:
448,192,77428,1,0,0:0:0:0:
192,192,77743,1,0,0:0:0:0:
320,192,77743,1,0,0:0:0:0:
64,192,78059,1,0,0:0:0:0:
448,192,78059,1,0,0:0:0:0:
320,192,78217,1,0,0:0:0:0:
448,192,78375,1,0,0:0:0:0:
192,192,78375,1,0,0:0:0:0:
64,192,78375,1,0,0:0:0:0:
192,192,78691,1,0,0:0:0:0:
448,192,78691,1,0,0:0:0:0:
192,192,78849,1,0,0:0:0:0:
448,192,79007,1,0,0:0:0:0:
64,192,79007,1,0,0:0:0:0:
320,192,79007,1,0,0:0:0:0:
64,192,79322,1,0,0:0:0:0:
320,192,79322,1,0,0:0:0:0:
192,192,79480,1,0,0:0:0:0:
64,192,79638,1,0,0:0:0:0:
448,192,79638,1,0,0:0:0:0:
320,192,79638,1,0,0:0:0:0:
448,192,79954,1,0,0:0:0:0:
192,192,80270,1,0,0:0:0:0:
64,192,80270,1,0,0:0:0:0:
320,192,80586,1,0,0:0:0:0:
448,192,80901,1,0,0:0:0:0:
64,192,80901,1,0,0:0:0:0:
192,192,80901,1,0,0:0:0:0:
448,192,81217,1,0,0:0:0:0:
320,192,81217,1,0,0:0:0:0:
64,192,81375,1,0,0:0:0:0:
320,192,81533,1,0,0:0:0:0:
448,192,81533,1,0,0:0:0:0:
192,192,81533,1,0,0:0:0:0:
64,192,81849,1,0,0:0:0:0:
192,192,81849,1,0,0:0:0:0:
448,192,82007,1,0,0:0:0:0:
64,192,82164,1,0,0:0:0:0:
320,192,82164,1,0,0:0:0:0:
192,192,82164,1,0,0:0:0:0:
448,192,82322,1,0,0:0:0:0:
320,192,82480,1,0,0:0:0:0:
64,192,82480,1,0,0:0:0:0:
192,192,82638,1,0,0:0:0:0:
320,192,82796,1,0,0:0:0:0:
448,192,82796,1,0,0:0:0:0:
64,192,82796,1,0,0:0:0:0:
64,192,83428,1,0,0:0:0:0:
320,192,83428,1,0,0:0:0:0:
448,192,83428,1,0,0:0:0:0:
320,192,83743,1,0,0:0:0:0:
192,192,84059,1,0,0:0:0:0:
448,192,84059,1,0,0:0:0:0:
64,192,84059,1,0,0:0:0:0:
192,192,84375,1,0,0:0:0:0:
320,192,84691,1,0,0:0:0:0:
64,192,84691,1,0,0:0:0:0:
448,192,85007,128,0,85164:0:0:0:0:
64,192,85322,1,0,0:0:0:0:
448,192,85322,128,0,85480:0:0:0:0:
320,192,85322,1,0,0:0:0:0:
64,192,85638,1,0,0:0:0:0:
320,192,85954,1,0,0:0:0:0:
448,192,85954,1,0,0:0:0:0:
320,192,86270,1,0,0:0:0:0:
448,192,86586,1,0,0:0:0:0:
192,192,86586,1,0,0:0:0:0:
64,192,86586,1,0,0:0:0:0:
192,192,86901,1,0,0:0:0:0:
320,192,87217,1,0,0:0:0:0:
448,192,87217,1,0,0:0:0:0:
320,192,87533,1,0,0:0:0:0:
192,192,87691,1,0,0:0:0:0:
320,192,87849,1,0,0:0:0:0:
448,192,87849,1,0,0:0:0:0:
64,192,87849,128,0,88164:0:0:0:0:
192,192,88164,1,0,0:0:0:0:
320,192,88480,1,0,0:0:0:0:
448,192,88480,1,0,0:0:0:0:
320,192,88796,1,0,0:0:0:0:
448,192,89112,1,0,0:0:0:0:
64,192,89112,1,0,0:0:0:0:
192,192,89112,1,0,0:0:0:0:
64,192,89428,1,0,0:0:0:0:
320,192,89743,1,0,0:0:0:0:
448,192,89743,1,0,0:0:0:0:
320,192,90059,1,0,0:0:0:0:
192,192,90375,1,0,0:0:0:0:
64,192,90375,1,0,0:0:0:0:
448,192,90375,1,0,0:0:0:0:
64,192,90691,1,0,0:0:0:0:
192,192,91007,1,0,0:0:0:0:
448,192,91007,1,0,0:0:0:0:
448,192,91322,1,0,0:0:0:0:
320,192,91638,1,0,0:0:0:0:
192,192,91638,1,0,0:0:0:0:
64,192,91638,1,0,0:0:0:0:
192,192,91954,1,0,0:0:0:0:
64,192,92270,1,0,0:0:0:0:
320,192,92270,1,0,0:0:0:0:
448,192,92586,1,0,0:0:0:0:
320,192,92743,1,0,0:0:0:0:
192,192,92901,1,0,0:0:0:0:
64,192,92901,1,0,0:0:0:0:
448,192,92901,1,0,0:0:0:0:
192,192,93217,1,0,0:0:0:0:
320,192,93533,1,0,0:0:0:0:
448,192,93533,1,0,0:0:0:0:
64,192,93691,1,0,0:0:0:0:
320,192,93849,1,0,0:0:0:0:
64,192,94007,1,0,0:0:0:0:
192,192,94164,1,0,0:0:0:0:
448,192,94164,1,0,0:0:0:0:
320,192,94164,1,0,0:0:0:0:
448,192,94480,1,0,0:0:0:0:
320,192,94796,1,0,0:0:0:0:
64,192,94796,1,0,0:0:0:0:
192,192,94954,1,0,0:0:0:0:
448,192,95112,1,0,0:0:0:0:
192,192,95270,1,0,0:0:0:0:
320,192,95428,1,0,0:0:0:0:
448,192,95428,1,0,0:0:0:0:
64,192,95428,1,0,0:0:0:0:
192,192,95743,1,0,0:0:0:0:
64,192,96059,1,0,0:0:0:0:
448,192,96059,1,0,0:0:0:0:
192,192,96217,1,0,0:0:0:0:
448,192,96375,1,0,0:0:0:0:
192,192,96533,1,0,0:0:0:0:
320,192,96691,1,0,0:0:0:0:
448,192,96691,1,0,0:0:0:0:
64,192,96691,1,0,0:0:0:0:
192,192,97007,1,0,0:0:0:0:
64,192,97322,1,0,0:0:0:0:
320,192,97322,1,0,0:0:0:0:
448,192,97480,1,0,0:0:0:0:
192,192,97638,1,0,0:0:0:0:
448,192,97796,1,0,0:0:0:0:
64,192,97954,1,0,0:0:0:0:
192,192,97954,1,0,0:0:0:0:
320,192,97954,1,0,0:0:0:0:
320,192,98270,1,0,0:0:0:0:
448,192,98586,1,0,0:0:0:0:
64,192,98586,1,0,0:0:0:0:
320,192,98743,1,0,0:0:0:0:
64,192,98901,1,0,0:0:0:0:
320,192,99059,1,0,0:0:0:0:
192,192,99217,1,0,0:0:0:0:
448,192,99217,1,0,0:0:0:0:
64,192,99217,1,0,0:0:0:0:
192,192,99533,1,0,0:0:0:0:
320,192,99849,1,0,0:0:0:0:
448,192,99849,1,0,0:0:0:0:
64,192,100007,1,0,0:0:0:0:
320,192,100164,1,0,0:0:0:0:
192,192,100322,1,0,0:0:0:0:
64,192,100480,1,0,0:0:0:0:
448,192,100480,1,0,0:0:0:0:
320,192,100480,1,0,0:0:0:0:
192,192,100796,1,0,0:0:0:0:
64,192,101112,1,0,0:0:0:0:
448,192,101112,1,0,0:0:0:0:
192,192,101112,1,0,0:0:0:0:
320,192,101428,1,0,0:0:0:0:
192,192,101586,1,0,0:0:0:0:
320,192,101743,1,0,0:0:0:0:
448,192,101743,1,0,0:0:0:0:
64,192,101743,1,0,0:0:0:0:
192,192,102059,1,0,0:0:0:0:
64,192,102375,1,0,0:0:0:0:
448,192,102375,1,0,0:0:0:0:
320,192,102533,1,0,0:0:0:0:
192,192,102691,1,0,0:0:0:0:
64,192,102691,1,0,0:0:0:0:
448,192,102849,1,0,0:0:0:0:
320,192,103007,1,0,0:0:0:0:
64,192,103007,1,0,0:0:0:0:
192,192,103007,1,0,0:0:0:0:
64,192,103638,1,0,0:0:0:0:
320,192,103638,1,0,0:0:0:0:
448,192,103638,1,0,0:0:0:0:
192,192,103954,1,0,0:0:0:0:
64,192,103954,1,0,0:0:0:0:
320,192,104112,1,0,0:0:0:0:
448,192,104270,1,0,0:0:0:0:
64,192,104270,1,0,0:0:0:0:
192,192,104270,1,0,0:0:0:0:
320,192,104586,1,0,0:0:0:0:
448,192,104586,1,0,0:0:0:0:
64,192,104901,1,0,0:0:0:0:
320,192,104901,128,0,105059:0:0:0:0:
448,192,105059,128,0,105217:0:0:0:0:
320,192,105217,128,0,105375:0:0:0:0:
192,192,105217,1,0,0:0:0:0:
448,192,105375,128,0,105533:0:0:0:0:
320,192,105533,128,0,105691:0:0:0:0:
64,192,105533,1,0,0:0:0:0:
192,192,105533,1,0,0:0:0:0:
448,192,105849,1,0,0:0:0:0:
192,192,105849,1,0,0:0:0:0:
64,192,106164,1,0,0:0:0:0:
320,192,106164,1,0,0:0:0:0:
192,192,106480,1,0,0:0:0:0:
448,192,106480,1,0,0:0:0:0:
320,192,106638,1,0,0:0:0:0:
448,192,106796,1,0,0:0:0:0:
64,192,106796,1,0,0:0:0:0:
192,192,106796,1,0,0:0:0:0:
320,192,107112,1,0,0:0:0:0:
64,192,107112,1,0,0:0:0:0:
320,192,107428,1,0,0:0:0:0:
64,192,107428,1,0,0:0:0:0:
448,192,107743,1,0,0:0:0:0:
192,192,107743,1,0,0:0:0:0:
320,192,107901,1,0,0:0:0:0:
192,192,107980,1,0,0:0:0:0:
64,192,108059,1,0,0:0:0:0:
448,192,108059,1,0,0:0:0:0:
320,192,108375,1,0,0:0:0:0:
64,192,108375,1,0,0:0:0:0:
192,192,108691,1,0,0:0:0:0:
448,192,108691,1,0,0:0:0:0:
64,192,109007,1,0,0:0:0:0:
320,192,109007,1,0,0:0:0:0:
192,192,109164,1,0,0:0:0:0:
64,192,109322,1,0,0:0:0:0:
320,192,109322,1,0,0:0:0:0:
448,192,109322,1,0,0:0:0:0:
192,192,109638,1,0,0:0:0:0:
448,192,109638,1,0,0:0:0:0:
320,192,109954,1,0,0:0:0:0:
64,192,109954,1,0,0:0:0:0:
448,192,110270,1,0,0:0:0:0:
192,192,110270,1,0,0:0:0:0:
320,192,110428,1,0,0:0:0:0:
448,192,110586,1,0,0:0:0:0:
192,192,110586,1,0,0:0:0:0:
64,192,110586,1,0,0:0:0:0:
320,192,110901,1,0,0:0:0:0:
64,192,110901,1,0,0:0:0:0:
192,192,111217,1,0,0:0:0:0:
64,192,111217,1,0,0:0:0:0:
192,192,111533,1,0,0:0:0:0:
448,192,111533,1,0,0:0:0:0:
320,192,111691,1,0,0:0:0:0:
448,192,111849,1,0,0:0:0:0:
64,192,111849,1,0,0:0:0:0:
192,192,111849,1,0,0:0:0:0:
320,192,112164,1,0,0:0:0:0:
64,192,112164,1,0,0:0:0:0:
192,192,112480,1,0,0:0:0:0:
448,192,112480,1,0,0:0:0:0:
320,192,112796,1,0,0:0:0:0:
64,192,112796,1,0,0:0:0:0:
192,192,112954,1,0,0:0:0:0:
320,192,113033,1,0,0:0:0:0:
448,192,113112,1,0,0:0:0:0:
64,192,113112,1,0,0:0:0:0:
64,192,113428,1,0,0:0:0:0:
320,192,113428,1,0,0:0:0:0:
448,192,113743,1,0,0:0:0:0:
320,192,113743,1,0,0:0:0:0:
64,192,114059,1,0,0:0:0:0:
192,192,114059,1,0,0:0:0:0:
320,192,114217,1,0,0:0:0:0:
192,192,114375,1,0,0:0:0:0:
64,192,114375,1,0,0:0:0:0:
448,192,114375,1,0,0:0:0:0:
320,192,114691,1,0,0:0:0:0:
64,192,114691,1,0,0:0:0:0:
64,192,115007,128,0,115164:0:0:0:0:
448,192,115007,1,0,0:0:0:0:
192,192,115164,128,0,115322:0:0:0:0:
64,192,115322,128,0,115480:0:0:0:0:
320,192,115322,1,0,0:0:0:0:
192,192,115480,128,0,115638:0:0:0:0:
64,192,115638,128,0,115796:0:0:0:0:
320,192,115638,1,0,0:0:0:0:
448,192,115638,1,0,0:0:0:0:
64,192,115954,1,0,0:0:0:0:
320,192,115954,1,0,0:0:0:0:
192,192,116270,1,0,0:0:0:0:
448,192,116270,1,0,0:0:0:0:
192,192,116586,1,0,0:0:0:0:
64,192,116586,1,0,0:0:0:0:
448,192,116743,1,0,0:0:0:0:
320,192,116901,1,0,0:0:0:0:
64,192,116901,1,0,0:0:0:0:
192,192,116901,1,0,0:0:0:0:
192,192,117217,1,0,0:0:0:0:
448,192,117217,1,0,0:0:0:0:
64,192,117533,1,0,0:0:0:0:
320,192,117533,1,0,0:0:0:0:
64,192,117849,1,0,0:0:0:0:
448,192,117849,1,0,0:0:0:0:
192,192,118007,1,0,0:0:0:0:
320,192,118086,1,0,0:0:0:0:
448,192,118164,1,0,0:0:0:0:
64,192,118164,1,0,0:0:0:0:
192,192,118480,1,0,0:0:0:0:
320,192,118480,1,0,0:0:0:0:
320,192,118796,1,0,0:0:0:0:
64,192,118796,1,0,0:0:0:0:
192,192,119112,1,0,0:0:0:0:
448,192,119112,1,0,0:0:0:0:
64,192,119270,1,0,0:0:0:0:
320,192,119428,1,0,0:0:0:0:
448,192,119428,1,0,0:0:0:0:
192,192,119428,1,0,0:0:0:0:
320,192,119743,1,0,0:0:0:0:
64,192,119743,1,0,0:0:0:0:
192,192,120059,1,0,0:0:0:0:
64,192,120059,1,0,0:0:0:0:
448,192,120375,1,0,0:0:0:0:
64,192,120375,1,0,0:0:0:0:
192,192,120533,1,0,0:0:0:0:
320,192,120691,1,0,0:0:0:0:
448,192,120691,1,0,0:0:0:0:
64,192,120691,1,0,0:0:0:0:
320,192,121007,1,0,0:0:0:0:
192,192,121007,1,0,0:0:0:0:
192,192,121322,1,0,0:0:0:0:
64,192,121322,1,0,0:0:0:0:
448,192,121322,1,0,0:0:0:0:
320,192,121638,1,0,0:0:0:0:
448,192,121638,1,0,0:0:0:0:
192,192,121796,1,0,0:0:0:0:
320,192,121954,1,0,0:0:0:0:
448,192,121954,1,0,0:0:0:0:
64,192,121954,1,0,0:0:0:0:
192,192,122270,1,0,0:0:0:0:
64,192,122270,1,0,0:0:0:0:
64,192,122586,1,0,0:0:0:0:
448,192,122586,1,0,0:0:0:0:
192,192,122743,1,0,0:0:0:0:
320,192,122901,1,0,0:0:0:0:
448,192,122901,1,0,0:0:0:0:
192,192,123059,1,0,0:0:0:0:
64,192,123217,1,0,0:0:0:0:
448,192,123217,1,0,0:0:0:0:
320,192,123217,1,0,0:0:0:0:
64,192,123849,1,0,0:0:0:0:
192,192,123849,1,0,0:0:0:0:
448,192,123849,1,0,0:0:0:0:
192,192,124480,1,0,0:0:0:0:
64,192,124480,1,0,0:0:0:0:
64,192,125112,1,0,0:0:0:0:
192,192,125112,1,0,0:0:0:0:
448,192,125428,128,0,125586:0:0:0:0:
320,192,125586,128,0,125743:0:0:0:0:
64,192,125743,1,0,0:0:0:0:
192,192,125743,128,0,125901:0:0:0:0:
320,192,126375,1,0,0:0:0:0:
448,192,126375,1,0,0:0:0:0:
320,192,127007,1,0,0:0:0:0:
448,192,127007,1,0,0:0:0:0:
320,192,127638,1,0,0:0:0:0:
448,192,127638,1,0,0:0:0:0:
64,192,127954,128,0,128112:0:0:0:0:
192,192,128112,128,0,128270:0:0:0:0:
448,192,128270,1,0,0:0:0:0:
320,192,128270,128,0,128428:0:0:0:0:
64,192,128901,1,0,0:0:0:0:
192,192,128901,1,0,0:0:0:0:
192,192,129533,1,0,0:0:0:0:
64,192,129533,1,0,0:0:0:0:
192,192,130164,1,0,0:0:0:0:
64,192,130164,1,0,0:0:0:0:
192,192,130796,1,0,0:0:0:0:
64,192,130796,1,0,0:0:0:0:
448,192,131428,1,0,0:0:0:0:
192,192,131428,128,0,131586:0:0:0:0:
320,192,131901,1,0,0:0:0:0:
192,192,132059,1,0,0:0:0:0:
448,192,132059,1,0,0:0:0:0:
64,192,132059,1,0,0:0:0:0:
64,192,132375,1,0,0:0:0:0:
192,192,132533,1,0,0:0:0:0:
448,192,132691,128,0,133322:0:0:0:0:
320,192,132691,1,0,0:0:0:0:
64,192,133007,1,0,0:0:0:0:
320,192,133164,1,0,0:0:0:0:
64,192,133322,128,0,133954:0:0:0:0:
192,192,133322,1,0,0:0:0:0:
320,192,133638,1,0,0:0:0:0:
448,192,133954,128,0,134901:0:0:0:0:
192,192,133954,1,0,0:0:0:0:
64,192,134270,1,0,0:0:0:0:
320,192,134270,1,0,0:0:0:0:
192,192,134428,1,0,0:0:0:0:
64,192,134586,1,0,0:0:0:0:
320,192,134586,1,0,0:0:0:0:
192,192,134901,1,0,0:0:0:0:
320,192,134901,1,0,0:0:0:0:
320,192,135217,128,0,135375:0:0:0:0:
64,192,135217,1,0,0:0:0:0:
448,192,135375,128,0,135533:0:0:0:0:
320,192,135533,128,0,135691:0:0:0:0:
192,192,135533,1,0,0:0:0:0:
448,192,135691,128,0,135849:0:0:0:0:
64,192,135849,1,0,0:0:0:0:
320,192,135849,128,0,136007:0:0:0:0:
192,192,135849,1,0,0:0:0:0:
448,192,136164,1,0,0:0:0:0:
192,192,136164,1,0,0:0:0:0:
64,192,136480,1,0,0:0:0:0:
320,192,136480,1,0,0:0:0:0:
192,192,136796,1,0,0:0:0:0:
448,192,136796,1,0,0:0:0:0:
320,192,136954,1,0,0:0:0:0:
448,192,137112,1,0,0:0:0:0:
64,192,137112,1,0,0:0:0:0:
192,192,137112,1,0,0:0:0:0:
320,192,137428,1,0,0:0:0:0:
192,192,137428,1,0,0:0:0:0:
320,192,137743,1,0,0:0:0:0:
64,192,137743,1,0,0:0:0:0:
448,192,138059,1,0,0:0:0:0:
192,192,138059,1,0,0:0:0:0:
320,192,138217,1,0,0:0:0:0:
192,192,138296,1,0,0:0:0:0:
64,192,138375,1,0,0:0:0:0:
448,192,138375,1,0,0:0:0:0:
320,192,138691,1,0,0:0:0:0:
64,192,138691,1,0,0:0:0:0:
192,192,139007,1,0,0:0:0:0:
448,192,139007,1,0,0:0:0:0:
64,192,139322,1,0,0:0:0:0:
320,192,139322,1,0,0:0:0:0:
448,192,139480,1,0,0:0:0:0:
192,192,139638,1,0,0:0:0:0:
64,192,139638,1,0,0:0:0:0:
320,192,139638,1,0,0:0:0:0:
192,192,139954,1,0,0:0:0:0:
448,192,139954,1,0,0:0:0:0:
320,192,140270,1,0,0:0:0:0:
64,192,140270,1,0,0:0:0:0:
448,192,140586,1,0,0:0:0:0:
192,192,140586,1,0,0:0:0:0:
64,192,140743,1,0,0:0:0:0:
320,192,140901,1,0,0:0:0:0:
448,192,140901,1,0,0:0:0:0:
320,192,141217,1,0,0:0:0:0:
64,192,141217,1,0,0:0:0:0:
192,192,141533,1,0,0:0:0:0:
64,192,141533,1,0,0:0:0:0:
192,192,141849,1,0,0:0:0:0:
448,192,141849,1,0,0:0:0:0:
320,192,142007,1,0,0:0:0:0:
448,192,142164,1,0,0:0:0:0:
64,192,142164,1,0,0:0:0:0:
192,192,142164,1,0,0:0:0:0:
320,192,142480,1,0,0:0:0:0:
64,192,142480,1,0,0:0:0:0:
192,192,142638,1,0,0:0:0:0:
448,192,142796,1,0,0:0:0:0:
320,192,142796,1,0,0:0:0:0:
320,192,143112,1,0,0:0:0:0:
64,192,143112,1,0,0:0:0:0:
192,192,143270,1,0,0:0:0:0:
320,192,143349,1,0,0:0:0:0:
448,192,143428,1,0,0:0:0:0:
64,192,143428,1,0,0:0:0:0:
192,192,144059,1,0,0:0:0:0:
448,192,144059,1,0,0:0:0:0:
320,192,144059,1,0,0:0:0:0:
320,192,144375,1,0,0:0:0:0:
64,192,144375,1,0,0:0:0:0:
192,192,144691,1,0,0:0:0:0:
64,192,144691,1,0,0:0:0:0:
448,192,144691,1,0,0:0:0:0:
192,192,145007,1,0,0:0:0:0:
448,192,145007,1,0,0:0:0:0:
320,192,145164,1,0,0:0:0:0:
64,192,145322,1,0,0:0:0:0:
192,192,145322,1,0,0:0:0:0:
448,192,145480,1,0,0:0:0:0:
64,192,145638,1,0,0:0:0:0:
320,192,145638,1,0,0:0:0:0:
192,192,145796,1,0,0:0:0:0:
448,192,145796,1,0,0:0:0:0:
64,192,145954,1,0,0:0:0:0:
320,192,145954,1,0,0:0:0:0:
448,192,145954,1,0,0:0:0:0:
192,192,146112,1,0,0:0:0:0:
320,192,146270,1,0,0:0:0:0:
448,192,146428,1,0,0:0:0:0:
64,192,146586,1,0,0:0:0:0:
192,192,146586,1,0,0:0:0:0:
320,192,146586,1,0,0:0:0:0:
192,192,146901,1,0,0:0:0:0:
448,192,146901,1,0,0:0:0:0:
320,192,147217,1,0,0:0:0:0:
448,192,147217,1,0,0:0:0:0:
64,192,147217,1,0,0:0:0:0:
192,192,147533,1,0,0:0:0:0:
64,192,147533,1,0,0:0:0:0:
320,192,147691,1,0,0:0:0:0:
448,192,147849,1,0,0:0:0:0:
64,192,147849,1,0,0:0:0:0:
192,192,147849,1,0,0:0:0:0:
320,192,148164,1,0,0:0:0:0:
64,192,148480,1,0,0:0:0:0:
192,192,148480,1,0,0:0:0:0:
320,192,148796,1,0,0:0:0:0:
64,192,149112,1,0,0:0:0:0:
448,192,149112,1,0,0:0:0:0:
192,192,149112,1,0,0:0:0:0:
320,192,149428,1,0,0:0:0:0:
192,192,149428,1,0,0:0:0:0:
192,192,149743,1,0,0:0:0:0:
64,192,149743,1,0,0:0:0:0:
448,192,149743,1,0,0:0:0:0:
320,192,150059,1,0,0:0:0:0:
64,192,150059,1,0,0:0:0:0:
192,192,150375,1,0,0:0:0:0:
448,192,150375,1,0,0:0:0:0:
320,192,150375,1,0,0:0:0:0:
64,192,150691,1,0,0:0:0:0:
320,192,151007,1,0,0:0:0:0:
448,192,151007,1,0,0:0:0:0:
448,192,151322,1,0,0:0:0:0:
64,192,151322,1,0,0:0:0:0:
192,192,151480,1,0,0:0:0:0:
64,192,151638,1,0,0:0:0:0:
320,192,151638,1,0,0:0:0:0:
448,192,151638,1,0,0:0:0:0:
64,192,151954,1,0,0:0:0:0:
320,192,151954,1,0,0:0:0:0:
320,192,152112,1,0,0:0:0:0:
448,192,152270,1,0,0:0:0:0:
192,192,152270,1,0,0:0:0:0:
64,192,152270,1,0,0:0:0:0:
448,192,152586,1,0,0:0:0:0:
192,192,152586,1,0,0:0:0:0:
320,192,152743,1,0,0:0:0:0:
448,192,152901,1,0,0:0:0:0:
64,192,152901,1,0,0:0:0:0:
192,192,152901,1,0,0:0:0:0:
192,192,153217,1,0,0:0:0:0:
320,192,153533,1,0,0:0:0:0:
448,192,153533,1,0,0:0:0:0:
192,192,153849,1,0,0:0:0:0:
64,192,154164,1,0,0:0:0:0:
448,192,154164,1,0,0:0:0:0:
320,192,154164,1,0,0:0:0:0:
320,192,154480,1,0,0:0:0:0:
64,192,154480,1,0,0:0:0:0:
448,192,154638,1,0,0:0:0:0:
192,192,154796,1,0,0:0:0:0:
64,192,154796,1,0,0:0:0:0:
320,192,154796,1,0,0:0:0:0:
192,192,155112,1,0,0:0:0:0:
448,192,155112,1,0,0:0:0:0:
320,192,155270,1,0,0:0:0:0:
448,192,155428,1,0,0:0:0:0:
192,192,155428,1,0,0:0:0:0:
64,192,155428,1,0,0:0:0:0:
320,192,155743,1,0,0:0:0:0:
192,192,156059,1,0,0:0:0:0:
448,192,156059,1,0,0:0:0:0:
64,192,156375,1,0,0:0:0:0:
448,192,156691,1,0,0:0:0:0:
320,192,156691,1,0,0:0:0:0:
192,192,156691,1,0,0:0:0:0:
320,192,157007,1,0,0:0:0:0:
64,192,157007,1,0,0:0:0:0:
192,192,157322,1,0,0:0:0:0:
64,192,157322,1,0,0:0:0:0:
448,192,157322,1,0,0:0:0:0:
320,192,157638,1,0,0:0:0:0:
448,192,157638,1,0,0:0:0:0:
192,192,157796,1,0,0:0:0:0:
64,192,157954,1,0,0:0:0:0:
448,192,157954,1,0,0:0:0:0:
320,192,157954,1,0,0:0:0:0:
192,192,158270,1,0,0:0:0:0:
448,192,158586,1,0,0:0:0:0:
320,192,158586,1,0,0:0:0:0:
192,192,158901,1,0,0:0:0:0:
448,192,159217,1,0,0:0:0:0:
64,192,159217,1,0,0:0:0:0:
320,192,159217,1,0,0:0:0:0:
192,192,159533,1,0,0:0:0:0:
320,192,159533,1,0,0:0:0:0:
320,192,159849,1,0,0:0:0:0:
448,192,159849,1,0,0:0:0:0:
64,192,159849,1,0,0:0:0:0:
192,192,160164,1,0,0:0:0:0:
448,192,160164,1,0,0:0:0:0:
320,192,160480,1,0,0:0:0:0:
64,192,160480,1,0,0:0:0:0:
192,192,160480,1,0,0:0:0:0:
448,192,160796,1,0,0:0:0:0:
192,192,161112,1,0,0:0:0:0:
64,192,161112,1,0,0:0:0:0:
448,192,161428,1,0,0:0:0:0:
64,192,161428,1,0,0:0:0:0:
320,192,161586,1,0,0:0:0:0:
448,192,161743,1,0,0:0:0:0:
192,192,161743,1,0,0:0:0:0:
64,192,161743,1,0,0:0:0:0:
192,192,162059,1,0,0:0:0:0:
448,192,162059,1,0,0:0:0:0:
192,192,162217,1,0,0:0:0:0:
320,192,162375,1,0,0:0:0:0:
64,192,162375,1,0,0:0:0:0:
448,192,162375,1,0,0:0:0:0:
64,192,162691,1,0,0:0:0:0:
320,192,162691,1,0,0:0:0:0:
192,192,162849,1,0,0:0:0:0:
64,192,163007,1,0,0:0:0:0:
448,192,163007,1,0,0:0:0:0:
320,192,163007,1,0,0:0:0:0:
448,192,163322,1,0,0:0:0:0:
192,192,163638,1,0,0:0:0:0:
64,192,163638,1,0,0:0:0:0:
320,192,163954,1,0,0:0:0:0:
448,192,164270,1,0,0:0:0:0:
64,192,164270,1,0,0:0:0:0:
192,192,164270,1,0,0:0:0:0:
192,192,164586,1,0,0:0:0:0:
448,192,164586,1,0,0:0:0:0:
64,192,164743,1,0,0:0:0:0:
320,192,164901,1,0,0:0:0:0:
448,192,164901,1,0,0:0:0:0:
192,192,164901,1,0,0:0:0:0:
320,192,165217,1,0,0:0:0:0:
64,192,165217,1,0,0:0:0:0:
192,192,165375,1,0,0:0:0:0:
64,192,165533,1,0,0:0:0:0:
448,192,165533,1,0,0:0:0:0:
320,192,165533,1,0,0:0:0:0:
192,192,165691,1,0,0:0:0:0:
320,192,165849,1,0,0:0:0:0:
448,192,165849,1,0,0:0:0:0:
64,192,166007,1,0,0:0:0:0:
320,192,166164,1,0,0:0:0:0:
192,192,166164,1,0,0:0:0:0:
448,192,166164,1,0,0:0:0:0:
64,192,166796,1,0,0:0:0:0:
448,192,166796,1,0,0:0:0:0:
