osu file format v14

[General]
AudioFilename: audio.mp3
AudioLeadIn: 0
PreviewTime: 8224
Countdown: 0
SampleSet: Soft
StackLeniency: 0.7
Mode: 3
LetterboxInBreaks: 0
SpecialStyle: 0
WidescreenStoryboard: 1

[Editor]
Bookmarks: 1464,8224,21745,35266,42027,48787,62309,75830,89351
DistanceSpacing: 1.6
BeatDivisor: 4
GridSize: 4
TimelineZoom: 2.599999

[Metadata]
Title:POP TEAM EPIC
TitleUnicode:POP TEAM EPIC
Artist:Sumire Uesaka
ArtistUnicode:上坂すみれ
Creator:ecafree2
Version:4K HD
Source:ポプテピピック
Tags:poputepipikku popteamepic crazy technical anime
BeatmapID:1521325
BeatmapSetID:720564

[Difficulty]
HPDrainRate:6
CircleSize:4
OverallDifficulty:6
ApproachRate:8.5
SliderMultiplier:2
SliderTickRate:1

[Events]
//Background and Video events
0,0,"oB25hTn.png",0,0
Video,-75,"poop2.avi"
//Break Periods
//Storyboard Layer 0 (Background)
//Storyboard Layer 1 (Fail)
//Storyboard Layer 2 (Pass)
//Storyboard Layer 3 (Foreground)
//Storyboard Sound Samples

[TimingPoints]
1464,422.535211267606,4,2,0,100,1,0
6111,-200,4,2,0,100,0,0
6182,-50,4,2,0,100,0,0
6217,-200,4,2,0,100,0,0
6287,-50,4,2,0,100,0,0
6323,-200,4,2,0,100,0,0
6393,-50,4,2,0,100,0,0
6428,-200,4,2,0,100,0,0
6499,-50,4,2,0,100,0,0
6534,-100,4,2,0,100,0,0
8224,-100,4,2,0,100,0,0
14351,-20,4,2,0,100,0,0
14456,-500,4,2,0,100,0,0
14985,-100,4,2,0,100,0,0
47309,-10,4,2,0,100,0,0
47520,-66.6666666666667,4,2,0,100,0,0
47555,-125,4,2,0,100,0,0
47590,-250,4,2,0,100,0,0
47625,-500,4,2,0,100,0,0
47661,-1000,4,2,0,100,0,0
48365,-100,4,2,0,100,0,0
48787,-100,4,2,0,100,0,1
60618,-100,4,2,0,100,0,0
62309,-100,4,2,0,100,0,1
74140,-100,4,2,0,100,0,0

[HitObjects]
64,192,1464,5,0,0:0:0:0:
448,192,1464,128,0,1569:0:0:0:0:
192,192,1675,1,0,0:0:0:0:
448,192,1886,1,0,0:0:0:0:
320,192,1886,128,0,1992:0:0:0:0:
192,192,2097,128,0,2203:0:0:0:0:
320,192,2203,128,0,2309:0:0:0:0:
64,192,2203,1,0,0:0:0:0:
448,192,2309,1,0,0:0:0:0:
64,192,2520,1,0,0:0:0:0:
192,192,2573,1,0,0:0:0:0:
320,192,2625,1,0,0:0:0:0:
448,192,2678,1,0,0:0:0:0:
64,192,2731,1,0,0:0:0:0:
192,192,2837,1,0,0:0:0:0:
448,192,2942,1,0,0:0:0:0:
320,192,3048,1,0,0:0:0:0:
64,192,3154,1,0,0:0:0:0:
192,192,3154,1,0,0:0:0:0:
320,192,3365,1,0,0:0:0:0:
320,192,3471,1,0,0:0:0:0:
192,192,3576,1,0,0:0:0:0:
64,192,3682,1,0,0:0:0:0:
448,192,3787,128,0,3999:0:0:0:0:
64,192,3999,1,0,0:0:0:0:
320,192,3999,1,0,0:0:0:0:
192,192,4104,1,0,0:0:0:0:
320,192,4210,128,0,4421:0:0:0:0:
64,192,4421,128,0,4844:0:0:0:0:
192,192,4421,128,0,4844:0:0:0:0:
320,192,4844,1,0,0:0:0:0:
448,192,4844,1,0,0:0:0:0:
64,192,5055,1,0,0:0:0:0:
192,192,5161,1,0,0:0:0:0:
320,192,5266,1,0,0:0:0:0:
448,192,5266,1,0,0:0:0:0:
192,192,5372,1,0,0:0:0:0:
64,192,5478,1,0,0:0:0:0:
320,192,5583,1,0,0:0:0:0:
448,192,5689,1,0,0:0:0:0:
64,192,5689,1,0,0:0:0:0:
192,192,5794,1,0,0:0:0:0:
320,192,5900,1,0,0:0:0:0:
192,192,6006,1,0,0:0:0:0:
320,192,6111,1,0,0:0:0:0:
64,192,6111,1,0,0:0:0:0:
320,192,6217,1,0,0:0:0:0:
320,192,6323,1,0,0:0:0:0:
320,192,6428,1,0,0:0:0:0:
64,192,6534,128,0,6640:0:0:0:0:
448,192,6534,1,0,0:0:0:0:
64,192,6851,128,0,6956:0:0:0:0:
320,192,6956,1,0,0:0:0:0:
64,192,7062,128,0,7168:0:0:0:0:
320,192,7168,128,0,7273:0:0:0:0:
192,192,7273,128,0,7379:0:0:0:0:
448,192,7379,128,0,8224:0:0:0:0:
320,192,7379,1,0,0:0:0:0:
64,192,7485,128,0,8224:0:0:0:0:
192,192,7590,128,0,8224:0:0:0:0:
320,192,8224,128,0,8858:0:0:0:0:
192,192,8330,1,0,0:0:0:0:
64,192,8435,1,0,0:0:0:0:
448,192,8541,1,0,0:0:0:0:
192,192,8647,1,0,0:0:0:0:
64,192,8752,1,0,0:0:0:0:
192,192,8858,128,0,9280:0:0:0:0:
320,192,8964,1,0,0:0:0:0:
64,192,9069,1,0,0:0:0:0:
448,192,9069,1,0,0:0:0:0:
320,192,9175,1,0,0:0:0:0:
448,192,9280,128,0,9703:0:0:0:0:
320,192,9386,1,0,0:0:0:0:
64,192,9492,1,0,0:0:0:0:
192,192,9597,1,0,0:0:0:0:
64,192,9703,128,0,9914:0:0:0:0:
320,192,9809,1,0,0:0:0:0:
192,192,9914,128,0,10337:0:0:0:0:
448,192,9914,1,0,0:0:0:0:
320,192,10020,1,0,0:0:0:0:
448,192,10125,1,0,0:0:0:0:
64,192,10231,1,0,0:0:0:0:
320,192,10337,128,0,10759:0:0:0:0:
448,192,10442,1,0,0:0:0:0:
64,192,10548,1,0,0:0:0:0:
192,192,10654,1,0,0:0:0:0:
448,192,10759,128,0,10971:0:0:0:0:
64,192,10759,1,0,0:0:0:0:
320,192,10865,1,0,0:0:0:0:
64,192,10971,128,0,11604:0:0:0:0:
192,192,11076,1,0,0:0:0:0:
448,192,11182,1,0,0:0:0:0:
320,192,11287,1,0,0:0:0:0:
192,192,11393,1,0,0:0:0:0:
320,192,11499,1,0,0:0:0:0:
192,192,11604,128,0,12238:0:0:0:0:
448,192,11604,1,0,0:0:0:0:
320,192,11710,1,0,0:0:0:0:
64,192,11816,1,0,0:0:0:0:
448,192,11921,1,0,0:0:0:0:
320,192,12027,1,0,0:0:0:0:
64,192,12133,1,0,0:0:0:0:
320,192,12238,128,0,12661:0:0:0:0:
192,192,12344,1,0,0:0:0:0:
64,192,12449,1,0,0:0:0:0:
448,192,12449,1,0,0:0:0:0:
192,192,12555,1,0,0:0:0:0:
448,192,12661,128,0,13083:0:0:0:0:
192,192,12766,1,0,0:0:0:0:
64,192,12872,1,0,0:0:0:0:
320,192,12978,1,0,0:0:0:0:
64,192,13083,128,0,13294:0:0:0:0:
320,192,13189,1,0,0:0:0:0:
192,192,13294,128,0,13717:0:0:0:0:
448,192,13294,1,0,0:0:0:0:
320,192,13400,1,0,0:0:0:0:
64,192,13506,1,0,0:0:0:0:
448,192,13611,1,0,0:0:0:0:
320,192,13717,128,0,14140:0:0:0:0:
64,192,13823,1,0,0:0:0:0:
448,192,13928,1,0,0:0:0:0:
192,192,14034,1,0,0:0:0:0:
64,192,14140,1,0,0:0:0:0:
448,192,14140,1,0,0:0:0:0:
192,192,14351,128,0,14985:0:0:0:0:
320,192,14351,128,0,14985:0:0:0:0:
448,192,14985,1,0,0:0:0:0:
64,192,14985,128,0,15618:0:0:0:0:
192,192,15090,1,0,0:0:0:0:
320,192,15196,1,0,0:0:0:0:
448,192,15302,1,0,0:0:0:0:
192,192,15407,1,0,0:0:0:0:
320,192,15513,1,0,0:0:0:0:
192,192,15618,128,0,16041:0:0:0:0:
320,192,15724,1,0,0:0:0:0:
448,192,15830,1,0,0:0:0:0:
64,192,15830,1,0,0:0:0:0:
320,192,15935,1,0,0:0:0:0:
448,192,16041,128,0,16464:0:0:0:0:
64,192,16147,1,0,0:0:0:0:
192,192,16252,1,0,0:0:0:0:
320,192,16358,1,0,0:0:0:0:
64,192,16464,128,0,16675:0:0:0:0:
320,192,16569,1,0,0:0:0:0:
192,192,16675,128,0,17097:0:0:0:0:
448,192,16675,1,0,0:0:0:0:
320,192,16780,1,0,0:0:0:0:
64,192,16886,1,0,0:0:0:0:
448,192,16992,1,0,0:0:0:0:
320,192,17097,128,0,17520:0:0:0:0:
64,192,17203,1,0,0:0:0:0:
448,192,17309,1,0,0:0:0:0:
192,192,17414,1,0,0:0:0:0:
448,192,17520,128,0,17731:0:0:0:0:
64,192,17520,1,0,0:0:0:0:
320,192,17625,1,0,0:0:0:0:
192,192,17731,128,0,18365:0:0:0:0:
64,192,17837,1,0,0:0:0:0:
320,192,17942,1,0,0:0:0:0:
64,192,18048,1,0,0:0:0:0:
448,192,18154,1,0,0:0:0:0:
320,192,18259,1,0,0:0:0:0:
64,192,18365,128,0,18999:0:0:0:0:
448,192,18365,1,0,0:0:0:0:
320,192,18471,1,0,0:0:0:0:
192,192,18576,1,0,0:0:0:0:
448,192,18682,1,0,0:0:0:0:
320,192,18787,1,0,0:0:0:0:
192,192,18893,1,0,0:0:0:0:
448,192,18999,128,0,19421:0:0:0:0:
192,192,19104,1,0,0:0:0:0:
320,192,19210,1,0,0:0:0:0:
64,192,19210,1,0,0:0:0:0:
192,192,19316,1,0,0:0:0:0:
320,192,19421,128,0,19844:0:0:0:0:
64,192,19527,1,0,0:0:0:0:
192,192,19633,1,0,0:0:0:0:
448,192,19738,1,0,0:0:0:0:
64,192,19844,128,0,20055:0:0:0:0:
320,192,19949,1,0,0:0:0:0:
192,192,20055,1,0,0:0:0:0:
448,192,20055,1,0,0:0:0:0:
320,192,20266,1,0,0:0:0:0:
64,192,20266,1,0,0:0:0:0:
64,192,20478,1,0,0:0:0:0:
320,192,20478,1,0,0:0:0:0:
320,192,20689,1,0,0:0:0:0:
448,192,20794,1,0,0:0:0:0:
192,192,20794,1,0,0:0:0:0:
64,192,20900,1,0,0:0:0:0:
192,192,21006,1,0,0:0:0:0:
320,192,21111,1,0,0:0:0:0:
448,192,21217,1,0,0:0:0:0:
64,192,21323,1,0,0:0:0:0:
192,192,21428,1,0,0:0:0:0:
320,192,21534,1,0,0:0:0:0:
448,192,21640,1,0,0:0:0:0:
64,192,21745,1,0,0:0:0:0:
192,192,21745,1,0,0:0:0:0:
320,192,21956,1,0,0:0:0:0:
64,192,22168,1,0,0:0:0:0:
448,192,22168,1,0,0:0:0:0:
192,192,22379,1,0,0:0:0:0:
320,192,22590,1,0,0:0:0:0:
64,192,22590,1,0,0:0:0:0:
192,192,22802,1,0,0:0:0:0:
448,192,23013,1,0,0:0:0:0:
64,192,23013,1,0,0:0:0:0:
192,192,23224,1,0,0:0:0:0:
64,192,23435,1,0,0:0:0:0:
320,192,23435,1,0,0:0:0:0:
320,192,23647,1,0,0:0:0:0:
64,192,23858,1,0,0:0:0:0:
448,192,23858,1,0,0:0:0:0:
320,192,24069,1,0,0:0:0:0:
448,192,24280,1,0,0:0:0:0:
64,192,24280,1,0,0:0:0:0:
320,192,24492,1,0,0:0:0:0:
448,192,24703,1,0,0:0:0:0:
192,192,24703,1,0,0:0:0:0:
320,192,24914,1,0,0:0:0:0:
64,192,25125,1,0,0:0:0:0:
448,192,25125,1,0,0:0:0:0:
192,192,25337,1,0,0:0:0:0:
64,192,25548,1,0,0:0:0:0:
448,192,25548,1,0,0:0:0:0:
192,192,25759,1,0,0:0:0:0:
448,192,25971,1,0,0:0:0:0:
64,192,25971,1,0,0:0:0:0:
320,192,26182,1,0,0:0:0:0:
448,192,26393,1,0,0:0:0:0:
64,192,26393,1,0,0:0:0:0:
192,192,26604,1,0,0:0:0:0:
448,192,26816,128,0,27661:0:0:0:0:
64,192,26816,1,0,0:0:0:0:
192,192,26921,1,0,0:0:0:0:
320,192,27027,1,0,0:0:0:0:
192,192,27133,1,0,0:0:0:0:
64,192,27238,1,0,0:0:0:0:
192,192,27344,1,0,0:0:0:0:
320,192,27449,1,0,0:0:0:0:
192,192,27555,1,0,0:0:0:0:
64,192,27661,128,0,28506:0:0:0:0:
448,192,27766,1,0,0:0:0:0:
320,192,27872,1,0,0:0:0:0:
192,192,27978,1,0,0:0:0:0:
448,192,28083,1,0,0:0:0:0:
320,192,28189,1,0,0:0:0:0:
192,192,28294,1,0,0:0:0:0:
320,192,28400,1,0,0:0:0:0:
192,192,28506,1,0,0:0:0:0:
448,192,28506,1,0,0:0:0:0:
192,192,28717,1,0,0:0:0:0:
64,192,28928,1,0,0:0:0:0:
448,192,28928,1,0,0:0:0:0:
320,192,29140,1,0,0:0:0:0:
192,192,29351,1,0,0:0:0:0:
448,192,29351,1,0,0:0:0:0:
64,192,29562,1,0,0:0:0:0:
192,192,29773,1,0,0:0:0:0:
448,192,29773,1,0,0:0:0:0:
320,192,29985,1,0,0:0:0:0:
448,192,30196,1,0,0:0:0:0:
64,192,30196,1,0,0:0:0:0:
192,192,30407,1,0,0:0:0:0:
448,192,30618,1,0,0:0:0:0:
64,192,30618,1,0,0:0:0:0:
320,192,30830,1,0,0:0:0:0:
64,192,31041,1,0,0:0:0:0:
448,192,31041,1,0,0:0:0:0:
192,192,31252,1,0,0:0:0:0:
64,192,31464,1,0,0:0:0:0:
320,192,31464,1,0,0:0:0:0:
192,192,31675,1,0,0:0:0:0:
64,192,31886,1,0,0:0:0:0:
448,192,31886,1,0,0:0:0:0:
320,192,32097,1,0,0:0:0:0:
192,192,32309,1,0,0:0:0:0:
448,192,32309,1,0,0:0:0:0:
320,192,32520,1,0,0:0:0:0:
64,192,32731,1,0,0:0:0:0:
448,192,32731,1,0,0:0:0:0:
192,192,32942,1,0,0:0:0:0:
64,192,33154,1,0,0:0:0:0:
448,192,33154,1,0,0:0:0:0:
320,192,33365,1,0,0:0:0:0:
192,192,33576,128,0,33999:0:0:0:0:
448,192,33576,128,0,33647:0:0:0:0:
320,192,33787,1,0,0:0:0:0:
448,192,33999,128,0,34421:0:0:0:0:
64,192,33999,1,0,0:0:0:0:
192,192,34210,1,0,0:0:0:0:
64,192,34421,128,0,34844:0:0:0:0:
320,192,34421,1,0,0:0:0:0:
448,192,34633,1,0,0:0:0:0:
320,192,34738,1,0,0:0:0:0:
448,192,34844,128,0,35055:0:0:0:0:
192,192,34844,1,0,0:0:0:0:
320,192,35055,128,0,35161:0:0:0:0:
192,192,35161,128,0,35266:0:0:0:0:
64,192,35266,128,0,38647:0:0:0:0:
448,192,35266,1,0,0:0:0:0:
448,192,36111,1,0,0:0:0:0:
192,192,36111,1,0,0:0:0:0:
320,192,36956,1,0,0:0:0:0:
448,192,37802,1,0,0:0:0:0:
192,192,37802,1,0,0:0:0:0:
448,192,38647,128,0,40337:0:0:0:0:
192,192,38647,1,0,0:0:0:0:
320,192,39492,1,0,0:0:0:0:
64,192,39492,1,0,0:0:0:0:
192,192,40337,128,0,40971:0:0:0:0:
64,192,40337,1,0,0:0:0:0:
320,192,40971,1,0,0:0:0:0:
448,192,40971,1,0,0:0:0:0:
192,192,41076,1,0,0:0:0:0:
64,192,41076,1,0,0:0:0:0:
448,192,41182,1,0,0:0:0:0:
320,192,41182,128,0,41604:0:0:0:0:
192,192,41604,128,0,42027:0:0:0:0:
448,192,42027,1,0,0:0:0:0:
64,192,42027,1,0,0:0:0:0:
192,192,42133,1,0,0:0:0:0:
320,192,42238,1,0,0:0:0:0:
192,192,42344,1,0,0:0:0:0:
64,192,42449,1,0,0:0:0:0:
448,192,42449,1,0,0:0:0:0:
192,192,42555,1,0,0:0:0:0:
320,192,42661,1,0,0:0:0:0:
192,192,42766,1,0,0:0:0:0:
64,192,42872,1,0,0:0:0:0:
448,192,42872,1,0,0:0:0:0:
192,192,42978,1,0,0:0:0:0:
320,192,43083,1,0,0:0:0:0:
448,192,43083,1,0,0:0:0:0:
64,192,43189,1,0,0:0:0:0:
320,192,43294,1,0,0:0:0:0:
448,192,43294,1,0,0:0:0:0:
192,192,43400,1,0,0:0:0:0:
64,192,43506,1,0,0:0:0:0:
448,192,43717,1,0,0:0:0:0:
64,192,43717,1,0,0:0:0:0:
320,192,43823,1,0,0:0:0:0:
192,192,43928,1,0,0:0:0:0:
320,192,44034,1,0,0:0:0:0:
448,192,44140,1,0,0:0:0:0:
64,192,44140,1,0,0:0:0:0:
320,192,44245,1,0,0:0:0:0:
192,192,44351,1,0,0:0:0:0:
320,192,44456,1,0,0:0:0:0:
448,192,44562,1,0,0:0:0:0:
64,192,44562,1,0,0:0:0:0:
320,192,44668,1,0,0:0:0:0:
64,192,44773,128,0,44879:0:0:0:0:
320,192,44879,128,0,44985:0:0:0:0:
192,192,44985,128,0,45090:0:0:0:0:
448,192,45090,128,0,45196:0:0:0:0:
192,192,45196,128,0,45302:0:0:0:0:
320,192,45302,128,0,45407:0:0:0:0:
448,192,45407,1,0,0:0:0:0:
64,192,45407,1,0,0:0:0:0:
192,192,45513,1,0,0:0:0:0:
320,192,45513,1,0,0:0:0:0:
448,192,45618,1,0,0:0:0:0:
64,192,45618,1,0,0:0:0:0:
192,192,45724,1,0,0:0:0:0:
320,192,45724,1,0,0:0:0:0:
448,192,45830,1,0,0:0:0:0:
64,192,45830,1,0,0:0:0:0:
192,192,45935,1,0,0:0:0:0:
64,192,46041,1,0,0:0:0:0:
448,192,46041,1,0,0:0:0:0:
320,192,46147,1,0,0:0:0:0:
192,192,46252,1,0,0:0:0:0:
64,192,46252,1,0,0:0:0:0:
320,192,46358,1,0,0:0:0:0:
448,192,46358,1,0,0:0:0:0:
192,192,46464,1,0,0:0:0:0:
64,192,46464,1,0,0:0:0:0:
448,192,46569,1,0,0:0:0:0:
320,192,46569,1,0,0:0:0:0:
192,192,46675,1,0,0:0:0:0:
64,192,46675,1,0,0:0:0:0:
320,192,46780,1,0,0:0:0:0:
448,192,46886,128,0,47309:0:0:0:0:
64,192,46886,128,0,47309:0:0:0:0:
192,192,47309,1,0,0:0:0:0:
320,192,47309,1,0,0:0:0:0:
64,192,48365,1,0,0:0:0:0:
192,192,48365,1,0,0:0:0:0:
320,192,48365,1,0,0:0:0:0:
448,192,48365,1,0,0:0:0:0:
64,192,48787,1,0,0:0:0:0:
448,192,48787,128,0,50900:0:0:0:0:
192,192,48893,1,0,0:0:0:0:
320,192,48999,1,0,0:0:0:0:
192,192,49104,1,0,0:0:0:0:
64,192,49210,1,0,0:0:0:0:
320,192,49316,1,0,0:0:0:0:
192,192,49421,1,0,0:0:0:0:
320,192,49527,1,0,0:0:0:0:
64,192,49633,1,0,0:0:0:0:
192,192,49738,1,0,0:0:0:0:
320,192,49844,1,0,0:0:0:0:
192,192,49949,1,0,0:0:0:0:
64,192,50055,1,0,0:0:0:0:
320,192,50161,1,0,0:0:0:0:
192,192,50266,1,0,0:0:0:0:
320,192,50372,1,0,0:0:0:0:
64,192,50478,1,0,0:0:0:0:
192,192,50583,1,0,0:0:0:0:
320,192,50689,1,0,0:0:0:0:
192,192,50794,1,0,0:0:0:0:
64,192,50900,1,0,0:0:0:0:
320,192,51006,1,0,0:0:0:0:
192,192,51111,1,0,0:0:0:0:
64,192,51111,1,0,0:0:0:0:
320,192,51217,1,0,0:0:0:0:
448,192,51323,1,0,0:0:0:0:
192,192,51428,1,0,0:0:0:0:
320,192,51534,1,0,0:0:0:0:
448,192,51534,1,0,0:0:0:0:
192,192,51640,1,0,0:0:0:0:
448,192,51745,1,0,0:0:0:0:
64,192,51745,1,0,0:0:0:0:
320,192,51851,1,0,0:0:0:0:
192,192,51956,1,0,0:0:0:0:
64,192,51956,1,0,0:0:0:0:
320,192,52062,1,0,0:0:0:0:
448,192,52168,128,0,52590:0:0:0:0:
64,192,52168,1,0,0:0:0:0:
192,192,52273,1,0,0:0:0:0:
320,192,52379,1,0,0:0:0:0:
192,192,52485,1,0,0:0:0:0:
64,192,52590,1,0,0:0:0:0:
320,192,52696,1,0,0:0:0:0:
192,192,52802,1,0,0:0:0:0:
448,192,52802,128,0,53224:0:0:0:0:
320,192,52907,1,0,0:0:0:0:
64,192,53013,1,0,0:0:0:0:
192,192,53118,1,0,0:0:0:0:
320,192,53224,1,0,0:0:0:0:
64,192,53224,128,0,53647:0:0:0:0:
192,192,53330,1,0,0:0:0:0:
448,192,53435,1,0,0:0:0:0:
320,192,53541,1,0,0:0:0:0:
192,192,53647,128,0,54069:0:0:0:0:
320,192,53752,1,0,0:0:0:0:
448,192,53858,1,0,0:0:0:0:
64,192,53964,1,0,0:0:0:0:
320,192,54069,128,0,54280:0:0:0:0:
192,192,54175,1,0,0:0:0:0:
64,192,54280,1,0,0:0:0:0:
320,192,54386,1,0,0:0:0:0:
192,192,54492,1,0,0:0:0:0:
448,192,54492,1,0,0:0:0:0:
320,192,54597,1,0,0:0:0:0:
64,192,54703,1,0,0:0:0:0:
448,192,54703,1,0,0:0:0:0:
192,192,54809,1,0,0:0:0:0:
320,192,54914,1,0,0:0:0:0:
64,192,54914,1,0,0:0:0:0:
448,192,55020,1,0,0:0:0:0:
64,192,55125,1,0,0:0:0:0:
192,192,55125,1,0,0:0:0:0:
320,192,55231,1,0,0:0:0:0:
192,192,55337,1,0,0:0:0:0:
448,192,55337,1,0,0:0:0:0:
320,192,55442,1,0,0:0:0:0:
448,192,55548,1,0,0:0:0:0:
64,192,55548,128,0,56182:0:0:0:0:
320,192,55654,1,0,0:0:0:0:
192,192,55759,1,0,0:0:0:0:
320,192,55865,1,0,0:0:0:0:
448,192,55971,1,0,0:0:0:0:
192,192,56076,1,0,0:0:0:0:
448,192,56182,128,0,56604:0:0:0:0:
192,192,56287,1,0,0:0:0:0:
64,192,56393,1,0,0:0:0:0:
320,192,56499,1,0,0:0:0:0:
192,192,56604,128,0,57027:0:0:0:0:
320,192,56710,1,0,0:0:0:0:
448,192,56816,1,0,0:0:0:0:
64,192,56921,1,0,0:0:0:0:
320,192,57027,128,0,57449:0:0:0:0:
448,192,57133,1,0,0:0:0:0:
64,192,57238,1,0,0:0:0:0:
192,192,57344,1,0,0:0:0:0:
448,192,57449,128,0,57872:0:0:0:0:
192,192,57555,1,0,0:0:0:0:
64,192,57661,1,0,0:0:0:0:
192,192,57766,1,0,0:0:0:0:
64,192,57872,128,0,58294:0:0:0:0:
192,192,57978,1,0,0:0:0:0:
448,192,58083,1,0,0:0:0:0:
320,192,58189,1,0,0:0:0:0:
192,192,58294,1,0,0:0:0:0:
448,192,58294,128,0,58717:0:0:0:0:
320,192,58400,1,0,0:0:0:0:
192,192,58506,1,0,0:0:0:0:
64,192,58611,1,0,0:0:0:0:
192,192,58717,1,0,0:0:0:0:
320,192,58823,1,0,0:0:0:0:
448,192,58928,1,0,0:0:0:0:
64,192,58928,128,0,59351:0:0:0:0:
320,192,59140,1,0,0:0:0:0:
448,192,59140,1,0,0:0:0:0:
320,192,59351,1,0,0:0:0:0:
192,192,59351,128,0,59773:0:0:0:0:
448,192,59351,1,0,0:0:0:0:
320,192,59668,1,0,0:0:0:0:
64,192,59773,1,0,0:0:0:0:
448,192,59773,128,0,60196:0:0:0:0:
64,192,59985,1,0,0:0:0:0:
192,192,59985,1,0,0:0:0:0:
64,192,60196,1,0,0:0:0:0:
192,192,60196,128,0,60618:0:0:0:0:
320,192,60302,1,0,0:0:0:0:
64,192,60407,1,0,0:0:0:0:
320,192,60513,1,0,0:0:0:0:
64,192,60618,1,0,0:0:0:0:
448,192,60618,128,0,61252:0:0:0:0:
64,192,61041,1,0,0:0:0:0:
192,192,61041,1,0,0:0:0:0:
320,192,61147,1,0,0:0:0:0:
64,192,61252,128,0,61886:0:0:0:0:
192,192,61252,128,0,61886:0:0:0:0:
320,192,61675,1,0,0:0:0:0:
448,192,61675,1,0,0:0:0:0:
320,192,61886,128,0,62309:0:0:0:0:
448,192,61886,128,0,62309:0:0:0:0:
64,192,62309,1,0,0:0:0:0:
192,192,62309,1,0,0:0:0:0:
320,192,62414,1,0,0:0:0:0:
448,192,62520,1,0,0:0:0:0:
192,192,62625,1,0,0:0:0:0:
64,192,62731,1,0,0:0:0:0:
448,192,62731,1,0,0:0:0:0:
320,192,62837,1,0,0:0:0:0:
192,192,62942,1,0,0:0:0:0:
320,192,63048,1,0,0:0:0:0:
448,192,63154,1,0,0:0:0:0:
64,192,63154,1,0,0:0:0:0:
192,192,63259,1,0,0:0:0:0:
320,192,63365,1,0,0:0:0:0:
192,192,63471,1,0,0:0:0:0:
448,192,63576,1,0,0:0:0:0:
64,192,63576,1,0,0:0:0:0:
320,192,63682,1,0,0:0:0:0:
192,192,63787,1,0,0:0:0:0:
320,192,63893,1,0,0:0:0:0:
448,192,63999,1,0,0:0:0:0:
64,192,63999,1,0,0:0:0:0:
320,192,64052,1,0,0:0:0:0:
192,192,64104,1,0,0:0:0:0:
64,192,64157,1,0,0:0:0:0:
320,192,64210,1,0,0:0:0:0:
192,192,64316,1,0,0:0:0:0:
64,192,64421,1,0,0:0:0:0:
448,192,64421,1,0,0:0:0:0:
320,192,64527,1,0,0:0:0:0:
192,192,64633,1,0,0:0:0:0:
320,192,64738,1,0,0:0:0:0:
64,192,64844,1,0,0:0:0:0:
448,192,64844,1,0,0:0:0:0:
192,192,64897,1,0,0:0:0:0:
320,192,64949,1,0,0:0:0:0:
448,192,65002,1,0,0:0:0:0:
64,192,65055,1,0,0:0:0:0:
192,192,65108,1,0,0:0:0:0:
320,192,65161,1,0,0:0:0:0:
192,192,65266,1,0,0:0:0:0:
64,192,65266,1,0,0:0:0:0:
320,192,65372,1,0,0:0:0:0:
64,192,65478,1,0,0:0:0:0:
192,192,65583,1,0,0:0:0:0:
64,192,65689,1,0,0:0:0:0:
448,192,65689,1,0,0:0:0:0:
320,192,65759,1,0,0:0:0:0:
192,192,65830,1,0,0:0:0:0:
64,192,65900,1,0,0:0:0:0:
448,192,65953,1,0,0:0:0:0:
320,192,66006,1,0,0:0:0:0:
64,192,66111,1,0,0:0:0:0:
192,192,66111,1,0,0:0:0:0:
448,192,66217,1,0,0:0:0:0:
320,192,66323,1,0,0:0:0:0:
192,192,66428,1,0,0:0:0:0:
64,192,66534,1,0,0:0:0:0:
448,192,66534,1,0,0:0:0:0:
320,192,66587,1,0,0:0:0:0:
192,192,66640,1,0,0:0:0:0:
64,192,66692,1,0,0:0:0:0:
448,192,66745,1,0,0:0:0:0:
320,192,66798,1,0,0:0:0:0:
192,192,66851,1,0,0:0:0:0:
64,192,66956,1,0,0:0:0:0:
320,192,66956,1,0,0:0:0:0:
192,192,67062,1,0,0:0:0:0:
320,192,67168,1,0,0:0:0:0:
192,192,67273,1,0,0:0:0:0:
64,192,67379,1,0,0:0:0:0:
448,192,67379,1,0,0:0:0:0:
320,192,67432,1,0,0:0:0:0:
192,192,67485,1,0,0:0:0:0:
64,192,67537,1,0,0:0:0:0:
448,192,67590,1,0,0:0:0:0:
320,192,67643,1,0,0:0:0:0:
192,192,67696,1,0,0:0:0:0:
64,192,67802,1,0,0:0:0:0:
448,192,67802,1,0,0:0:0:0:
320,192,67907,1,0,0:0:0:0:
448,192,68013,1,0,0:0:0:0:
192,192,68118,1,0,0:0:0:0:
64,192,68224,1,0,0:0:0:0:
448,192,68224,1,0,0:0:0:0:
320,192,68277,1,0,0:0:0:0:
192,192,68330,1,0,0:0:0:0:
64,192,68383,1,0,0:0:0:0:
448,192,68435,1,0,0:0:0:0:
320,192,68488,1,0,0:0:0:0:
64,192,68647,1,0,0:0:0:0:
448,192,68647,1,0,0:0:0:0:
320,192,68752,1,0,0:0:0:0:
192,192,68858,1,0,0:0:0:0:
448,192,68964,1,0,0:0:0:0:
64,192,69069,1,0,0:0:0:0:
192,192,69069,1,0,0:0:0:0:
320,192,69122,1,0,0:0:0:0:
448,192,69175,1,0,0:0:0:0:
64,192,69228,1,0,0:0:0:0:
192,192,69280,1,0,0:0:0:0:
320,192,69333,1,0,0:0:0:0:
448,192,69386,1,0,0:0:0:0:
64,192,69492,1,0,0:0:0:0:
320,192,69492,1,0,0:0:0:0:
192,192,69597,1,0,0:0:0:0:
320,192,69703,1,0,0:0:0:0:
448,192,69809,1,0,0:0:0:0:
192,192,69914,1,0,0:0:0:0:
64,192,69914,1,0,0:0:0:0:
320,192,69967,1,0,0:0:0:0:
448,192,70020,1,0,0:0:0:0:
64,192,70073,1,0,0:0:0:0:
192,192,70125,1,0,0:0:0:0:
320,192,70178,1,0,0:0:0:0:
448,192,70231,1,0,0:0:0:0:
64,192,70337,1,0,0:0:0:0:
320,192,70337,1,0,0:0:0:0:
192,192,70442,1,0,0:0:0:0:
320,192,70548,1,0,0:0:0:0:
192,192,70654,1,0,0:0:0:0:
64,192,70759,1,0,0:0:0:0:
448,192,70759,1,0,0:0:0:0:
320,192,70812,1,0,0:0:0:0:
192,192,70865,1,0,0:0:0:0:
448,192,70918,1,0,0:0:0:0:
64,192,70971,1,0,0:0:0:0:
320,192,71023,1,0,0:0:0:0:
192,192,71076,1,0,0:0:0:0:
448,192,71182,1,0,0:0:0:0:
64,192,71182,1,0,0:0:0:0:
192,192,71287,1,0,0:0:0:0:
64,192,71393,1,0,0:0:0:0:
320,192,71499,1,0,0:0:0:0:
64,192,71604,1,0,0:0:0:0:
448,192,71604,1,0,0:0:0:0:
192,192,71657,1,0,0:0:0:0:
320,192,71710,1,0,0:0:0:0:
64,192,71763,1,0,0:0:0:0:
448,192,71816,1,0,0:0:0:0:
192,192,71868,1,0,0:0:0:0:
320,192,71921,1,0,0:0:0:0:
448,192,72027,1,0,0:0:0:0:
64,192,72027,1,0,0:0:0:0:
192,192,72133,1,0,0:0:0:0:
448,192,72238,1,0,0:0:0:0:
320,192,72344,1,0,0:0:0:0:
64,192,72449,128,0,72872:0:0:0:0:
192,192,72449,1,0,0:0:0:0:
448,192,72661,1,0,0:0:0:0:
320,192,72661,1,0,0:0:0:0:
192,192,72872,128,0,73294:0:0:0:0:
320,192,72872,1,0,0:0:0:0:
320,192,73294,128,0,73717:0:0:0:0:
448,192,73294,1,0,0:0:0:0:
192,192,73506,1,0,0:0:0:0:
64,192,73506,1,0,0:0:0:0:
448,192,73717,128,0,74140:0:0:0:0:
192,192,73717,1,0,0:0:0:0:
64,192,74140,1,0,0:0:0:0:
320,192,74140,1,0,0:0:0:0:
192,192,74140,1,0,0:0:0:0:
192,192,74351,1,0,0:0:0:0:
64,192,74351,1,0,0:0:0:0:
448,192,74562,1,0,0:0:0:0:
320,192,74562,1,0,0:0:0:0:
64,192,74668,1,0,0:0:0:0:
192,192,74668,1,0,0:0:0:0:
320,192,74773,128,0,75302:0:0:0:0:
448,192,74773,128,0,75407:0:0:0:0:
64,192,75196,128,0,75513:0:0:0:0:
192,192,75302,128,0,75618:0:0:0:0:
320,192,75407,128,0,75724:0:0:0:0:
448,192,75513,128,0,75724:0:0:0:0:
64,192,75618,1,0,0:0:0:0:
192,192,75724,1,0,0:0:0:0:
320,192,75830,1,0,0:0:0:0:
448,192,75830,128,0,76464:0:0:0:0:
192,192,75935,1,0,0:0:0:0:
64,192,76041,1,0,0:0:0:0:
320,192,76147,1,0,0:0:0:0:
64,192,76252,1,0,0:0:0:0:
192,192,76358,1,0,0:0:0:0:
64,192,76464,128,0,77097:0:0:0:0:
320,192,76569,1,0,0:0:0:0:
448,192,76675,1,0,0:0:0:0:
192,192,76780,1,0,0:0:0:0:
320,192,76886,1,0,0:0:0:0:
448,192,76992,1,0,0:0:0:0:
320,192,77097,128,0,77731:0:0:0:0:
192,192,77203,1,0,0:0:0:0:
64,192,77309,1,0,0:0:0:0:
192,192,77414,1,0,0:0:0:0:
448,192,77520,1,0,0:0:0:0:
64,192,77625,1,0,0:0:0:0:
192,192,77731,128,0,78365:0:0:0:0:
448,192,77837,1,0,0:0:0:0:
320,192,77942,1,0,0:0:0:0:
64,192,78048,1,0,0:0:0:0:
448,192,78154,1,0,0:0:0:0:
64,192,78259,1,0,0:0:0:0:
320,192,78365,128,0,78999:0:0:0:0:
448,192,78471,1,0,0:0:0:0:
192,192,78576,1,0,0:0:0:0:
64,192,78682,1,0,0:0:0:0:
192,192,78787,1,0,0:0:0:0:
64,192,78893,1,0,0:0:0:0:
448,192,78999,128,0,79633:0:0:0:0:
192,192,79104,1,0,0:0:0:0:
320,192,79210,1,0,0:0:0:0:
64,192,79316,1,0,0:0:0:0:
192,192,79421,1,0,0:0:0:0:
320,192,79527,1,0,0:0:0:0:
64,192,79633,128,0,80266:0:0:0:0:
192,192,79738,1,0,0:0:0:0:
320,192,79844,1,0,0:0:0:0:
448,192,79949,1,0,0:0:0:0:
192,192,80055,1,0,0:0:0:0:
320,192,80161,1,0,0:0:0:0:
192,192,80266,128,0,80900:0:0:0:0:
320,192,80372,1,0,0:0:0:0:
448,192,80478,1,0,0:0:0:0:
64,192,80583,1,0,0:0:0:0:
320,192,80689,1,0,0:0:0:0:
448,192,80794,1,0,0:0:0:0:
64,192,80900,1,0,0:0:0:0:
320,192,80900,1,0,0:0:0:0:
448,192,81006,1,0,0:0:0:0:
192,192,81111,1,0,0:0:0:0:
320,192,81217,1,0,0:0:0:0:
448,192,81323,1,0,0:0:0:0:
64,192,81323,1,0,0:0:0:0:
192,192,81428,1,0,0:0:0:0:
320,192,81534,1,0,0:0:0:0:
448,192,81534,1,0,0:0:0:0:
192,192,81640,1,0,0:0:0:0:
64,192,81745,1,0,0:0:0:0:
448,192,81851,1,0,0:0:0:0:
320,192,81956,1,0,0:0:0:0:
64,192,81956,1,0,0:0:0:0:
192,192,82062,1,0,0:0:0:0:
448,192,82168,1,0,0:0:0:0:
320,192,82168,1,0,0:0:0:0:
192,192,82273,1,0,0:0:0:0:
64,192,82379,1,0,0:0:0:0:
320,192,82485,1,0,0:0:0:0:
64,192,82590,128,0,83224:0:0:0:0:
448,192,82590,1,0,0:0:0:0:
320,192,82696,1,0,0:0:0:0:
192,192,82802,1,0,0:0:0:0:
448,192,82907,1,0,0:0:0:0:
320,192,83013,1,0,0:0:0:0:
192,192,83118,1,0,0:0:0:0:
320,192,83224,128,0,83858:0:0:0:0:
448,192,83330,1,0,0:0:0:0:
192,192,83435,1,0,0:0:0:0:
64,192,83541,1,0,0:0:0:0:
192,192,83647,1,0,0:0:0:0:
64,192,83752,1,0,0:0:0:0:
448,192,83858,128,0,84492:0:0:0:0:
320,192,83964,1,0,0:0:0:0:
192,192,84069,1,0,0:0:0:0:
64,192,84175,1,0,0:0:0:0:
320,192,84280,1,0,0:0:0:0:
64,192,84386,1,0,0:0:0:0:
192,192,84492,128,0,85125:0:0:0:0:
320,192,84597,1,0,0:0:0:0:
64,192,84703,1,0,0:0:0:0:
448,192,84809,1,0,0:0:0:0:
320,192,84914,1,0,0:0:0:0:
448,192,85020,1,0,0:0:0:0:
64,192,85125,128,0,85759:0:0:0:0:
320,192,85231,1,0,0:0:0:0:
192,192,85337,1,0,0:0:0:0:
448,192,85442,1,0,0:0:0:0:
320,192,85548,1,0,0:0:0:0:
192,192,85654,1,0,0:0:0:0:
320,192,85759,128,0,86393:0:0:0:0:
64,192,85865,1,0,0:0:0:0:
448,192,85971,1,0,0:0:0:0:
192,192,86076,1,0,0:0:0:0:
64,192,86182,1,0,0:0:0:0:
192,192,86287,1,0,0:0:0:0:
448,192,86393,1,0,0:0:0:0:
64,192,86393,1,0,0:0:0:0:
192,192,86499,1,0,0:0:0:0:
320,192,86604,1,0,0:0:0:0:
448,192,86710,1,0,0:0:0:0:
192,192,86710,1,0,0:0:0:0:
64,192,86816,1,0,0:0:0:0:
320,192,86816,1,0,0:0:0:0:
192,192,87027,1,0,0:0:0:0:
448,192,87027,1,0,0:0:0:0:
64,192,87238,1,0,0:0:0:0:
192,192,87238,1,0,0:0:0:0:
320,192,87344,1,0,0:0:0:0:
448,192,87344,1,0,0:0:0:0:
64,192,87555,1,0,0:0:0:0:
192,192,87555,1,0,0:0:0:0:
320,192,87661,1,0,0:0:0:0:
448,192,87661,1,0,0:0:0:0:
192,192,87872,1,0,0:0:0:0:
320,192,87872,1,0,0:0:0:0:
192,192,88083,1,0,0:0:0:0:
320,192,88083,1,0,0:0:0:0:
448,192,88294,1,0,0:0:0:0:
64,192,88294,1,0,0:0:0:0:
192,192,88400,1,0,0:0:0:0:
320,192,88400,1,0,0:0:0:0:
320,192,88611,1,0,0:0:0:0:
192,192,88611,1,0,0:0:0:0:
448,192,88717,1,0,0:0:0:0:
64,192,88717,1,0,0:0:0:0:
64,192,88928,128,0,90794:0:0:0:0:
448,192,88928,128,0,90900:0:0:0:0:
192,192,89351,128,0,90830:0:0:0:0:
320,192,89351,128,0,90865:0:0:0:0:
