osu file format v14

[General]
AudioFilename: audio.mp3
AudioLeadIn: 0
PreviewTime: 46785
Countdown: 0
SampleSet: Soft
StackLeniency: 0.7
Mode: 0
LetterboxInBreaks: 0
WidescreenStoryboard: 0

[Editor]
Bookmarks: 4320
DistanceSpacing: 1
BeatDivisor: 4
GridSize: 32
TimelineZoom: 1.9

[Metadata]
Title:POP TEAM EPIC
TitleUnicode:POP TEAM EPIC
Artist:Sumire Uesaka
ArtistUnicode:上坂すみれ
Creator:Anxient
Version:YOU ARE M########KER?
Source:ポプテピピック
Tags:anime アニメ TV Opening 2 ailv KING RECORDS poputepipiku
BeatmapID:1519263
BeatmapSetID:719434

[Difficulty]
HPDrainRate:5
CircleSize:5
OverallDifficulty:8
ApproachRate:9
SliderMultiplier:2.4
SliderTickRate:1

[Events]
//Background and Video events
Video,0,"popteamvideo.mp4"
0,0,"perfection.jpg",0,0
//Break Periods
//Storyboard Layer 0 (Background)
//Storyboard Layer 1 (Fail)
//Storyboard Layer 2 (Pass)
//Storyboard Layer 3 (Foreground)
//Storyboard Sound Samples

[TimingPoints]
518,422.535211267606,4,2,1,70,1,0
6644,-200,4,2,1,70,0,0
7278,-76.9230769230769,4,2,1,70,0,0
13405,-153.846153846153,4,2,1,70,0,0
14039,-100,4,2,1,70,0,0
20799,-100,4,2,2,70,0,0
33053,-90.9090909090909,4,2,2,70,0,0
34320,-133.333333333333,4,2,1,70,0,0
39391,-200,4,2,1,70,0,0
40025,-100,4,2,1,70,0,0
40236,-133.333333333333,4,2,1,70,0,0
41926,-100,4,2,1,70,0,0
46785,-200,4,2,1,70,0,0
47419,-133.333333333333,4,2,1,70,0,0
47841,-83.3333333333333,4,2,1,80,0,1
60306,-153.846153846153,4,2,1,80,0,1
60729,-100,4,2,1,80,0,1
60940,-83.3333333333333,4,2,1,80,0,1
74884,-83.3333333333333,4,2,1,70,0,0

[Colours]
Combo1 : 9,145,255
Combo2 : 255,0,0
Combo3 : 0,83,166
Combo4 : 255,179,64

[HitObjects]
70,48,518,6,0,L|57:183,1,120,0|0,1:2|3:2,0:0:0:0:
87,188,834,1,0,3:2:0:0:
115,209,940,1,8,0:2:0:0:
265,252,1151,6,0,B|275:224|275:224|271:194,1,60,0|0,3:2|3:2,0:0:0:0:
286,31,1363,2,0,L|279:98,1,60,0|0,1:2|0:0,0:0:0:0:
208,113,1574,2,0,L|213:53,1,60,0|0,3:2|3:2,0:0:0:0:
417,122,1785,1,8,0:2:0:0:
443,148,1891,1,0,3:2:0:0:
417,173,1996,1,0,3:2:0:0:
392,148,2102,1,0,3:2:0:0:
417,122,2208,6,0,L|476:127,1,60,0|0,1:2|0:0,0:0:0:0:
436,313,2419,2,0,L|376:307,1,60,0|0,3:2|3:2,0:0:0:0:
205,246,2630,6,0,L|264:251,1,60,8|0,0:2|0:0,0:0:0:0:
287,322,2841,2,0,L|227:317,1,60,0|0,3:2|3:2,0:0:0:0:
0,225,3053,6,0,L|125:237,1,120,0|0,1:2|3:2,0:0:0:0:
141,307,3370,2,0,L|22:296,1,120,0|0,3:2|3:2,0:0:0:0:
21,295,3687,1,0,3:2:0:0:
243,160,3898,6,0,L|248:100,1,60,0|0,1:2|0:0,0:0:0:0:
351,226,4109,2,0,B|355:256|355:256|345:284,1,60,0|0,3:2|3:2,0:0:0:0:
417,288,4320,2,0,B|427:260|427:260|423:230,1,60,8|0,0:2|0:0,0:0:0:0:
352,67,4532,2,0,L|359:8,1,60,0|0,3:2|3:2,0:0:0:0:
189,120,4848,6,0,L|194:60,2,60,0|0|0,0:0|3:2|3:2,0:0:0:0:
119,236,5165,1,8,0:2:0:0:
116,265,5270,1,0,3:2:0:0:
113,295,5376,1,0,3:2:0:0:
110,325,5481,1,0,3:2:0:0:
107,354,5588,6,0,L|226:343,1,120,0|0,1:2|0:2,0:0:0:0:
247,321,5905,1,0,0:0:0:0:
238,230,6116,5,0,0:0:0:0:
259,208,6222,2,0,L|378:197,1,120,0|8,0:0|0:2,0:0:0:0:
143,174,6644,6,0,P|96:161|32:214,1,120,0|0,0:0|0:0,0:0:0:0:
107,355,7278,6,0,B|28:331|28:331|102:265|102:265|113:327,1,233.999989288331,4|0,1:2|0:0,0:0:0:0:
111,318,7701,1,2,0:2:0:0:
74,93,7912,1,0,0:0:0:0:
209,191,8123,2,0,P|264:181|297:162,1,77.9999964294435,8|0,0:2|0:0,0:0:0:0:
340,70,8334,2,0,P|285:80|252:99,1,77.9999964294435,2|0,0:2|0:0,0:0:0:0:
212,199,8546,2,0,P|267:189|300:170,1,77.9999964294435,0|0,0:0|0:0,0:0:0:0:
343,78,8757,2,0,P|288:88|255:107,1,77.9999964294435,0|0,0:0|0:0,0:0:0:0:
72,21,8968,6,0,P|138:54|138:128,1,155.999992858887,0|0,1:2|0:0,0:0:0:0:
282,98,9391,2,0,P|348:131|348:205,1,155.999992858887,2|0,0:2|0:0,0:0:0:0:
227,291,9813,2,0,P|237:346|256:379,1,77.9999964294435,8|0,0:2|0:0,0:0:0:0:
422,248,10024,2,0,P|437:212|442:173,1,77.9999964294435,2|0,0:2|0:0,0:0:0:0:
282,98,10236,2,0,P|292:153|311:186,1,77.9999964294435,0|0,0:0|0:0,0:0:0:0:
407,240,10447,2,0,P|422:204|427:166,1,77.9999964294435,0|0,0:0|0:0,0:0:0:0:
244,82,10658,6,0,B|343:88|397:45|397:45|366:25|327:27,1,233.999989288331,0|0,1:2|0:0,0:0:0:0:
327,27,11081,1,2,0:2:0:0:
302,275,11292,1,0,0:0:0:0:
237,163,11503,6,0,P|182:173|149:192,1,77.9999964294435,8|0,0:2|0:0,0:0:0:0:
0,220,11715,2,0,P|55:230|88:249,1,77.9999964294435,2|0,0:2|0:0,0:0:0:0:
242,177,11926,2,0,P|187:187|154:206,1,77.9999964294435,0|0,0:0|0:0,0:0:0:0:
4,234,12138,2,0,P|43:238|79:253,1,77.9999964294435,0|0,0:0|0:0,0:0:0:0:
199,359,12348,6,0,L|211:203,1,155.999992858887,0|0,1:2|0:0,0:0:0:0:
31,147,12771,2,0,P|36:186|51:222,1,77.9999964294435,0|0,0:0|0:0,0:0:0:0:
93,353,12982,2,0,P|107:317|112:278,1,77.9999964294435,0|0,0:0|0:0,0:0:0:0:
66,0,13194,5,8,0:2:0:0:
27,78,13405,2,0,P|11:153|33:227,1,155.999992858887,0|0,1:2|0:0,0:0:0:0:
199,359,14039,6,0,L|212:179,1,180,0|0,1:2|0:0,0:0:0:0:
197,152,14461,2,0,B|161:153|135:187|135:187|155:208|177:201,1,120,2|0,0:2|0:0,0:0:0:0:
409,314,14884,5,8,0:2:0:0:
376,167,15095,2,0,L|196:151,1,180,2|0,0:2|0:0,0:0:0:0:
172,169,15518,1,0,0:0:0:0:
349,275,15729,6,0,L|223:265,1,120,0|0,1:2|0:0,0:0:0:0:
54,329,16151,1,2,0:2:0:0:
127,298,16363,2,0,B|134:326|134:326|125:356,1,60,0|0,0:0|0:0,0:0:0:0:
87,113,16574,5,8,0:2:0:0:
109,184,16785,2,0,B|150:329|150:329|143:358,1,180,2|0,0:2|0:0,0:0:0:0:
143,357,17208,1,0,0:0:0:0:
349,275,17419,6,0,L|223:265,1,120,0|0,1:2|0:0,0:0:0:0:
54,329,17841,1,2,0:2:0:0:
87,111,18053,2,0,B|116:105|116:105|144:113,1,60,0|0,0:0|0:0,0:0:0:0:
0,224,18264,5,8,0:2:0:0:
85,97,18475,2,0,B|113:89|113:89|258:130,1,180,2|0,0:2|0:0,0:0:0:0:
258,130,18898,2,0,B|264:158|264:158|256:187,1,60,0|0,0:0|0:0,0:0:0:0:
274,360,19109,5,0,1:2:0:0:
422,249,19320,2,0,B|428:277|428:277|420:306,1,60,8|0,0:2|0:0,0:0:0:0:
353,274,19532,1,2,1:2:0:0:
400,102,19743,2,0,B|406:130|406:130|398:159,1,60,0|8,0:0|0:2,0:0:0:0:
258,130,19954,5,0,3:2:0:0:
390,7,20165,2,0,P|443:15|468:48,1,60,0|0,3:2|3:2,0:0:0:0:
496,94,20377,2,0,P|488:147|455:172,1,60,0|0,3:2|3:2,0:0:0:0:
409,200,20588,2,0,P|356:192|331:159,1,60,0|0,3:2|3:2,0:0:0:0:
120,45,20799,6,0,P|230:26|254:135,1,240,4|0,1:2|1:2,0:0:0:0:
197,131,21433,2,0,P|227:133|257:129,1,60,2|0,0:2|0:0,0:0:0:0:
363,19,21644,1,0,1:2:0:0:
305,207,21856,1,2,0:2:0:0:
493,265,22067,2,0,P|435:277|403:325,1,120,0|2,1:2|0:2,3:0:0:0:
418,80,22489,6,0,L|408:199,1,120,0|2,1:2|0:2,0:0:0:0:
485,344,22912,1,0,1:2:0:0:
381,210,23123,2,0,L|391:91,1,120,2|0,0:2|1:2,0:0:0:0:
363,80,23440,1,0,0:0:0:0:
335,69,23546,1,2,0:2:0:0:
197,131,23757,1,0,1:2:0:0:
167,131,23862,1,0,0:0:0:0:
139,143,23968,1,2,0:2:0:0:
118,164,24073,1,0,0:0:0:0:
108,188,24179,6,0,P|170:276|255:210,1,240,0|0,1:2|1:2,0:0:0:0:
194,71,24813,2,0,P|192:100|196:130,1,60,2|0,0:2|0:0,0:0:0:0:
339,240,25025,2,0,P|342:210|341:180,1,60,0|0,1:2|0:0,0:0:0:0:
413,183,25236,2,0,P|414:213|411:243,1,60,2|0,0:2|0:0,0:0:0:0:
172,327,25447,6,0,L|181:207,1,120,0|2,1:2|0:2,0:0:0:0:
353,71,25870,6,0,P|382:68|411:75,1,60,0|0,1:2|0:0,0:0:0:0:
476,84,26081,2,0,P|446:77|417:79,1,60,2|0,0:2|0:0,0:0:0:0:
341,180,26292,6,0,P|370:177|399:184,1,60,0|0,1:2|0:0,0:0:0:0:
464,193,26503,2,0,P|434:186|405:188,1,60,2|0,0:2|0:0,0:0:0:0:
352,363,26715,6,0,P|322:365|293:358,1,60,0|0,1:2|0:0,0:0:0:0:
229,350,26926,2,0,P|258:356|287:354,1,60,2|0,0:2|0:0,0:0:0:0:
364,254,27137,6,0,P|334:256|305:249,1,60,0|0,1:2|0:0,0:0:0:0:
241,241,27348,2,0,P|270:247|299:245,1,60,2|0,0:2|0:0,0:0:0:0:
512,141,27560,6,0,L|502:260,1,120,0|2,1:2|0:2,0:0:0:0:
236,151,27982,2,0,P|265:153|294:146,1,60,0|0,1:2|0:0,0:0:0:0:
315,125,28193,2,0,L|324:244,1,120,2|0,0:2|1:2,0:0:0:0:
181,207,28616,1,2,0:2:0:0:
365,50,28827,2,0,L|484:59,1,120,0|2,1:2|0:2,0:0:0:0:
173,85,29250,6,0,L|54:95,1,120,0|2,1:2|0:2,0:0:0:0:
295,147,29672,2,0,L|354:152,1,60,0|0,1:2|0:0,0:0:0:0:
512,103,29884,6,0,L|393:93,1,120,2|0,0:2|1:2,0:0:0:0:
211,160,30306,2,0,L|271:155,1,60,2|0,0:2|0:0,0:0:0:0:
305,32,30518,1,0,1:2:0:0:
305,32,30729,1,2,0:2:0:0:
371,191,30940,6,0,L|490:182,1,120,0|2,1:2|0:2,0:0:0:0:
221,201,31363,1,0,1:2:0:0:
355,271,31574,6,0,L|474:262,1,120,2|0,0:2|1:2,0:0:0:0:
205,281,31997,1,2,0:2:0:0:
422,298,32208,2,0,B|412:363|412:363|394:380|362:383,1,120,0|2,1:2|0:2,0:0:0:0:
158,186,32630,6,0,P|201:137|285:220,1,180,0|0,1:2|0:0,0:0:0:0:
297,171,33053,2,0,P|221:117|147:174,1,198.000006042481,0|0,1:2|0:0,0:0:0:0:
162,251,33475,6,0,L|157:185,1,66.0000020141602,0|0,1:2|0:0,0:0:0:0:
48,51,33687,2,0,L|52:116,1,66.0000020141602,2|0,0:2|0:0,0:0:0:0:
66,313,33898,6,0,L|62:248,1,66.0000020141602,0|0,1:2|0:0,0:0:0:0:
34,228,34109,1,2,0:2:0:0:
278,317,34320,6,0,B|224:237|260:147|260:147|313:184|315:218,1,270.000010299683,4|0,1:2|0:0,0:0:0:0:
401,356,35165,2,0,P|352:377|306:385,1,90.0000034332277,8|0,0:2|0:0,0:0:0:0:
417,245,35588,2,0,P|460:254|501:273,1,90.0000034332277,0|0,0:0|0:0,0:0:0:0:
271,307,36010,6,0,B|217:227|253:137|253:137|306:174|308:208,1,270.000010299683,0|0,1:2|0:0,0:0:0:0:
394,346,36855,2,0,P|345:367|299:375,1,90.0000034332277,8|0,0:2|0:0,0:0:0:0:
410,235,37278,2,0,P|453:244|494:263,1,90.0000034332277,0|0,0:0|0:0,0:0:0:0:
398,124,37701,6,0,P|375:89|414:126,1,180.000006866455,0|0,1:2|0:0,0:0:0:0:
307,205,38334,1,0,0:0:0:0:
449,69,38546,6,0,P|373:60|393:134,1,180.000006866455,8|0,0:2|0:0,0:0:0:0:
512,176,39179,1,0,0:0:0:0:
371,300,39391,6,0,P|326:260|306:204,1,120,0|0,1:2|0:0,0:0:0:0:
435,208,40025,2,0,P|429:178|431:148,1,60,0|0,1:2|1:2,0:0:0:0:
512,305,40236,2,0,L|414:391,1,90.0000034332277,8|0,0:2|0:0,0:0:0:0:
412,382,40658,2,0,L|501:302,1,90.0000034332277,0|0,0:0|0:0,0:0:0:0:
161,344,41081,5,4,1:2:0:0:
240,144,41292,1,0,0:0:0:0:
101,286,41503,1,8,0:2:0:0:
299,201,41714,1,0,0:0:0:0:
100,204,41926,6,0,P|90:176|84:146,1,60,0|0,1:2|0:0,0:0:0:0:
120,84,42137,2,0,P|148:73|177:68,1,60,2|0,0:2|0:0,0:0:0:0:
314,143,42348,2,0,P|303:171|298:200,1,60,8|0,0:2|0:0,0:0:0:0:
333,263,42559,2,0,P|361:273|390:278,1,60,0|0,0:0|0:0,0:0:0:0:
504,56,42771,5,4,1:2:0:0:
504,56,42876,1,0,0:0:0:0:
504,56,42982,1,0,0:0:0:0:
488,294,43194,2,0,L|495:174,1,120,8|0,0:2|0:0,0:0:0:0:
276,47,43616,1,0,1:2:0:0:
275,46,43827,6,0,P|304:51|333:62,1,60,0|0,0:0|0:0,0:0:0:0:
401,211,44039,2,0,P|396:240|386:269,1,60,8|0,0:2|0:0,0:0:0:0:
236,337,44250,2,0,P|207:332|179:322,1,60,0|0,0:0|0:0,0:0:0:0:
57,366,44461,6,0,B|85:355|85:355|114:350,1,60,0|0,3:2|3:2,0:0:0:0:
231,251,44672,2,0,B|220:222|220:222|215:193,1,60,0|0,3:2|3:2,0:0:0:0:
62,0,44884,6,0,B|73:28|73:28|78:57,1,60,0|0,3:2|3:2,0:0:0:0:
168,127,45095,2,0,B|197:116|197:116|226:111,1,60,0|0,3:2|3:2,0:0:0:0:
345,84,45306,5,0,3:2:0:0:
341,143,45411,1,0,3:2:0:0:
337,203,45517,1,0,3:2:0:0:
333,263,45622,1,0,3:2:0:0:
330,323,45728,1,0,3:2:0:0:
231,22,45940,1,4,3:2:0:0:
105,190,46362,5,0,3:2:0:0:
415,255,46574,1,0,0:0:0:0:
332,263,46785,1,0,0:0:0:0:
114,85,47419,5,4,0:0:0:0:
105,190,47841,6,0,B|141:175|141:175|173:170,1,71.9999978027344,4|0,1:2|0:0,0:0:0:0:
181,197,48053,2,0,B|149:202|149:202|113:217,1,71.9999978027344,0|0,0:0|0:0,0:0:0:0:
187,327,48264,2,0,L|330:316,1,143.999995605469,0|0,1:2|0:0,0:0:0:0:
327,37,48687,2,0,B|314:111|314:111|302:132|256:163,1,143.999995605469,0|0,1:2|0:0,0:0:0:0:
397,119,49109,2,0,L|468:124,1,71.9999978027344,0|0,1:2|0:0,0:0:0:0:
488,154,49320,1,0,0:0:0:0:
316,279,49532,6,0,L|458:268,1,143.999995605469,0|0,1:2|0:0,0:0:0:0:
232,71,49954,1,0,1:2:0:0:
384,246,50165,6,0,L|112:266,1,215.999993408203,2|0,0:2|0:0,0:0:0:0:
145,299,50588,1,2,0:2:0:0:
190,129,50799,2,0,P|158:67|193:8,1,143.999995605469,0|2,1:2|0:2,0:0:0:0:
54,271,51222,6,0,L|59:342,1,71.9999978027344,0|0,1:2|0:0,0:0:0:0:
89,362,51433,1,0,0:0:0:0:
126,80,51644,1,0,1:2:0:0:
0,151,51856,1,2,0:2:0:0:
165,142,52067,6,0,P|200:83|168:22,1,143.999995605469,0|2,1:2|0:2,0:0:0:0:
121,201,52489,2,0,P|90:139|125:80,1,143.999995605469,0|2,1:2|0:2,0:0:0:0:
400,30,52912,5,0,1:2:0:0:
384,246,53123,1,2,0:0:0:0:
291,24,53334,6,0,P|319:88|294:128,1,71.9999978027344,0|0,1:2|0:0,0:0:0:0:
267,241,53546,2,0,P|272:205|295:178,1,71.9999978027344,2|0,0:2|0:0,0:0:0:0:
471,241,53757,2,0,L|460:383,1,143.999995605469,0|2,1:2|0:2,0:0:0:0:
467,154,54179,6,0,P|397:146|375:104,1,71.9999978027344,0|0,1:2|0:0,0:0:0:0:
442,88,54391,1,2,0:2:0:0:
173,231,54602,6,0,P|124:174|196:152,1,143.999995605469,0|0,1:2|0:0,0:0:0:0:
286,304,55025,1,0,1:2:0:0:
284,80,55236,6,0,P|357:66|340:139,1,143.999995605469,2|0,0:2|1:2,0:0:0:0:
164,141,55659,1,2,0:2:0:0:
359,251,55870,2,0,P|334:321|279:270,1,143.999995605469,0|2,1:2|0:2,0:0:0:0:
365,119,56292,6,0,L|508:130,1,143.999995605469,0|2,1:2|0:2,0:0:0:0:
193,116,56715,1,0,1:2:0:0:
193,116,56926,2,0,P|166:67|169:32,1,71.9999978027344,2|0,0:2|0:0,0:0:0:0:
244,60,57137,6,0,L|386:70,1,143.999995605469,0|2,1:2|0:2,0:0:0:0:
164,213,57560,2,0,L|92:218,1,71.9999978027344,0|0,1:2|0:0,0:0:0:0:
61,248,57771,1,2,0:2:0:0:
354,332,57982,6,0,L|365:188,1,143.999995605469,0|8,1:2|0:2,0:0:0:0:
512,39,58405,2,0,L|506:110,1,71.9999978027344,8|0,1:2|0:0,0:0:0:0:
478,119,58616,2,0,L|484:48,1,71.9999978027344,0|0,0:0|0:0,0:0:0:0:
298,175,58827,6,0,P|311:143|339:121,1,71.9999978027344,8|0,1:2|0:0,0:0:0:0:
339,121,59039,1,8,1:2:0:0:
509,200,59250,1,8,1:2:0:0:
506,235,59355,1,8,1:2:0:0:
504,271,59461,1,8,1:2:0:0:
501,307,59566,1,8,1:2:0:0:
497,342,59672,6,0,P|437:309|429:240,1,143.999995605469,4|0,1:2|0:0,0:0:0:0:
324,30,60095,2,0,L|318:101,1,71.9999978027344,2|0,0:2|0:0,0:0:0:0:
330,237,60306,6,0,L|341:93,1,116.999994644165,2|0,0:2|0:0,0:0:0:0:
365,151,60729,2,0,L|359:222,1,60,0|0,3:2|3:2,0:0:0:0:
229,130,60940,1,0,3:2:0:0:
231,94,61045,1,0,3:2:0:0:
234,58,61151,1,0,3:2:0:0:
237,22,61256,1,0,3:2:0:0:
208,0,61363,6,0,L|196:143,1,143.999995605469,4|0,1:2|0:0,0:0:0:0:
4,195,61785,2,0,L|-1:123,1,71.9999978027344,0|0,1:2|0:0,0:0:0:0:
75,140,61996,2,0,L|80:211,1,71.9999978027344,0|0,0:0|0:0,0:0:0:0:
91,361,62208,2,0,P|154:306|227:347,1,143.999995605469,0|0,1:2|0:0,0:0:0:0:
284,129,62630,2,0,P|216:118|170:170,1,143.999995605469,0|0,1:2|0:0,0:0:0:0:
341,328,63053,6,0,B|431:349|481:292|481:292|468:250|424:253,1,215.999993408203,0|0,1:2|0:0,0:0:0:0:
407,252,63475,1,0,1:2:0:0:
303,107,63687,6,0,P|305:143|317:176,1,71.9999978027344,2|0,0:2|0:0,0:0:0:0:
470,78,63898,2,0,P|416:33|347:40,1,143.999995605469,0|2,1:2|0:2,0:0:0:0:
170,169,64320,2,0,L|158:312,1,143.999995605469,0|2,1:2|0:2,0:0:0:0:
91,30,64743,6,0,P|55:32|22:44,1,71.9999978027344,0|0,1:2|0:0,0:0:0:0:
39,112,64954,2,0,P|74:110|108:97,1,71.9999978027344,0|0,0:0|0:0,0:0:0:0:
281,0,65165,2,0,L|269:143,1,143.999995605469,0|2,1:2|0:2,0:0:0:0:
462,351,65588,6,0,L|474:208,1,143.999995605469,0|2,1:2|0:2,0:0:0:0:
275,279,66010,1,0,1:2:0:0:
170,169,66222,2,0,P|205:170|239:183,1,71.9999978027344,2|0,0:2|0:0,0:0:0:0:
264,309,66433,6,0,L|121:321,1,143.999995605469,0|2,1:2|0:2,0:0:0:0:
361,163,66856,2,0,P|373:129|375:93,1,71.9999978027344,0|0,1:2|0:0,0:0:0:0:
333,34,67067,1,2,0:2:0:0:
263,308,67278,6,0,L|251:165,1,143.999995605469,0|2,1:2|0:2,0:0:0:0:
0,120,67701,2,0,P|35:121|69:134,1,71.9999978027344,0|0,1:2|0:0,0:0:0:0:
82,205,67912,1,2,0:2:0:0:
377,259,68123,6,0,L|234:271,1,143.999995605469,0|0,1:2|0:0,0:0:0:0:
184,99,68546,2,0,P|182:134|169:168,1,71.9999978027344,0|0,1:2|0:0,0:0:0:0:
82,205,68757,1,2,0:2:0:0:
0,13,68968,6,0,L|143:1,1,143.999995605469,0|2,1:2|0:2,0:0:0:0:
325,87,69391,2,0,B|249:80|249:80|182:99,1,143.999995605469,0|2,1:2|0:2,0:0:0:0:
14,256,69813,6,0,P|1:222|0:186,1,71.9999978027344,0|0,1:2|0:0,0:0:0:0:
82,205,70025,2,0,P|94:238|96:274,1,71.9999978027344,2|0,0:2|0:0,0:0:0:0:
94,348,70236,2,0,L|82:205,1,143.999995605469,0|2,1:2|0:2,0:0:0:0:
252,150,70658,6,0,P|264:116|266:80,1,71.9999978027344,0|0,1:2|0:0,0:0:0:0:
184,99,70870,2,0,P|171:132|169:168,1,71.9999978027344,2|0,0:2|0:0,0:0:0:0:
172,242,71081,2,0,L|184:99,1,143.999995605469,0|2,1:2|0:2,0:0:0:0:
404,14,71503,5,0,1:2:0:0:
362,133,71715,2,0,P|349:166|347:202,1,71.9999978027344,8|0,0:2|0:0,0:0:0:0:
408,327,71926,2,0,L|420:184,1,143.999995605469,0|2,1:2|0:2,0:0:0:0:
192,116,72348,5,0,1:2:0:0:
380,59,72560,2,0,P|344:61|311:74,1,71.9999978027344,8|0,0:2|0:0,0:0:0:0:
127,203,72771,2,0,P|197:211|270:191,1,143.999995605469,0|2,1:2|0:2,0:0:0:0:
47,154,73194,6,0,B|39:189|39:189|39:225,1,71.9999978027344,14|0,0:2|0:0,0:0:0:0:
2,224,73405,2,0,B|2:188|2:188|9:152,1,71.9999978027344,0|0,1:2|0:0,0:0:0:0:
105,82,73616,2,0,B|140:82|140:82|176:89,1,71.9999978027344,0|0,1:2|1:2,0:0:0:0:
253,334,73827,6,0,L|265:191,1,143.999995605469,0|2,1:2|0:2,0:0:0:0:
272,118,74250,6,0,L|265:189,1,71.9999978027344,2|0,0:2|0:0,0:0:0:0:
281,360,74461,2,0,L|293:217,1,143.999995605469,2|0,0:2|0:0,0:0:0:0:
485,91,74884,6,0,L|473:234,1,143.999995605469,4|0,1:2|0:0,0:0:0:0:
404,356,75306,1,0,1:2:0:0:
179,257,75518,2,0,L|189:128,1,71.9999978027344,0|0,0:0|0:0,0:0:0:0:
305,73,75729,6,0,L|293:216,1,143.999995605469,0|0,1:2|0:0,0:0:0:0:
463,15,76151,2,0,L|451:158,1,143.999995605469,0|0,1:2|0:0,0:0:0:0:
238,41,76574,6,0,P|291:-4|367:28,1,143.999995605469,0|0,1:2|0:0,0:0:0:0:
104,110,76996,1,0,1:2:0:0:
132,215,77208,1,0,0:0:0:0:
12,35,77419,6,0,L|0:178,1,143.999995605469,0|0,1:2|0:0,0:0:0:0:
163,285,77841,2,0,P|207:232|188:166,1,143.999995605469,0|0,1:2|0:0,0:0:0:0:
0,384,78264,6,0,P|53:339|129:371,1,143.999995605469,0|0,1:2|0:0,0:0:0:0:
330,247,78687,2,0,L|336:175,1,71.9999978027344,0|0,1:2|0:0,0:0:0:0:
263,163,78898,2,0,P|251:196|254:232,1,71.9999978027344,0|0,0:0|0:0,0:0:0:0:
322,357,79109,2,0,L|465:369,1,143.999995605469,0|0,1:2|0:0,0:0:0:0:
314,108,79532,2,0,P|284:90|248:89,1,71.9999978027344,0|0,1:2|0:0,0:0:0:0:
194,137,79743,1,0,0:0:0:0:
330,247,79954,6,0,L|473:259,1,143.999995605469,0|0,1:2|0:0,0:0:0:0:
118,149,80377,2,0,P|119:114|139:84,1,71.9999978027344,0|0,1:2|0:0,0:0:0:0:
219,65,80588,2,0,P|249:84|267:115,1,71.9999978027344,0|0,0:0|0:0,0:0:0:0:
242,193,80799,6,0,P|211:209|175:209,1,71.9999978027344,0|0,1:2|0:0,0:0:0:0:
54,210,81010,2,0,P|84:229|101:260,1,71.9999978027344,0|0,0:0|0:0,3:0:0:0:
163,365,81222,2,0,P|164:329|250:277,1,143.999995605469,0|0,1:2|0:0,0:0:0:0:
369,372,81644,6,0,L|512:384,1,143.999995605469,0|0,1:2|0:0,0:0:0:0:
512,188,82067,2,0,L|441:182,1,71.9999978027344,0|0,1:2|0:0,0:0:0:0:
367,361,82278,6,0,L|510:373,1,143.999995605469,0|0,0:0|1:2,0:0:0:0:
510,177,82701,2,0,L|439:171,1,71.9999978027344,0|0,0:0|0:0,0:0:0:0:
365,350,82912,2,0,L|508:362,1,143.999995605469,0|0,1:2|0:0,0:0:0:0:
220,336,83334,5,0,1:2:0:0:
328,106,83546,2,0,P|262:126|242:193,1,143.999995605469,0|0,0:0|1:2,0:0:0:0:
141,353,83968,2,0,P|142:317|160:286,1,71.9999978027344,0|0,0:0|0:0,0:0:0:0:
317,98,84179,6,0,P|251:118|231:185,1,143.999995605469,0|0,1:2|0:0,0:0:0:0:
130,345,84602,2,0,P|131:309|149:278,1,71.9999978027344,0|0,1:2|0:0,0:0:0:0:
61,142,84813,2,0,P|62:177|80:208,1,71.9999978027344,0|0,0:0|0:0,0:0:0:0:
220,336,85025,6,0,L|363:348,1,143.999995605469,0|0,1:2|0:0,0:0:0:0:
210,147,85447,1,0,1:2:0:0:
76,272,85658,2,0,L|147:278,1,71.9999978027344,8|0,1:2|1:2,0:0:0:0:
220,73,85870,6,0,P|154:93|134:160,1,143.999995605469,0|8,1:2|1:2,0:0:0:0:
385,254,86292,2,0,P|402:223|403:187,1,71.9999978027344,0|0,1:2|1:2,3:0:0:0:
367,124,86503,2,0,P|336:106|300:105,1,71.9999978027344,0|0,1:2|1:2,3:0:0:0:
47,173,86715,5,4,1:2:0:0:
123,290,86926,2,0,B|147:265|147:265|154:230,1,71.9999978027344,8|0,0:2|0:0,0:0:0:0:
188,165,87137,2,0,B|154:155|154:155|120:167,1,71.9999978027344,8|0,0:2|0:0,0:0:0:0:
228,361,87348,5,4,1:2:0:0:
245,329,87454,2,0,B|270:304|270:304|305:297,1,71.9999978027344,8|0,0:2|0:0,0:0:0:0:
441,381,87665,2,0,B|406:371|406:371|383:344,1,71.9999978027344,8|4,0:2|1:2,0:0:0:0:
398,111,87982,2,0,L|386:254,1,143.999995605469,0|0,3:2|3:2,0:0:0:0:
397,241,88405,5,4,1:2:0:0:
256,192,88510,12,0,89989,0:0:0:0:
