osu file format v14

[General]
AudioFilename: audio.mp3
AudioLeadIn: 0
PreviewTime: 214950
Countdown: 0
SampleSet: Soft
StackLeniency: 0.7
Mode: 0
LetterboxInBreaks: 0
WidescreenStoryboard: 0

[Editor]
Bookmarks: 144,1470,14729,25337,35945,46552,57160,61138,65116,75724,88983,99591,110199,120807,131414,139370,149978,163237,179149,188928,203016,207492,214950,225558,228210,238818,241469,246773
DistanceSpacing: 0.7
BeatDivisor: 4
GridSize: 4
TimelineZoom: 2.6

[Metadata]
Title:Dear Pantalei
TitleUnicode:ディア・パンタレイ
Artist:Sumire Uesaka
ArtistUnicode:上坂すみれ
Creator:Puribi
Version:Hana
Source:Shaman King: Flowers
Tags:shaman king flowers ed 1
BeatmapID:4535929
BeatmapSetID:2152755

[Difficulty]
HPDrainRate:5.5
CircleSize:4
OverallDifficulty:9
ApproachRate:9.3
SliderMultiplier:2
SliderTickRate:1

[Events]
//Background and Video events
0,0,"1346733.png",0,0
//Break Periods
2,99791,108319
2,179349,188374
2,202388,206938
//Storyboard Layer 0 (Background)
//Storyboard Layer 1 (Fail)
//Storyboard Layer 2 (Pass)
//Storyboard Layer 3 (Foreground)
//Storyboard Layer 4 (Overlay)
//Storyboard Sound Samples

[TimingPoints]
1470,331.491712707182,4,2,1,50,1,0
4121,-200,4,2,1,50,0,0
6773,-200,4,2,1,40,0,0
7436,-133.333333333333,4,2,1,60,0,0
8099,-200,4,2,1,40,0,0
8597,-133.333333333333,4,2,1,60,0,0
8762,-200,4,2,1,40,0,0
9094,-100,4,2,1,50,0,0
9757,-133.333333333333,4,2,1,50,0,0
10088,-100,4,2,1,40,0,0
10254,-100,4,2,1,50,0,0
10420,-100,4,2,1,60,0,0
10586,-100,4,2,1,70,0,0
10751,-100,4,2,1,80,0,0
11580,-200,4,2,1,80,0,0
14066,-133.333333333333,4,2,1,80,0,0
14398,-80,4,2,1,80,0,0
17381,-100,4,2,1,80,0,0
17713,-80,4,2,1,80,0,0
18210,-80,4,2,1,80,0,0
18376,-66.6666666666667,4,2,1,80,0,0
19039,-133.333333333333,4,2,1,80,0,0
19370,-66.6666666666667,4,2,1,80,0,0
20033,-80,4,2,1,80,0,0
20696,-80,4,2,1,80,0,0
24674,-100,4,2,1,80,0,0
25337,-133.333333333333,4,2,1,80,0,0
34287,-100,4,2,1,80,0,0
34950,-80,4,2,1,80,0,0
38597,-100,4,2,1,80,0,0
38928,-80,4,2,1,80,0,0
40586,-100,4,2,1,80,0,0
42906,-80,4,2,1,80,0,0
43237,-100,4,2,1,80,0,0
44563,-80,4,2,1,80,0,0
46552,-133.333333333333,4,2,1,80,0,0
46884,-200,4,2,1,80,0,0
47878,-166.666666666667,4,2,1,80,0,0
48376,-200,4,2,1,80,0,0
54508,-142.857142857143,4,2,1,80,0,0
56497,-100,4,2,1,80,0,0
56829,-200,4,2,1,80,0,0
57160,-80,4,2,1,80,0,0
58155,-80,4,2,1,80,0,0
62132,-100,4,2,1,80,0,0
64287,-166.666666666667,4,2,1,80,0,0
64453,-142.857142857143,4,2,1,80,0,0
64619,-125,4,2,1,80,0,0
64784,-111.111111111111,4,2,1,80,0,0
64950,-100,4,2,1,80,0,0
65116,-80,4,2,1,80,0,0
67768,-66.6666666666667,4,2,1,80,0,0
68099,-100,4,2,1,80,0,0
68762,-80,4,2,1,80,0,0
69757,-80,4,2,1,80,0,0
74895,-100,4,2,1,80,0,0
75724,-80,4,2,1,80,0,0
78707,-100,4,2,1,80,0,0
79039,-80,4,2,1,80,0,0
79370,-66.6666666666667,4,2,1,80,0,0
79702,-80,4,2,1,80,0,0
80033,-66.6666666666667,4,2,1,80,0,0
80365,-80,4,2,1,80,0,0
81028,-80,4,2,1,80,0,0
81525,-100,4,2,1,80,0,0
82851,-80,4,2,1,80,0,0
86000,-133.333333333333,4,2,1,80,0,0
88983,-80,4,2,1,80,0,0
98597,-100,4,2,1,80,0,0
108873,-50,4,2,1,80,0,0
109536,-66.6666666666667,4,2,1,80,0,0
109784,-80,4,2,1,80,0,0
116829,-80,4,2,1,80,0,0
119481,-100,4,2,1,80,0,0
120144,-80,4,2,1,80,0,0
120807,-100,4,2,1,80,0,0
122132,-133.333333333333,4,2,1,80,0,0
122630,-200,4,2,1,80,0,0
123210,-100,4,2,1,80,0,0
124784,-133.333333333333,4,2,1,80,0,0
125282,-100,4,2,1,80,0,0
125779,-80,4,2,1,80,0,0
127436,-133.333333333333,4,2,1,80,0,0
128431,-80,4,2,1,80,0,0
128762,-100,4,2,1,80,0,0
131414,-100,4,2,1,80,0,0
138707,-80,4,2,1,80,0,0
142022,-80,4,2,1,80,0,0
142353,-100,4,2,1,80,0,0
143016,-80,4,2,1,80,0,0
146331,-66.6666666666667,4,2,1,80,0,0
146663,-80,4,2,1,80,0,0
147657,-100,4,2,1,80,0,0
148320,-80,4,2,1,80,0,0
160254,-200,4,2,1,80,0,0
161911,-66.6666666666667,4,2,1,80,0,0
163237,-200,4,2,1,80,0,0
168376,-133.333333333333,4,2,1,80,0,0
173182,-100,4,2,1,80,0,0
174342,-80,4,2,1,80,0,0
175171,-100,4,2,1,80,0,0
177326,-80,4,2,1,80,0,0
188928,-100,4,2,1,80,0,0
189260,-200,4,2,1,80,0,0
194066,-133.333333333333,4,2,1,80,0,0
194398,-100,4,2,1,80,0,0
197713,-80,4,2,1,80,0,0
200862,-100,4,2,1,80,0,0
207492,-133.333333333333,4,2,1,80,0,0
208320,-133.333333333333,4,2,1,80,0,0
210641,-400,4,2,1,80,0,0
210972,-200,4,2,1,80,0,0
214950,-80,4,2,1,80,0,0
217602,-66.6666666666667,4,2,1,80,0,0
217934,-80,4,2,1,80,0,0
219260,-66.6666666666667,4,2,1,80,0,0
219591,-80,4,2,1,80,0,0
224729,-100,4,2,1,80,0,0
225226,-200,4,2,1,80,0,0
225558,-400,4,2,1,80,0,0
225889,-100,4,2,1,80,0,0
226884,-80,4,2,1,80,0,0
227381,-100,4,2,1,80,0,0
228541,-80,4,2,1,80,0,0
229867,-66.6666666666667,4,2,1,80,0,0
230199,-80,4,2,1,80,0,0
230530,-100,4,2,1,80,0,0
233514,-80,4,2,1,80,0,0
235503,-100,4,2,1,80,0,0
235834,-200,4,2,1,80,0,0
237823,-100,4,2,1,80,0,0
241469,-400,4,2,1,80,0,0
242464,-200,4,2,1,80,0,0
243127,-133.333333333333,4,2,1,80,0,0
243790,-100,4,2,1,80,0,0

[Colours]
Combo1 : 100,90,211
Combo2 : 146,206,226
Combo3 : 162,184,71
Combo4 : 116,186,158

[HitObjects]
394,103,1470,5,4,0:0:0:0:
394,103,2795,1,4,0:0:0:0:
447,41,4121,6,0,P|490:11|457:55,1,150,6|0,0:0|0:0,0:0:0:0:
313,90,4784,2,0,P|265:67|320:74,1,150,6|0,0:0|0:0,0:0:0:0:
417,179,5447,2,0,P|421:231|399:180,1,150,6|0,0:0|0:0,0:0:0:0:
394,103,6027,5,0,3:0:0:0:
394,103,6110,1,0,3:0:0:0:
319,149,6276,1,0,3:0:0:0:
241,107,6442,1,2,3:2:0:0:
165,153,6607,1,2,3:2:0:0:
93,28,6773,5,0,0:0:0:0:
75,10,6855,1,0,0:0:0:0:
52,4,6938,1,0,0:0:0:0:
28,12,7021,1,0,0:0:0:0:
13,31,7104,1,0,0:0:0:0:
10,56,7187,1,0,0:0:0:0:
21,78,7270,1,0,0:0:0:0:
43,90,7353,1,0,0:0:0:0:
68,90,7436,6,0,L|149:78,1,75.0000028610231
223,160,7768,2,0,L|304:148,1,75.0000028610231
415,36,8099,5,0,0:0:0:0:
433,19,8181,1,0,0:0:0:0:
456,13,8264,1,0,0:0:0:0:
480,21,8347,1,0,0:0:0:0:
495,40,8430,1,0,0:0:0:0:
498,65,8513,1,0,0:0:0:0:
487,87,8596,1,0,0:0:0:0:
465,99,8679,1,0,0:0:0:0:
441,97,8762,2,0,L|372:86,1,50
279,0,9094,5,0,0:0:0:0:
271,49,9176,1,0,0:0:0:0:
264,98,9259,1,0,0:0:0:0:
257,148,9342,1,0,0:0:0:0:
199,197,9425,2,0,B|215:163|252:160|252:160|297:169|297:169|280:174|259:205,1,150
360,235,9757,2,0,P|359:272|349:234,1,112.500004291535,0|0,0:0|0:3,0:0:0:0:
378,160,10088,5,10,0:0:0:0:
271,303,10254,1,8,0:0:0:0:
166,103,10420,1,10,0:0:0:0:
450,229,10586,1,8,0:0:0:0:
144,384,10751,1,10,0:0:0:0:
144,384,11580,6,0,L|185:362,2,25,0|0|0,0:0|2:0|0:0,0:0:0:0:
144,384,12077,5,0,0:0:0:0:
215,170,12243,1,0,0:0:0:0:
0,218,12409,1,0,0:0:0:0:
133,281,12574,5,0,0:0:0:0:
173,53,12740,1,0,0:0:0:0:
343,196,12906,1,0,0:0:0:0:
215,170,13072,5,0,0:0:0:0:
419,103,13237,1,0,0:0:0:0:
397,301,13403,1,0,0:0:0:0:
343,196,13569,1,0,0:0:0:0:
343,196,13735,6,0,L|298:202,3,25
295,320,14066,2,0,L|257:325,3,37.5000014305115
181,366,14398,5,0,0:0:0:0:
178,303,14480,1,0,0:0:0:0:
175,241,14563,1,0,0:0:0:0:
172,178,14646,1,0,0:0:0:0:
169,116,14729,5,0,0:0:0:0:
339,224,14895,1,0,0:0:0:0:
362,11,15061,1,0,0:0:0:0:
287,114,15226,1,0,0:0:0:0:
512,133,15392,2,0,L|495:3,2,125
393,300,15889,5,0,0:0:0:0:
393,300,15972,1,0,0:0:0:0:
393,300,16055,2,0,L|468:310,1,62.5
401,222,16221,2,0,L|476:232,1,62.5
383,374,16387,2,0,L|308:384,1,62.5
409,147,16552,2,0,L|334:157,1,62.5
181,182,16718,5,0,0:0:0:0:
121,18,16884,1,0,0:0:0:0:
3,148,17050,1,0,0:0:0:0:
253,123,17215,5,0,0:0:0:0:
253,123,17298,1,0,0:0:0:0:
253,123,17381,2,0,B|301:100|298:54|298:54|275:94|237:101,1,150
231,24,17713,6,0,B|368:42|368:42|342:54|330:79,1,187.5
457,106,18044,2,0,L|396:115,1,62.5
253,123,18210,1,0,0:0:0:0:
474,182,18376,2,0,L|241:216,1,225.000008583069
163,241,18707,5,0,0:0:0:0:
157,369,18873,1,0,0:0:0:0:
38,310,19039,2,0,L|48:231,1,75.0000028610231
40,162,19287,5,0,0:0:0:0:
40,162,19370,2,0,B|58:157|79:167|79:167|64:149|69:133,1,75.0000028610231
80,58,19536,1,0,0:0:0:0:
163,241,19702,2,0,L|182:87,1,150.000005722046
268,30,19950,5,0,0:0:0:0:
268,30,20033,2,0,L|259:105,1,62.5
344,39,20199,2,0,L|336:101,1,62.5
181,92,20365,2,0,L|188:29,1,62.5
414,111,20530,2,0,L|423:36,1,62.5
188,29,20696,5,0,0:0:0:0:
239,259,20862,1,0,0:0:0:0:
13,202,21028,1,0,0:0:0:0:
140,168,21193,5,0,0:0:0:0:
140,168,21276,1,0,0:0:0:0:
140,168,21359,2,0,L|214:177,1,62.5
266,246,21525,2,0,L|340:255,1,62.5
420,121,21690,5,0,0:0:0:0:
509,239,21856,1,0,0:0:0:0:
420,121,22022,2,0,L|411:195,1,62.5
392,329,22188,1,0,0:0:0:0:
205,115,22353,2,0,L|188:251,1,125
100,305,22602,5,0,0:0:0:0:
100,305,22685,2,0,L|109:244,1,62.5
126,141,22851,1,0,0:0:0:0:
0,352,23016,1,0,0:0:0:0:
20,225,23182,1,0,0:0:0:0:
159,384,23348,1,0,0:0:0:0:
234,196,23514,1,0,0:0:0:0:
300,321,23679,1,0,0:0:0:0:
360,237,23845,1,0,0:0:0:0:
438,336,24011,5,0,0:0:0:0:
477,240,24177,1,0,0:0:0:0:
512,144,24342,2,0,L|378:159,1,125
360,237,24591,1,0,0:0:0:0:
360,237,24674,2,0,L|258:248,1,100
213,314,24923,1,0,0:0:0:0:
178,309,25005,1,0,0:0:0:0:
150,287,25088,1,0,0:0:0:0:
118,270,25171,1,0,0:0:0:0:
82,271,25254,1,0,0:0:0:0:
57,280,25337,6,0,L|36:112,1,150.000005722046
171,67,25834,1,0,0:0:0:0:
171,67,25917,1,0,0:0:0:0:
171,67,26000,2,0,L|180:142,1,75.0000028610231
201,232,26331,1,0,0:0:0:0:
201,232,26497,1,0,0:0:0:0:
270,178,26663,2,0,L|300:155,3,37.5000014305115
283,272,26994,2,0,L|317:286,3,37.5000014305115
378,384,27326,1,0,0:0:0:0:
378,384,27657,6,0,L|470:373,1,75.0000028610231
512,304,27989,6,0,P|487:235|491:136,1,150.000005722046
512,45,28486,1,0,0:0:0:0:
512,45,28569,1,0,0:0:0:0:
512,45,28652,2,0,L|438:53,1,75.0000028610231
297,60,28983,1,0,0:0:0:0:
391,175,29149,5,0,0:0:0:0:
391,175,29232,1,0,0:0:0:0:
391,175,29315,2,0,L|448:181,3,37.5000014305115
247,184,29646,2,0,L|203:194,3,37.5000014305115
319,346,29978,6,0,L|324:257,1,75.0000028610231
330,253,30226,1,0,0:0:0:0:
330,253,30309,1,0,0:0:0:0:
421,274,30475,1,0,0:0:0:0:
512,287,30641,6,0,L|496:135,1,150.000005722046
409,50,31138,2,0,L|404:91,2,37.5000014305115
326,37,31469,2,0,L|318:115,1,75.0000028610231,0|0,0:0|0:0,3:0:0:0:
196,73,31801,1,0,0:0:0:0:
211,192,31967,2,0,L|243:147,3,37.5000014305115
138,138,32298,2,0,L|82:132,3,37.5000014305115
133,224,32630,2,0,L|165:296,2,75.0000028610231
0,38,33127,5,0,0:0:0:0:
0,38,33293,2,0,L|78:46,1,75.0000028610231
136,112,33624,1,0,0:0:0:0:
136,112,33790,2,0,L|166:69,3,37.5000014305115
230,45,34121,2,0,L|208:-3,1,37.5000014305115
230,162,34287,1,0,0:0:0:0:
278,148,34369,1,0,0:0:0:0:
326,134,34452,1,0,0:0:0:0:
374,121,34535,1,0,0:0:0:0:
422,107,34618,5,0,0:0:0:0:
338,7,34784,1,0,0:0:0:0:
289,251,34950,1,0,0:0:0:0:
289,251,35282,5,0,0:0:0:0:
422,107,35447,1,0,0:0:0:0:
481,297,35613,1,0,0:0:0:0:
399,212,35779,1,0,0:0:0:0:
286,340,35945,2,0,B|248:355|198:318|220:304|158:271|104:307,1,187.5
48,353,36276,1,0,0:0:0:0:
202,153,36442,5,0,0:0:0:0:
37,266,36608,1,0,0:0:0:0:
53,100,36773,1,0,0:0:0:0:
121,209,36939,1,0,0:0:0:0:
230,45,37105,1,0,0:0:0:0:
281,220,37271,6,0,P|358:223|391:181,1,125
406,32,37602,1,0,0:0:0:0:
317,141,37768,1,0,0:0:0:0:
481,187,37934,2,0,P|445:118|392:111,1,125
281,220,38265,5,0,0:0:0:0:
394,295,38431,1,0,0:0:0:0:
251,362,38597,2,0,B|182:372|182:372|172:367|172:367|100:378,1,150
24,384,38928,1,0,0:0:0:0:
203,134,39094,5,0,0:0:0:0:
57,284,39260,1,0,0:0:0:0:
263,250,39425,1,0,0:0:0:0:
76,156,39591,1,0,0:0:0:0:
172,341,39757,1,0,0:0:0:0:
359,89,39923,6,0,P|436:86|469:128,1,125
414,358,40254,2,0,P|337:361|304:319,1,125
98,354,40586,5,0,0:0:0:0:
125,365,40668,1,0,0:0:0:0:
155,364,40751,1,0,0:0:0:0:
182,352,40834,1,0,0:0:0:0:
201,329,40917,1,0,0:0:0:0:
254,118,41083,5,0,0:0:0:0:
378,274,41249,2,0,L|390:170,2,100
254,118,41746,5,0,0:0:0:0:
126,274,41911,2,0,L|114:174,2,100
254,118,42409,5,0,0:0:0:0:
197,329,42574,2,0,P|150:367|90:357,1,100
37,110,42906,2,0,P|83:71|143:81,1,125
255,384,43237,5,0,0:0:0:0:
361,191,43403,1,0,0:0:0:0:
151,190,43569,1,0,0:0:0:0:
414,347,43735,1,0,0:0:0:0:
414,347,43818,1,0,0:0:0:0:
414,347,43900,2,0,B|476:339|490:311|490:311|463:324|413:315,1,150
455,240,44232,2,0,L|445:156,1,50
493,123,44398,2,0,L|483:39,1,50
268,113,44563,6,0,P|314:152|374:142,1,125
380,79,44812,1,0,0:0:0:0:
380,79,44895,2,0,L|372:160,1,62.5
197,162,45061,2,0,L|204:225,1,62.5
220,323,45226,5,0,0:0:0:0:
359,384,45392,1,0,0:0:0:0:
467,283,45558,1,0,0:0:0:0:
460,111,45724,2,0,L|453:48,2,62.5
467,283,46000,5,0,0:0:0:0:
408,288,46110,1,0,0:0:0:0:
350,294,46220,1,0,0:0:0:0:
290,345,46331,1,0,0:0:0:0:
248,340,46441,1,0,0:0:0:0:
207,336,46552,2,0,P|150:315|128:258,1,112.500004291535
96,202,46884,6,0,P|67:212|56:240,1,50
21,336,47215,2,0,P|49:325|60:297,1,50
188,153,47547,2,0,P|152:140|138:104,1,75
137,31,47878,2,0,P|80:51|58:108,1,119.999996337891
218,78,48376,1,0,0:0:0:0:
218,78,48541,2,0,L|295:69,1,75
329,141,48873,2,0,L|406:132,1,75
509,282,49204,1,0,0:0:0:0:
509,282,49536,6,0,L|416:272,1,75
330,284,49867,2,0,L|384:208,1,75
403,133,50199,2,0,L|457:208,1,75
317,131,50530,5,0,0:0:0:0:
302,110,50696,1,0,0:0:0:0:
287,90,50862,1,0,0:0:0:0:
273,69,51028,1,0,0:0:0:0:
258,49,51193,1,0,0:0:0:0:
166,204,51525,1,0,0:0:0:0:
78,51,51856,1,0,0:0:0:0:
251,231,52188,6,0,P|258:188|231:155,1,75
385,240,52519,2,0,P|344:254|329:294,1,75
319,121,52851,2,0,P|351:148|394:142,1,75
439,60,53182,1,0,0:0:0:0:
439,60,53679,5,0,0:0:0:0:
439,60,53845,2,0,L|372:67,1,50
246,0,54177,2,0,L|312:7,1,50
154,205,54508,2,0,P|167:135|122:79,1,139.999995727539
236,277,55005,5,0,0:0:0:0:
236,277,55171,2,0,P|230:243|243:211,1,69.9999978637696
326,222,55503,2,0,P|332:256|319:288,1,69.9999978637696
150,217,55834,1,0,0:0:0:0:
263,353,56000,2,0,B|228:365|199:360|199:360|178:329|141:313,1,139.999995727539
318,288,56497,5,0,0:0:0:0:
342,329,56580,1,0,0:0:0:0:
342,378,56663,1,0,0:0:0:0:
352,352,56746,1,0,0:0:0:0:
372,339,56829,2,0,P|409:332|445:346,1,75
507,384,57160,5,0,0:0:0:0:
415,240,57326,1,0,0:0:0:0:
415,240,57492,2,0,L|343:247,1,62.5
265,364,57657,5,0,0:0:0:0:
265,364,57823,2,0,L|193:356,1,62.5
74,326,57989,1,0,0:0:0:0:
206,235,58155,2,0,B|183:194|195:143|195:143|162:193|94:181,1,187.5
0,100,58486,2,0,L|130:105,1,125
324,112,58818,5,0,0:0:0:0:
259,34,58983,1,0,0:0:0:0:
284,206,59149,5,0,0:0:0:0:
420,96,59315,1,0,0:0:0:0:
511,299,59481,2,0,B|489:260|501:209|501:209|468:259|423:250,1,187.5
436,332,59812,2,0,L|306:337,1,125
38,137,60144,5,0,0:0:0:0:
77,384,60309,1,0,0:0:0:0:
151,83,60475,5,0,0:0:0:0:
201,336,60641,1,0,0:0:0:0:
474,137,60807,5,0,0:0:0:0:
435,384,60972,1,0,0:0:0:0:
361,83,61138,5,0,0:0:0:0:
311,336,61304,1,0,0:0:0:0:
114,178,61469,1,0,0:0:0:0:
127,384,61635,1,0,0:0:0:0:
275,200,61801,1,0,0:0:0:0:
275,200,61884,1,0,0:0:0:0:
275,200,61967,6,0,L|206:189,1,62.5
17,214,62132,1,0,0:0:0:0:
24,262,62214,1,0,0:0:0:0:
58,298,62297,1,0,0:0:0:0:
106,309,62380,1,0,0:0:0:0:
150,307,62464,6,0,L|231:295,1,50
275,200,62630,2,0,L|244:276,1,50
307,361,62795,2,0,L|256:296,1,50
132,118,62961,5,0,0:0:0:0:
214,382,63293,1,0,0:0:0:0:
408,177,63624,1,0,0:0:0:0:
476,77,64287,6,0,P|472:89|457:95,1,29.9999990844727
457,95,64453,2,0,P|441:98|427:87,1,34.9999989318848
427,87,64619,2,0,P|415:74|417:53,1,40
418,52,64784,2,0,P|424:32|446:23,1,44.999998626709
445,23,64950,2,0,P|469:17|492:35,1,50
512,184,65116,6,0,B|444:173|444:173|401:187|401:187|311:169,1,187.5
285,86,65447,6,0,L|348:100,1,62.5
421,318,65613,5,0,0:0:0:0:
442,134,65779,1,0,0:0:0:0:
325,283,65945,5,0,0:0:0:0:
346,99,66111,1,0,0:0:0:0:
506,217,66276,1,0,0:0:0:0:
331,355,66442,6,0,P|294:360|245:341,1,62.5
221,203,66608,2,0,P|243:232|251:283,1,62.5
146,376,66773,2,0,P|160:341|200:309,1,62.5
331,167,66939,5,0,0:0:0:0:
154,110,67105,1,0,0:0:0:0:
331,52,67271,1,0,0:0:0:0:
221,203,67436,1,0,0:0:0:0:
220,16,67602,1,0,0:0:0:0:
416,224,67768,6,0,B|359:184|282:181|243:248|311:322|364:257,1,225.000008583069
504,288,68099,2,0,B|527:244|494:210|494:210|501:248|475:275,1,150
413,320,68431,1,0,0:0:0:0:
444,146,68597,1,0,0:0:0:0:
335,364,68762,6,0,L|208:345,1,125
87,186,69094,1,0,0:0:0:0:
19,366,69260,1,0,0:0:0:0:
215,255,69425,6,0,B|303:268|303:268|343:215|295:156,1,187.5
235,0,69757,5,0,0:0:0:0:
179,176,69923,1,0,0:0:0:0:
31,43,70088,1,0,0:0:0:0:
309,176,70254,1,0,0:0:0:0:
309,176,70337,1,0,0:0:0:0:
309,176,70420,2,0,B|347:155|388:182|388:182|406:162|406:162|463:190|510:145,1,187.5
450,95,70751,2,0,L|439:20,1,62.5
367,275,70917,5,0,0:0:0:0:
195,200,71083,1,0,0:0:0:0:
289,362,71249,1,0,0:0:0:0:
309,176,71414,1,0,0:0:0:0:
185,315,71580,1,0,0:0:0:0:
447,327,71746,2,0,P|457:265|434:208,2,125
380,384,72243,5,0,0:0:0:0:
380,384,72326,1,0,0:0:0:0:
380,384,72409,2,0,L|296:380,1,62.5
434,208,72574,1,0,0:0:0:0:
226,381,72740,2,0,L|232:245,1,125
311,78,73072,6,0,B|358:38|410:73|410:73|361:62|325:100,1,187.5
234,198,73403,2,0,B|247:159|223:104|223:104|251:158|292:159,1,187.5
377,161,73735,1,0,0:0:0:0:
248,15,73900,1,0,0:0:0:0:
342,253,74066,2,0,P|411:257|457:206,1,125
412,39,74398,5,0,0:0:0:0:
161,158,74563,1,0,0:0:0:0:
419,302,74729,1,0,0:0:0:0:
216,276,74895,5,0,0:0:0:0:
188,287,74977,1,0,0:0:0:0:
177,315,75061,1,0,0:0:0:0:
134,350,75144,5,0,0:0:0:0:
116,326,75226,1,0,0:0:0:0:
86,322,75309,1,0,0:0:0:0:
51,370,75392,6,0,B|59:290|59:290|56:285|56:285|64:217,1,150
118,150,75724,2,0,P|56:140|-1:163,2,125
216,276,76221,5,0,0:0:0:0:
432,155,76387,1,0,0:0:0:0:
187,126,76552,1,0,0:0:0:0:
369,294,76718,1,0,0:0:0:0:
321,52,76884,1,0,0:0:0:0:
216,276,77050,2,0,B|152:310|91:269,1,125
0,81,77381,1,0,0:0:0:0:
158,206,77547,1,0,0:0:0:0:
200,17,77713,2,0,B|136:-17|75:24,2,125
390,272,78210,5,0,0:0:0:0:
390,272,78376,2,0,B|454:306|515:265,1,125
448,206,78707,2,0,B|485:165|465:115|465:115|466:158|438:177,1,150
390,272,79039,6,0,L|328:281,1,62.5
266,212,79204,2,0,L|204:221,1,62.5
134,363,79370,2,0,B|131:290|41:270|-21:292|-14:371|44:370,1,225.000008583069
60,264,79702,6,0,L|48:183,1,62.5
130,188,79867,2,0,L|118:107,1,62.5
266,212,80033,2,0,B|268:139|359:119|421:141|414:220|356:219,1,225.000008583069
342,115,80365,6,0,L|354:34,1,62.5
269,69,80530,2,0,L|281:-12,1,62.5
338,299,80696,5,0,0:0:0:0:
375,304,80778,1,0,0:0:0:0:
412,309,80861,1,0,0:0:0:0:
449,315,80944,1,0,0:0:0:0:
486,320,81028,6,0,B|406:332|406:332|387:344|387:344|281:359,1,187.5
230,368,81359,1,0,0:0:0:0:
322,215,81525,6,0,B|488:239|488:239|444:200,1,200
457,142,82022,6,0,L|407:149,1,50
247,259,82188,1,0,0:0:0:0:
247,259,82271,1,0,0:0:0:0:
247,259,82353,2,0,B|232:225|243:183|243:183|209:214|156:202,1,150
187,127,82685,1,0,0:0:0:0:
225,352,82851,6,0,L|286:359,1,62.5
494,384,83016,1,0,0:0:0:0:
357,291,83182,1,0,0:0:0:0:
512,209,83348,1,0,0:0:0:0:
357,291,83514,5,0,0:0:0:0:
325,287,83596,1,0,0:0:0:0:
294,283,83679,2,0,B|169:266|169:266|251:221,1,187.5
222,236,84011,6,0,L|215:297,1,62.5
207,384,84177,1,0,0:0:0:0:
9,184,84342,5,0,0:0:0:0:
37,330,84508,1,0,0:0:0:0:
250,90,84674,5,0,0:0:0:0:
222,236,84840,1,0,0:0:0:0:
102,135,85005,6,0,B|115:39|115:39|156:119,1,187.5
235,180,85337,2,0,B|312:240|312:240|222:236,1,187.5
0,229,85668,5,0,0:0:0:0:
21,244,85750,1,0,0:0:0:0:
42,260,85833,1,0,0:0:0:0:
63,275,85916,1,0,0:0:0:0:
84,291,86000,2,0,B|138:284|138:284|148:288|148:288|212:280,1,112.500004291535
268,265,86331,5,0,0:0:0:0:
110,384,86497,1,0,0:0:0:0:
153,197,86663,1,0,0:0:0:0:
385,327,86829,5,0,0:0:0:0:
355,109,86994,1,0,0:0:0:0:
194,282,87160,1,0,0:0:0:0:
445,210,87326,1,0,0:0:0:0:
225,92,87492,1,0,0:0:0:0:
256,193,87657,5,0,0:0:0:0:
347,142,87823,1,0,0:0:0:0:
106,28,87989,1,0,0:0:0:0:
351,242,88155,1,0,0:0:0:0:
28,341,88320,5,0,0:0:0:0:
48,331,88403,1,0,0:0:0:0:
74,327,88486,1,0,0:0:0:0:
103,332,88569,1,0,0:0:0:0:
128,354,88652,1,0,0:0:0:0:
157,377,88735,1,0,0:0:0:0:
198,380,88818,1,0,0:0:0:0:
240,366,88900,1,0,0:0:0:0:
273,328,88983,6,0,L|263:263,1,62.5
192,296,89149,2,0,L|183:235,1,62.5
338,246,89315,2,0,L|328:181,1,62.5
100,184,89481,2,0,L|109:245,1,62.5
192,296,89646,5,0,0:0:0:0:
126,384,89812,1,0,0:0:0:0:
32,247,89978,1,0,0:0:0:0:
87,110,90144,5,0,0:0:0:0:
87,110,90226,1,0,0:0:0:0:
87,110,90309,2,0,L|148:119,1,62.5
100,184,90475,2,0,L|161:193,1,62.5
178,49,90641,6,0,L|117:40,1,62.5
175,267,90807,2,0,L|114:258,1,62.5
323,11,90972,5,0,0:0:0:0:
482,59,91138,1,0,0:0:0:0:
368,162,91304,1,0,0:0:0:0:
370,343,91469,5,0,0:0:0:0:
370,343,91552,1,0,0:0:0:0:
370,343,91635,2,0,B|511:365|511:365|470:384,1,187.5
388,265,91967,2,0,B|349:250|313:276|313:276|245:244|271:187,1,187.5
291,114,92298,2,0,P|263:111|230:123,1,62.5
355,171,92464,2,0,P|371:148|377:113,1,62.5
187,223,92630,2,0,B|116:191|93:255|93:255|129:217|191:244,1,187.5
141,375,92961,6,0,L|150:314,1,62.5
10,226,93127,2,0,L|19:287,1,62.5
163,118,93293,2,0,L|39:136,1,125
0,67,93541,5,0,0:0:0:0:
0,67,93624,2,0,L|73:56,1,62.5
163,118,93790,2,0,L|189:49,1,62.5
292,21,93956,1,0,0:0:0:0:
298,64,94038,1,0,0:0:0:0:
305,107,94121,1,0,0:0:0:0:
311,150,94204,1,0,0:0:0:0:
318,194,94287,6,0,L|391:183,1,62.5
329,267,94453,2,0,L|402:256,1,62.5
386,112,94619,2,0,L|459:101,1,62.5
411,328,94784,2,0,L|484:317,1,62.5
254,244,94950,5,0,0:0:0:0:
452,211,95116,1,0,0:0:0:0:
354,384,95282,2,0,L|227:364,1,125
119,312,95530,5,0,0:0:0:0:
119,312,95613,2,0,L|192:301,1,62.5
106,235,95779,2,0,L|179:224,1,62.5
349,198,95945,2,0,L|276:187,1,62.5
362,123,96110,2,0,L|289:112,1,62.5
67,82,96276,5,0,0:0:0:0:
201,172,96442,1,0,0:0:0:0:
207,10,96608,2,0,L|145:19,1,62.5
26,187,96773,5,0,0:0:0:0:
26,187,96856,1,0,0:0:0:0:
26,187,96939,2,0,L|87:196,1,62.5
280,239,97105,5,0,0:0:0:0:
158,94,97271,1,0,0:0:0:0:
172,284,97436,1,0,0:0:0:0:
280,119,97602,1,0,0:0:0:0:
87,196,97768,1,0,0:0:0:0:
275,349,97934,5,0,0:0:0:0:
377,181,98099,1,0,0:0:0:0:
492,384,98265,2,0,B|479:333|504:290|504:290|475:330|430:333,1,187.5
432,253,98597,5,0,0:0:0:0:
463,158,98762,1,0,0:0:0:0:
388,91,98928,1,0,0:0:0:0:
297,133,99094,1,0,0:0:0:0:
300,233,99260,1,0,0:0:0:0:
377,181,99425,1,0,0:0:0:0:
219,79,99591,1,0,0:0:0:0:
246,35,108873,6,0,B|255:93|311:105|298:68|353:113|324:189|324:189|313:147|208:164|177:136|241:28|241:28,1,400
456,54,109536,6,0,P|400:7|328:19,1,150.000005722046
424,144,109784,2,0,B|368:141|377:94|377:94|392:126|426:127,1,125
505,128,110033,2,0,P|511:163|488:191,1,62.5
289,212,110199,6,0,B|420:231|420:231|342:244,1,187.5
379,316,110530,6,0,L|440:306,1,62.5
329,137,110696,1,0,0:0:0:0:
296,328,110862,1,0,0:0:0:0:
181,176,111028,1,0,0:0:0:0:
162,280,111193,1,0,0:0:0:0:
19,223,111359,1,0,0:0:0:0:
0,361,111525,6,0,B|55:352|55:352|66:357|66:357|130:346,1,125
242,165,111856,2,0,L|181:175,1,62.5
111,265,112022,1,0,0:0:0:0:
111,265,112105,1,0,0:0:0:0:
111,265,112188,6,0,L|172:255,1,62.5
333,228,112353,1,0,0:0:0:0:
269,374,112519,1,0,0:0:0:0:
172,254,112685,1,0,0:0:0:0:
328,75,112851,2,0,B|459:94|459:94|404:103,1,187.5
328,152,113182,2,0,L|267:142,1,62.5
59,110,113348,5,0,0:0:0:0:
209,256,113514,1,0,0:0:0:0:
175,50,113679,1,0,0:0:0:0:
81,237,113845,1,0,0:0:0:0:
266,141,114011,1,0,0:0:0:0:
208,351,114177,6,0,L|147:341,1,62.5
61,384,114342,2,0,L|0:374,1,62.5
165,264,114508,2,0,L|246:277,1,62.5
335,384,114674,1,0,0:0:0:0:
340,359,114756,1,0,0:0:0:0:
344,334,114839,1,0,0:0:0:0:
348,309,114922,1,0,0:0:0:0:
352,285,115005,1,0,0:0:0:0:
396,130,115171,2,0,B|431:192|487:145|487:145|437:152|408:93,1,187.5
489,72,115503,6,0,L|464:257,1,187.5
448,332,115834,1,0,0:0:0:0:
313,176,116000,1,0,0:0:0:0:
228,369,116166,6,0,B|169:385|169:385|102:352,1,125
6,255,116497,1,0,0:0:0:0:
178,297,116663,1,0,0:0:0:0:
139,121,116829,6,0,B|108:81|120:33|120:33|104:80|46:97,1,187.5
41,13,117160,6,0,L|234:38,1,187.5
304,48,117492,1,0,0:0:0:0:
357,303,117657,1,0,0:0:0:0:
110,222,117823,1,0,0:0:0:0:
270,176,117989,1,0,0:0:0:0:
270,176,118072,1,0,0:0:0:0:
270,176,118155,2,0,B|250:327|250:327|211:291,1,187.5
186,234,118486,6,0,L|195:157,1,62.5
135,124,118652,2,0,L|144:47,1,62.5
251,6,118818,2,0,B|251:54|224:74|224:74|232:46|222:26,1,125
143,62,119066,1,0,0:0:0:0:
143,62,119149,2,0,L|81:70,1,62.5
270,176,119315,2,0,L|331:184,1,62.5
135,361,119481,5,0,0:0:0:0:
182,346,119563,1,0,0:0:0:0:
221,315,119646,1,0,0:0:0:0:
247,273,119729,1,0,0:0:0:0:
256,224,119812,1,0,0:0:0:0:
270,176,119894,1,0,0:0:0:0:
301,137,119977,1,0,0:0:0:0:
343,111,120060,1,0,0:0:0:0:
392,102,120144,5,0,0:0:0:0:
376,161,120226,1,0,0:0:0:0:
328,199,120309,1,0,0:0:0:0:
267,200,120392,1,0,0:0:0:0:
217,163,120475,1,0,0:0:0:0:
201,104,120557,1,0,0:0:0:0:
153,66,120640,1,0,0:0:0:0:
92,65,120723,1,0,0:0:0:0:
42,102,120807,6,0,L|33:179,3,50
173,289,121138,2,0,L|182:212,3,50
244,66,121469,2,0,L|235:143,3,50
397,247,121801,2,0,L|406:170,3,50
512,75,122132,5,0,0:0:0:0:
486,47,122214,1,0,0:0:0:0:
453,29,122297,1,0,0:0:0:0:
416,22,122380,1,0,0:0:0:0:
379,26,122463,1,0,0:0:0:0:
345,41,122546,1,0,0:0:0:0:
317,65,122630,5,0,0:0:0:0:
333,83,122712,1,0,0:0:0:0:
355,95,122795,1,0,0:0:0:0:
379,102,122878,1,0,0:0:0:0:
404,101,122961,1,0,0:0:0:0:
428,93,123044,1,0,0:0:0:0:
448,78,123128,5,0,0:0:0:0:
400,67,123210,1,0,0:0:0:0:
359,93,123293,1,0,0:0:0:0:
348,140,123376,1,0,0:0:0:0:
374,181,123458,2,0,L|451:190,3,50
509,277,123790,5,0,0:0:0:0:
509,277,123873,1,0,0:0:0:0:
509,277,123956,2,0,L|432:286,1,50
385,368,124121,1,0,0:0:0:0:
385,368,124204,1,0,0:0:0:0:
385,368,124287,2,0,L|338:305,1,50
256,290,124453,1,0,0:0:0:0:
256,290,124536,1,0,0:0:0:0:
256,290,124619,2,0,L|286:218,1,50
380,205,124784,5,0,0:0:0:0:
414,190,124866,1,0,0:0:0:0:
432,157,124949,1,0,0:0:0:0:
431,119,125032,1,0,0:0:0:0:
412,85,125116,2,0,L|343:93,1,37.5000014305115
216,30,125282,2,0,L|284:38,1,50
238,158,125447,2,0,L|169:149,3,50
43,0,125779,5,0,0:0:0:0:
50,62,125861,1,0,0:0:0:0:
57,124,125944,1,0,0:0:0:0:
64,186,126027,1,0,0:0:0:0:
72,248,126110,6,0,L|153:260,3,62.5
173,339,126442,2,0,L|223:274,3,62.5
302,296,126773,2,0,L|271:219,3,62.5
340,169,127105,2,0,L|258:156,3,62.5
114,296,127436,5,0,0:0:0:0:
83,317,127518,1,0,0:0:0:0:
46,318,127601,1,0,0:0:0:0:
15,298,127684,1,0,0:0:0:0:
1,264,127767,1,0,0:0:0:0:
8,227,127850,1,0,0:0:0:0:
34,202,127933,1,0,0:0:0:0:
71,195,128016,1,0,0:0:0:0:
105,210,128099,2,0,L|168:237,3,37.5000014305115
242,294,128431,5,0,0:0:0:0:
303,284,128513,1,0,0:0:0:0:
365,275,128596,1,0,0:0:0:0:
427,266,128679,1,0,0:0:0:0:
489,257,128762,5,0,0:0:0:0:
500,304,128844,1,0,0:0:0:0:
481,350,128927,1,0,0:0:0:0:
440,378,129010,1,0,0:0:0:0:
391,377,129093,1,0,0:0:0:0:
351,348,129176,1,0,0:0:0:0:
326,305,129260,6,0,L|299:242,3,50
432,189,129591,2,0,L|405:252,1,50
269,384,129757,2,0,L|224:280,1,100
206,224,130005,1,0,0:0:0:0:
206,224,130088,1,0,0:0:0:0:
18,303,130254,1,0,0:0:0:0:
45,101,130420,2,0,B|84:195|84:195|100:139,1,150
188,0,130751,5,0,0:0:0:0:
160,70,130834,1,0,0:0:0:0:
196,123,130917,1,0,0:0:0:0:
250,129,131000,1,0,0:0:0:0:
288,105,131083,1,0,0:0:0:0:
291,70,131166,1,0,0:0:0:0:
273,51,131249,1,0,0:0:0:0:
258,49,131331,1,0,0:0:0:0:
253,51,131414,6,0,P|306:52|346:90,1,100
174,212,131746,2,0,P|148:165|161:111,1,100
361,196,132077,2,0,P|333:241|280:257,1,100
56,106,132409,6,0,L|158:121,1,100
291,257,132740,2,0,L|192:271,1,100
263,60,133072,2,0,L|277:158,1,100
63,328,133403,2,0,L|77:229,1,100
277,158,133735,6,0,B|289:237|289:237|286:240|286:240|300:318,1,150
203,384,134066,2,0,B|216:294|216:294|214:326|238:361,1,150
299,384,134398,6,0,L|401:368,1,100
512,288,134646,1,0,0:0:0:0:
512,288,134729,2,0,L|413:273,1,100
372,175,135061,2,0,L|309:253,1,100
197,249,135392,2,0,L|215:295,1,50
254,384,135558,1,0,0:0:0:0:
347,347,135724,1,0,0:0:0:0:
310,254,135889,1,0,0:0:0:0:
215,295,136056,5,0,0:0:0:0:
165,287,136138,1,0,0:0:0:0:
116,280,136221,1,0,0:0:0:0:
66,273,136304,1,0,0:0:0:0:
17,265,136387,2,0,L|24:214,3,50
52,367,136718,5,0,0:0:0:0:
264,281,136884,1,0,0:0:0:0:
264,281,137215,5,0,0:0:0:0:
83,140,137381,1,0,0:0:0:0:
83,140,137712,5,0,0:0:0:0:
295,53,137878,1,0,0:0:0:0:
282,355,138044,1,0,0:0:0:0:
306,350,138127,1,0,0:0:0:0:
331,350,138210,1,0,0:0:0:0:
355,352,138293,1,0,0:0:0:0:
378,361,138376,5,0,0:0:0:0:
405,381,138458,1,0,0:0:0:0:
449,384,138541,1,0,0:0:0:0:
493,351,138624,1,0,0:0:0:0:
508,287,138707,6,0,L|446:277,1,62.5
446,277,138873,2,0,L|384:267,1,62.5
384,267,139039,2,0,L|322:257,1,62.5
322,257,139204,2,0,L|260:247,1,62.5
107,129,139370,2,0,B|204:142|204:142|291:101,1,187.5
362,85,139702,2,0,L|423:94,1,62.5
191,61,139867,5,0,0:0:0:0:
341,166,140033,1,0,0:0:0:0:
163,249,140199,1,0,0:0:0:0:
232,164,140365,1,0,0:0:0:0:
21,143,140530,1,0,0:0:0:0:
129,323,140696,6,0,L|120:384,1,62.5
232,164,140862,6,0,L|223:103,1,62.5
396,291,141028,6,0,L|387:352,1,62.5
425,13,141193,5,0,0:0:0:0:
350,184,141359,1,0,0:0:0:0:
326,70,141525,1,0,0:0:0:0:
464,194,141690,1,0,0:0:0:0:
512,89,141856,1,0,0:0:0:0:
396,291,142022,6,0,B|321:280|321:280|289:296|289:296|208:280,1,187.5
146,197,142353,2,0,B|103:221|125:277|125:277|127:240|159:221,1,150
233,199,142685,1,0,0:0:0:0:
168,353,142851,1,0,0:0:0:0:
341,201,143016,2,0,B|342:151|308:114|308:114|349:142|406:127,1,187.5
364,54,143348,5,0,0:0:0:0:
427,211,143514,1,0,0:0:0:0:
228,100,143679,2,0,B|91:118|91:118|141:69,1,187.5
196,27,144011,2,0,L|270:16,1,62.5
116,194,144177,2,0,L|41:204,1,62.5
116,2,144342,1,0,0:0:0:0:
285,121,144508,5,0,0:0:0:0:
285,121,144591,1,0,0:0:0:0:
285,121,144674,2,0,L|472:93,1,187.5
512,11,145005,2,0,L|448:20,1,62.5
378,194,145171,5,0,0:0:0:0:
253,41,145337,1,0,0:0:0:0:
265,239,145503,1,0,0:0:0:0:
372,72,145668,1,0,0:0:0:0:
188,145,145834,1,0,0:0:0:0:
362,303,146000,5,0,0:0:0:0:
291,139,146166,1,0,0:0:0:0:
182,284,146331,2,0,B|121:323|57:288|29:234|91:184|137:225,1,225.000008583069
283,230,146663,2,0,L|273:291,1,62.5
259,384,146829,1,0,0:0:0:0:
430,203,146994,1,0,0:0:0:0:
430,203,147077,1,0,0:0:0:0:
430,203,147160,2,0,L|368:212,1,62.5
194,102,147326,6,0,L|381:130,1,187.5
476,54,147657,2,0,B|454:19|392:47|392:47|433:50|443:73,1,150,0|0,0:3|0:3,0:0:0:0:
458,154,147989,1,0,0:0:0:0:
312,36,148155,1,0,0:0:0:0:
460,274,148320,2,0,B|524:271|527:199|527:199|509:234|467:240,1,187.5
382,236,148652,5,0,0:0:0:0:
447,77,148818,1,0,0:0:0:0:
267,102,148983,1,0,0:0:0:0:
336,340,149149,5,0,0:0:0:0:
301,366,149232,1,0,0:0:0:0:
265,375,149315,1,0,0:0:0:0:
234,377,149398,1,0,0:0:0:0:
211,369,149481,1,0,0:0:0:0:
197,357,149563,1,0,0:0:0:0:
193,345,149646,6,0,P|125:339|187:368,1,187.5
262,278,149978,2,0,B|250:189|250:189|240:174|240:174|229:93,1,187.5
144,18,150309,2,0,L|152:79,1,62.5
181,229,150475,5,0,0:0:0:0:
397,108,150641,1,0,0:0:0:0:
152,79,150806,1,0,0:0:0:0:
334,247,150972,1,0,0:0:0:0:
286,5,151138,1,0,0:0:0:0:
181,229,151304,6,0,B|85:217|85:217|121:182,1,125
272,138,151635,1,0,0:0:0:0:
40,33,151801,1,0,0:0:0:0:
64,295,151967,5,0,0:0:0:0:
144,105,152132,1,0,0:0:0:0:
267,260,152298,1,0,0:0:0:0:
153,217,152464,1,0,0:0:0:0:
398,286,152630,6,0,B|410:237|386:199|386:199|432:241|486:221,1,187.5
434,379,152961,6,0,B|373:398|346:344|346:344|383:377|435:349,1,187.5
477,305,153293,1,0,0:0:0:0:
456,145,153458,1,0,0:0:0:0:
310,257,153624,2,0,B|261:267|243:312|243:312|186:298|181:240,1,187.5
314,174,153956,6,0,L|375:166,1,62.5
297,98,154121,2,0,L|358:90,1,62.5
25,0,154287,2,0,B|50:37|36:90|36:90|56:37|109:22,1,187.5
210,70,154619,6,0,L|202:131,1,62.5
125,108,154784,2,0,L|117:169,1,62.5
0,331,154950,5,0,0:0:0:0:
30,335,155033,1,0,0:0:0:0:
60,340,155116,1,0,0:0:0:0:
90,345,155199,1,0,0:0:0:0:
120,349,155282,2,0,B|256:368|256:368|211:311,1,187.5
192,260,155613,1,0,0:0:0:0:
450,294,155779,6,0,B|364:284|364:284|362:279|362:279|261:265,1,187.5
192,260,156110,1,0,0:0:0:0:
195,104,156276,1,0,0:0:0:0:
332,180,156442,1,0,0:0:0:0:
332,180,156525,1,0,0:0:0:0:
332,180,156608,6,0,B|371:197|424:192|424:192|372:205|339:238,1,187.5
250,174,156939,6,0,P|262:133|293:112,1,62.5
380,110,157105,1,0,0:0:0:0:
445,315,157271,1,0,0:0:0:0:
217,277,157436,1,0,0:0:0:0:
137,51,157602,1,0,0:0:0:0:
137,51,157685,1,0,0:0:0:0:
137,51,157768,2,0,L|129:112,1,62.5
41,358,157934,5,0,0:0:0:0:
60,157,158099,1,0,0:0:0:0:
217,277,158265,1,0,0:0:0:0:
103,261,158430,5,0,0:0:0:0:
335,291,158597,2,0,B|395:282|395:282|429:249|408:209,1,125
437,146,158845,6,0,L|305:163,1,125
244,119,159094,2,0,L|183:127,1,62.5
33,10,159260,2,0,B|73:15|101:37|111:75|111:75|78:118|107:161,1,187.5
162,205,159591,2,0,P|111:238|51:219,1,125
199,32,159923,1,0,0:0:0:0:
260,40,160005,1,0,0:0:0:0:
322,48,160088,1,0,0:0:0:0:
384,56,160171,1,0,0:0:0:0:
446,64,160254,2,0,L|436:137,1,75
507,197,160586,5,0,0:0:0:0:
306,378,160751,1,0,0:0:0:0:
253,121,160917,1,0,0:0:0:0:
41,282,161083,1,0,0:0:0:0:
205,262,161249,1,0,0:0:0:0:
7,38,161414,5,0,0:0:0:0:
90,152,161580,1,0,0:0:0:0:
148,19,161746,1,0,0:0:0:0:
381,127,161911,5,0,0:0:0:0:
417,123,161993,1,0,0:0:0:0:
451,108,162076,1,0,0:0:0:0:
471,76,162159,1,0,0:0:0:0:
478,39,162242,1,0,0:0:0:0:
437,71,162325,1,0,0:0:0:0:
413,118,162408,1,0,0:0:0:0:
410,170,162491,1,0,0:0:0:0:
429,218,162575,1,0,0:0:0:0:
456,269,162657,1,0,0:0:0:0:
442,327,162740,1,0,0:0:0:0:
394,360,162823,1,0,0:0:0:0:
335,353,162906,1,0,0:0:0:0:
296,310,162989,1,0,0:0:0:0:
299,250,163072,1,0,0:0:0:0:
334,201,163155,1,0,0:0:0:0:
327,142,163237,6,0,B|243:51|153:139|153:139|179:205|242:169,1,300
29,42,164398,1,0,0:0:0:0:
29,42,164563,2,0,B|71:91|36:139|36:139|78:194|66:238,1,200
512,372,165724,1,0,0:0:0:0:
512,372,165889,2,0,B|463:379|463:379|408:342|433:284,1,150
352,254,166552,2,0,P|338:311|349:361,1,100
426,206,167050,1,0,0:0:0:0:
426,206,167215,2,0,P|379:175|328:172,1,100
244,129,167713,6,0,L|239:98,2,25
256,227,168044,1,0,0:0:0:0:
490,6,168376,5,0,0:0:0:0:
432,75,168541,2,0,L|357:81,1,75.0000028610231
303,148,168873,2,0,L|264:151,3,37.5000014305115
360,220,169204,2,0,L|434:226,1,75.0000028610231
233,309,169536,2,0,L|307:302,1,75.0000028610231
110,377,169867,2,0,L|157:381,3,37.5000014305115
38,286,170199,2,0,L|-9:290,3,37.5000014305115
154,195,170530,2,0,L|161:270,1,75.0000028610231
38,113,170862,2,0,L|34:153,3,37.5000014305115
137,0,171193,6,0,L|211:10,1,75.0000028610231
228,163,171525,2,0,L|200:93,1,75.0000028610231
326,0,171856,2,0,L|279:58,1,75.0000028610231
160,225,172188,5,0,0:0:0:0:
371,102,172354,1,0,0:0:0:0:
375,343,172519,1,0,0:0:0:0:
315,228,172685,5,0,0:0:0:0:
249,338,172851,1,0,0:0:0:0:
449,243,173016,1,0,0:0:0:0:
270,111,173182,5,0,0:0:0:0:
224,130,173264,1,0,0:0:0:0:
174,137,173347,1,0,0:0:0:0:
125,130,173430,1,0,0:0:0:0:
79,110,173513,1,0,0:0:0:0:
70,65,173597,1,0,0:0:0:0:
89,30,173679,1,0,0:0:0:0:
122,20,173762,1,0,0:0:0:0:
149,31,173845,6,0,L|156:83,1,50
200,377,174011,1,0,0:0:0:0:
386,197,174177,1,0,0:0:0:0:
123,245,174342,6,0,L|-17:224,1,125
281,59,174674,1,0,0:0:0:0:
315,368,174840,1,0,0:0:0:0:
205,219,175005,1,0,0:0:0:0:
500,108,175171,5,0,0:0:0:0:
450,114,175253,1,0,0:0:0:0:
400,121,175336,1,0,0:0:0:0:
351,127,175419,1,0,0:0:0:0:
301,134,175503,2,0,L|240:142,1,50
65,89,175668,5,0,0:0:0:0:
55,42,175750,1,0,0:0:0:0:
92,13,175833,1,0,0:0:0:0:
136,30,175916,1,0,0:0:0:0:
140,77,176000,2,0,L|116:133,1,50
0,192,176166,2,0,L|36:240,3,50
76,373,176497,5,0,0:0:0:0:
99,364,176580,1,0,0:0:0:0:
122,355,176663,1,0,0:0:0:0:
145,346,176746,1,0,0:0:0:0:
168,336,176829,2,0,L|229:344,1,50
317,384,176994,5,0,0:0:0:0:
317,384,177077,1,0,0:0:0:0:
317,384,177160,2,0,L|354:335,1,50
434,256,177326,5,0,0:0:0:0:
414,217,177408,1,0,0:0:0:0:
369,193,177492,1,0,0:0:0:0:
313,201,177574,1,0,0:0:0:0:
253,218,177657,1,0,0:0:0:0:
184,220,177740,1,0,0:0:0:0:
121,178,177823,1,0,0:0:0:0:
256,192,177906,12,0,179149,0:0:0:0:
0,32,188928,5,0,0:0:0:0:
0,32,189011,1,0,0:0:0:0:
0,32,189094,2,0,L|55:40,1,50
71,123,189260,2,0,B|115:100|115:100|136:53,1,100
212,81,189674,1,0,0:0:0:0:
212,81,189757,2,0,L|191:132,1,50
115,197,190088,2,0,L|142:180,3,25
34,201,190420,1,0,0:0:0:0:
34,201,190751,6,0,L|46:282,1,75.0000028610231
0,369,191083,2,0,L|32:343,3,25
99,336,191414,2,0,L|131:361,3,25
125,263,191746,1,0,0:0:0:0:
125,263,192077,6,0,L|199:252,1,75.0000028610231
173,179,192409,2,0,P|213:174|247:189,1,75
278,259,192740,2,0,P|318:263|352:248,1,75
405,189,193072,6,0,L|443:194,3,25
423,109,193403,6,0,L|447:78,3,25
360,56,193735,6,0,L|345:19,3,25
345,134,194066,5,0,0:0:0:0:
326,136,194148,1,0,0:0:0:0:
307,139,194231,1,0,0:0:0:0:
289,142,194314,1,0,0:0:0:0:
258,75,194398,5,0,0:0:0:0:
220,108,194481,1,0,0:0:0:0:
211,146,194563,1,0,0:0:0:0:
219,179,194646,1,0,0:0:0:0:
232,205,194729,1,0,0:0:0:0:
250,221,194812,1,0,0:0:0:0:
258,238,194895,1,0,0:0:0:0:
259,252,194978,1,0,0:0:0:0:
256,266,195061,6,0,P|207:260|157:280,1,100
289,142,195392,2,0,P|306:189|350:219,1,100
148,181,195724,2,0,P|184:137|184:88,1,100
293,0,196055,5,0,0:0:0:0:
396,85,196221,1,0,0:0:0:0:
396,85,196304,1,0,0:0:0:0:
396,85,196387,1,0,0:0:0:0:
196,5,196552,5,0,0:0:0:0:
389,173,196718,1,0,0:0:0:0:
96,14,196884,5,0,0:0:0:0:
385,267,197050,1,0,0:0:0:0:
73,111,197215,5,0,0:0:0:0:
306,124,197381,1,0,0:0:0:0:
192,314,197547,1,0,0:0:0:0:
389,173,197713,6,0,B|407:112|407:112|378:42,1,125
244,0,198044,1,0,0:0:0:0:
351,262,198210,6,0,L|488:282,1,125
396,381,198541,1,0,0:0:0:0:
491,161,198707,1,0,0:0:0:0:
223,84,198873,6,0,B|235:167|235:167|238:171|238:171|255:279,1,187.5
270,354,199204,1,0,0:0:0:0:
160,251,199370,1,0,0:0:0:0:
440,99,199536,2,0,P|460:55|418:102,1,187.5
407,169,199867,1,0,0:0:0:0:
223,7,200033,1,0,0:0:0:0:
256,151,200199,1,0,0:0:0:0:
36,235,200365,5,0,0:0:0:0:
12,291,200447,1,0,0:0:0:0:
37,346,200530,1,0,0:0:0:0:
94,366,200613,1,0,0:0:0:0:
148,338,200696,1,0,0:0:0:0:
208,322,200779,1,0,0:0:0:0:
270,322,200862,6,0,L|351:334,1,50
512,32,201193,2,0,L|437:42,1,50
110,96,201525,2,0,L|159:103,1,50
334,121,201690,5,0,0:0:0:0:
405,157,201856,1,0,0:0:0:0:
418,215,202022,1,0,0:0:0:0:
405,253,202188,1,0,0:0:0:0:
484,358,207492,5,0,0:0:0:0:
484,358,207574,1,0,0:0:0:0:
484,358,207657,1,0,0:0:0:0:
412,300,207823,1,0,0:0:0:0:
412,300,208155,5,0,0:0:0:0:
343,364,208320,2,0,B|305:345|305:345|268:350|268:350|225:317,1,112.500004291535
289,266,208652,2,0,L|296:216,3,37.5000014305115
210,254,208983,1,0,0:0:0:0:
210,254,209315,6,0,L|87:272,1,112.500004291535
43,189,209646,2,0,L|96:196,3,37.5000014305115
139,133,209978,2,0,L|192:140,3,37.5000014305115
263,76,210309,2,0,L|251:151,1,75.0000028610231
323,194,210558,1,0,0:0:0:0:
323,194,210641,2,0,L|317:231,1,37.5
390,342,210972,2,0,B|430:350|430:350|398:374,1,75
315,341,211304,2,0,B|275:333|275:333|307:309,1,75
391,263,211635,5,0,0:0:0:0:
317,231,211801,1,0,0:0:0:0:
431,193,211967,1,0,0:0:0:0:
236,251,212132,1,0,0:0:0:0:
300,62,212298,5,0,0:0:0:0:
474,265,212464,1,0,0:0:0:0:
474,265,212630,1,0,0:0:0:0:
512,61,212795,5,0,0:0:0:0:
437,344,212961,1,0,0:0:0:0:
437,344,213127,1,0,0:0:0:0:
226,144,213293,5,0,0:0:0:0:
226,144,213458,1,0,0:0:0:0:
405,186,213624,5,0,0:0:0:0:
208,384,213790,1,0,0:0:0:0:
74,51,214288,5,0,0:0:0:0:
254,232,214453,1,0,0:0:0:0:
254,232,214950,6,0,B|326:221|326:221|378:170|339:101,1,187.5
373,40,215282,2,0,P|336:36|298:50,1,62.5
177,192,215447,5,0,0:0:0:0:
152,47,215613,1,0,0:0:0:0:
56,295,215779,5,0,0:0:0:0:
31,150,215945,1,0,0:0:0:0:
166,299,216110,1,0,0:0:0:0:
237,132,216276,6,0,L|174:141,1,62.5
311,195,216442,2,0,L|334:136,1,62.5
218,230,216608,2,0,L|257:279,1,62.5
448,325,216773,5,0,0:0:0:0:
311,195,216939,1,0,0:0:0:0:
495,222,217105,1,0,0:0:0:0:
329,309,217270,1,0,0:0:0:0:
411,140,217436,1,0,0:0:0:0:
219,270,217602,6,0,B|155:284|155:284|243:151,1,225.000008583069
260,76,217934,2,0,B|221:66|185:97|185:97|201:40|262:38,1,187.5
346,67,218265,1,0,0:0:0:0:
512,179,218431,1,0,0:0:0:0:
464,0,218597,2,0,B|452:85|452:85|444:85|444:85|430:190,1,187.5
470,248,218928,6,0,L|407:257,1,62.5
382,337,219094,2,0,L|319:346,1,62.5
130,384,219260,2,0,P|86:364|178:330,1,225.000008583069
253,303,219591,2,0,L|243:240,1,62.5
175,201,219757,2,0,L|165:138,1,62.5
272,11,219923,5,0,0:0:0:0:
228,17,220005,1,0,0:0:0:0:
185,23,220088,1,0,0:0:0:0:
142,30,220171,1,0,0:0:0:0:
98,36,220254,2,0,B|30:46|30:46|56:173,1,187.5
37,240,220586,2,0,P|71:242|99:230,1,62.5
215,179,220751,5,0,0:0:0:0:
387,254,220917,1,0,0:0:0:0:
205,294,221083,1,0,0:0:0:0:
309,341,221248,1,0,0:0:0:0:
329,155,221414,1,0,0:0:0:0:
425,359,221580,5,0,0:0:0:0:
291,248,221746,1,0,0:0:0:0:
495,171,221911,2,0,L|474:295,1,125
393,96,222243,1,0,0:0:0:0:
360,305,222409,1,0,0:0:0:0:
215,181,222574,2,0,B|155:190|155:190|84:163,1,125
298,107,222906,6,0,B|338:154|303:206|303:206|314:157|276:121,1,187.5
171,37,223237,2,0,B|210:50|265:26|265:26|211:53|210:95,1,187.5
215,181,223569,1,0,0:0:0:0:
356,32,223734,1,0,0:0:0:0:
127,194,223900,2,0,P|158:255|225:270,1,125
415,104,224232,5,0,0:0:0:0:
450,21,224398,1,0,0:0:0:0:
325,117,224563,1,0,0:0:0:0:
412,241,224729,1,0,0:0:0:0:
461,233,224811,1,0,0:0:0:0:
510,226,224896,1,0,0:0:0:0:
502,275,224978,1,0,0:0:0:0:
495,324,225061,1,0,0:0:0:0:
488,374,225144,1,0,0:0:0:0:
411,363,225226,6,0,B|373:355|373:355|371:358|371:358|327:349,1,75
299,266,225558,2,0,L|344:259,1,37.5
154,286,225889,1,0,0:0:0:0:
112,260,225971,1,0,0:0:0:0:
97,213,226054,1,0,0:0:0:0:
115,168,226137,1,0,0:0:0:0:
160,146,226221,2,0,L|222:136,1,50
504,109,226387,1,0,0:0:0:0:
504,109,226718,6,0,L|496:158,1,50
512,237,226884,2,0,L|386:218,1,125,0|0,0:3|0:3,0:3:0:0:
323,138,227215,1,0,0:0:0:0:
281,333,227381,5,0,0:0:0:0:
328,280,227464,1,0,0:0:0:0:
305,224,227547,1,0,0:0:0:0:
255,217,227630,1,0,0:0:0:0:
221,247,227713,1,0,0:0:0:0:
206,283,227795,1,0,0:0:0:0:
194,316,227878,1,0,0:0:0:0:
172,336,227961,1,0,0:0:0:0:
148,344,228044,1,0,0:0:0:0:
127,344,228127,1,0,0:0:0:0:
111,343,228210,6,0,L|11:326,1,100
89,127,228541,2,0,L|223:149,1,125
374,181,228873,5,0,0:0:0:0:
274,6,229039,1,0,0:0:0:0:
168,220,229204,2,0,B|199:254|196:305|196:305|200:250|241:220,1,187.5
293,166,229536,6,0,L|303:104,1,62.5
212,147,229702,2,0,L|222:85,1,62.5
336,373,229867,2,0,B|386:327|351:249|351:249|285:251|290:321,1,225.000008583069
249,383,230199,6,0,L|187:372,1,62.5
175,285,230365,2,0,L|113:274,1,62.5
14,114,230530,5,0,0:0:0:0:
63,122,230612,1,0,0:0:0:0:
112,130,230695,1,0,0:0:0:0:
162,138,230778,1,0,0:0:0:0:
211,146,230862,2,0,B|242:101|226:48|226:48|166:35,1,150
108,22,231193,1,0,0:0:0:0:
289,206,231359,2,0,B|359:193|359:193|368:197|368:197|441:184,1,150
512,165,231690,1,0,0:0:0:0:
436,9,231856,5,0,0:0:0:0:
399,42,231938,1,0,0:0:0:0:
353,62,232021,1,0,0:0:0:0:
303,65,232104,1,0,0:0:0:0:
255,53,232188,2,0,B|210:45|210:45|303:125,1,150
363,151,232519,2,0,L|412:142,1,50
292,200,232685,2,0,L|242:191,1,50
80,163,232851,5,0,0:0:0:0:
180,127,233016,1,0,0:0:0:0:
21,80,233182,1,0,0:0:0:0:
188,282,233348,1,0,0:0:0:0:
188,282,233431,1,0,0:0:0:0:
188,282,233514,2,0,P|256:308|312:259,1,125
387,42,233845,5,0,0:0:0:0:
470,307,234011,1,0,0:0:0:0:
217,93,234177,5,0,0:0:0:0:
445,225,234342,1,0,0:0:0:0:
289,0,234508,5,0,0:0:0:0:
190,274,234674,1,0,0:0:0:0:
86,74,234840,5,0,0:0:0:0:
322,201,235005,1,0,0:0:0:0:
106,358,235171,5,0,0:0:0:0:
371,146,235337,1,0,0:0:0:0:
0,84,235503,1,0,0:0:0:0:
8,133,235585,1,0,0:0:0:0:
17,182,235668,1,0,0:0:0:0:
26,231,235751,1,0,0:0:0:0:
35,280,235834,2,0,L|113:265,1,75
224,229,236166,5,0,0:0:0:0:
340,11,236331,1,0,0:0:0:0:
473,205,236497,1,0,0:0:0:0:
160,126,236663,5,0,0:0:0:0:
342,293,236829,1,0,0:0:0:0:
88,384,236994,1,0,0:0:0:0:
191,268,237160,1,0,0:0:0:0:
48,228,237326,1,0,0:0:0:0:
297,160,237492,5,0,0:0:0:0:
278,364,237657,1,0,0:0:0:0:
466,290,237823,1,0,0:0:0:0:
466,290,237906,1,0,0:0:0:0:
466,290,237989,2,0,L|457:240,1,50
512,78,238155,2,0,L|445:90,2,66.6666666666667
356,18,238486,2,0,L|290:6,2,66.6666666666667
193,121,238818,1,0,0:0:0:0:
234,377,240144,1,0,0:0:0:0:
0,274,241469,6,0,L|28:279,2,16.6666666666667
94,259,241801,6,0,L|122:264,2,16.6666666666667
83,342,242132,1,0,0:0:0:0:
83,342,242464,6,0,L|125:334,2,33.3333333333333
190,291,242795,1,0,0:0:0:0:
190,291,243127,6,0,L|239:299,2,50.0000019073487
327,326,243458,1,0,0:0:0:0:
512,99,243790,6,0,L|423:114,2,66.6666666666667
365,130,244121,1,0,0:0:0:0:
365,130,244453,6,0,L|276:114,2,66.6666666666667
218,99,244784,1,0,0:0:0:0:
218,99,245116,6,0,L|129:114,2,66.6666666666667
71,130,245447,1,0,0:0:0:0:
71,130,245779,2,0,L|59:64,2,66.6666666666667
16,209,246110,5,0,0:0:0:0:
78,259,246221,1,0,0:0:0:0:
149,246,246331,1,0,0:0:0:0:
195,172,246442,1,0,0:0:0:0:
224,144,246552,1,0,0:0:0:0:
271,153,246663,1,0,0:0:0:0:
