osu file format v14

[General]
AudioFilename: bonkyu.mp3
AudioLeadIn: 0
PreviewTime: 178118
Countdown: 0
SampleSet: Soft
StackLeniency: 0.5
Mode: 0
LetterboxInBreaks: 0
WidescreenStoryboard: 1

[Editor]
DistanceSpacing: 0.3
BeatDivisor: 4
GridSize: 32
TimelineZoom: 2.799999

[Metadata]
Title:Bon Kyu Bon wa Kare no Mono
TitleUnicode:ボン♡キュッ♡ボンは彼のモノ♡
Artist:Sumire Uesaka
ArtistUnicode:上坂すみれ
Creator:Hanakumo Rin
Version:Hard
Source:なんでここに先生が!?
Tags:xiced door weapon dog food lean monster Nande Koko ni Sensei ga!? Why the hell are you here, Teacher!? anime opening japanese pop j-pop NEO PROPAGANDA
BeatmapID:3625253
BeatmapSetID:1728916

[Difficulty]
HPDrainRate:4.5
CircleSize:4
OverallDifficulty:6
ApproachRate:8
SliderMultiplier:1.4
SliderTickRate:1

[Events]
//Background and Video events
0,0,"deddd.jpg",0,0
//Break Periods
//Storyboard Layer 0 (Background)
//Storyboard Layer 1 (Fail)
//Storyboard Layer 2 (Pass)
//Storyboard Layer 3 (Foreground)
//Storyboard Layer 4 (Overlay)
//Storyboard Sound Samples

[TimingPoints]
595,774.193548387097,4,2,1,30,1,0
595,-100,4,2,1,30,0,0
6809,389.610389610389,4,2,1,65,1,0
19276,-133.333333333333,4,2,1,45,0,0
31744,-111.111111111111,4,2,1,55,0,0
54925,-100,4,2,1,55,0,0
58237,-90.9090909090909,4,2,1,75,0,0
64471,-90.9090909090909,4,2,1,70,0,0
67588,-90.9090909090909,4,2,1,75,0,0
73821,-90.9090909090909,4,2,1,70,0,0
80834,-100,4,2,1,55,0,0
81614,-100,4,2,1,60,0,0
84731,-100,4,2,1,65,0,0
97198,-133.333333333333,4,2,1,45,0,0
109666,-111.111111111111,4,2,1,55,0,0
132847,-100,4,2,1,55,0,0
136159,-90.9090909090909,4,2,1,75,0,0
142393,-90.9090909090909,4,2,1,70,0,0
145510,-90.9090909090909,4,2,1,75,0,0
151744,-90.9090909090909,4,2,1,70,0,0
159536,-100,4,2,1,70,0,0
178237,-133.333333333333,4,2,1,45,0,0
184471,-133.333333333333,4,2,1,50,0,0
188951,-166.666666666667,4,2,1,50,0,0
192263,-100,4,2,1,60,0,0
193821,-90.9090909090909,4,2,1,60,0,0
217198,-100,4,2,1,60,0,0
241354,-100,4,2,1,30,0,0

[Colours]
Combo1 : 250,180,240
Combo2 : 120,200,230
Combo3 : 255,230,130
Combo4 : 160,230,150

[HitObjects]
6,163,595,6,0,P|74:151|144:136,1,140,2|0,0:0|0:0,0:0:0:0:
248,201,1949,2,0,P|275:158|258:28,1,175,2|0,0:0|0:0,0:0:0:0:
148,226,3691,6,0,P|106:283|115:358,1,140,2|0,0:0|0:0,0:0:0:0:
218,384,5046,2,0,P|293:363|402:346,1,175,2|2,0:0|0:0,0:0:0:0:
470,214,6809,6,0,P|461:175|456:145,1,70,6|0,1:2|3:0,0:0:0:0:
391,59,7198,2,0,P|357:50|323:41,1,70,2|0,1:2|3:0,0:0:0:0:
312,42,7490,1,0,3:0:0:0:
301,43,7588,2,0,P|274:90|283:184,1,140,2|0,1:2|1:2,0:0:0:0:
386,261,8172,6,0,P|317:273|248:286,1,140,2|0,3:2|0:0,0:0:0:0:
157,223,8757,2,0,P|142:269|132:305,1,70,0|0,1:2|3:0,0:0:0:0:
136,305,9049,1,0,3:0:0:0:
127,316,9146,2,0,L|52:331,1,70,2|2,1:2|3:0,0:0:0:0:
0,247,9536,1,0,1:2:0:0:
59,175,9731,5,0,3:0:0:0:
69,176,9828,1,0,3:0:0:0:
79,176,9925,2,0,P|93:127|101:97,1,70,2|0,1:2|0:0,0:0:0:0:
212,105,10315,2,0,P|198:56|190:26,1,70,2|0,1:2|3:0,0:0:0:0:
198,28,10607,1,0,3:0:0:0:
205,21,10705,2,0,P|250:2|331:37,1,140,2|0,1:2|1:0,0:0:0:0:
413,109,11289,6,0,P|377:118|345:127,1,70,2|0,3:2|1:0,0:0:0:0:
275,205,11679,1,0,3:0:0:0:
277,215,11776,1,0,3:0:0:0:
276,225,11873,2,0,L|258:294,1,70,2|0,1:2|3:0,0:0:0:0:
318,369,12263,1,0,1:2:0:0:
407,320,12458,1,0,3:0:0:0:
413,311,12555,1,0,3:0:0:0:
421,304,12653,2,0,P|439:298|468:290,3,35,2|2|2|2,1:2|0:0|0:0|0:0,0:0:0:0:
480,295,13042,6,0,P|501:248|493:192,1,105,6|0,1:2|0:0,0:0:0:0:
484,181,13432,2,0,P|422:194|399:199,1,70,0|0,1:2|0:0,0:0:0:0:
341,247,13724,1,0,3:0:0:0:
332,240,13821,2,0,P|309:191|334:105,1,140,0|0,1:2|1:0,0:0:0:0:
465,0,14406,6,0,P|478:68|494:139,1,140,2|0,3:2|0:0,0:0:0:0:
430,218,14990,2,0,P|416:251|422:291,1,70,2|0,1:2|3:0,0:0:0:0:
430,297,15283,1,0,3:0:0:0:
436,304,15380,2,0,P|491:295|516:290,1,70,2|0,1:2|3:0,0:0:0:0:
380,372,15770,1,0,1:0:0:0:
282,326,15964,5,0,3:0:0:0:
291,320,16062,1,0,3:0:0:0:
300,314,16159,2,0,P|313:263|325:211,1,105,2|0,1:2|0:0,0:0:0:0:
320,194,16549,2,0,P|288:172|254:167,1,70,2|0,1:2|3:0,0:0:0:0:
166,172,16841,1,0,3:0:0:0:
156,168,16938,2,0,P|132:99|138:32,1,140,2|0,1:2|1:0,0:0:0:0:
230,60,17523,5,2,3:2:0:0:
239,55,17620,1,0,3:0:0:0:
247,48,17718,2,0,P|313:35|335:28,1,70,2|0,1:2|3:0,0:0:0:0:
428,0,18107,2,0,P|416:33|408:67,1,70,0|0,1:0|3:0,0:0:0:0:
412,76,18399,1,0,3:0:0:0:
416,85,18497,1,0,1:2:0:0:
494,153,18692,1,2,3:2:0:0:
419,191,18886,1,2,1:2:0:0:
470,251,19081,1,2,3:2:0:0:
410,305,19276,6,0,P|316:315|191:358,1,210.000008010865,4|0,1:2|0:0,0:0:0:0:
29,312,20640,2,0,P|39:244|120:233,1,157.500006008148,2|0,0:0|0:0,0:0:0:0:
208,165,21614,1,2,0:0:0:0:
136,90,22003,1,2,0:0:0:0:
228,15,22393,6,0,P|296:29|398:50,1,157.500006008148,2|0,0:0|0:0,0:0:0:0:
478,50,23172,2,0,L|464:-1,2,52.5000020027161,2|0|0,0:0|0:0|0:0,0:0:0:0:
507,157,23757,6,0,P|466:227|460:303,1,157.500006008148,2|0,0:0|0:0,0:0:0:0:
460,302,24731,2,0,P|433:305|409:318,1,52.5000020027161,2|0,0:0|0:0,0:0:0:0:
334,257,25120,2,0,P|317:277|309:304,1,52.5000020027161,2|0,0:0|0:0,0:0:0:0:
231,364,25510,6,0,P|164:352|38:268,1,210.000008010865,2|2,0:0|0:0,0:0:0:0:
0,203,26484,1,0,0:0:0:0:
0,203,26679,1,0,0:0:0:0:
58,120,26873,6,0,L|26:-4,1,105.000004005432,2|0,0:0|0:0,0:0:0:0:
127,44,27458,2,0,P|153:49|177:59,1,52.5000020027161
238,134,27847,2,0,P|260:79|260:19,1,105.000004005432,0|2,0:0|0:0,0:0:0:0:
376,150,28627,6,0,P|424:163|485:177,1,105.000004005432,2|0,0:0|0:0,0:0:0:0:
453,311,29406,2,0,P|405:298|344:284,1,105.000004005432
269,236,29990,2,0,P|226:262|224:363,1,157.500006008148,2|2,0:0|0:0,0:0:0:0:
222,360,30964,1,0,0:0:0:0:
222,360,31354,1,0,0:0:0:0:
41,293,31744,6,0,P|27:336|38:366,1,62.9999980773926,6|0,1:2|0:0,0:0:0:0:
129,230,32133,2,0,L|112:132,1,94.499997116089,8|0,0:0|0:0,0:0:0:0:
107,129,32523,2,0,P|67:119|32:112,1,62.9999980773926,2|2,1:2|0:0,0:0:0:0:
142,41,32912,1,10,0:0:0:0:
228,105,33107,6,0,P|291:103|337:61,1,125.999996154785,6|0,1:2|0:0,0:0:0:0:
419,0,33692,2,0,P|426:30|435:65,1,62.9999980773926,10|2,0:0|0:0,0:0:0:0:
435,70,33984,1,2,0:0:0:0:
436,79,34081,2,0,P|467:70|502:59,1,62.9999980773926,6|0,1:2|0:0,0:0:0:0:
393,182,34471,2,0,P|362:191|327:202,1,62.9999980773926,14|0,0:0|0:0,0:0:0:0:
263,260,34860,6,0,P|252:322|262:384,1,125.999996154785,6|8,1:2|0:0,0:0:0:0:
352,318,35445,1,2,0:0:0:0:
359,312,35542,1,2,0:0:0:0:
366,306,35640,2,0,P|409:295|442:287,1,62.9999980773926,2|2,1:2|0:0,0:0:0:0:
495,213,36029,1,10,0:0:0:0:
420,161,36224,6,0,P|404:123|410:33,1,125.999996154785,6|0,1:2|0:0,0:0:0:0:
290,6,36808,2,0,L|307:79,1,62.9999980773926,10|2,0:0|0:0,0:0:0:0:
304,76,37101,1,2,0:0:0:0:
300,84,37198,2,0,P|268:96|232:93,1,62.9999980773926,6|0,1:2|0:0,0:0:0:0:
109,14,37588,2,0,P|141:2|177:5,1,62.9999980773926,14|0,0:0|0:0,0:0:0:0:
130,134,37977,6,0,P|119:197|106:257,1,125.999996154785,6|8,1:2|0:0,0:0:0:0:
63,352,38562,1,0,3:0:0:0:
70,357,38659,1,0,3:0:0:0:
76,363,38757,2,0,P|126:351|153:343,1,62.9999980773926,2|2,1:2|0:0,0:0:0:0:
214,296,39146,1,10,0:0:0:0:
303,349,39341,6,0,P|326:307|307:224,1,125.999996154785,6|0,1:2|0:0,0:0:0:0:
233,150,39925,2,0,P|277:139|336:122,1,94.499997116089,10|2,0:0|0:0,0:0:0:0:
331,119,40315,2,0,P|341:88|340:56,1,62.9999980773926,6|0,1:2|0:0,0:0:0:0:
216,0,40705,2,0,L|230:64,1,62.9999980773926,14|2,0:0|0:0,0:0:0:0:
231,70,40997,5,2,0:0:0:0:
226,78,41094,2,0,B|155:72|182:109|92:83,1,125.999996154785,6|10,1:2|0:0,0:0:0:0:
17,120,41679,1,0,0:0:0:0:
88,193,41873,1,2,1:2:0:0:
88,193,42068,2,0,P|70:246|64:264,1,62.9999980773926,2|8,1:2|0:0,0:0:0:0:
22,333,42458,6,0,P|72:298|136:307,1,125.999996154785,6|0,1:2|0:0,0:0:0:0:
228,300,43042,2,0,L|210:377,2,62.9999980773926,10|2|0,0:0|0:0|1:0,0:0:0:0:
301,226,43627,1,10,0:0:0:0:
301,226,43821,1,10,0:0:0:0:
380,276,44016,5,10,0:0:0:0:
389,273,44114,1,8,0:0:0:0:
398,273,44211,2,0,P|420:187|425:159,1,94.499997116089,6|0,1:2|0:0,0:0:0:0:
425,173,44601,2,0,P|472:159|505:155,1,62.9999980773926,10|0,0:0|0:0,0:0:0:0:
404,76,44990,2,0,P|346:52|281:48,1,125.999996154785,2|10,1:2|0:0,0:0:0:0:
124,3,45770,6,0,P|140:69|154:132,1,125.999996154785,2|10,1:2|0:0,0:0:0:0:
238,200,46354,2,0,P|252:162|247:134,1,62.9999980773926,2|0,0:0|1:0,0:0:0:0:
150,247,46744,1,8,0:0:0:0:
150,247,46938,1,10,0:0:0:0:
226,326,47133,5,2,0:0:0:0:
234,322,47231,1,2,0:0:0:0:
243,322,47328,2,0,P|274:313|303:304,1,62.9999980773926,2|0,1:2|0:0,0:0:0:0:
401,362,47718,2,0,P|421:309|415:268,1,94.499997116089,10|0,0:0|0:0,0:0:0:0:
418,263,48107,2,0,L|479:250,1,62.9999980773926,2|2,1:2|0:0,0:0:0:0:
430,158,48497,2,0,P|439:111|448:64,1,94.499997116089,10|0,0:0|0:0,0:0:0:0:
444,56,48886,6,0,P|415:42|382:34,1,62.9999980773926,2|0,1:2|0:0,0:0:0:0:
326,95,49276,1,10,0:0:0:0:
235,67,49471,2,0,P|221:16|213:-19,1,62.9999980773926,2|0,0:0|1:0,0:0:0:0:
133,71,49860,1,8,0:0:0:0:
133,71,50055,1,10,0:0:0:0:
54,8,50250,5,2,0:0:0:0:
45,3,50347,1,2,0:0:0:0:
35,3,50445,2,0,P|10:104|7:117,1,94.499997116089,6|0,1:2|0:0,0:0:0:0:
9,103,50834,2,0,L|21:171,1,62.9999980773926,10|0,0:0|0:0,0:0:0:0:
131,200,51224,2,0,L|114:266,1,62.9999980773926,2|2,1:2|0:0,0:0:0:0:
45,322,51614,1,10,0:0:0:0:
146,369,51808,5,2,0:0:0:0:
154,364,51906,1,2,0:0:0:0:
163,363,52003,2,0,P|196:362|273:306,1,125.999996154785,2|10,1:2|0:0,0:0:0:0:
361,227,52588,2,0,P|391:233|426:241,1,62.9999980773926,2|0,0:0|1:0,0:0:0:0:
375,129,52977,1,8,0:0:0:0:
375,129,53172,2,0,P|363:99|356:69,1,62.9999980773926,8|2,0:0|0:0,0:0:0:0:
350,61,53464,5,2,0:0:0:0:
340,59,53562,2,0,P|309:52|278:44,1,62.9999980773926,2|2,1:2|0:0,0:0:0:0:
211,98,53951,1,10,0:0:0:0:
155,30,54146,1,2,0:0:0:0:
146,34,54244,1,2,0:0:0:0:
140,41,54341,2,0,P|125:114|112:172,1,125.999996154785,2|8,1:2|0:0,0:0:0:0:
81,296,54925,6,0,P|139:252|203:260,1,140,6|0,1:2|0:0,0:0:0:0:
248,348,55510,1,8,0:0:0:0:
334,276,55705,2,0,P|324:216|309:129,1,140,6|10,1:2|0:0,0:0:0:0:
229,68,56289,1,10,0:0:0:0:
293,1,56484,5,10,0:0:0:0:
302,2,56581,1,8,0:0:0:0:
311,4,56679,1,2,1:2:0:0:
439,146,57068,1,2,1:2:0:0:
450,0,57458,1,2,1:2:0:0:
310,137,57847,2,0,L|302:180,3,35,10|10|10|10,0:0|0:0|0:0|0:0,0:0:0:0:
246,227,58237,6,0,P|190:215|130:201,1,115.50000352478,6|0,1:2|0:0,0:0:0:0:
122,209,58627,2,0,P|97:248|101:284,1,77.0000023498536,2|0,1:2|3:0,0:0:0:0:
101,288,58919,1,0,3:0:0:0:
109,296,59016,1,2,1:2:0:0:
179,362,59211,1,8,0:1:0:0:
179,362,59406,1,8,0:1:0:0:
286,331,59601,6,0,P|317:299|422:293,1,154.000004699707,2|0,3:2|3:2,0:0:0:0:
486,370,60185,2,0,P|499:333|511:296,1,77.0000023498536,2|0,1:2|3:0,0:0:0:0:
512,285,60477,1,0,3:0:0:0:
508,274,60575,1,2,1:2:0:0:
455,201,60770,1,8,0:1:0:0:
455,201,60964,1,8,0:1:0:0:
512,122,61159,6,0,P|437:102|363:82,1,154.000004699707,2|0,3:2|3:0,0:0:0:0:
351,83,61646,1,0,3:0:0:0:
339,81,61744,2,0,P|328:43|321:6,1,77.0000023498536,2|0,1:2|0:0,0:0:0:0:
236,62,62133,1,2,1:2:0:0:
155,14,62328,1,8,0:1:0:0:
155,14,62523,1,8,0:1:0:0:
69,86,62718,6,0,P|33:152|78:217,1,154.000004699707,2|0,3:2|3:0,0:0:0:0:
80,219,63205,1,0,3:0:0:0:
91,218,63302,1,0,1:2:0:0:
145,298,63497,2,0,L|124:378,1,77.0000023498536,2|0,3:2|1:0,0:0:0:0:
242,325,63886,1,10,0:0:0:0:
242,325,64081,2,0,P|288:312|314:295,1,77.0000023498536,8|8,0:0|0:0,0:0:0:0:
317,285,64373,5,8,0:0:0:0:
317,273,64471,2,0,L|287:103,1,154.000004699707,6|10,1:2|0:0,0:0:0:0:
346,30,65055,2,0,B|411:7|425:50|496:14,1,154.000004699707,2|0,0:0|0:0,0:0:0:0:
427,109,65640,1,8,0:0:0:0:
495,181,65834,6,0,P|473:255|451:328,1,154.000004699707,6|6,1:2|1:2,0:0:0:0:
372,384,66419,2,0,P|350:352|359:314,1,77.0000023498536,10|10,0:0|0:0,0:0:0:0:
323,221,66808,1,6,1:2:0:0:
323,221,67198,2,0,L|271:208,3,38.5000011749268,6|0|0|0,1:2|3:0|3:0|3:0,0:0:0:0:
222,268,67588,6,0,P|141:291|64:313,1,154.000004699707,6|10,1:2|0:0,0:0:0:0:
9,223,68172,2,0,L|16:179,2,38.5000011749268,0|0|2,3:0|3:0|1:2,0:0:0:0:
120,144,68562,1,8,0:1:0:0:
120,144,68757,1,8,0:1:0:0:
56,61,68951,6,0,P|101:22|196:32,1,154.000004699707,2|0,3:2|3:0,0:0:0:0:
198,37,69438,1,0,3:2:0:0:
204,45,69536,2,0,L|287:26,1,77.0000023498536,2|0,1:2|3:0,0:0:0:0:
346,91,69925,1,2,1:2:0:0:
420,15,70120,1,8,0:1:0:0:
420,15,70315,1,8,0:1:0:0:
488,78,70510,6,0,P|469:152|449:227,1,154.000004699707,2|0,3:2|3:2,0:0:0:0:
406,356,71094,2,0,P|375:315|288:320,1,115.50000352478,2|0,1:2|3:0,0:0:0:0:
304,312,71484,1,2,1:2:0:0:
221,361,71679,1,8,0:1:0:0:
221,361,71873,1,8,0:1:0:0:
137,316,72068,6,0,P|122:233|106:155,1,154.000004699707,2|0,3:2|3:0,0:0:0:0:
103,154,72555,1,0,3:0:0:0:
96,144,72653,1,0,1:2:0:0:
20,79,72847,2,0,P|55:67|94:51,1,77.0000023498536,2|0,3:2|1:0,0:0:0:0:
198,105,73237,1,10,0:2:0:0:
198,105,73432,2,0,P|216:70|213:28,1,77.0000023498536,14|8,0:0|0:0,0:0:0:0:
203,22,73724,5,8,0:0:0:0:
207,11,73821,2,0,P|284:24|358:38,1,154.000004699707,6|8,1:2|0:0,0:0:0:0:
496,14,74406,2,0,P|446:67|447:164,1,154.000004699707,2|0,0:0|0:0,0:0:0:0:
512,212,74990,1,10,0:0:0:0:
446,296,75185,6,0,P|358:316|291:340,1,154.000004699707,6|2,1:2|1:2,0:0:0:0:
209,310,75770,2,0,P|176:339|181:387,1,77.0000023498536,10|10,0:0|0:0,0:0:0:0:
281,236,76159,2,0,P|301:168|270:95,1,154.000004699707,2|10,1:2|0:0,0:0:0:0:
226,8,76744,1,2,0:0:0:0:
153,64,76938,6,0,B|69:55|85:95|3:62,1,154.000004699707,0|10,1:2|0:0,0:0:0:0:
39,172,77523,2,0,P|49:210|58:248,1,77.0000023498536,2|0,1:2|0:0,0:0:0:0:
0,343,77912,1,2,0:0:0:0:
81,373,78107,1,10,0:0:0:0:
158,308,78302,6,0,P|218:253|297:266,1,154.000004699707,6|8,1:2|0:0,0:0:0:0:
293,268,78789,1,8,0:0:0:0:
296,278,78886,2,0,L|321:360,1,77.0000023498536,8|8,1:2|0:0,0:0:0:0:
407,290,79276,1,10,1:2:0:0:
492,345,79471,2,0,L|482:393,2,38.5000011749268,8|8|8,0:0|0:0|1:2,0:0:0:0:
506,223,79860,6,0,P|462:186|404:186,1,115.50000352478,6|0,1:2|0:0,0:0:0:0:
398,194,80250,1,14,0:0:0:0:
310,136,80445,2,0,P|292:101|295:62,1,77.0000023498536,14|0,0:0|0:0,0:0:0:0:
294,64,81614,5,6,1:2:0:0:
114,15,82198,1,6,1:2:0:0:
114,15,82393,2,0,P|93:89|77:152,1,140,6|0,1:2|0:3,0:3:0:0:
0,220,82977,5,6,1:2:0:0:
88,361,83367,1,6,1:2:0:0:
229,274,83757,1,6,1:2:0:0:
229,274,83951,2,0,P|281:228|350:233,1,140,6|2,1:2|0:1,0:0:0:0:
512,378,84731,6,0,P|498:344|494:308,1,70,6|0,1:2|3:0,0:0:0:0:
436,204,85120,2,0,P|450:170|472:141,1,70,2|0,1:2|3:0,0:0:0:0:
478,137,85412,1,0,3:0:0:0:
488,135,85510,2,0,P|411:117|345:96,1,140,2|0,1:2|1:2,0:0:0:0:
252,142,86094,6,0,P|220:86|250:10,1,140,2|0,3:2|0:0,0:0:0:0:
133,81,86679,2,0,P|125:123|118:160,1,70,0|0,1:2|3:0,0:0:0:0:
121,160,86971,1,0,3:0:0:0:
117,169,87068,2,0,L|42:184,1,70,2|0,1:2|3:0,0:0:0:0:
0,269,87458,1,0,1:2:0:0:
58,344,87653,5,0,3:0:0:0:
68,345,87750,1,0,3:0:0:0:
78,345,87847,2,0,P|95:305|100:266,1,70,2|0,1:2|0:0,0:0:0:0:
190,206,88237,2,0,P|206:237|207:274,1,70,2|0,1:2|0:0,0:0:0:0:
205,281,88529,1,0,0:0:0:0:
209,290,88627,2,0,P|278:302|361:317,1,140,2|0,1:2|1:0,0:0:0:0:
425,231,89211,6,0,P|393:215|359:215,1,70,2|0,3:2|3:0,0:0:0:0:
303,144,89601,1,0,3:0:0:0:
309,135,89698,1,0,3:0:0:0:
314,125,89795,2,0,L|296:1,1,105,2|0,1:2|3:0,0:0:0:0:
289,17,90185,1,2,1:2:0:0:
199,46,90380,1,0,3:0:0:0:
193,37,90477,1,0,3:0:0:0:
185,30,90575,2,0,P|167:24|138:16,3,35,2|2|2|2,1:2|0:0|0:0|0:0,0:0:0:0:
78,49,90964,6,0,P|50:102|66:154,1,105,6|0,1:2|0:0,0:0:0:0:
68,148,91354,2,0,P|101:138|135:129,1,70,2|0,1:2|3:0,0:0:0:0:
145,133,91646,1,0,3:0:0:0:
152,139,91743,2,0,P|185:206|176:275,1,140,2|0,1:2|1:0,0:0:0:0:
138,366,92328,6,0,P|194:355|274:336,1,140,2|0,3:2|0:0,0:0:0:0:
380,295,92912,2,0,P|360:322|356:358,1,70,2|0,1:2|3:0,0:0:0:0:
362,367,93205,1,0,3:0:0:0:
368,374,93302,2,0,P|423:365|448:360,1,70,2|0,1:2|3:0,0:0:0:0:
503,287,93692,1,0,1:0:0:0:
438,216,93886,5,0,3:0:0:0:
432,207,93984,1,0,3:0:0:0:
423,201,94081,2,0,P|410:150|398:98,1,105,2|0,1:2|0:0,0:0:0:0:
400,82,94471,2,0,P|368:66|332:65,1,70,2|0,1:2|0:0,0:0:0:0:
234,73,94763,1,0,3:0:0:0:
226,80,94860,2,0,P|152:71|97:14,1,140,2|0,1:2|1:0,0:0:0:0:
19,141,95445,5,0,3:0:0:0:
24,150,95542,1,0,3:0:0:0:
31,158,95640,2,0,P|44:224|51:246,1,70,2|0,1:2|3:0,0:0:0:0:
178,297,96029,2,0,P|170:234|145:157,1,140,0|0,1:0|1:2,0:0:0:0:
210,83,96614,1,2,3:2:0:0:
278,143,96808,1,2,1:2:0:0:
351,86,97003,1,2,3:2:0:0:
438,129,97198,6,0,P|482:223|464:337,1,210,4|0,1:2|0:0,0:0:0:0:
197,241,98562,2,0,P|177:194|195:83,1,157.500006008148,2|0,0:0|0:0,0:0:0:0:
264,21,99536,1,2,0:0:0:0:
344,80,99925,1,2,0:0:0:0:
274,165,100315,6,0,P|342:179|444:200,1,157.500006008148,2|0,0:0|0:0,0:0:0:0:
502,142,101094,2,0,P|497:118|488:91,2,52.5000020027161
372,97,101679,6,0,P|294:89|236:36,1,157.500006008148,2|0,0:0|0:0,0:0:0:0:
237,37,102653,2,0,P|210:40|186:53,1,52.5000020027161,2|0,0:0|0:0,0:0:0:0:
222,143,103042,2,0,P|205:163|197:190,1,52.5000020027161,2|0,0:0|0:0,0:0:0:0:
138,252,103432,6,0,P|42:204|27:103,1,210.000008010865,2|2,0:0|0:0,0:0:0:0:
89,35,104406,1,0,0:0:0:0:
89,35,104601,1,0,0:0:0:0:
155,95,104795,6,0,P|202:83|256:68,1,105.000004005432,2|0,0:0|0:0,0:0:0:0:
328,18,105380,2,0,P|352:22|378:33,1,52.5000020027161,2|0,0:0|0:0,0:0:0:0:
493,104,105769,2,0,P|471:49|471:-11,1,105.000004005432,2|2,0:0|0:0,0:0:0:0:
380,129,106549,6,0,P|368:180|356:232,1,105.000004005432,2|0,0:0|0:0,0:0:0:0:
480,373,107328,2,0,P|491:321|503:270,1,105.000004005432,2|0,0:0|0:0,0:0:0:0:
379,321,107912,2,0,P|303:311|270:243,1,157.500006008148,2|0,0:0|0:0,0:0:0:0:
270,243,108886,1,0,0:0:0:0:
270,243,109276,1,0,0:0:0:0:
355,123,109666,6,0,P|340:159|352:196,1,62.9999980773926,6|0,1:2|0:0,0:0:0:0:
464,102,110055,2,0,L|483:10,1,94.499997116089,8|0,0:0|0:0,0:0:0:0:
475,3,110445,2,0,P|444:9|412:16,1,62.9999980773926,2|2,1:2|0:0,0:0:0:0:
336,62,110834,1,10,0:0:0:0:
249,14,111029,6,0,P|186:16|140:58,1,125.999996154785,6|0,1:2|0:0,0:0:0:0:
76,120,111614,2,0,P|69:150|60:185,1,62.9999980773926,10|0,0:0|3:0,0:0:0:0:
65,190,111906,1,0,3:0:0:0:
60,197,112003,2,0,P|29:188|-6:177,1,62.9999980773926,6|0,1:2|0:0,0:0:0:0:
89,312,112393,2,0,P|120:321|155:332,1,62.9999980773926,14|0,0:0|0:0,0:0:0:0:
239,382,112782,6,0,P|257:320|246:257,1,125.999996154785,6|8,1:2|0:0,0:0:0:0:
290,177,113367,1,0,3:0:0:0:
297,171,113464,1,0,3:0:0:0:
304,165,113562,2,0,P|347:154|380:146,1,62.9999980773926,2|2,1:2|0:0,0:0:0:0:
267,66,113951,1,10,0:0:0:0:
181,135,114146,6,0,P|168:199|155:258,1,125.999996154785,6|0,1:2|0:0,0:0:0:0:
78,333,114730,2,0,P|46:326|19:311,1,62.9999980773926,10|0,0:0|0:0,0:0:0:0:
12,304,115023,1,0,3:0:0:0:
8,295,115120,2,0,L|24:234,1,62.9999980773926,6|0,1:2|0:0,0:0:0:0:
181,135,115510,2,0,L|164:195,1,62.9999980773926,14|0,0:0|0:0,0:0:0:0:
66,122,115899,6,0,P|58:58|90:-1,1,125.999996154785,6|8,1:2|0:0,0:0:0:0:
189,43,116484,1,0,3:0:0:0:
196,48,116581,1,0,3:0:0:0:
202,54,116679,2,0,P|252:42|279:34,1,62.9999980773926,2|2,1:2|0:0,0:0:0:0:
337,102,117068,1,10,0:0:0:0:
388,17,117263,6,0,P|447:3|495:40,1,125.999996154785,6|0,1:2|0:0,0:0:0:0:
459,139,117847,2,0,P|448:183|431:242,1,94.499997116089,10|0,0:0|3:0,0:0:0:0:
428,237,118237,2,0,P|397:243|364:248,1,62.9999980773926,6|0,1:2|0:0,0:0:0:0:
259,146,118627,2,0,L|273:210,1,62.9999980773926,14|0,0:0|0:0,0:0:0:0:
274,216,118919,5,0,3:0:0:0:
269,224,119016,2,0,B|198:218|225:255|135:229,2,125.999996154785,6|10|2,1:2|0:0|1:2,0:0:0:0:
289,312,119990,2,0,P|271:365|265:383,1,62.9999980773926,2|8,1:2|0:0,0:0:0:0:
428,306,120380,6,0,P|446:242|411:192,1,125.999996154785,6|0,1:2|0:0,0:0:0:0:
369,97,120964,2,0,L|384:36,2,62.9999980773926,10|2|2,0:0|0:0|1:2,0:0:0:0:
289,174,121549,1,2,1:2:0:0:
289,174,121743,1,10,0:0:0:0:
203,110,121938,5,2,0:0:0:0:
201,100,122036,1,2,0:0:0:0:
195,93,122133,2,0,P|106:94|77:96,1,94.499997116089,6|0,1:2|0:0,0:0:0:0:
92,90,122523,2,0,P|76:54|81:19,1,62.9999980773926,10|0,0:0|0:0,0:0:0:0:
188,0,122912,2,0,P|216:8|249:16,1,62.9999980773926,2|0,1:2|0:0,0:0:0:0:
333,79,123302,2,0,P|341:51|349:18,1,62.9999980773926,10|0,0:0|0:0,0:0:0:0:
209,106,123692,6,0,P|193:162|177:228,1,125.999996154785,2|10,1:2|0:0,0:0:0:0:
92,302,124276,2,0,P|78:264|83:236,1,62.9999980773926,2|0,0:0|1:0,0:0:0:0:
190,334,124666,1,8,0:0:0:0:
190,334,124860,1,8,0:0:0:0:
245,280,125055,5,2,0:0:0:0:
253,276,125153,1,2,0:0:0:0:
262,276,125250,2,0,P|293:267|322:258,1,62.9999980773926,2|0,1:2|0:0,0:0:0:0:
421,343,125640,2,0,P|417:294|435:249,1,94.499997116089,10|0,0:0|0:0,0:0:0:0:
433,242,126029,2,0,L|494:229,1,62.9999980773926,2|0,1:2|3:0,0:0:0:0:
431,126,126419,2,0,P|440:79|449:32,1,94.499997116089,10|0,0:0|0:0,0:0:0:0:
441,27,126808,6,0,P|407:35|375:44,1,62.9999980773926,2|0,1:2|0:0,0:0:0:0:
314,116,127198,1,10,0:0:0:0:
235,61,127393,2,0,P|222:32|215:1,1,62.9999980773926,2|0,0:0|1:0,0:0:0:0:
133,71,127782,1,8,0:0:0:0:
133,71,127977,1,8,0:0:0:0:
180,160,128172,5,2,0:0:0:0:
189,155,128269,1,2,0:0:0:0:
199,155,128367,2,0,P|220:208|215:273,1,94.499997116089,6|0,1:2|0:0,0:0:0:0:
228,258,128756,2,0,L|166:280,1,62.9999980773926,10|0,0:0|0:0,0:0:0:0:
92,202,129146,2,0,L|75:268,1,62.9999980773926,2|0,1:2|0:0,0:0:0:0:
12,330,129536,1,10,0:0:0:0:
95,374,129730,5,2,0:0:0:0:
103,369,129828,1,2,0:0:0:0:
112,368,129925,2,0,P|163:376|223:326,1,125.999996154785,2|10,1:2|0:0,0:0:0:0:
311,280,130510,2,0,P|340:294|375:302,1,62.9999980773926,2|0,0:0|3:0,0:0:0:0:
331,186,130899,1,8,0:0:0:0:
331,186,131094,2,0,P|319:156|312:126,1,62.9999980773926,8|2,0:0|0:0,0:0:0:0:
306,118,131386,5,2,0:0:0:0:
296,116,131484,2,0,P|265:109|234:101,1,62.9999980773926,2|2,1:2|0:0,0:0:0:0:
180,26,131873,1,10,0:0:0:0:
97,75,132068,1,2,0:0:0:0:
88,79,132166,1,2,0:0:0:0:
82,86,132263,2,0,P|67:159|54:217,1,125.999996154785,2|10,1:2|0:0,0:0:0:0:
2,297,132847,6,0,P|67:296|126:346,1,140,6|0,1:2|0:0,0:0:0:0:
207,375,133432,1,10,0:0:0:0:
270,308,133627,2,0,P|260:248|245:161,1,140,6|8,1:2|0:0,0:0:0:0:
174,96,134211,1,8,0:0:0:0:
224,15,134406,5,8,0:0:0:0:
233,16,134503,1,8,0:0:0:0:
242,18,134601,1,2,1:2:0:0:
434,36,134990,1,0,1:2:0:0:
328,162,135380,1,2,1:2:0:0:
373,243,135575,1,8,0:0:0:0:
364,246,135672,1,8,0:0:0:0:
355,251,135769,2,0,L|346:296,3,35,8|8|8|8,0:0|0:0|0:0|0:0,0:0:0:0:
294,343,136159,6,0,P|233:333|181:312,1,115.50000352478,6|0,1:2|0:0,0:0:0:0:
167,316,136549,2,0,P|151:278|156:228,1,77.0000023498536,2|0,1:2|3:0,0:0:0:0:
153,231,136841,1,0,3:0:0:0:
161,224,136938,1,2,1:2:0:0:
256,248,137133,1,8,0:1:0:0:
256,248,137328,1,8,0:1:0:0:
308,163,137523,6,0,P|358:119|444:125,1,154.000004699707,2|0,3:2|3:2,0:0:0:0:
508,225,138107,2,0,P|495:262|483:299,1,77.0000023498536,2|0,1:2|3:0,0:0:0:0:
482,310,138399,1,0,3:0:0:0:
484,321,138497,1,0,1:0:0:0:
399,365,138692,1,8,0:1:0:0:
399,365,138886,1,8,0:1:0:0:
331,293,139081,6,0,P|256:273|182:253,1,154.000004699707,2|0,3:2|3:0,0:0:0:0:
171,256,139568,1,0,3:0:0:0:
159,258,139666,2,0,P|145:219|141:183,1,77.0000023498536,2|0,1:2|0:0,0:0:0:0:
195,105,140055,1,2,1:2:0:0:
123,40,140250,1,8,0:1:0:0:
123,40,140445,1,8,0:1:0:0:
51,118,140640,6,0,P|37:193|58:266,1,154.000004699707,2|0,3:2|3:0,0:0:0:0:
65,275,141127,1,0,3:0:0:0:
73,282,141224,1,0,1:2:0:0:
148,351,141419,2,0,L|167:276,1,77.0000023498536,2|0,3:2|1:0,0:0:0:0:
248,223,141808,1,10,0:0:0:0:
248,223,142003,2,0,P|286:239|332:239,1,77.0000023498536,8|8,0:0|0:0,0:0:0:0:
331,235,142295,5,8,0:0:0:0:
338,226,142393,2,0,L|317:59,1,154.000004699707,6|10,1:2|0:0,0:0:0:0:
209,10,142977,2,0,P|172:84|209:158,1,154.000004699707,2|0,0:0|0:0,0:0:0:0:
248,223,143562,1,8,0:0:0:0:
178,297,143756,6,0,P|103:281|24:263,1,154.000004699707,6|6,1:2|1:2,0:0:0:0:
116,190,144341,2,0,P|132:153|126:111,1,77.0000023498536,14|10,0:0|0:0,0:0:0:0:
71,43,144730,1,6,1:2:0:0:
71,43,145120,2,0,L|19:30,3,38.5000011749268,6|0|0|0,1:2|3:0|3:0|3:0,0:0:0:0:
154,22,145510,6,0,P|228:8|284:-4,1,115.50000352478,6|0,1:2|0:0,0:0:0:0:
283,6,145899,2,0,P|320:13|356:28,1,77.0000023498536,2|0,1:2|3:0,0:0:0:0:
401,115,146289,1,2,1:2:0:0:
341,195,146484,1,8,0:1:0:0:
341,195,146679,1,8,0:1:0:0:
252,135,146873,6,0,P|183:124|126:180,1,154.000004699707,2|0,3:2|3:0,0:0:0:0:
124,190,147360,1,0,3:2:0:0:
123,201,147458,2,0,L|139:284,1,77.0000023498536,2|0,1:2|3:0,0:0:0:0:
210,344,147847,1,2,1:2:0:0:
278,280,148042,1,8,0:1:0:0:
278,280,148237,1,8,0:1:0:0:
352,338,148432,6,0,P|426:318|500:299,1,154.000004699707,2|0,3:2|3:2,0:0:0:0:
433,205,149016,2,0,P|364:198|331:151,1,115.50000352478,2|0,1:2|3:0,0:0:0:0:
329,155,149406,1,2,1:2:0:0:
369,74,149601,1,8,0:1:0:0:
369,74,149795,1,8,0:1:0:0:
288,7,149990,6,0,P|209:23|136:35,1,154.000004699707,2|0,3:2|3:0,0:0:0:0:
125,34,150477,1,0,3:0:0:0:
115,26,150575,1,0,1:2:0:0:
23,86,150769,2,0,P|13:128|3:170,1,77.0000023498536,2|0,3:2|1:0,0:0:0:0:
90,261,151159,1,2,3:0:0:0:
90,261,151354,2,0,P|110:227|102:184,1,77.0000023498536,14|8,0:0|0:0,0:0:0:0:
99,180,151646,5,8,0:0:0:0:
106,171,151743,2,0,P|181:185|257:198,1,154.000004699707,6|8,1:2|0:0,0:0:0:0:
341,270,152328,2,0,P|382:202|366:128,1,154.000004699707,2|0,0:0|0:0,0:0:0:0:
419,46,152912,1,10,0:0:0:0:
330,0,153107,6,0,P|242:20|170:36,1,154.000004699707,6|2,1:2|1:2,0:0:0:0:
72,8,153692,2,0,P|70:47|81:83,1,77.0000023498536,10|10,0:0|0:0,0:0:0:0:
200,149,154081,2,0,P|275:132|350:115,1,154.000004699707,2|10,1:2|0:0,0:0:0:0:
419,49,154666,1,2,0:0:0:0:
488,130,154860,6,0,B|497:219|450:197|461:281,1,154.000004699707,0|10,1:2|0:0,0:0:0:0:
508,357,155445,2,0,P|471:366|434:376,1,77.0000023498536,2|0,1:2|0:0,0:0:0:0:
346,330,155834,1,2,0:0:0:0:
264,368,156029,1,10,0:0:0:0:
195,304,156224,6,0,P|176:238|212:153,1,154.000004699707,6|8,1:2|0:0,0:0:0:0:
216,159,156711,1,8,0:0:0:0:
227,160,156808,2,0,L|309:145,1,77.0000023498536,8|8,1:2|0:0,0:0:0:0:
373,206,157198,1,10,1:2:0:0:
458,153,157393,2,0,L|465:115,2,38.5000011749268,8|8|8,0:0|0:0|1:2,0:0:0:0:
360,72,157782,6,0,P|299:66|259:23,1,115.50000352478,6|0,1:2|0:0,0:0:0:0:
254,21,158172,1,14,0:0:0:0:
165,76,158367,2,0,P|147:41|150:2,1,77.0000023498536,14|0,0:0|0:0,0:0:0:0:
244,237,159536,5,6,1:2:0:0:
418,377,160120,1,6,1:2:0:0:
418,377,160315,2,0,P|394:317|430:227,1,140,6|0,1:2|0:0,0:0:0:0:
475,166,160899,2,0,P|428:164|378:86,2,140,6|6|6,1:2|1:2|1:2,0:0:0:0:
462,81,161873,1,6,1:2:0:0:
462,81,162263,5,0,0:0:0:0:
407,13,162458,1,2,0:0:0:0:
377,93,162653,2,0,P|341:110|306:110,1,70,6|2,1:2|0:0,0:0:0:0:
219,72,163042,2,0,L|203:1,1,70,10|2,0:0|0:0,0:0:0:0:
120,119,163432,2,0,P|105:189|137:257,1,140,2|10,1:2|0:0,0:0:0:0:
129,353,164016,6,0,P|171:340|198:326,1,70,2|0,0:3|3:0,0:0:0:0:
288,369,164406,1,2,0:0:0:0:
303,282,164601,1,10,0:0:0:0:
316,197,164796,1,2,3:2:0:0:
393,247,164990,2,0,P|440:239|469:228,1,70,2|8,1:2|0:0,0:0:0:0:
330,105,165380,2,0,P|283:113|254:124,1,70,10|2,0:0|3:2,0:0:0:0:
253,126,165672,5,2,0:0:0:0:
247,135,165770,2,0,L|232:217,1,70,2|2,1:2|0:0,0:0:0:0:
146,79,166159,2,0,L|158:10,1,70,10|2,0:0|0:0,0:0:0:0:
35,124,166549,2,0,P|9:192|20:262,1,140,2|10,1:2|0:0,0:0:0:0:
0,336,167133,1,2,3:2:0:0:
80,369,167328,6,0,P|131:358|181:343,1,105,2|0,3:2|0:0,0:0:0:0:
191,340,167718,2,0,P|205:301|203:268,1,70,10|2,0:0|0:0,0:0:0:0:
247,186,168107,2,0,P|284:176|314:167,1,70,2|8,1:2|0:0,0:0:0:0:
448,241,168497,2,0,P|414:250|380:259,1,70,10|8,0:0|0:0,0:0:0:0:
373,267,168789,5,8,0:0:0:0:
367,276,168886,2,0,L|214:321,1,140,6|10,1:2|0:0,0:0:0:0:
149,273,169471,1,2,0:0:0:0:
112,351,169666,2,0,P|46:349|20:287,1,140,2|10,1:2|0:0,0:0:0:0:
80,180,170250,6,0,P|68:108|57:34,1,140,2|2,3:2|0:0,0:0:0:0:
158,68,170834,1,10,0:0:0:0:
228,3,171030,2,0,P|284:10|330:27,1,105,2|0,0:0|0:0,0:0:0:0:
335,35,171419,1,10,0:0:0:0:
427,0,171614,2,0,L|437:42,3,35,8|2|2|2,0:0|0:0|0:0|0:0,0:0:0:0:
495,79,172003,6,0,P|479:119|488:158,1,70,6|0,1:2|0:0,0:0:0:0:
429,237,172393,2,0,P|375:249|326:258,1,105,2|0,1:2|0:0,0:0:0:0:
313,267,172783,2,0,P|304:306|296:347,1,70,2|0,1:2|0:0,0:0:0:0:
224,240,173172,1,8,0:0:0:0:
291,174,173367,6,0,P|306:142|278:42,1,140,2|2,1:2|1:2,0:0:0:0:
181,0,173951,2,0,P|133:12|99:18,1,70,2|0,1:2|0:0,0:0:0:0:
70,133,174341,2,0,P|118:121|152:115,1,70,2|8,1:2|0:0,0:0:0:0:
196,193,174731,2,0,P|190:216|183:244,3,35,10|2|2|2,0:0|0:0|0:0|0:0,0:0:0:0:
149,298,175120,6,0,P|195:335|241:331,1,105,6|0,1:2|0:0,0:0:0:0:
250,335,175510,2,0,P|262:294|271:257,1,70,2|0,1:2|0:0,0:0:0:0:
369,256,175899,2,0,P|357:215|348:178,1,70,2|0,1:2|0:0,0:0:0:0:
269,147,176289,1,8,0:0:0:0:
325,85,176484,6,0,P|382:35|451:41,1,140,2|2,1:2|1:2,0:0:0:0:
511,171,177068,2,0,P|468:161|398:146,1,105,2|0,1:2|0:0,0:0:0:0:
398,151,177458,1,2,1:2:0:0:
322,209,177653,1,8,0:0:0:0:
322,209,177847,2,0,P|311:243|307:277,1,70,8|8,0:0|0:0,0:0:0:0:
314,285,178140,5,8,0:0:0:0:
311,295,178237,2,0,P|266:325|211:320,1,105.000004005432,6|0,1:2|0:0,0:0:0:0:
105,379,179016,2,0,L|85:269,1,105.000004005432,2|0,0:0|0:0,0:0:0:0:
12,121,179796,2,0,P|42:155|109:160,1,105.000004005432,2|0,0:0|0:0,0:0:0:0:
196,196,180380,6,0,P|181:99|170:25,1,157.500006008148,2|0,0:0|0:0,0:0:0:0:
340,8,181354,2,0,P|363:17|397:25,1,52.5000020027161,2|0,0:0|0:0,0:0:0:0:
462,100,181744,2,0,P|487:64|482:-7,2,105.000004005432,2|0|2,0:0|0:0|0:0,0:0:0:0:
368,185,182912,2,0,P|346:222|349:291,1,105.000004005432,2|0,0:0|0:0,0:0:0:0:
404,346,183497,2,0,P|345:327|248:297,1,157.500006008148,2|2,0:0|0:0,0:0:0:0:
168,349,184276,5,2,0:0:0:0:
160,351,184373,1,2,0:0:0:0:
152,351,184471,2,0,P|130:305|137:247,1,105.000004005432,6|0,0:0|0:0,0:0:0:0:
224,138,185250,2,0,P|228:86|206:39,1,105.000004005432,2|2,0:0|0:0,0:0:0:0:
52,0,186029,6,0,P|66:80|73:118,1,105.000004005432,2|0,0:0|0:0,0:0:0:0:
11,196,186614,2,0,B|107:183|69:243|169:209,1,157.500006008148,2|0,0:0|0:0,0:0:0:0:
238,273,187393,1,0,0:0:0:0:
238,273,187588,2,0,P|227:319|221:341,2,52.5000020027161,2|0|0,0:0|0:0|0:0,0:0:0:0:
309,226,188172,1,0,0:0:0:0:
378,281,188367,2,0,P|417:278|480:232,1,105.000004005432,2|0,0:0|0:0,0:0:0:0:
390,183,188951,6,0,P|352:122|338:19,1,167.999994873047,2|2,0:0|0:0,0:0:0:0:
337,28,190315,1,2,0:0:0:0:
170,154,190705,6,0,B|182:195|144:225|144:225|82:219|59:133|105:92,1,251.999992309571,6|0,1:2|0:0,0:0:0:0:
235,1,192263,6,0,P|285:15|336:27,1,105,6|0,1:2|0:0,0:0:0:0:
345,33,192653,2,0,P|384:26|428:17,1,70,2|0,1:2|0:0,0:0:0:0:
496,103,193042,2,0,P|478:131|479:168,1,70,10|8,0:0|0:0,0:0:0:0:
486,175,193334,1,8,0:0:0:0:
490,184,193432,2,0,L|475:229,3,35,8|8|8|8,0:0|0:0|0:0|0:0,0:0:0:0:
464,295,193821,6,0,P|406:285|351:264,1,115.50000352478,6|0,1:2|0:0,0:0:0:0:
345,270,194211,2,0,P|333:306|321:343,1,77.0000023498536,2|0,1:2|3:0,0:0:0:0:
314,352,194503,1,0,3:0:0:0:
302,355,194600,1,2,1:2:0:0:
229,302,194795,1,8,0:1:0:0:
229,302,194990,1,8,0:1:0:0:
143,362,195185,6,0,P|65:353|22:294,1,154.000004699707,2|0,3:2|3:0,0:0:0:0:
71,207,195769,2,0,P|61:169|52:131,1,77.0000023498536,2|0,1:2|3:0,0:0:0:0:
47,122,196061,1,0,3:0:0:0:
40,112,196159,1,2,1:2:0:0:
94,31,196354,1,8,0:1:0:0:
94,31,196548,1,8,0:1:0:0:
180,83,196743,6,0,P|255:66|335:48,1,154.000004699707,2|0,3:2|3:2,0:0:0:0:
341,51,197230,1,0,3:2:0:0:
352,53,197328,2,0,P|389:43|426:30,1,77.0000023498536,2|0,1:2|0:0,0:0:0:0:
512,86,197717,1,2,1:2:0:0:
418,130,197912,1,8,0:1:0:0:
418,130,198107,1,8,0:1:0:0:
352,53,198302,6,0,P|326:127|337:203,1,154.000004699707,2|0,3:2|3:2,0:0:0:0:
337,212,198789,1,0,3:0:0:0:
346,218,198886,1,0,1:0:0:0:
275,284,199081,2,0,L|256:359,1,77.0000023498536,2|0,3:2|1:2,0:0:0:0:
158,289,199470,1,10,0:0:0:0:
158,289,199665,2,0,P|112:281|81:259,1,77.0000023498536,8|8,0:0|0:0,0:0:0:0:
77,257,199957,5,8,0:0:0:0:
76,245,200055,2,0,P|61:170|43:80,1,154.000004699707,6|10,1:2|0:0,0:0:0:0:
123,23,200639,2,0,P|176:8|245:72,1,154.000004699707,2|0,0:0|0:0,0:0:0:0:
187,142,201224,1,10,0:0:0:0:
269,202,201418,6,0,P|344:186|423:168,1,154.000004699707,6|6,1:2|1:2,0:0:0:0:
500,218,202003,2,0,P|516:181|510:139,1,77.0000023498536,10|10,0:0|0:0,0:0:0:0:
431,75,202392,1,6,1:2:0:0:
431,75,202782,2,0,P|406:70|384:53,3,38.5000011749268,6|2|2|2,1:2|0:0|0:0|0:0,0:0:0:0:
325,10,203172,6,0,P|268:14|217:42,1,115.50000352478,6|0,1:2|0:0,0:0:0:0:
210,54,203561,2,0,P|225:97|239:137,1,77.0000023498536,2|0,1:2|3:0,0:0:0:0:
233,139,203854,1,0,3:0:0:0:
234,150,203951,1,2,1:2:0:0:
193,231,204146,1,8,0:1:0:0:
193,231,204341,1,8,0:1:0:0:
268,286,204535,6,0,P|343:281|397:229,1,154.000004699707,2|0,3:2|3:0,0:0:0:0:
400,218,205022,1,0,3:0:0:0:
397,206,205120,2,0,P|388:169|382:130,1,77.0000023498536,2|0,1:2|3:0,0:0:0:0:
440,59,205509,1,2,1:2:0:0:
364,3,205704,1,8,0:1:0:0:
364,3,205899,1,8,0:1:0:0:
282,71,206094,6,0,P|208:51|134:32,1,154.000004699707,2|0,3:2|3:2,0:0:0:0:
32,98,206678,2,0,P|69:145|126:145,1,115.50000352478,2|0,1:2|0:0,0:0:0:0:
130,140,207068,1,2,1:2:0:0:
203,207,207263,1,8,0:1:0:0:
203,207,207457,1,8,0:1:0:0:
137,285,207653,6,0,P|210:305|285:333,1,154.000004699707,2|0,3:2|3:0,0:0:0:0:
293,338,208139,1,0,3:0:0:0:
302,344,208237,1,0,1:2:0:0:
389,287,208431,2,0,P|377:247|368:211,1,77.0000023498536,2|0,0:0|1:0,0:0:0:0:
324,120,208821,1,10,0:0:0:0:
324,120,209016,2,0,P|334:80|343:39,1,77.0000023498536,10|8,0:0|0:0,0:0:0:0:
348,35,209308,5,8,0:0:0:0:
342,24,209405,2,0,P|267:38|191:51,1,154.000004699707,6|8,1:2|0:0,0:0:0:0:
245,156,209990,2,0,B|335:139|326:187|396:150,1,154.000004699707,2|0,0:0|0:0,0:0:0:0:
479,128,210574,1,10,0:0:0:0:
470,222,210769,6,0,P|487:297|503:372,1,154.000004699707,6|2,1:2|1:2,0:0:0:0:
383,349,211354,2,0,P|344:342|309:324,1,77.0000023498536,10|10,0:0|0:0,0:0:0:0:
225,375,211743,2,0,P|208:300|191:225,1,154.000004699707,2|10,1:2|0:0,0:0:0:0:
230,132,212328,1,2,0:0:0:0:
144,77,212522,6,0,P|191:19|266:14,1,154.000004699707,6|10,1:2|0:0,0:0:0:0:
341,91,213107,2,0,P|392:80|459:61,1,115.50000352478,2|0,1:2|0:0,0:0:0:0:
469,70,213496,1,2,1:2:0:0:
412,165,213691,1,10,0:0:0:0:
496,214,213886,6,0,P|478:291|461:378,1,154.000004699707,6|8,1:2|0:0,0:0:0:0:
454,371,214373,1,8,0:0:0:0:
443,372,214470,2,0,P|404:363|364:349,1,77.0000023498536,0|8,1:2|0:0,0:0:0:0:
358,355,214763,1,8,0:0:0:0:
348,361,214860,1,2,1:2:0:0:
262,319,215055,2,0,L|252:280,2,38.5000011749268,8|8|2,0:0|0:0|1:2,0:0:0:0:
180,381,215444,6,0,P|119:375|85:328,1,115.50000352478,6|0,1:2|0:0,0:0:0:0:
94,326,215834,1,14,0:0:0:0:
20,229,216029,2,0,P|1:262|0:302,1,77.0000023498536,14|0,0:0|0:0,0:0:0:0:
181,109,217198,5,6,1:2:0:0:
293,191,217782,1,6,1:2:0:0:
293,191,217977,2,0,P|317:131|281:41,1,140,6|0,1:2|0:0,0:0:0:0:
361,3,218562,5,2,1:2:0:0:
480,137,218951,1,2,1:2:0:0:
364,244,219341,1,2,1:2:0:0:
364,244,219536,2,0,L|214:275,1,140,2|2,1:2|0:1,0:0:0:0:
46,367,220315,6,0,P|34:336|32:299,1,70,6|0,1:2|3:0,0:0:0:0:
144,215,220704,2,0,P|110:206|76:197,1,70,2|0,1:2|3:2,0:0:0:0:
65,197,220996,1,0,3:2:0:0:
55,191,221094,2,0,P|40:122|60:52,1,140,2|0,1:2|1:2,0:0:0:0:
160,110,221678,6,0,P|228:97|297:82,1,140,2|0,3:2|0:0,0:0:0:0:
381,123,222263,2,0,P|392:82|401:45,1,70,2|0,1:2|3:0,0:0:0:0:
399,44,222555,1,0,3:0:0:0:
407,37,222652,2,0,P|437:30|475:23,1,70,2|0,1:2|3:0,0:0:0:0:
381,123,223042,1,0,1:0:0:0:
289,70,223237,5,0,3:0:0:0:
290,60,223334,1,0,3:0:0:0:
290,50,223431,2,0,P|246:21|182:22,1,105,2|0,1:2|0:0,0:0:0:0:
186,24,223821,2,0,P|176:57|167:91,1,70,2|0,1:2|0:0,0:0:0:0:
81,194,224211,2,0,B|152:189|145:240|226:212,1,140,2|0,1:2|1:2,0:0:0:0:
306,303,224795,6,0,P|321:230|338:157,1,140,2|0,3:2|0:0,0:0:0:0:
399,88,225379,2,0,P|391:50|383:16,1,70,2|0,1:2|3:0,0:0:0:0:
295,76,225769,1,0,1:2:0:0:
214,26,225964,1,0,3:0:0:0:
208,17,226061,1,0,3:0:0:0:
200,10,226159,2,0,P|182:4|153:-4,3,35,2|2|2|2,1:2|0:0|0:0|0:0,0:0:0:0:
104,54,226548,6,0,P|52:54|12:87,1,105,6|0,1:2|0:0,0:0:0:0:
3,104,226938,2,0,P|16:166|21:189,1,70,2|0,1:2|0:0,0:0:0:0:
6,256,227230,1,0,0:0:0:0:
19,262,227327,2,0,P|85:242|165:216,1,140,2|0,1:2|1:0,0:0:0:0:
291,135,227912,6,0,P|246:82|170:96,1,140,2|0,3:2|0:0,0:0:0:0:
52,64,228496,2,0,P|64:100|76:139,1,70,2|0,1:2|0:0,0:0:0:0:
81,138,228789,1,0,3:0:0:0:
83,148,228886,2,0,P|50:160|13:174,1,70,2|0,1:2|3:0,0:0:0:0:
104,237,229276,1,0,1:0:0:0:
27,311,229470,5,0,3:0:0:0:
26,321,229568,1,0,3:0:0:0:
30,330,229665,2,0,P|78:343|133:358,1,105,2|0,1:2|0:0,0:0:0:0:
143,362,230055,2,0,P|147:327|159:294,1,70,2|0,1:2|0:0,0:0:0:0:
249,267,230444,2,0,P|273:198|269:129,1,140,2|0,1:2|1:0,0:0:0:0:
175,72,231029,5,0,3:0:0:0:
180,63,231126,1,0,3:0:0:0:
185,54,231224,2,0,P|246:40|273:34,1,70,2|0,1:2|3:0,0:0:0:0:
349,107,231613,2,0,P|357:72|366:38,1,70,0|0,1:0|3:0,0:0:0:0:
375,34,231905,1,0,3:0:0:0:
385,35,232003,1,0,1:2:0:0:
433,114,232198,1,2,3:2:0:0:
480,199,232392,1,2,1:2:0:0:
447,106,232587,1,2,3:2:0:0:
12,1,235899,5,6,1:2:0:0:
256,192,235997,12,0,241354,0:0:0:0:
