osu file format v14

[General]
AudioFilename: audio.mp3
AudioLeadIn: 0
PreviewTime: -1
Countdown: 1
SampleSet: None
StackLeniency: 0.7
Mode: 3
LetterboxInBreaks: 0
SpecialStyle: 0
WidescreenStoryboard: 1

[Editor]
Bookmarks: 22922
DistanceSpacing: 1.1
BeatDivisor: 4
GridSize: 4
TimelineZoom: 0.9000002

[Metadata]
Title:POP TEAM EPIC
TitleUnicode:POP TEAM EPIC
Artist:Sumire Uesaka (UFS KUSOBootleg Remix)
ArtistUnicode:Sumire Uesaka (UFS KUSOBootleg Remix)
Creator:Supreme
Version:MANIA?!?
Source:
Tags:
BeatmapID:1654541
BeatmapSetID:788281

[Difficulty]
HPDrainRate:5
CircleSize:4
OverallDifficulty:8
ApproachRate:9
SliderMultiplier:1.7
SliderTickRate:2

[Events]
//Background and Video events
0,0,"wallhaven-636232.jpg",0,0
//Break Periods
//Storyboard Layer 0 (Background)
//Storyboard Layer 1 (Fail)
//Storyboard Layer 2 (Pass)
//Storyboard Layer 3 (Foreground)
//Storyboard Sound Samples

[TimingPoints]
1589,333.333333333333,4,1,0,100,1,0
44405,333.333333333333,4,1,0,100,1,0
87000,333.333333333333,4,1,0,100,1,0

[HitObjects]
192,192,1589,5,0,0:0:0:0:
320,192,1589,1,0,0:0:0:0:
64,192,1755,1,0,0:0:0:0:
448,192,1922,1,0,0:0:0:0:
64,192,2088,1,0,0:0:0:0:
192,192,2088,1,0,0:0:0:0:
320,192,2255,1,0,0:0:0:0:
448,192,2422,1,0,0:0:0:0:
192,192,2588,1,0,0:0:0:0:
64,192,2755,1,0,0:0:0:0:
448,192,2922,1,0,0:0:0:0:
320,192,2922,1,0,0:0:0:0:
192,192,3088,1,0,0:0:0:0:
320,192,3172,1,0,0:0:0:0:
448,192,3172,1,0,0:0:0:0:
192,192,3255,1,0,0:0:0:0:
64,192,3255,1,0,0:0:0:0:
448,192,3422,1,0,0:0:0:0:
320,192,3422,1,0,0:0:0:0:
192,192,3588,1,0,0:0:0:0:
64,192,3755,1,0,0:0:0:0:
192,192,3838,1,0,0:0:0:0:
320,192,3922,1,0,0:0:0:0:
448,192,4005,1,0,0:0:0:0:
320,192,4088,1,0,0:0:0:0:
192,192,4172,1,0,0:0:0:0:
448,192,4255,1,0,0:0:0:0:
64,192,4255,1,0,0:0:0:0:
192,192,4422,1,0,0:0:0:0:
448,192,4588,1,0,0:0:0:0:
64,192,4755,1,0,0:0:0:0:
192,192,4755,1,0,0:0:0:0:
320,192,4922,1,0,0:0:0:0:
64,192,5088,1,0,0:0:0:0:
448,192,5255,1,0,0:0:0:0:
320,192,5338,1,0,0:0:0:0:
192,192,5422,1,0,0:0:0:0:
64,192,5505,1,0,0:0:0:0:
192,192,5588,1,0,0:0:0:0:
448,192,5588,1,0,0:0:0:0:
64,192,5755,1,0,0:0:0:0:
320,192,5838,1,0,0:0:0:0:
448,192,5838,1,0,0:0:0:0:
448,192,6088,1,0,0:0:0:0:
64,192,6088,1,0,0:0:0:0:
320,192,6255,1,0,0:0:0:0:
64,192,6422,1,0,0:0:0:0:
448,192,6588,1,0,0:0:0:0:
320,192,6672,1,0,0:0:0:0:
192,192,6755,1,0,0:0:0:0:
64,192,6838,1,0,0:0:0:0:
448,192,6922,1,0,0:0:0:0:
192,192,6922,1,0,0:0:0:0:
320,192,7088,1,0,0:0:0:0:
192,192,7255,1,0,0:0:0:0:
64,192,7422,1,0,0:0:0:0:
448,192,7422,1,0,0:0:0:0:
192,192,7755,1,0,0:0:0:0:
64,192,7922,1,0,0:0:0:0:
448,192,8088,1,0,0:0:0:0:
320,192,8255,1,0,0:0:0:0:
192,192,8255,1,0,0:0:0:0:
448,192,8422,1,0,0:0:0:0:
192,192,8505,1,0,0:0:0:0:
64,192,8505,1,0,0:0:0:0:
448,192,8755,1,0,0:0:0:0:
320,192,8755,1,0,0:0:0:0:
192,192,8922,128,0,9338:0:0:0:0:
64,192,8922,1,0,0:0:0:0:
320,192,9338,1,0,0:0:0:0:
448,192,9422,1,0,0:0:0:0:
320,192,9505,1,0,0:0:0:0:
64,192,9588,1,0,0:0:0:0:
192,192,9588,1,0,0:0:0:0:
320,192,9922,1,0,0:0:0:0:
192,192,10088,1,0,0:0:0:0:
448,192,10422,128,0,10922:0:0:0:0:
192,192,10922,1,0,0:0:0:0:
192,192,11172,1,0,0:0:0:0:
64,192,11172,1,0,0:0:0:0:
448,192,11422,1,0,0:0:0:0:
320,192,11422,1,0,0:0:0:0:
192,192,11588,128,0,11922:0:0:0:0:
64,192,11588,1,0,0:0:0:0:
320,192,11922,1,0,0:0:0:0:
448,192,12005,1,0,0:0:0:0:
320,192,12088,1,0,0:0:0:0:
192,192,12172,1,0,0:0:0:0:
448,192,12255,1,0,0:0:0:0:
64,192,12255,1,0,0:0:0:0:
192,192,12588,1,0,0:0:0:0:
320,192,12672,1,0,0:0:0:0:
448,192,12755,1,0,0:0:0:0:
64,192,12755,1,0,0:0:0:0:
192,192,13088,1,0,0:0:0:0:
320,192,13088,1,0,0:0:0:0:
64,192,13422,1,0,0:0:0:0:
448,192,13588,1,0,0:0:0:0:
320,192,13588,1,0,0:0:0:0:
64,192,13755,1,0,0:0:0:0:
320,192,13838,1,0,0:0:0:0:
448,192,13838,1,0,0:0:0:0:
320,192,14088,1,0,0:0:0:0:
448,192,14088,1,0,0:0:0:0:
64,192,14255,128,0,14588:0:0:0:0:
192,192,14255,1,0,0:0:0:0:
320,192,14422,1,0,0:0:0:0:
192,192,14588,1,0,0:0:0:0:
320,192,14672,1,0,0:0:0:0:
448,192,14755,1,0,0:0:0:0:
320,192,14838,1,0,0:0:0:0:
64,192,14922,128,0,15255:0:0:0:0:
192,192,14922,1,0,0:0:0:0:
320,192,15255,1,0,0:0:0:0:
64,192,15422,128,0,15755:0:0:0:0:
448,192,15422,1,0,0:0:0:0:
192,192,15755,1,0,0:0:0:0:
320,192,16088,128,0,16505:0:0:0:0:
192,192,16255,1,0,0:0:0:0:
64,192,16255,1,0,0:0:0:0:
192,192,16505,1,0,0:0:0:0:
64,192,16505,1,0,0:0:0:0:
448,192,16755,1,0,0:0:0:0:
320,192,16838,1,0,0:0:0:0:
192,192,16922,1,0,0:0:0:0:
64,192,17005,1,0,0:0:0:0:
192,192,17088,1,0,0:0:0:0:
320,192,17172,1,0,0:0:0:0:
448,192,17255,1,0,0:0:0:0:
320,192,17338,1,0,0:0:0:0:
192,192,17422,1,0,0:0:0:0:
64,192,17505,1,0,0:0:0:0:
448,192,17588,1,0,0:0:0:0:
192,192,17588,1,0,0:0:0:0:
64,192,17755,1,0,0:0:0:0:
448,192,17922,1,0,0:0:0:0:
192,192,17922,1,0,0:0:0:0:
64,192,18088,1,0,0:0:0:0:
448,192,18255,1,0,0:0:0:0:
320,192,18255,1,0,0:0:0:0:
192,192,18422,1,0,0:0:0:0:
64,192,18588,1,0,0:0:0:0:
448,192,18588,1,0,0:0:0:0:
320,192,18755,1,0,0:0:0:0:
192,192,18922,1,0,0:0:0:0:
64,192,18922,1,0,0:0:0:0:
448,192,19088,1,0,0:0:0:0:
320,192,19255,1,0,0:0:0:0:
192,192,19255,1,0,0:0:0:0:
64,192,19422,1,0,0:0:0:0:
448,192,19588,1,0,0:0:0:0:
320,192,19588,128,0,19922:0:0:0:0:
448,192,19922,1,0,0:0:0:0:
192,192,19922,1,0,0:0:0:0:
64,192,20088,1,0,0:0:0:0:
448,192,20255,1,0,0:0:0:0:
192,192,20255,1,0,0:0:0:0:
64,192,20422,1,0,0:0:0:0:
320,192,20422,1,0,0:0:0:0:
448,192,20588,1,0,0:0:0:0:
192,192,20588,1,0,0:0:0:0:
64,192,20755,1,0,0:0:0:0:
320,192,20755,1,0,0:0:0:0:
448,192,20922,1,0,0:0:0:0:
192,192,20922,1,0,0:0:0:0:
64,192,21088,1,0,0:0:0:0:
320,192,21088,1,0,0:0:0:0:
448,192,21255,1,0,0:0:0:0:
320,192,21338,1,0,0:0:0:0:
192,192,21422,1,0,0:0:0:0:
64,192,21505,1,0,0:0:0:0:
192,192,21588,1,0,0:0:0:0:
320,192,21672,1,0,0:0:0:0:
448,192,21755,1,0,0:0:0:0:
320,192,21838,1,0,0:0:0:0:
192,192,21922,1,0,0:0:0:0:
64,192,22005,1,0,0:0:0:0:
192,192,22088,1,0,0:0:0:0:
320,192,22172,1,0,0:0:0:0:
448,192,22255,128,0,22922:0:0:0:0:
320,192,22755,1,0,0:0:0:0:
64,192,22922,1,0,0:0:0:0:
192,192,23088,1,0,0:0:0:0:
320,192,23255,1,0,0:0:0:0:
448,192,23422,1,0,0:0:0:0:
320,192,23588,1,0,0:0:0:0:
192,192,23755,1,0,0:0:0:0:
64,192,23922,1,0,0:0:0:0:
64,192,24088,1,0,0:0:0:0:
320,192,24088,1,0,0:0:0:0:
448,192,24255,1,0,0:0:0:0:
448,192,24422,1,0,0:0:0:0:
64,192,24588,1,0,0:0:0:0:
192,192,24588,1,0,0:0:0:0:
320,192,24755,1,0,0:0:0:0:
448,192,24922,1,0,0:0:0:0:
64,192,24922,1,0,0:0:0:0:
320,192,25088,1,0,0:0:0:0:
64,192,25255,1,0,0:0:0:0:
192,192,25255,1,0,0:0:0:0:
448,192,25422,1,0,0:0:0:0:
192,192,25588,1,0,0:0:0:0:
448,192,25588,1,0,0:0:0:0:
64,192,25755,1,0,0:0:0:0:
64,192,25922,1,0,0:0:0:0:
320,192,25922,1,0,0:0:0:0:
64,192,26088,1,0,0:0:0:0:
192,192,26255,1,0,0:0:0:0:
448,192,26255,1,0,0:0:0:0:
320,192,26422,1,0,0:0:0:0:
64,192,26588,1,0,0:0:0:0:
320,192,26588,1,0,0:0:0:0:
320,192,26755,1,0,0:0:0:0:
64,192,26922,1,0,0:0:0:0:
448,192,26922,1,0,0:0:0:0:
192,192,27088,1,0,0:0:0:0:
320,192,27255,1,0,0:0:0:0:
64,192,27255,1,0,0:0:0:0:
192,192,27422,1,0,0:0:0:0:
320,192,27588,1,0,0:0:0:0:
64,192,27588,1,0,0:0:0:0:
192,192,27755,1,0,0:0:0:0:
448,192,27922,1,0,0:0:0:0:
192,192,28088,1,0,0:0:0:0:
448,192,28255,1,0,0:0:0:0:
320,192,28422,1,0,0:0:0:0:
192,192,28588,1,0,0:0:0:0:
64,192,28755,1,0,0:0:0:0:
192,192,28922,1,0,0:0:0:0:
320,192,29088,1,0,0:0:0:0:
448,192,29255,1,0,0:0:0:0:
192,192,29422,1,0,0:0:0:0:
448,192,29422,1,0,0:0:0:0:
64,192,29588,1,0,0:0:0:0:
64,192,29755,1,0,0:0:0:0:
448,192,29922,1,0,0:0:0:0:
320,192,29922,1,0,0:0:0:0:
320,192,30088,1,0,0:0:0:0:
448,192,30255,1,0,0:0:0:0:
64,192,30255,1,0,0:0:0:0:
192,192,30422,1,0,0:0:0:0:
320,192,30588,1,0,0:0:0:0:
448,192,30588,1,0,0:0:0:0:
64,192,30755,1,0,0:0:0:0:
64,192,30922,1,0,0:0:0:0:
320,192,30922,1,0,0:0:0:0:
448,192,31088,1,0,0:0:0:0:
192,192,31255,1,0,0:0:0:0:
448,192,31255,1,0,0:0:0:0:
448,192,31422,1,0,0:0:0:0:
64,192,31588,1,0,0:0:0:0:
320,192,31588,1,0,0:0:0:0:
192,192,31755,1,0,0:0:0:0:
192,192,31922,1,0,0:0:0:0:
448,192,31922,1,0,0:0:0:0:
192,192,32088,1,0,0:0:0:0:
64,192,32255,1,0,0:0:0:0:
448,192,32255,1,0,0:0:0:0:
192,192,32338,1,0,0:0:0:0:
320,192,32422,1,0,0:0:0:0:
320,192,32588,1,0,0:0:0:0:
320,192,32755,1,0,0:0:0:0:
64,192,32755,1,0,0:0:0:0:
448,192,32922,1,0,0:0:0:0:
192,192,33088,1,0,0:0:0:0:
64,192,33088,1,0,0:0:0:0:
320,192,33255,1,0,0:0:0:0:
192,192,33338,1,0,0:0:0:0:
64,192,33422,1,0,0:0:0:0:
192,192,33505,1,0,0:0:0:0:
320,192,33588,1,0,0:0:0:0:
448,192,33588,1,0,0:0:0:0:
320,192,33755,1,0,0:0:0:0:
320,192,33922,1,0,0:0:0:0:
64,192,33922,1,0,0:0:0:0:
192,192,34005,1,0,0:0:0:0:
64,192,34088,1,0,0:0:0:0:
192,192,34172,1,0,0:0:0:0:
320,192,34255,1,0,0:0:0:0:
448,192,34338,1,0,0:0:0:0:
320,192,34422,1,0,0:0:0:0:
192,192,34505,1,0,0:0:0:0:
64,192,34588,1,0,0:0:0:0:
448,192,34588,1,0,0:0:0:0:
320,192,34755,1,0,0:0:0:0:
192,192,34922,1,0,0:0:0:0:
320,192,34922,1,0,0:0:0:0:
64,192,35088,1,0,0:0:0:0:
320,192,35255,1,0,0:0:0:0:
448,192,35255,1,0,0:0:0:0:
192,192,35338,1,0,0:0:0:0:
64,192,35422,1,0,0:0:0:0:
192,192,35505,1,0,0:0:0:0:
320,192,35588,1,0,0:0:0:0:
448,192,35672,1,0,0:0:0:0:
64,192,35755,1,0,0:0:0:0:
192,192,35755,1,0,0:0:0:0:
320,192,35922,1,0,0:0:0:0:
448,192,35922,1,0,0:0:0:0:
64,192,36088,1,0,0:0:0:0:
192,192,36088,1,0,0:0:0:0:
448,192,36255,1,0,0:0:0:0:
192,192,36255,1,0,0:0:0:0:
192,192,36422,1,0,0:0:0:0:
448,192,36588,1,0,0:0:0:0:
320,192,36672,1,0,0:0:0:0:
192,192,36755,1,0,0:0:0:0:
64,192,36838,1,0,0:0:0:0:
192,192,36922,1,0,0:0:0:0:
448,192,36922,1,0,0:0:0:0:
448,192,37088,1,0,0:0:0:0:
192,192,37255,1,0,0:0:0:0:
320,192,37422,1,0,0:0:0:0:
448,192,37588,1,0,0:0:0:0:
64,192,37588,1,0,0:0:0:0:
448,192,37755,1,0,0:0:0:0:
320,192,37755,1,0,0:0:0:0:
64,192,37922,1,0,0:0:0:0:
192,192,37922,1,0,0:0:0:0:
320,192,38088,1,0,0:0:0:0:
448,192,38088,1,0,0:0:0:0:
64,192,38255,1,0,0:0:0:0:
192,192,38255,1,0,0:0:0:0:
320,192,38422,1,0,0:0:0:0:
448,192,38422,1,0,0:0:0:0:
64,192,38588,1,0,0:0:0:0:
192,192,38588,1,0,0:0:0:0:
320,192,38755,1,0,0:0:0:0:
448,192,38755,1,0,0:0:0:0:
64,192,38922,1,0,0:0:0:0:
448,192,38922,1,0,0:0:0:0:
192,192,38922,1,0,0:0:0:0:
320,192,38922,1,0,0:0:0:0:
320,192,39088,1,0,0:0:0:0:
192,192,39255,1,0,0:0:0:0:
448,192,39255,1,0,0:0:0:0:
64,192,39338,1,0,0:0:0:0:
192,192,39422,1,0,0:0:0:0:
320,192,39505,1,0,0:0:0:0:
448,192,39588,1,0,0:0:0:0:
320,192,39672,1,0,0:0:0:0:
64,192,39755,1,0,0:0:0:0:
192,192,39838,1,0,0:0:0:0:
448,192,39922,1,0,0:0:0:0:
64,192,39922,1,0,0:0:0:0:
192,192,40088,1,0,0:0:0:0:
64,192,40255,1,0,0:0:0:0:
448,192,40255,1,0,0:0:0:0:
64,192,40422,1,0,0:0:0:0:
320,192,40588,1,0,0:0:0:0:
192,192,40672,1,0,0:0:0:0:
64,192,40755,1,0,0:0:0:0:
192,192,40838,1,0,0:0:0:0:
320,192,40922,1,0,0:0:0:0:
64,192,41005,1,0,0:0:0:0:
448,192,41005,1,0,0:0:0:0:
320,192,41088,1,0,0:0:0:0:
64,192,41255,1,0,0:0:0:0:
192,192,41255,1,0,0:0:0:0:
320,192,41422,1,0,0:0:0:0:
448,192,41422,1,0,0:0:0:0:
64,192,41588,1,0,0:0:0:0:
192,192,41588,1,0,0:0:0:0:
320,192,41672,1,0,0:0:0:0:
448,192,41755,1,0,0:0:0:0:
320,192,41838,1,0,0:0:0:0:
192,192,41922,1,0,0:0:0:0:
64,192,42005,1,0,0:0:0:0:
320,192,42088,1,0,0:0:0:0:
448,192,42172,1,0,0:0:0:0:
64,192,42255,1,0,0:0:0:0:
192,192,42338,1,0,0:0:0:0:
448,192,42422,1,0,0:0:0:0:
320,192,42505,1,0,0:0:0:0:
64,192,42588,1,0,0:0:0:0:
192,192,42672,1,0,0:0:0:0:
448,192,42755,1,0,0:0:0:0:
320,192,42838,1,0,0:0:0:0:
192,192,42922,128,0,44338:0:0:0:0:
448,192,44338,1,0,0:0:0:0:
64,192,44338,1,0,0:0:0:0:
320,192,44338,1,0,0:0:0:0:
192,192,45738,128,0,47071:0:0:0:0:
448,192,47071,1,0,0:0:0:0:
320,192,49738,128,0,51071:0:0:0:0:
448,192,51071,1,0,0:0:0:0:
320,192,52404,128,0,53738:0:0:0:0:
64,192,53738,1,0,0:0:0:0:
448,192,54071,1,0,0:0:0:0:
192,192,54238,1,0,0:0:0:0:
320,192,54404,1,0,0:0:0:0:
448,192,54571,1,0,0:0:0:0:
64,192,54571,1,0,0:0:0:0:
320,192,54654,1,0,0:0:0:0:
192,192,54738,1,0,0:0:0:0:
64,192,54821,1,0,0:0:0:0:
192,192,54904,1,0,0:0:0:0:
320,192,54988,1,0,0:0:0:0:
448,192,55071,1,0,0:0:0:0:
64,192,55071,128,0,56404:0:0:0:0:
448,192,56404,1,0,0:0:0:0:
320,192,57738,128,0,59071:0:0:0:0:
448,192,59071,1,0,0:0:0:0:
192,192,59071,1,0,0:0:0:0:
320,192,59404,1,0,0:0:0:0:
64,192,59404,1,0,0:0:0:0:
448,192,59571,1,0,0:0:0:0:
64,192,59738,1,0,0:0:0:0:
320,192,59738,1,0,0:0:0:0:
448,192,59821,1,0,0:0:0:0:
320,192,59904,1,0,0:0:0:0:
192,192,59988,1,0,0:0:0:0:
64,192,60071,1,0,0:0:0:0:
448,192,60071,1,0,0:0:0:0:
192,192,60238,1,0,0:0:0:0:
448,192,60404,128,0,61738:0:0:0:0:
64,192,60738,1,0,0:0:0:0:
320,192,60904,1,0,0:0:0:0:
64,192,61071,1,0,0:0:0:0:
320,192,61154,1,0,0:0:0:0:
64,192,61238,1,0,0:0:0:0:
192,192,61321,1,0,0:0:0:0:
320,192,61404,1,0,0:0:0:0:
64,192,61571,1,0,0:0:0:0:
192,192,61738,1,0,0:0:0:0:
320,192,62071,1,0,0:0:0:0:
64,192,62238,1,0,0:0:0:0:
448,192,62404,1,0,0:0:0:0:
320,192,62488,1,0,0:0:0:0:
192,192,62571,1,0,0:0:0:0:
64,192,62654,1,0,0:0:0:0:
192,192,62738,1,0,0:0:0:0:
320,192,62821,1,0,0:0:0:0:
448,192,62904,1,0,0:0:0:0:
320,192,62988,1,0,0:0:0:0:
192,192,63071,1,0,0:0:0:0:
64,192,63154,1,0,0:0:0:0:
448,192,63238,1,0,0:0:0:0:
320,192,63321,1,0,0:0:0:0:
192,192,63404,1,0,0:0:0:0:
64,192,63488,1,0,0:0:0:0:
448,192,63571,1,0,0:0:0:0:
320,192,63654,1,0,0:0:0:0:
192,192,63738,1,0,0:0:0:0:
64,192,63821,1,0,0:0:0:0:
192,192,63904,1,0,0:0:0:0:
320,192,63988,1,0,0:0:0:0:
448,192,64071,1,0,0:0:0:0:
64,192,64154,1,0,0:0:0:0:
320,192,64238,1,0,0:0:0:0:
448,192,64321,1,0,0:0:0:0:
320,192,64404,1,0,0:0:0:0:
64,192,64404,128,0,64904:0:0:0:0:
320,192,64738,1,0,0:0:0:0:
448,192,64904,1,0,0:0:0:0:
192,192,65071,1,0,0:0:0:0:
320,192,65154,1,0,0:0:0:0:
448,192,65238,1,0,0:0:0:0:
320,192,65321,1,0,0:0:0:0:
192,192,65404,1,0,0:0:0:0:
64,192,65488,1,0,0:0:0:0:
192,192,65571,1,0,0:0:0:0:
320,192,65654,1,0,0:0:0:0:
448,192,65738,1,0,0:0:0:0:
64,192,65738,128,0,66071:0:0:0:0:
192,192,66071,128,0,66238:0:0:0:0:
320,192,66238,128,0,66404:0:0:0:0:
448,192,66404,1,0,0:0:0:0:
320,192,66488,1,0,0:0:0:0:
192,192,66571,1,0,0:0:0:0:
64,192,66654,1,0,0:0:0:0:
192,192,66738,1,0,0:0:0:0:
320,192,66821,1,0,0:0:0:0:
448,192,66904,1,0,0:0:0:0:
320,192,66988,1,0,0:0:0:0:
64,192,67071,1,0,0:0:0:0:
192,192,67071,128,0,67404:0:0:0:0:
320,192,67404,128,0,67571:0:0:0:0:
64,192,67571,128,0,67738:0:0:0:0:
192,192,67738,1,0,0:0:0:0:
320,192,67821,1,0,0:0:0:0:
448,192,67904,1,0,0:0:0:0:
64,192,67988,1,0,0:0:0:0:
192,192,68071,1,0,0:0:0:0:
320,192,68154,1,0,0:0:0:0:
448,192,68238,1,0,0:0:0:0:
320,192,68321,1,0,0:0:0:0:
192,192,68404,1,0,0:0:0:0:
64,192,68404,128,0,68738:0:0:0:0:
192,192,68738,128,0,68904:0:0:0:0:
320,192,68904,128,0,69071:0:0:0:0:
192,192,69154,1,0,0:0:0:0:
192,192,69238,1,0,0:0:0:0:
64,192,69321,1,0,0:0:0:0:
192,192,69404,1,0,0:0:0:0:
320,192,69488,1,0,0:0:0:0:
448,192,69571,1,0,0:0:0:0:
320,192,69654,1,0,0:0:0:0:
192,192,69738,1,0,0:0:0:0:
64,192,69738,128,0,70071:0:0:0:0:
320,192,69738,1,0,0:0:0:0:
192,192,70071,128,0,70238:0:0:0:0:
448,192,70238,128,0,70404:0:0:0:0:
320,192,70404,1,0,0:0:0:0:
192,192,70488,1,0,0:0:0:0:
64,192,70571,1,0,0:0:0:0:
192,192,70654,1,0,0:0:0:0:
320,192,70738,1,0,0:0:0:0:
448,192,70821,1,0,0:0:0:0:
320,192,70904,1,0,0:0:0:0:
192,192,70988,1,0,0:0:0:0:
320,192,71071,1,0,0:0:0:0:
448,192,71071,128,0,71321:0:0:0:0:
320,192,71404,128,0,71571:0:0:0:0:
192,192,71571,128,0,71738:0:0:0:0:
64,192,71738,1,0,0:0:0:0:
192,192,71821,1,0,0:0:0:0:
320,192,71904,1,0,0:0:0:0:
448,192,71988,1,0,0:0:0:0:
320,192,72071,1,0,0:0:0:0:
192,192,72154,1,0,0:0:0:0:
64,192,72238,1,0,0:0:0:0:
192,192,72321,1,0,0:0:0:0:
448,192,72404,128,0,72738:0:0:0:0:
320,192,72404,1,0,0:0:0:0:
320,192,72738,128,0,72904:0:0:0:0:
192,192,72904,128,0,73071:0:0:0:0:
64,192,73071,1,0,0:0:0:0:
192,192,73154,1,0,0:0:0:0:
320,192,73238,1,0,0:0:0:0:
448,192,73321,1,0,0:0:0:0:
320,192,73404,1,0,0:0:0:0:
192,192,73488,1,0,0:0:0:0:
448,192,73571,1,0,0:0:0:0:
64,192,73654,1,0,0:0:0:0:
320,192,73738,1,0,0:0:0:0:
448,192,73738,128,0,74071:0:0:0:0:
320,192,74071,128,0,74238:0:0:0:0:
192,192,74238,128,0,74404:0:0:0:0:
320,192,74404,1,0,0:0:0:0:
192,192,74488,1,0,0:0:0:0:
64,192,74571,1,0,0:0:0:0:
192,192,74654,1,0,0:0:0:0:
320,192,74738,1,0,0:0:0:0:
192,192,74821,1,0,0:0:0:0:
448,192,74904,1,0,0:0:0:0:
192,192,74988,1,0,0:0:0:0:
320,192,75071,1,0,0:0:0:0:
448,192,75071,128,0,75404:0:0:0:0:
192,192,75404,128,0,75571:0:0:0:0:
320,192,75571,128,0,75738:0:0:0:0:
192,192,75738,128,0,75904:0:0:0:0:
320,192,75904,1,0,0:0:0:0:
192,192,75988,1,0,0:0:0:0:
64,192,76071,1,0,0:0:0:0:
192,192,76154,1,0,0:0:0:0:
320,192,76238,1,0,0:0:0:0:
448,192,76321,1,0,0:0:0:0:
64,192,76404,1,0,0:0:0:0:
192,192,76404,1,0,0:0:0:0:
320,192,76404,128,0,77738:0:0:0:0:
64,192,77738,1,0,0:0:0:0:
448,192,77738,1,0,0:0:0:0:
