osu file format v14

[General]
AudioFilename: audio.mp3
AudioLeadIn: 0
PreviewTime: 30519
Countdown: 1
SampleSet: Normal
StackLeniency: 0.7
Mode: 1
LetterboxInBreaks: 0
WidescreenStoryboard: 0

[Editor]
Bookmarks: 31442,31673,31904,59134,76673,91442,95134,98827,102519,104365,106211,113596,120057,135750,150750,150981,154211,157904,180057
DistanceSpacing: 1
BeatDivisor: 4
GridSize: 32
TimelineZoom: 1.4

[Metadata]
Title:kayoing
TitleUnicode:kayoing (美少女)
Artist:Suming Rupi
ArtistUnicode:舒米恩
Creator:chinotauku
Version:Oni
Source:舒米恩Suming
Tags:舒米恩 SUMING kayoing Amis Pangcah Taiwanese native pop
BeatmapID:1863472
BeatmapSetID:891445

[Difficulty]
HPDrainRate:6
CircleSize:6
OverallDifficulty:6
ApproachRate:7
SliderMultiplier:1.4
SliderTickRate:1

[Events]
//Background and Video events
//Break Periods
2,74565,75473
2,91411,93934
2,150257,151165
2,165488,166234
//Storyboard Layer 0 (Background)
//Storyboard Layer 1 (Fail)
//Storyboard Layer 2 (Pass)
//Storyboard Layer 3 (Foreground)
//Storyboard Sound Samples

[TimingPoints]
981,461.538461538462,4,1,0,100,1,0
30519,-100,4,1,0,100,0,1
44827,-100,4,1,0,100,0,0
76673,-100,4,1,0,100,0,1
91211,-100,4,1,0,100,0,0
135750,-100,4,1,0,100,0,1
150057,-100,4,1,0,100,0,0
180057,-100,4,1,0,100,0,1
194596,-100,4,1,0,100,0,0

[HitObjects]
256,192,981,5,0,0:0:0:0:
256,192,1211,1,8,0:0:0:0:
256,192,1442,1,0,0:0:0:0:
256,192,1673,1,8,0:0:0:0:
256,192,1788,1,8,0:0:0:0:
256,192,1904,1,0,0:0:0:0:
256,192,2134,1,8,0:0:0:0:
256,192,2365,1,0,0:0:0:0:
256,192,2827,1,0,0:0:0:0:
256,192,3057,1,8,0:0:0:0:
256,192,3288,1,0,0:0:0:0:
256,192,3519,1,8,0:0:0:0:
256,192,3634,1,8,0:0:0:0:
256,192,3750,1,0,0:0:0:0:
256,192,3981,1,8,0:0:0:0:
256,192,4211,1,0,0:0:0:0:
256,192,4673,1,0,0:0:0:0:
256,192,4904,1,8,0:0:0:0:
256,192,5134,1,0,0:0:0:0:
256,192,5365,1,8,0:0:0:0:
256,192,5481,1,8,0:0:0:0:
256,192,5596,1,0,0:0:0:0:
256,192,5827,1,8,0:0:0:0:
256,192,6057,1,0,0:0:0:0:
256,192,6288,1,8,0:0:0:0:
256,192,6750,1,8,0:0:0:0:
256,192,6981,1,0,0:0:0:0:
256,192,7211,1,8,0:0:0:0:
256,192,7327,1,8,0:0:0:0:
256,192,7442,1,0,0:0:0:0:
256,192,7673,1,8,0:0:0:0:
256,192,7904,1,0,0:0:0:0:
256,192,8134,1,8,0:0:0:0:
256,192,8596,1,8,0:0:0:0:
256,192,8827,1,0,0:0:0:0:
256,192,9057,1,8,0:0:0:0:
256,192,9173,1,8,0:0:0:0:
256,192,9288,1,0,0:0:0:0:
256,192,9519,1,8,0:0:0:0:
256,192,9750,1,0,0:0:0:0:
256,192,9981,1,8,0:0:0:0:
256,192,10442,1,8,0:0:0:0:
256,192,10673,1,0,0:0:0:0:
256,192,10904,1,8,0:0:0:0:
256,192,11019,1,8,0:0:0:0:
256,192,11134,1,0,0:0:0:0:
256,192,11365,1,8,0:0:0:0:
256,192,11596,1,0,0:0:0:0:
256,192,11827,1,8,0:0:0:0:
256,192,12288,1,8,0:0:0:0:
256,192,12519,1,0,0:0:0:0:
256,192,12750,1,8,0:0:0:0:
256,192,12865,1,8,0:0:0:0:
256,192,12981,1,0,0:0:0:0:
256,192,13211,1,8,0:0:0:0:
256,192,13442,1,0,0:0:0:0:
256,192,13673,1,8,0:0:0:0:
256,192,14134,1,8,0:0:0:0:
256,192,14365,1,0,0:0:0:0:
256,192,14596,1,8,0:0:0:0:
256,192,14827,1,8,0:0:0:0:
256,192,15057,1,8,0:0:0:0:
256,192,15288,1,0,0:0:0:0:
256,192,15750,1,0,0:0:0:0:
256,192,15981,1,8,0:0:0:0:
256,192,16211,1,0,0:0:0:0:
256,192,16673,1,0,0:0:0:0:
256,192,16904,1,8,0:0:0:0:
256,192,17134,1,0,0:0:0:0:
256,192,17365,1,8,0:0:0:0:
256,192,17481,1,8,0:0:0:0:
256,192,17596,1,0,0:0:0:0:
256,192,18057,1,0,0:0:0:0:
256,192,18519,1,0,0:0:0:0:
256,192,18750,1,8,0:0:0:0:
256,192,18981,1,0,0:0:0:0:
256,192,19211,1,0,0:0:0:0:
256,192,19327,1,0,0:0:0:0:
256,192,19442,1,0,0:0:0:0:
256,192,19673,1,8,0:0:0:0:
256,192,19904,1,0,0:0:0:0:
256,192,20365,1,0,0:0:0:0:
256,192,20596,1,0,0:0:0:0:
256,192,20827,1,8,0:0:0:0:
256,192,21057,1,8,0:0:0:0:
256,192,21173,1,8,0:0:0:0:
256,192,21288,1,8,0:0:0:0:
256,192,21519,1,0,0:0:0:0:
256,192,21750,1,0,0:0:0:0:
256,192,21865,1,8,0:0:0:0:
256,192,21981,1,8,0:0:0:0:
256,192,22211,1,0,0:0:0:0:
256,192,22442,1,8,0:0:0:0:
256,192,22673,1,0,0:0:0:0:
256,192,23134,1,0,0:0:0:0:
256,192,23596,1,0,0:0:0:0:
256,192,23827,1,8,0:0:0:0:
256,192,24057,1,0,0:0:0:0:
256,192,24288,1,8,0:0:0:0:
256,192,24519,1,8,0:0:0:0:
256,192,24750,1,8,0:0:0:0:
256,192,24865,1,8,0:0:0:0:
256,192,24981,1,0,0:0:0:0:
256,192,25442,1,0,0:0:0:0:
256,192,25673,1,8,0:0:0:0:
256,192,25788,1,8,0:0:0:0:
256,192,25904,1,0,0:0:0:0:
256,192,26365,1,0,0:0:0:0:
256,192,26596,1,8,0:0:0:0:
256,192,26827,1,0,0:0:0:0:
256,192,27057,1,8,0:0:0:0:
256,192,27288,1,0,0:0:0:0:
256,192,27519,1,8,0:0:0:0:
256,192,27634,1,8,0:0:0:0:
256,192,27750,1,0,0:0:0:0:
256,192,28211,1,8,0:0:0:0:
256,192,28442,1,8,0:0:0:0:
256,192,28557,1,8,0:0:0:0:
256,192,28673,1,0,0:0:0:0:
256,192,29827,1,4,0:0:0:0:
256,192,30057,1,12,0:0:0:0:
256,192,30288,1,12,0:0:0:0:
256,192,30519,1,4,0:0:0:0:
256,192,30981,1,8,0:0:0:0:
256,192,31442,1,0,0:0:0:0:
256,192,31673,1,8,0:0:0:0:
256,192,31904,1,0,0:0:0:0:
256,192,32365,1,0,0:0:0:0:
256,192,32596,1,8,0:0:0:0:
256,192,32827,1,0,0:0:0:0:
256,192,33057,1,8,0:0:0:0:
256,192,33173,1,8,0:0:0:0:
256,192,33288,1,0,0:0:0:0:
256,192,33519,1,8,0:0:0:0:
256,192,33634,1,8,0:0:0:0:
256,192,33750,1,0,0:0:0:0:
256,192,34211,1,0,0:0:0:0:
256,192,34442,1,8,0:0:0:0:
256,192,34557,1,8,0:0:0:0:
256,192,34673,1,0,0:0:0:0:
256,192,35134,1,0,0:0:0:0:
256,192,35365,1,8,0:0:0:0:
256,192,35596,1,0,0:0:0:0:
256,192,36057,1,0,0:0:0:0:
256,192,36288,1,8,0:0:0:0:
256,192,36519,1,0,0:0:0:0:
256,192,36750,1,8,0:0:0:0:
256,192,36865,1,8,0:0:0:0:
256,192,36981,1,0,0:0:0:0:
256,192,37211,1,8,0:0:0:0:
256,192,37327,1,8,0:0:0:0:
256,192,37442,1,0,0:0:0:0:
256,192,37904,1,0,0:0:0:0:
256,192,38134,1,8,0:0:0:0:
256,192,38250,1,8,0:0:0:0:
256,192,38365,1,0,0:0:0:0:
256,192,38827,1,0,0:0:0:0:
256,192,39057,1,8,0:0:0:0:
256,192,39288,1,0,0:0:0:0:
256,192,39750,1,0,0:0:0:0:
256,192,39981,1,8,0:0:0:0:
256,192,40211,1,0,0:0:0:0:
256,192,40442,1,8,0:0:0:0:
256,192,40557,1,8,0:0:0:0:
256,192,40673,1,0,0:0:0:0:
256,192,40904,1,8,0:0:0:0:
256,192,41019,1,8,0:0:0:0:
256,192,41134,1,0,0:0:0:0:
256,192,41596,1,0,0:0:0:0:
256,192,41827,1,8,0:0:0:0:
256,192,41942,1,8,0:0:0:0:
256,192,42057,1,0,0:0:0:0:
256,192,42519,1,0,0:0:0:0:
256,192,42750,1,8,0:0:0:0:
256,192,42981,1,0,0:0:0:0:
256,192,43442,1,0,0:0:0:0:
256,192,43673,1,8,0:0:0:0:
256,192,43904,1,0,0:0:0:0:
256,192,44134,1,8,0:0:0:0:
256,192,44250,1,8,0:0:0:0:
256,192,44365,1,0,0:0:0:0:
256,192,44596,1,8,0:0:0:0:
256,192,44711,1,8,0:0:0:0:
256,192,44827,1,0,0:0:0:0:
256,192,45288,1,0,0:0:0:0:
256,192,45519,1,8,0:0:0:0:
256,192,45634,1,8,0:0:0:0:
256,192,45750,1,0,0:0:0:0:
256,192,46211,1,0,0:0:0:0:
256,192,46442,1,0,0:0:0:0:
256,192,46557,1,0,0:0:0:0:
256,192,46673,1,8,0:0:0:0:
256,192,47134,1,0,0:0:0:0:
256,192,47365,1,0,0:0:0:0:
256,192,47481,1,0,0:0:0:0:
256,192,47596,1,8,0:0:0:0:
256,192,48057,1,0,0:0:0:0:
256,192,48519,1,8,0:0:0:0:
256,192,48981,1,0,0:0:0:0:
256,192,49211,1,0,0:0:0:0:
256,192,49327,1,0,0:0:0:0:
256,192,49442,1,8,0:0:0:0:
256,192,49904,1,8,0:0:0:0:
256,192,50134,1,0,0:0:0:0:
256,192,50365,1,0,0:0:0:0:
256,192,50481,1,0,0:0:0:0:
256,192,50596,1,8,0:0:0:0:
256,192,50827,1,8,0:0:0:0:
256,192,51288,1,0,0:0:0:0:
256,192,51750,1,0,0:0:0:0:
256,192,51981,1,0,0:0:0:0:
256,192,52211,1,8,0:0:0:0:
256,192,52442,1,0,0:0:0:0:
256,192,52557,1,0,0:0:0:0:
256,192,52673,1,8,0:0:0:0:
256,192,53134,1,0,0:0:0:0:
256,192,53596,1,0,0:0:0:0:
256,192,53827,1,8,0:0:0:0:
256,192,54057,1,0,0:0:0:0:
256,192,54288,1,8,0:0:0:0:
256,192,54519,1,0,0:0:0:0:
256,192,54981,1,8,0:0:0:0:
256,192,55442,1,0,0:0:0:0:
256,192,55673,1,8,0:0:0:0:
256,192,55904,1,0,0:0:0:0:
256,192,56134,1,8,0:0:0:0:
256,192,56596,1,8,0:0:0:0:
256,192,56711,1,8,0:0:0:0:
256,192,56827,1,8,0:0:0:0:
256,192,57288,1,0,0:0:0:0:
256,192,57519,1,0,0:0:0:0:
256,192,57750,1,8,0:0:0:0:
256,192,58211,1,0,0:0:0:0:
244,195,58327,1,0,0:0:0:0:
256,192,58442,1,8,0:0:0:0:
256,192,58673,1,0,0:0:0:0:
256,192,58904,1,8,0:0:0:0:
252,196,59019,1,8,0:0:0:0:
256,192,59134,1,0,0:0:0:0:
256,192,59365,1,8,0:0:0:0:
256,192,59596,1,0,0:0:0:0:
256,192,60057,1,8,0:0:0:0:
256,192,60288,1,0,0:0:0:0:
256,192,60519,1,8,0:0:0:0:
256,192,60750,1,0,0:0:0:0:
256,192,60981,1,0,0:0:0:0:
256,192,61211,1,0,0:0:0:0:
256,192,61442,1,8,0:0:0:0:
256,192,61557,1,8,0:0:0:0:
256,192,61673,1,8,0:0:0:0:
256,192,61788,1,8,0:0:0:0:
224,192,61904,1,0,0:0:0:0:
256,192,62134,1,0,0:0:0:0:
256,192,62365,1,8,0:0:0:0:
256,192,62827,1,0,0:0:0:0:
256,192,63057,1,8,0:0:0:0:
256,192,63288,1,0,0:0:0:0:
256,192,63750,1,0,0:0:0:0:
256,192,64211,1,0,0:0:0:0:
256,192,64442,1,8,0:0:0:0:
256,192,64673,1,0,0:0:0:0:
256,192,65134,1,0,0:0:0:0:
256,192,65365,1,8,0:0:0:0:
256,192,65481,1,8,0:0:0:0:
256,192,65596,1,8,0:0:0:0:
256,192,66057,1,0,0:0:0:0:
256,192,66288,1,8,0:0:0:0:
256,192,66519,1,0,0:0:0:0:
256,192,66981,1,0,0:0:0:0:
256,192,67442,1,0,0:0:0:0:
256,192,67904,1,8,0:0:0:0:
256,192,68134,1,0,0:0:0:0:
256,192,68365,1,8,0:0:0:0:
256,192,68596,1,8,0:0:0:0:
256,192,68827,1,8,0:0:0:0:
256,192,69057,1,8,0:0:0:0:
256,192,69173,1,8,0:0:0:0:
256,192,69288,1,0,0:0:0:0:
256,192,69519,1,0,0:0:0:0:
256,192,69750,1,0,0:0:0:0:
256,192,70211,1,0,0:0:0:0:
256,192,70442,1,8,0:0:0:0:
256,192,70673,1,0,0:0:0:0:
256,192,70904,1,8,0:0:0:0:
256,192,71134,1,0,0:0:0:0:
256,192,71365,1,8,0:0:0:0:
256,192,71596,1,0,0:0:0:0:
256,192,71827,1,8,0:0:0:0:
256,192,71942,1,8,0:0:0:0:
256,192,72057,1,0,0:0:0:0:
256,192,72519,1,8,0:0:0:0:
256,192,72750,1,8,0:0:0:0:
256,192,72865,1,8,0:0:0:0:
256,192,72981,1,0,0:0:0:0:
256,192,73211,1,8,0:0:0:0:
256,192,73442,1,8,0:0:0:0:
249,187,73557,1,0,0:0:0:0:
256,192,73673,1,8,0:0:0:0:
256,192,73904,1,0,0:0:0:0:
247,192,74134,1,8,0:0:0:0:
256,192,74365,1,0,0:0:0:0:
256,192,76673,5,0,0:0:0:0:
256,192,76904,1,8,0:0:0:0:
256,192,77019,1,8,0:0:0:0:
256,192,77134,1,0,0:0:0:0:
256,192,77596,1,0,0:0:0:0:
256,192,77827,1,8,0:0:0:0:
256,192,78057,1,0,0:0:0:0:
256,192,78519,1,0,0:0:0:0:
256,192,78750,1,8,0:0:0:0:
256,192,78981,1,0,0:0:0:0:
256,192,79211,1,8,0:0:0:0:
256,192,79327,1,8,0:0:0:0:
256,192,79442,1,0,0:0:0:0:
256,192,79673,1,8,0:0:0:0:
256,192,79788,1,8,0:0:0:0:
256,192,79904,1,0,0:0:0:0:
256,192,80365,1,0,0:0:0:0:
256,192,80596,1,8,0:0:0:0:
256,192,80711,1,8,0:0:0:0:
256,192,80827,1,0,0:0:0:0:
256,192,81288,1,0,0:0:0:0:
256,192,81519,1,8,0:0:0:0:
256,192,81750,1,0,0:0:0:0:
256,192,81981,1,8,0:0:0:0:
256,192,82096,1,8,0:0:0:0:
256,192,82211,1,8,0:0:0:0:
256,192,82442,1,8,0:0:0:0:
256,192,82673,1,0,0:0:0:0:
256,192,82904,1,8,0:0:0:0:
256,192,83019,1,8,0:0:0:0:
256,192,83134,1,0,0:0:0:0:
256,192,83365,1,8,0:0:0:0:
256,192,83481,1,8,0:0:0:0:
256,192,83596,1,0,0:0:0:0:
256,192,84057,1,0,0:0:0:0:
256,192,84288,1,8,0:0:0:0:
224,192,84404,1,8,0:0:0:0:
256,192,84519,1,0,0:0:0:0:
256,192,84981,1,0,0:0:0:0:
256,192,85211,1,8,0:0:0:0:
256,192,85442,1,0,0:0:0:0:
256,192,85673,1,8,0:0:0:0:
256,192,85788,1,8,0:0:0:0:
256,192,85904,1,0,0:0:0:0:
256,192,86134,1,8,0:0:0:0:
256,192,86365,1,0,0:0:0:0:
256,192,86596,1,8,0:0:0:0:
256,192,86711,1,8,0:0:0:0:
256,192,86827,1,0,0:0:0:0:
256,192,87057,1,8,0:0:0:0:
256,192,87173,1,8,0:0:0:0:
256,192,87288,1,0,0:0:0:0:
256,192,87750,1,0,0:0:0:0:
256,192,87981,1,8,0:0:0:0:
256,192,88096,1,8,0:0:0:0:
256,192,88211,1,0,0:0:0:0:
256,192,88673,1,0,0:0:0:0:
256,192,88904,1,8,0:0:0:0:
256,192,89134,1,0,0:0:0:0:
256,192,89365,1,8,0:0:0:0:
256,192,89481,1,8,0:0:0:0:
256,192,89596,1,0,0:0:0:0:
256,192,89827,1,8,0:0:0:0:
256,192,90057,1,0,0:0:0:0:
256,192,90288,1,8,0:0:0:0:
256,192,90519,1,0,0:0:0:0:
256,192,90634,1,8,0:0:0:0:
256,192,90750,1,8,0:0:0:0:
256,192,90981,1,8,0:0:0:0:
256,192,91211,1,8,0:0:0:0:
256,192,95134,5,0,0:0:0:0:
256,192,95365,1,0,0:0:0:0:
256,192,95481,1,0,0:0:0:0:
256,192,95596,1,8,0:0:0:0:
256,192,96057,1,0,0:0:0:0:
256,192,96288,1,8,0:0:0:0:
256,192,96404,1,8,0:0:0:0:
256,192,96519,1,0,0:0:0:0:
256,192,96981,1,0,0:0:0:0:
256,192,97211,1,8,0:0:0:0:
256,192,97327,1,8,0:0:0:0:
256,192,97442,1,0,0:0:0:0:
256,192,97904,1,0,0:0:0:0:
256,192,98134,1,0,0:0:0:0:
256,192,98250,1,0,0:0:0:0:
256,192,98365,1,8,0:0:0:0:
256,192,98827,1,0,0:0:0:0:
256,192,99057,1,0,0:0:0:0:
256,192,99173,1,0,0:0:0:0:
256,192,99288,1,8,0:0:0:0:
256,192,99519,1,8,0:0:0:0:
256,192,99750,1,0,0:0:0:0:
256,192,99981,1,0,0:0:0:0:
256,192,100096,1,0,0:0:0:0:
256,192,100211,1,8,0:0:0:0:
256,192,100673,1,0,0:0:0:0:
256,192,100904,1,8,0:0:0:0:
256,192,101019,1,8,0:0:0:0:
256,192,101134,1,0,0:0:0:0:
256,192,101365,1,0,0:0:0:0:
256,192,101596,1,0,0:0:0:0:
256,192,101827,1,0,0:0:0:0:
256,192,101942,1,0,0:0:0:0:
256,192,102057,1,8,0:0:0:0:
256,192,102519,1,0,0:0:0:0:
256,192,102750,1,0,0:0:0:0:
256,192,102865,1,0,0:0:0:0:
256,192,102981,1,8,0:0:0:0:
256,192,103211,1,8,0:0:0:0:
256,192,103442,1,8,0:0:0:0:
256,192,103673,1,8,0:0:0:0:
256,192,103788,1,8,0:0:0:0:
256,192,103904,1,0,0:0:0:0:
256,192,104134,1,0,0:0:0:0:
256,192,104365,1,0,0:0:0:0:
256,192,104596,1,0,0:0:0:0:
256,192,104711,1,0,0:0:0:0:
256,192,104827,1,8,0:0:0:0:
256,192,105288,1,0,0:0:0:0:
256,192,105519,1,0,0:0:0:0:
256,192,105634,1,0,0:0:0:0:
256,192,105750,1,8,0:0:0:0:
256,192,106211,1,8,0:0:0:0:
256,192,106442,1,0,0:0:0:0:
256,192,106673,1,8,0:0:0:0:
256,192,108057,1,0,0:0:0:0:
256,192,108288,1,0,0:0:0:0:
256,192,108519,1,8,0:0:0:0:
256,192,109904,1,0,0:0:0:0:
256,192,110134,1,0,0:0:0:0:
256,192,110365,1,8,0:0:0:0:
256,192,111750,1,0,0:0:0:0:
256,192,111981,1,0,0:0:0:0:
256,192,112211,1,8,0:0:0:0:
256,192,113596,1,0,0:0:0:0:
256,192,114057,1,8,0:0:0:0:
256,192,114519,1,0,0:0:0:0:
256,192,114981,1,8,0:0:0:0:
256,192,115211,1,8,0:0:0:0:
256,192,115327,1,8,0:0:0:0:
256,192,115442,1,0,0:0:0:0:
256,192,115904,1,8,0:0:0:0:
256,192,116365,1,0,0:0:0:0:
256,192,116596,1,8,0:0:0:0:
256,192,116827,1,0,0:0:0:0:
256,192,117057,1,8,0:0:0:0:
256,192,117519,1,0,0:0:0:0:
256,192,117634,1,0,0:0:0:0:
256,192,117750,1,8,0:0:0:0:
256,192,117981,1,8,0:0:0:0:
256,192,118211,1,0,0:0:0:0:
256,192,118442,1,8,0:0:0:0:
256,192,118673,1,8,0:0:0:0:
256,192,118904,1,0,0:0:0:0:
256,192,119365,1,0,0:0:0:0:
256,192,119596,1,8,0:0:0:0:
256,192,119827,1,0,0:0:0:0:
256,192,120057,1,8,0:0:0:0:
256,192,120519,1,8,0:0:0:0:
256,192,120981,1,8,0:0:0:0:
256,192,121211,1,0,0:0:0:0:
256,192,121442,1,8,0:0:0:0:
256,192,121673,1,0,0:0:0:0:
256,192,121904,1,0,0:0:0:0:
256,192,122134,1,0,0:0:0:0:
256,192,122365,1,8,0:0:0:0:
256,192,122596,1,8,0:0:0:0:
256,192,122711,1,8,0:0:0:0:
224,192,122827,1,0,0:0:0:0:
256,192,123057,1,0,0:0:0:0:
256,192,123288,1,8,0:0:0:0:
256,192,123750,1,0,0:0:0:0:
256,192,123981,1,8,0:0:0:0:
256,192,124211,1,0,0:0:0:0:
256,192,124442,1,8,0:0:0:0:
256,192,124673,1,0,0:0:0:0:
256,192,125134,1,0,0:0:0:0:
256,192,125365,1,8,0:0:0:0:
256,192,125596,1,0,0:0:0:0:
256,192,126057,1,0,0:0:0:0:
256,192,126288,1,8,0:0:0:0:
256,192,126404,1,8,0:0:0:0:
256,192,126519,1,8,0:0:0:0:
256,192,126981,1,0,0:0:0:0:
256,192,127211,1,8,0:0:0:0:
256,192,127442,1,0,0:0:0:0:
256,192,127904,1,0,0:0:0:0:
256,192,128365,1,0,0:0:0:0:
256,192,128596,1,8,0:0:0:0:
256,192,128827,1,0,0:0:0:0:
256,192,129288,1,0,0:0:0:0:
256,192,129519,1,0,0:0:0:0:
256,192,129750,1,8,0:0:0:0:
256,192,129981,1,8,0:0:0:0:
256,192,130096,1,8,0:0:0:0:
256,192,130211,1,0,0:0:0:0:
256,192,130673,1,0,0:0:0:0:
256,192,130904,1,8,0:0:0:0:
256,192,131134,1,0,0:0:0:0:
256,192,131596,1,8,0:0:0:0:
256,192,132057,1,0,0:0:0:0:
256,192,132288,1,8,0:0:0:0:
256,192,132519,1,0,0:0:0:0:
256,192,132981,1,8,0:0:0:0:
256,192,133442,1,8,0:0:0:0:
256,192,133673,1,8,0:0:0:0:
256,192,133788,1,8,0:0:0:0:
256,192,133904,1,0,0:0:0:0:
256,192,134365,1,0,0:0:0:0:
256,192,134596,1,8,0:0:0:0:
256,192,134827,1,0,0:0:0:0:
256,192,135057,1,8,0:0:0:0:
256,192,135288,1,0,0:0:0:0:
256,192,135750,1,0,0:0:0:0:
256,192,135981,1,8,0:0:0:0:
256,192,136096,1,8,0:0:0:0:
256,192,136211,1,0,0:0:0:0:
256,192,136673,1,0,0:0:0:0:
256,192,136904,1,8,0:0:0:0:
256,192,137134,1,0,0:0:0:0:
256,192,137596,1,8,0:0:0:0:
256,192,137827,1,0,0:0:0:0:
256,192,138057,1,8,0:0:0:0:
224,192,138288,1,8,0:0:0:0:
256,192,138404,1,8,0:0:0:0:
256,192,138519,1,0,0:0:0:0:
256,192,138750,1,8,0:0:0:0:
256,192,138865,1,8,0:0:0:0:
256,192,138981,1,0,0:0:0:0:
256,192,139442,1,0,0:0:0:0:
256,192,139673,1,8,0:0:0:0:
256,192,139788,1,8,0:0:0:0:
256,192,139904,1,0,0:0:0:0:
256,192,140365,1,0,0:0:0:0:
256,192,140596,1,8,0:0:0:0:
256,192,140827,1,0,0:0:0:0:
256,192,141057,1,8,0:0:0:0:
256,192,141173,1,8,0:0:0:0:
256,192,141288,1,0,0:0:0:0:
256,192,141519,1,8,0:0:0:0:
256,192,141750,1,0,0:0:0:0:
256,192,141981,1,8,0:0:0:0:
256,192,142096,1,8,0:0:0:0:
256,192,142211,1,0,0:0:0:0:
256,192,142442,1,8,0:0:0:0:
256,192,142557,1,8,0:0:0:0:
256,192,142673,1,0,0:0:0:0:
256,192,143134,1,0,0:0:0:0:
256,192,143365,1,8,0:0:0:0:
256,192,143481,1,8,0:0:0:0:
256,192,143596,1,0,0:0:0:0:
256,192,144057,1,0,0:0:0:0:
256,192,144288,1,8,0:0:0:0:
256,192,144519,1,0,0:0:0:0:
256,192,144750,1,8,0:0:0:0:
256,192,144865,1,8,0:0:0:0:
256,192,144981,1,0,0:0:0:0:
256,192,145211,1,8,0:0:0:0:
256,192,145442,1,0,0:0:0:0:
256,192,145673,1,8,0:0:0:0:
256,192,145788,1,8,0:0:0:0:
256,192,145904,1,0,0:0:0:0:
256,192,146134,1,8,0:0:0:0:
256,192,146250,1,8,0:0:0:0:
256,192,146365,1,0,0:0:0:0:
256,192,146827,1,0,0:0:0:0:
256,192,147057,1,8,0:0:0:0:
256,192,147173,1,8,0:0:0:0:
256,192,147288,1,0,0:0:0:0:
256,192,147750,1,0,0:0:0:0:
256,192,147981,1,8,0:0:0:0:
256,192,148211,1,0,0:0:0:0:
256,192,148442,1,8,0:0:0:0:
256,192,148557,1,8,0:0:0:0:
256,192,148673,1,0,0:0:0:0:
256,192,148904,1,8,0:0:0:0:
256,192,149134,1,0,0:0:0:0:
256,192,149365,1,8,0:0:0:0:
256,192,149481,1,8,0:0:0:0:
256,192,149596,1,0,0:0:0:0:
256,192,149827,1,8,0:0:0:0:
256,192,150057,1,0,0:0:0:0:
256,192,152365,5,0,0:0:0:0:
259,195,152596,1,8,0:0:0:0:
259,195,152711,1,8,0:0:0:0:
263,191,152827,1,0,0:0:0:0:
263,191,153057,1,0,0:0:0:0:
256,192,153288,1,8,0:0:0:0:
259,195,153519,1,8,0:0:0:0:
259,195,153634,1,8,0:0:0:0:
263,191,153750,1,0,0:0:0:0:
256,192,154211,1,0,0:0:0:0:
259,195,154442,1,8,0:0:0:0:
259,195,154557,1,8,0:0:0:0:
263,191,154673,1,0,0:0:0:0:
263,191,154904,1,0,0:0:0:0:
256,192,155134,1,8,0:0:0:0:
259,195,155365,1,8,0:0:0:0:
259,195,155481,1,8,0:0:0:0:
263,191,155596,1,0,0:0:0:0:
256,192,156057,1,0,0:0:0:0:
259,195,156288,1,8,0:0:0:0:
259,195,156404,1,8,0:0:0:0:
263,191,156519,1,0,0:0:0:0:
263,191,156750,1,0,0:0:0:0:
263,191,156981,1,8,0:0:0:0:
254,194,157211,1,8,0:0:0:0:
254,194,157327,1,8,0:0:0:0:
263,191,157442,1,0,0:0:0:0:
256,192,157904,1,0,0:0:0:0:
256,192,158134,1,8,0:0:0:0:
256,192,158365,1,0,0:0:0:0:
256,192,158596,1,8,0:0:0:0:
256,192,158827,1,0,0:0:0:0:
256,192,159057,1,8,0:0:0:0:
256,192,159173,1,8,0:0:0:0:
256,192,159288,1,0,0:0:0:0:
256,192,159519,1,8,0:0:0:0:
256,192,159634,1,8,0:0:0:0:
256,192,159750,1,0,0:0:0:0:
256,192,160211,1,0,0:0:0:0:
256,192,160442,1,8,0:0:0:0:
256,192,160557,1,8,0:0:0:0:
256,192,160673,1,0,0:0:0:0:
256,192,160904,1,8,0:0:0:0:
256,192,161019,1,8,0:0:0:0:
256,192,161134,1,0,0:0:0:0:
256,192,161596,1,0,0:0:0:0:
256,192,161827,1,8,0:0:0:0:
256,192,162057,1,0,0:0:0:0:
256,192,162288,1,8,0:0:0:0:
256,192,162519,1,0,0:0:0:0:
256,192,162750,1,8,0:0:0:0:
256,192,162865,1,8,0:0:0:0:
256,192,162981,1,0,0:0:0:0:
256,192,163211,1,8,0:0:0:0:
256,192,163327,1,8,0:0:0:0:
256,192,163442,1,0,0:0:0:0:
256,192,163904,1,0,0:0:0:0:
256,192,164134,1,8,0:0:0:0:
256,192,164250,1,8,0:0:0:0:
256,192,164365,1,0,0:0:0:0:
256,192,164596,1,8,0:0:0:0:
256,192,164711,1,8,0:0:0:0:
256,192,164827,1,0,0:0:0:0:
256,192,165057,1,8,0:0:0:0:
256,192,165288,1,0,0:0:0:0:
256,192,167134,5,0,0:0:0:0:
256,192,167365,1,8,0:0:0:0:
256,192,167481,1,8,0:0:0:0:
256,192,167596,1,0,0:0:0:0:
256,192,167827,1,8,0:0:0:0:
256,192,168057,1,0,0:0:0:0:
256,192,168519,1,8,0:0:0:0:
256,192,168981,1,0,0:0:0:0:
256,192,169442,1,8,0:0:0:0:
256,192,169673,1,0,0:0:0:0:
256,192,169788,1,0,0:0:0:0:
256,192,169904,1,0,0:0:0:0:
256,192,170134,1,0,0:0:0:0:
256,192,170365,1,8,0:0:0:0:
256,192,170596,1,0,0:0:0:0:
256,192,171288,5,8,0:0:0:0:
256,192,171519,1,8,0:0:0:0:
256,192,171750,1,0,0:0:0:0:
256,192,171981,1,0,0:0:0:0:
256,192,172096,1,0,0:0:0:0:
256,192,172211,1,8,0:0:0:0:
256,192,172442,1,0,0:0:0:0:
256,192,172673,1,8,0:0:0:0:
256,192,173134,1,8,0:0:0:0:
256,192,173596,1,0,0:0:0:0:
256,192,173827,1,0,0:0:0:0:
256,192,173942,1,0,0:0:0:0:
256,192,174057,1,8,0:0:0:0:
256,192,174288,1,0,0:0:0:0:
256,192,174750,1,0,0:0:0:0:
256,192,174981,1,8,0:0:0:0:
256,192,175211,1,0,0:0:0:0:
256,192,175673,1,0,0:0:0:0:
256,192,175788,1,0,0:0:0:0:
256,192,175904,1,8,0:0:0:0:
256,192,176134,1,0,0:0:0:0:
256,192,176365,1,0,0:0:0:0:
256,192,176827,1,8,0:0:0:0:
256,192,177288,1,0,0:0:0:0:
256,192,177519,1,0,0:0:0:0:
256,192,177750,1,8,0:0:0:0:
256,192,177981,1,0,0:0:0:0:
256,192,178442,1,0,0:0:0:0:
256,192,178673,1,8,0:0:0:0:
256,192,178904,1,0,0:0:0:0:
256,192,179365,1,0,0:0:0:0:
256,192,179481,1,0,0:0:0:0:
256,192,179596,1,8,0:0:0:0:
256,192,180057,1,0,0:0:0:0:
256,192,180288,1,8,0:0:0:0:
256,192,180404,1,8,0:0:0:0:
256,192,180519,1,0,0:0:0:0:
256,192,180981,1,0,0:0:0:0:
256,192,181211,1,8,0:0:0:0:
256,192,181442,1,0,0:0:0:0:
256,192,181904,1,0,0:0:0:0:
256,192,182134,1,8,0:0:0:0:
256,192,182365,1,0,0:0:0:0:
256,192,182827,1,0,0:0:0:0:
256,192,183057,1,8,0:0:0:0:
256,192,183173,1,8,0:0:0:0:
256,192,183288,1,0,0:0:0:0:
256,192,183750,1,0,0:0:0:0:
256,192,183981,1,8,0:0:0:0:
256,192,184096,1,8,0:0:0:0:
256,192,184211,1,0,0:0:0:0:
256,192,184673,1,0,0:0:0:0:
256,192,184904,1,8,0:0:0:0:
256,192,185134,1,0,0:0:0:0:
256,192,185365,1,8,0:0:0:0:
256,192,185481,1,8,0:0:0:0:
256,192,185596,1,0,0:0:0:0:
256,192,185827,1,8,0:0:0:0:
256,192,186057,1,0,0:0:0:0:
256,192,186519,1,0,0:0:0:0:
256,192,186750,1,8,0:0:0:0:
256,192,186865,1,8,0:0:0:0:
256,192,186981,1,0,0:0:0:0:
256,192,187442,1,0,0:0:0:0:
256,192,187673,1,8,0:0:0:0:
256,192,187904,1,0,0:0:0:0:
256,192,188134,1,8,0:0:0:0:
256,192,188250,1,8,0:0:0:0:
256,192,188365,1,0,0:0:0:0:
256,192,188596,1,8,0:0:0:0:
256,192,188827,1,0,0:0:0:0:
256,192,189057,1,8,0:0:0:0:
256,192,189288,1,0,0:0:0:0:
256,192,189750,1,0,0:0:0:0:
256,192,189981,1,8,0:0:0:0:
256,192,190211,1,0,0:0:0:0:
256,192,190673,1,0,0:0:0:0:
256,192,190904,1,8,0:0:0:0:
256,192,191134,1,0,0:0:0:0:
256,192,191365,1,8,0:0:0:0:
256,192,191481,1,8,0:0:0:0:
256,192,191596,1,0,0:0:0:0:
256,192,192057,1,0,0:0:0:0:
256,192,192288,1,8,0:0:0:0:
256,192,192519,1,0,0:0:0:0:
256,192,192981,1,0,0:0:0:0:
256,192,193211,1,8,0:0:0:0:
256,192,193442,1,0,0:0:0:0:
256,192,193904,1,0,0:0:0:0:
256,192,194134,1,0,0:0:0:0:
256,192,194250,1,0,0:0:0:0:
256,192,194365,1,8,0:0:0:0:
256,192,194596,1,8,0:0:0:0:
256,192,194827,1,0,0:0:0:0:
256,192,195288,1,8,0:0:0:0:
256,192,195750,1,0,0:0:0:0:
256,192,196211,1,8,0:0:0:0:
256,192,196673,1,0,0:0:0:0:
256,192,197134,1,8,0:0:0:0:
256,192,197596,1,0,0:0:0:0:
256,192,197827,1,8,0:0:0:0:
256,192,198057,1,8,0:0:0:0:
256,192,198288,1,8,0:0:0:0:
256,192,198519,1,0,0:0:0:0:
256,192,198981,1,8,0:0:0:0:
256,192,199442,1,0,0:0:0:0:
256,192,199904,1,8,0:0:0:0:
256,192,200134,1,8,0:0:0:0:
256,192,200250,1,8,0:0:0:0:
256,192,200365,1,0,0:0:0:0:
256,192,200827,1,8,0:0:0:0:
256,192,201288,1,0,0:0:0:0:
256,192,201750,1,8,0:0:0:0:
256,192,202211,1,0,0:0:0:0:
256,192,202442,1,0,0:0:0:0:
256,192,202673,1,8,0:0:0:0:
256,192,202904,1,8,0:0:0:0:
256,192,203134,1,0,0:0:0:0:
256,192,203596,1,8,0:0:0:0:
256,192,203827,1,8,0:0:0:0:
256,192,203942,1,8,0:0:0:0:
256,192,204057,1,0,0:0:0:0:
256,192,204288,1,8,0:0:0:0:
256,192,204519,1,8,0:0:0:0:
256,192,204981,1,0,0:0:0:0:
256,192,205442,1,8,0:0:0:0:
256,192,205904,1,0,0:0:0:0:
256,192,206134,1,0,0:0:0:0:
256,192,206365,1,8,0:0:0:0:
256,192,206596,1,8,0:0:0:0:
256,192,206827,1,0,0:0:0:0:
256,192,207057,1,8,0:0:0:0:
256,192,207288,1,8,0:0:0:0:
256,192,207750,1,0,0:0:0:0:
256,192,207981,1,8,0:0:0:0:
256,192,208211,1,8,0:0:0:0:
256,192,208673,1,0,0:0:0:0:
256,192,209134,1,8,0:0:0:0:
256,192,209365,1,0,0:0:0:0:
