osu file format v14

[General]
AudioFilename: Sum 41 - Holy Image of Lies.mp3
AudioLeadIn: 0
PreviewTime: 73884
Countdown: 1
SampleSet: Normal
StackLeniency: 0
Mode: 0
LetterboxInBreaks: 0
WidescreenStoryboard: 0

[Editor]
Bookmarks: 12888,64225,97664,107764,113121,126835,140121,140549
DistanceSpacing: 2.1
BeatDivisor: 4
GridSize: 4
TimelineZoom: 2.2

[Metadata]
Title:Holy Image of Lies
TitleUnicode:Holy Image of Lies
Artist:Sum 41
ArtistUnicode:Sum 41
Creator:Lilynn
Version:A preaching of hushed words
Source:
Tags:Sum 41 ska punk metal rock roll alternative god bob ross not tv size
BeatmapID:1110342
BeatmapSetID:522887

[Difficulty]
HPDrainRate:4
CircleSize:4.1
OverallDifficulty:7
ApproachRate:9.7
SliderMultiplier:2.1
SliderTickRate:2

[Events]
//Background and Video events
0,0,"bg (2).jpg",0,0
//Break Periods
2,168177,178438
//Storyboard Layer 0 (Background)
//Storyboard Layer 1 (Fail)
//Storyboard Layer 2 (Pass)
//Storyboard Layer 3 (Foreground)
//Storyboard Layer 4 (Overlay)
//Storyboard Sound Samples

[TimingPoints]
746,357.142857142857,4,1,0,15,1,0
9317,-200,4,1,0,15,0,0
9674,-100,4,1,0,15,0,0
10388,-133.333333333333,4,1,0,15,0,0
11103,-100,4,1,0,15,0,0
20388,-133.333333333333,4,1,0,15,0,0
20745,-100,4,1,0,15,0,0
23600,365.853658536585,4,1,0,15,1,0
33846,379.746835443038,4,1,0,30,1,0
33978,-83.3333333333333,4,1,0,30,0,0
73339,436.363636363636,4,1,0,15,1,0
73339,-133.333333333333,4,2,0,15,0,0
74211,-200,4,2,0,15,0,0
74648,-400,4,2,0,15,0,0
76829,-200,4,2,0,15,0,0
78575,-400,4,2,0,15,0,0
80320,-666.666666666667,4,2,0,15,0,0
82884,436.363636363636,4,2,0,15,1,0
82884,-400,4,2,0,15,0,0
85502,-200,4,2,0,15,0,0
86811,-133.333333333333,4,2,0,15,0,0
87248,-400,4,2,0,15,0,0
90302,-200,4,2,0,15,0,0
90738,-400,4,2,0,15,0,0
94174,436.363636363636,4,2,0,15,1,0
94174,-400,4,2,0,15,0,0
97664,-500,4,2,0,15,0,0
106264,428.571428571429,4,1,0,15,1,0
106388,-66.6666666666667,4,1,0,30,0,0
126835,-200,4,1,0,30,0,0
140121,-133.333333333333,4,1,0,30,0,0
140549,-200,4,1,0,30,0,0
142264,-400,4,2,0,45,0,0
143121,-100,4,2,0,45,0,0
143549,-200,4,2,0,45,0,0
178978,666.666666666667,4,1,0,25,1,0
205978,-57.1428571428571,4,1,0,25,0,0
216795,-50,4,1,0,25,0,0

[Colours]
Combo1 : 221,187,255
Combo2 : 196,255,255
Combo3 : 255,191,255
Combo4 : 255,205,155

[HitObjects]
455,177,746,5,0,0:0:0:0:
439,294,924,1,0,0:0:0:0:
456,164,1103,2,10,P|444:115|404:79,1,105,4|0,0:0|0:0,0:0:0:0:
247,137,1460,5,0,0:0:0:0:
145,46,1638,1,0,0:0:0:0:
257,149,1817,2,0,B|270:161|270:161|358:159,1,105,2|0,0:0|0:0,0:0:0:0:
109,170,2174,5,0,0:0:0:0:
237,125,2352,1,0,0:0:0:0:
207,262,2531,2,0,B|217:247|217:247|305:235,1,105,2|0,0:0|0:0,0:0:0:0:
375,309,2888,5,0,0:0:0:0:
113,289,3067,1,0,0:0:0:0:
443,140,3245,6,0,P|396:126|356:160,1,105
299,364,3603,1,0,0:0:0:0:
351,174,3781,1,0,0:0:0:0:
113,289,3960,6,0,P|160:303|200:269,1,105
145,46,4317,5,0,0:0:0:0:
200,255,4495,1,0,0:0:0:0:
351,174,4674,5,0,0:0:0:0:
296,383,4852,1,0,0:0:0:0:
200,255,5031,6,0,B|253:253|253:253|260:249|260:249|303:246,1,105
127,152,5388,5,0,0:0:0:0:
99,329,5567,1,0,0:0:0:0:
451,190,5745,5,0,0:0:0:0:
435,307,5923,1,0,0:0:0:0:
452,177,6102,2,10,P|440:128|400:92,1,105,4|0,0:0|0:0,0:0:0:0:
251,163,6460,6,0,B|264:175|264:175|352:173,1,105,2|0,0:0|0:0,0:0:0:0:
60,95,6817,5,0,0:0:0:0:
68,84,7174,2,0,B|83:73|83:73|169:92,1,105,2|0,0:0|0:0,0:0:0:0:
452,177,7531,5,0,0:0:0:0:
452,177,7888,2,0,B|444:219|444:219|446:227|446:227|435:279,1,105
124,333,8245,5,0,0:0:0:0:
344,316,8424,1,0,0:0:0:0:
175,249,8603,2,0,P|135:281|124:333,1,105
36,131,8960,2,0,P|68:170|69:224,1,105
220,71,9317,6,0,P|175:96|156:146,1,105
206,322,9853,1,0,0:0:0:0:
321,84,10031,6,0,P|279:54|225:56,1,105
216,72,11460,5,0,0:0:0:0:
120,152,11638,1,0,0:0:0:0:
240,196,11817,1,0,0:0:0:0:
184,56,11995,1,0,0:0:0:0:
228,272,12174,6,0,P|284:260|316:204,1,105
382,159,12531,2,0,B|388:192|388:192|384:264,1,105
311,223,12888,6,0,L|300:80,2,105
288,304,13424,5,0,0:0:0:0:
288,304,13603,2,0,P|232:316|192:296,1,105
140,228,13960,1,0,0:0:0:0:
76,172,14138,2,0,B|92:220|92:220|88:274,2,105
240,112,14674,6,0,P|209:152|149:170,1,105
160,88,15031,2,0,P|240:32|324:132,1,210
336,172,15567,5,0,0:0:0:0:
434,38,15745,2,0,B|426:82|426:82|434:162,1,105
408,224,16103,2,0,L|411:119,1,105
324,176,16460,1,0,0:0:0:0:
304,184,16638,1,0,0:0:0:0:
284,188,16817,2,0,P|252:184|184:144,1,105
164,310,17174,6,0,B|168:240|168:240|140:220,1,105
8,100,17531,2,2,P|40:104|108:144,1,105
138,218,17888,6,0,P|136:166|116:119,1,105
224,184,18245,2,0,B|232:216|232:216|228:328,1,105
280,104,18603,6,0,P|265:154|269:206,1,105
172,136,18960,6,0,B|124:160|56:152|56:152|112:128|120:64,1,210
260,96,19674,1,0,0:0:0:0:
280,104,19853,1,0,0:0:0:0:
300,104,20031,2,0,P|352:88|408:48,1,105
484,180,20388,2,0,P|432:163|356:168,1,118.125004506111,0|0,3:0|3:0,3:0:0:0:
332,272,20745,6,0,B|344:232|328:204|328:204|332:184|300:168|300:104|300:104|324:144,2,210
256,328,21817,6,0,B|185:315|185:315|132:290|132:290|30:271,2,210
424,336,22888,5,2,0:2:0:0:
344,188,23067,1,0,0:0:0:0:
256,328,23245,1,2,0:0:0:0:
456,312,23424,1,0,0:0:0:0:
212,264,23600,6,0,L|208:200,3,52.5
136,324,23965,2,8,L|123:386,3,52.5,0|0|0|0,0:0|0:0|0:0|0:0,0:0:0:0:
144,164,24331,6,0,P|208:136|292:196,1,157.5
360,208,24697,6,2,L|424:212,3,52.5,2|2|2|2,3:3|3:3|3:3|3:3,3:3:0:0:
300,284,25062,2,8,L|237:296,3,52.5,0|0|0|0,3:0|3:0|3:0|3:0,3:0:0:0:
168,236,25429,6,0,P|160:208|156:172,3,52.5
132,264,25795,6,0,B|80:272|80:272|24:268,1,105
40,88,26160,2,0,B|32:144|32:208,1,105
116,96,26526,2,0,P|106:44|99:25,3,52.5
188,152,26892,2,0,P|175:174|165:199,3,52.5
256,104,27258,6,0,B|304:88|360:120|412:96,1,157.5
460,164,27624,6,0,L|464:228,3,52.5
388,256,27990,2,0,L|384:320,3,52.5
204,248,28356,6,0,L|308:252,1,105
228,224,28721,2,0,B|168:216|168:216|112:224,1,105
56,276,29087,6,0,L|48:328,3,52.5,2|0|2|0,0:0|0:0|0:0|0:0,0:0:0:0:
48,192,29453,6,0,P|44:140|56:80,3,105
136,184,30185,6,0,P|169:224|193:280,3,105,0|0|0|0,3:0|3:0|3:0|3:0,3:0:0:0:
220,164,30917,6,0,P|228:64|320:32,1,210
464,200,31648,6,0,P|364:192|288:100,1,210
52,216,32380,2,0,P|138:165|248:196,1,210,0|0,3:0|3:0,3:0:0:0:
277,254,33846,5,0,0:0:0:0:
236,109,34035,1,0,0:0:0:0:
196,256,34225,6,0,P|220:313|276:340,1,125.999996154785
252,68,34605,1,0,0:0:0:0:
277,254,34795,1,0,0:0:0:0:
200,152,34985,2,8,B|173:101|173:101|154:27,2,125.999996154785,0|0|0,0:0|0:0|0:0,0:0:0:0:
324,280,35554,5,0,0:0:0:0:
296,72,35744,1,0,0:0:0:0:
228,280,35934,1,0,0:0:0:0:
384,76,36124,5,0,0:0:0:0:
148,228,36314,1,0,0:0:0:0:
418,187,36504,5,8,2:0:0:0:
112,115,36694,1,8,2:0:0:0:
240,224,36883,2,0,B|244:288|244:288|228:360,1,125.999996154785
104,112,37263,1,0,0:0:0:0:
144,360,37453,1,0,0:0:0:0:
240,224,37643,6,8,P|243:167|211:108,1,125.999996154785
100,104,38023,1,0,0:0:0:0:
130,213,38213,1,0,0:0:0:0:
344,176,38402,6,0,B|285:202|285:202|212:213,1,125.999996154785,8|8,2:0|2:0,2:0:0:0:
408,60,38782,1,8,0:0:0:0:
152,118,38972,1,8,0:0:0:0:
480,148,39162,1,8,0:0:0:0:
120,36,39352,6,0,B|56:24|56:24|104:72,1,125.999996154785
204,116,39732,1,0,0:0:0:0:
264,313,39921,2,0,B|276:256|276:256|276:188,1,125.999996154785
72,232,40301,2,0,P|136:236|208:204,1,125.999996154785
296,356,40681,2,0,P|245:316|168:300,1,125.999996154785,8|8,0:0|0:0,0:0:0:0:
56,328,41061,5,0,0:0:0:0:
200,296,41251,1,0,0:0:0:0:
212,292,41346,1,0,0:0:0:0:
224,288,41440,1,0,0:0:0:0:
52,216,41630,5,0,0:0:0:0:
154,346,41820,1,0,0:0:0:0:
200,92,42010,1,0,0:0:0:0:
154,346,42200,6,0,P|218:350|284:320,1,125.999996154785
356,144,42580,6,0,B|356:240|356:240|320:224,1,125.999996154785
204,276,42959,1,0,0:0:0:0:
248,104,43149,1,0,0:0:0:0:
264,340,43339,1,0,0:0:0:0:
152,60,43529,5,0,0:0:0:0:
324,252,43719,1,0,0:0:0:0:
72,128,43909,1,0,0:0:0:0:
360,176,44099,1,0,0:0:0:0:
148,200,44289,5,0,0:0:0:0:
304,100,44478,1,0,0:0:0:0:
264,340,44668,1,0,0:0:0:0:
308,88,44858,1,0,0:0:0:0:
160,264,45048,1,0,0:0:0:0:
348,192,45238,6,0,P|404:176|460:208,1,125.999996154785,0|2,0:0|0:2,0:0:0:0:
432,24,45618,2,0,B|420:92|420:92|416:172,1,125.999996154785,6|0,0:0|0:0,0:0:0:0:
440,336,45997,5,0,0:0:0:0:
180,316,46187,1,0,0:0:0:0:
436,228,46377,1,0,0:0:0:0:
160,320,46567,5,0,0:0:0:0:
472,312,46757,1,0,0:0:0:0:
96,256,46947,1,0,0:0:0:0:
484,308,47137,5,0,0:0:0:0:
192,156,47327,1,0,0:0:0:0:
284,248,47516,6,0,B|272:287|252:307|252:307|247:369,2,125.999996154785
200,240,48086,1,0,0:0:0:0:
200,32,48276,2,0,L|215:157,1,125.999996154785
352,208,48656,6,0,P|308:160|291:93,1,125.999996154785,0|0,3:0|3:0,3:0:0:0:
288,16,49035,5,0,0:0:0:0:
404,128,49225,1,0,0:0:0:0:
124,72,49415,5,0,0:0:0:0:
408,36,49605,1,0,0:0:0:0:
216,228,49795,1,0,0:0:0:0:
416,28,49985,1,0,0:0:0:0:
112,71,50175,2,0,B|63:86|63:86|112:88|136:120,1,125.999996154785,0|0,3:0|3:0,3:0:0:0:
251,262,50554,5,0,0:0:0:0:
216,60,50744,1,0,0:0:0:0:
128,244,50934,1,0,0:0:0:0:
332,80,51124,5,0,0:0:0:0:
56,200,51314,1,0,0:0:0:0:
224,36,51504,1,0,0:0:0:0:
228,188,51694,6,0,L|232:348,1,125.999996154785
312,360,52073,1,8,3:0:0:0:
323,197,52263,1,8,3:0:0:0:
486,208,52453,1,8,3:0:0:0:
474,372,52643,1,8,3:0:0:0:
232,316,52833,6,0,P|168:308|108:324,1,125.999996154785
76,256,53213,2,0,P|134:229|178:185,1,125.999996154785,8|0,0:0|0:0,0:0:0:0:
224,117,53592,6,0,L|232:52,1,62.9999980773926
248,124,53782,5,8,0:3:0:0:
240,172,53877,1,8,0:3:0:0:
248,220,53972,1,8,0:3:0:0:
260,264,54067,1,8,0:3:0:0:
268,312,54162,1,8,0:3:0:0:
260,360,54257,1,8,0:3:0:0:
236,328,54352,6,0,P|224:288|224:248,1,62.9999980773926,2|0,0:0|0:0,0:0:0:0:
160,108,54542,2,0,P|146:147|123:180,1,62.9999980773926,0|8,0:0|0:0,0:0:0:0:
68,336,54732,6,0,L|56:248,1,62.9999980773926,2|0,0:0|0:0,0:0:0:0:
108,40,54921,2,0,L|67:118,1,62.9999980773926
260,170,55111,2,0,B|175:161|175:161|135:165,1,125.999996154785,6|0,0:0|0:0,0:0:0:0:
204,240,55491,5,0,0:0:0:0:
204,240,55681,2,0,L|336:256,1,125.999996154785
432,83,56061,1,0,0:0:0:0:
432,83,56251,2,0,B|436:168|436:168|416:204,1,125.999996154785
220,120,56630,2,0,P|288:124|336:160,2,125.999996154785
80,108,57200,2,0,P|142:80|175:30,2,125.999996154785
160,176,57770,5,0,0:0:0:0:
140,308,57959,1,0,0:0:0:0:
208,192,58149,2,0,L|192:332,2,125.999996154785
280,132,58719,2,0,L|247:-5,2,125.999996154785
368,268,59289,6,0,L|372:176,1,62.9999980773926
288,256,59478,2,0,B|288:316|288:316|324:396,1,125.999996154785
248,304,59858,2,0,P|192:280|128:288,1,125.999996154785
92,208,60238,5,0,0:0:0:0:
252,220,60428,1,0,0:0:0:0:
80,208,60618,1,0,0:0:0:0:
325,190,60808,1,0,0:0:0:0:
68,208,60997,5,0,0:0:0:0:
376,128,61187,2,0,P|404:180|384:248,1,125.999996154785
256,308,61567,2,0,L|340:280,1,62.9999980773926
240,236,61757,2,0,B|180:252|180:252|116:252,1,125.999996154785
16,232,62137,1,0,0:0:0:0:
100,180,62327,2,0,L|184:180,1,62.9999980773926
354,161,62516,5,0,0:0:0:0:
116,252,62706,1,0,0:0:0:0:
254,38,62896,1,0,0:0:0:0:
268,293,63086,1,0,0:0:0:0:
107,95,63276,5,0,0:0:0:0:
376,156,63466,1,0,0:0:0:0:
176,348,63656,1,0,0:0:0:0:
176,36,63846,5,0,0:0:0:0:
376,228,64036,1,0,0:0:0:0:
107,289,64225,2,0,L|104:360,1,62.9999980773926
176,292,64415,5,0,0:0:0:0:
184,288,64605,2,0,B|204:260|204:260|208:168,1,125.999996154785
305,153,64985,6,0,B|284:136|284:136|288:168|284:196|284:196|312:232,1,125.999996154785
207,168,65364,2,0,P|143:176|95:214,1,125.999996154785
22,94,65744,2,0,L|45:152,1,62.9999980773926
112,112,65934,2,0,B|88:36|88:36|48:8,1,125.999996154785
208,76,66314,5,0,0:0:0:0:
216,56,66504,2,0,P|204:128|236:176,1,125.999996154785
392,124,66883,1,0,0:0:0:0:
400,120,67073,2,0,B|344:108|344:108|264:108,1,125.999996154785
84,172,67453,1,0,0:0:0:0:
232,308,67643,1,0,0:0:0:0:
275,108,67833,1,0,0:0:0:0:
24,120,68023,6,0,P|8:184|40:240,1,125.999996154785
140,296,68402,2,0,B|136:236|136:236|116:172,1,125.999996154785
316,176,68782,6,0,P|256:192|192:168,1,125.999996154785
204,56,69162,2,0,P|264:40|328:64,1,125.999996154785
416,128,69542,5,0,0:0:0:0:
368,332,69732,1,0,0:0:0:0:
260,116,69921,1,0,0:0:0:0:
368,348,70111,5,0,0:0:0:0:
400,128,70301,2,0,P|400:64|428:8,1,125.999996154785
448,236,70681,1,0,0:0:0:0:
287,173,70871,6,0,P|339:136|401:127,1,125.999996154785
220,272,71251,1,0,0:0:0:0:
308,364,71440,1,0,0:0:0:0:
220,44,71630,1,0,0:0:0:0:
168,176,71820,6,0,P|104:152|40:160,1,125.999996154785
228,276,72200,5,0,0:0:0:0:
200,44,72390,1,0,0:0:0:0:
230,294,72580,1,0,0:0:0:0:
197,25,72770,1,0,0:0:0:0:
144,222,72959,5,0,0:3:0:0:
283,97,73149,1,0,0:3:0:0:
120,228,73339,6,0,B|108:188|108:188|112:56,1,157.500006008148,4|0,0:1|0:0,0:0:0:0:
208,128,74211,2,0,P|260:140|312:120,1,105
340,96,75084,6,0,B|324:176|364:176|340:256,1,157.5
276,308,76829,6,0,P|152:276|255:216,1,315
219,272,78575,6,0,B|107:227|107:227|151:213,1,157.5
212,172,80320,6,0,P|216:144|216:108,2,62.9999980773926,0|0|0,0:0|0:1|0:1,0:0:0:0:
296,216,82884,6,0,B|296:156|296:156|288:112,2,105
224,296,85502,6,0,P|216:248|208:176,2,105
184,72,86811,6,8,P|132:80|72:64,1,78.7500030040742,2|0,0:0|0:0,0:0:0:0:
208,63,87248,6,2,B|291:69|291:69|322:90|322:90|410:95,1,210,4|2,0:0|0:0,0:0:0:0:
288,176,90302,2,2,L|280:248,1,52.5
208,168,90738,2,0,L|208:60,2,105,4|0|0,0:0|0:0|0:0,0:0:0:0:
236,255,94174,2,2,B|285:211|251:192|326:138|326:138|303:205,1,210
244,328,97664,6,2,B|255:261|307:227|364:233|415:272|472:152|423:74|351:68|306:81|282:129|282:129|279:75|232:46|156:25|100:86|99:210|159:192|220:212|200:288,1,812,2|4,2:2|2:3,0:0:0:0:
161,362,106264,5,0,0:0:0:0:
210,145,106406,1,0,0:0:0:0:
158,371,106549,1,0,0:0:0:0:
212,135,106692,1,0,0:0:0:0:
137,297,107121,5,0,0:0:0:0:
233,210,107263,1,0,0:0:0:0:
133,301,107406,1,0,0:0:0:0:
238,205,107549,1,0,0:0:0:0:
74,267,107978,5,2,1:3:0:0:
296,240,108120,1,2,1:2:0:0:
64,268,108263,1,2,1:3:0:0:
306,238,108406,1,2,1:2:0:0:
52,270,108549,5,2,1:3:0:0:
318,237,108691,1,2,1:2:0:0:
40,271,108835,1,2,1:3:0:0:
331,235,108977,1,2,1:2:0:0:
26,273,109121,1,2,1:3:0:0:
345,233,109264,1,2,1:2:0:0:
417,149,109692,5,10,1:3:0:0:
229,249,109834,1,10,1:2:0:0:
427,144,109978,1,10,1:3:0:0:
219,254,110121,1,10,1:2:0:0:
461,241,110549,5,10,1:3:0:0:
185,156,110691,1,10,1:2:0:0:
474,245,110835,1,10,1:3:0:0:
172,152,110978,1,10,1:2:0:0:
404,216,111406,5,8,0:0:0:0:
159,146,111549,1,8,0:0:0:0:
316,347,111692,1,8,0:0:0:0:
307,92,111835,1,8,0:0:0:0:
165,304,111978,1,8,0:0:0:0:
430,168,112121,5,0,0:0:0:0:
125,163,112264,1,4,0:0:0:0:
369,348,112407,1,0,0:0:0:0:
279,55,112549,1,8,0:0:0:0:
181,345,112693,1,4,0:0:0:0:
430,213,113121,5,0,0:0:0:0:
136,130,113264,1,4,0:0:0:0:
324,371,113407,1,0,0:0:0:0:
120,120,113549,1,0,0:0:0:0:
81,213,113978,5,0,0:0:0:0:
375,130,114121,1,4,0:0:0:0:
187,371,114264,1,0,0:0:0:0:
392,120,114406,1,0,0:0:0:0:
88,108,114835,5,0,0:0:0:0:
356,128,114978,1,0,0:0:0:0:
244,328,115121,1,0,0:0:0:0:
336,84,115264,5,0,0:0:0:0:
68,104,115407,1,0,0:0:0:0:
200,364,115550,1,0,0:0:0:0:
151,44,115692,5,0,0:0:0:0:
135,308,115835,1,0,0:0:0:0:
68,104,115978,1,0,0:0:0:0:
213,257,116121,1,4,0:0:0:0:
96,252,116549,5,8,0:0:0:0:
68,96,116692,1,8,0:0:0:0:
223,69,116835,1,8,0:0:0:0:
251,224,116978,1,8,0:0:0:0:
68,80,117406,5,0,0:0:0:0:
248,236,117549,1,0,0:0:0:0:
152,0,117692,1,0,0:0:0:0:
174,323,117835,1,0,0:0:0:0:
240,56,118264,5,0,0:0:0:0:
448,196,118406,1,0,0:0:0:0:
168,332,118549,1,0,0:0:0:0:
388,56,118692,5,0,0:0:0:0:
180,196,118834,1,0,0:0:0:0:
460,332,118977,1,0,0:0:0:0:
264,28,119121,5,0,0:0:0:0:
360,344,119264,1,0,0:0:0:0:
168,188,119406,1,0,0:0:0:0:
496,260,119549,1,0,0:0:0:0:
220,132,119978,5,0,0:0:0:0:
8,328,120121,1,0,0:0:0:0:
132,116,120264,5,0,0:0:0:0:
136,376,120406,1,0,0:0:0:0:
147,38,120835,5,0,0:0:0:0:
136,360,120978,1,0,0:0:0:0:
64,144,121121,1,0,0:0:0:0:
256,328,121264,1,0,0:0:0:0:
252,356,121692,1,8,0:1:0:0:
204,100,121835,1,0,0:1:0:0:
460,308,121978,1,0,0:0:0:0:
72,200,122121,1,0,0:0:0:0:
456,96,122263,1,2,0:1:0:0:
52,308,122406,5,0,0:0:0:0:
440,200,122549,1,0,0:0:0:0:
56,96,122692,1,0,0:0:0:0:
512,248,122835,1,8,0:1:0:0:
0,248,122978,1,0,0:0:0:0:
351,22,123406,5,0,0:0:0:0:
302,239,123548,1,0,0:0:0:0:
354,13,123691,1,0,0:0:0:0:
300,249,123834,1,0,0:0:0:0:
375,87,124263,5,0,0:0:0:0:
279,174,124405,1,0,0:0:0:0:
379,83,124548,1,0,0:0:0:0:
274,179,124691,1,0,0:0:0:0:
438,117,125120,5,2,1:3:0:0:
216,144,125262,1,2,1:2:0:0:
448,116,125405,1,2,1:3:0:0:
206,146,125548,1,2,1:2:0:0:
460,114,125691,5,2,1:3:0:0:
194,147,125833,1,2,1:2:0:0:
472,113,125977,1,2,1:3:0:0:
181,149,126119,1,2,1:2:0:0:
486,111,126263,1,2,1:3:0:0:
167,151,126406,1,6,1:2:0:0:
12,248,126835,2,0,B|120:164|124:276|247:201|247:201|228:252|244:304|272:320|308:324,1,393.75
284,280,128549,6,0,L|280:76,1,183.75
316,200,129406,6,0,L|300:388,1,183.75
264,328,130264,6,0,B|196:316|196:316|156:328|156:328|84:316,1,183.75
160,280,131121,6,0,P|148:240|188:288,1,183.75
184,240,131978,6,0,P|272:88|304:200,1,393.75
280,180,133692,6,0,B|332:196|340:156|400:188|448:136|440:240|384:168,1,183.75
395,180,134549,6,0,B|392:56|392:56|416:128,1,183.75
410,112,135406,6,0,L|208:116,1,183.75
148,116,136264,6,0,L|342:172,1,183.75
244,168,137121,6,0,P|216:232|260:176,1,183.75
192,192,137978,6,0,L|4:200,1,183.75
28,212,138835,6,0,B|188:204|188:204|320:216,1,288.75
396,176,140121,6,0,P|400:224|380:292,1,118.125004506111
324,128,140549,6,0,B|320:92|320:92|328:28,1,78.75
216,136,141406,6,0,P|140:156|56:92,1,183.75
48,208,142264,6,0,P|64:240|72:304,1,91.875
224,280,143549,6,0,L|212:192,1,78.75
304,228,143978,6,0,B|312:256|312:256|312:340,2,105
256,180,145692,6,0,B|260:52|260:52|284:116,1,183.75
356,120,146549,5,2,0:0:0:0:
372,120,146656,1,2,0:0:0:0:
388,116,146764,1,2,0:0:0:0:
400,108,146871,1,2,0:0:0:0:
412,96,146978,6,0,P|392:140|396:176,1,78.75
468,248,147406,6,0,P|415:247|368:268,1,105,4|0,0:0|0:0,0:0:0:0:
204,308,148264,2,8,P|246:278|274:233,1,105,0|0,0:0|0:0,0:0:0:0:
372,72,149121,2,0,P|353:120|357:172,2,105,0|0|2,0:0|0:0|0:0,0:0:0:0:
212,92,150835,6,0,B|176:108|144:96|144:96|80:64|48:120|48:120|80:172|144:136|144:136|180:132|280:156|276:200|272:256|224:296|152:304|96:228|120:156|176:120|279:153|279:153|332:168|364:136,1,840
456,248,155121,6,0,B|364:232|364:232|252:240,1,183.75
196,248,155978,6,0,B|312:236|312:236|236:184,1,183.75
73,216,156835,2,0,L|265:197,1,183.75
320,160,157692,6,0,L|128:200,1,183.75
172,116,158549,6,0,B|176:28|176:28|264:76,1,183.75
340,112,159406,6,0,L|172:24,1,183.75
224,136,160264,6,0,L|256:212,1,78.75
208,316,160692,2,0,L|216:232,1,78.75
180,64,161121,6,0,L|184:256,1,183.75
184,168,161978,6,0,B|260:144|260:144|312:152|312:152|348:136|388:128,2,210
184,320,164549,2,0,L|196:100,1,210
80,148,166264,6,0,L|92:248,1,78.75
152,340,166692,2,0,L|161:261,1,78.75
224,144,167121,2,0,P|260:152|312:148,1,78.75
257,233,167549,6,0,P|197:237|157:265,1,105,0|4,0:0|0:0,0:0:0:0:
96,144,178978,5,0,0:0:0:0:
120,152,179061,1,0,0:0:0:0:
144,152,179144,1,0,0:0:0:0:
168,144,179228,1,0,0:0:0:0:
188,128,179311,6,0,P|192:180|208:204,1,78.75
277,201,179644,5,0,0:0:0:0:
253,193,179727,1,0,0:0:0:0:
229,193,179810,1,0,0:0:0:0:
205,201,179894,1,0,0:0:0:0:
185,217,179977,6,0,P|181:165|165:141,1,78.75
88,96,180311,5,0,0:0:0:0:
108,76,180394,1,0,0:0:0:0:
116,48,180478,1,0,0:0:0:0:
112,20,180561,1,0,0:0:0:0:
140,28,180644,6,0,P|180:36|220:28,1,78.75
308,52,180978,5,0,0:0:0:0:
280,56,181061,1,0,0:0:0:0:
257,75,181145,1,0,0:0:0:0:
244,100,181228,1,0,0:0:0:0:
226,77,181311,6,0,P|197:47|160:31,1,78.75
80,112,181644,5,0,3:0:0:0:
105,124,181727,1,0,3:0:0:0:
134,122,181811,1,0,3:0:0:0:
159,109,181894,1,0,3:0:0:0:
161,138,181977,6,0,P|167:178|188:213,1,78.75,0|0,3:0|3:0,3:0:0:0:
300,256,182311,5,0,0:0:0:0:
280,280,182394,1,0,0:0:0:0:
272,312,182478,1,0,0:0:0:0:
240,308,182561,1,0,0:0:0:0:
208,312,182644,2,0,B|176:312|176:312|152:308|152:308|116:312,1,78.75
56,236,182978,5,0,0:0:0:0:
88,228,183061,1,0,0:0:0:0:
112,204,183144,1,0,0:0:0:0:
124,172,183228,1,0,0:0:0:0:
120,140,183311,6,0,P|156:152|204:152,1,78.75
304,204,183644,1,0,0:0:0:0:
336,188,183728,1,0,0:0:0:0:
372,184,183811,1,0,0:0:0:0:
408,192,183894,1,0,0:0:0:0:
440,212,183978,6,0,L|424:304,1,78.75
300,332,184311,5,0,0:0:0:0:
264,316,184394,1,0,0:0:0:0:
224,312,184478,1,0,0:0:0:0:
188,296,184561,1,0,0:0:0:0:
96,204,184644,6,0,B|121:188|116:172|127:154|127:154|136:180|152:160|183:175|183:175|180:144|204:104|204:104,1,183.75
260,52,185311,6,0,B|280:68|316:68|316:68|332:76|356:80|356:80|336:96|332:112|332:112|280:96,1,183.75
180,288,185978,6,0,B|180:264|188:248|188:248|184:232|172:224|172:224|180:216|192:192|192:192|184:160|196:148|196:148|196:118,1,183.75
88,92,186644,5,0,0:0:0:0:
208,120,186811,1,0,0:0:0:0:
82,90,186978,5,0,0:0:0:0:
214,121,187145,1,0,0:0:0:0:
76,88,187311,2,0,B|84:132|64:156|64:156|68:184|68:184|100:184|100:140,1,157.5
140,228,187978,2,0,P|72:256|0:220,1,157.5
200,276,188644,2,0,B|224:280|244:268|244:268|272:272|272:272|288:244|320:249|320:249|284:268,1,157.5
297,261,189311,2,0,B|284:228|296:200|296:200|284:160,1,105
212,128,189811,2,0,P|208:176|204:200,1,52.5,0|4,0:0|0:0,0:0:0:0:
132,360,190311,5,0,0:0:0:0:
120,336,190422,1,0,0:0:0:0:
116,308,190533,1,0,0:0:0:0:
124,280,190644,2,0,P|136:248|136:208,1,70
88,152,190978,5,0,0:0:0:0:
112,140,191089,1,0,0:0:0:0:
140,136,191200,1,0,0:0:0:0:
168,144,191311,2,0,P|200:156|240:156,1,70
300,112,191644,5,0,0:0:0:0:
312,136,191755,1,0,0:0:0:0:
316,164,191866,1,0,0:0:0:0:
308,192,191977,2,0,P|296:224|296:264,1,70
236,336,192311,2,0,P|227:302|204:270,1,70
140,240,192644,6,0,P|132:196|140:160,1,70
200,63,192978,5,0,0:0:0:0:
200,63,193061,1,0,0:0:0:0:
200,63,193144,1,0,0:0:0:0:
200,63,193228,1,0,0:0:0:0:
280,95,193311,6,0,L|188:95,1,78.75
348,143,193644,5,0,0:0:0:0:
348,143,193727,1,0,0:0:0:0:
348,143,193810,1,0,0:0:0:0:
348,143,193894,1,0,0:0:0:0:
388,271,193978,6,0,L|312:218,1,78.75
172,259,194311,6,0,P|200:263|260:247,1,78.75
136,171,194644,6,0,P|148:211|92:343,1,183.75
216,167,195311,6,0,B|220:143|212:123|212:123|228:107|228:107|236:79|228:15|228:15|240:31|260:35|260:35|244:63,1,210
176,252,196644,6,0,B|216:236|292:248|292:248|256:228|240:148,1,210
392,240,197978,2,2,B|352:256|276:244|276:244|312:264|328:344,1,210
168,176,199311,6,0,P|224:96|320:144,2,210
132,308,201311,5,0,0:0:0:0:
244,168,201644,1,0,0:0:0:0:
112,316,201978,6,0,B|224:336|208:288|340:320,1,210
416,352,202978,5,0,0:0:0:0:
400,256,203311,6,0,L|416:112,1,105
352,200,203811,6,0,P|320:208|280:200,1,52.5
200,168,204644,6,0,B|40:160|40:160|88:192,1,210
304,304,205978,2,0,P|360:264|384:200,1,137.812501314282
384,176,206311,5,0,0:0:0:0:
376,152,206394,1,0,0:0:0:0:
360,136,206478,1,0,0:0:0:0:
336,128,206561,1,0,0:0:0:0:
316,148,206644,6,0,B|292:168|272:172|272:172|240:160|188:156|188:156|208:132|204:104,1,183.750001752377
136,108,207061,5,0,0:0:0:0:
132,100,207144,1,0,0:0:0:0:
130,90,207228,1,0,0:0:0:0:
130,80,207311,6,0,P|140:157|106:209,1,137.812501314282
102,211,207644,5,0,0:0:0:0:
94,216,207728,1,0,0:0:0:0:
85,218,207811,1,0,0:0:0:0:
71,220,207894,1,0,0:0:0:0:
56,219,207978,6,0,B|44:282|78:284|56:357,1,137.812501314282
96,304,208311,5,0,0:0:0:0:
112,296,208394,1,0,0:0:0:0:
130,292,208478,1,0,0:0:0:0:
148,291,208561,1,0,0:0:0:0:
165,294,208644,2,0,P|235:308|308:263,1,137.812501314282
325,197,208978,5,0,0:0:0:0:
319,179,209061,1,0,0:0:0:0:
318,160,209144,1,0,0:0:0:0:
322,142,209228,1,0,0:0:0:0:
332,127,209311,2,0,B|346:99|371:79|371:79|332:75|296:53,1,137.812501314282
213,38,209644,5,0,0:0:0:0:
206,55,209728,1,0,0:0:0:0:
204,77,209811,1,0,0:0:0:0:
206,99,209894,1,0,0:0:0:0:
212,121,209978,2,0,B|218:176|218:176|197:212|197:212|203:265,1,137.812501314282
162,207,210311,5,0,0:0:0:0:
140,199,210394,1,0,0:0:0:0:
116,198,210478,1,0,0:0:0:0:
91,209,210561,1,0,0:0:0:0:
70,226,210644,6,0,P|121:181|131:112,1,137.812501314282
100,26,210978,5,0,0:0:0:0:
131,19,211061,1,0,0:0:0:0:
162,23,211144,1,0,0:0:0:0:
188,41,211228,1,0,0:0:0:0:
212,62,211311,2,0,B|264:86|310:66|310:66|286:104,1,137.812501314282
238,153,211644,1,0,0:0:0:0:
240,189,211728,1,0,0:0:0:0:
229,224,211811,1,0,0:0:0:0:
222,260,211894,1,0,0:0:0:0:
229,295,211978,2,0,P|234:346|235:294,1,137.812501314282
176,309,212311,5,0,0:0:0:0:
135,300,212394,1,0,0:0:0:0:
95,311,212478,1,0,0:0:0:0:
58,329,212561,1,0,0:0:0:0:
17,337,212644,2,0,P|39:265|19:208,1,137.812501314282
57,226,212978,5,0,0:0:0:0:
102,224,213061,1,0,0:0:0:0:
143,205,213144,1,0,0:0:0:0:
166,165,213228,1,0,0:0:0:0:
162,119,213311,2,0,P|168:168|238:228,1,137.812501314282
317,215,213644,5,0,0:0:0:0:
311,251,213728,1,0,0:0:0:0:
303,286,213811,1,0,0:0:0:0:
306,322,213894,1,0,0:0:0:0:
342,314,213978,2,0,P|367:257|345:185,1,137.812501314282
274,146,214311,5,0,0:0:0:0:
238,138,214394,1,0,0:0:0:0:
201,145,214478,1,0,0:0:0:0:
172,168,214561,1,0,0:0:0:0:
172,149,214644,2,0,B|166:41|166:41|202:89,1,137.812501314282
283,100,214978,5,0,0:0:0:0:
305,104,215061,1,0,0:0:0:0:
327,102,215144,1,0,0:0:0:0:
348,94,215228,1,0,0:0:0:0:
365,79,215311,6,0,B|345:151|345:151|345:242,1,137.812501314282
327,327,215644,5,0,0:0:0:0:
305,323,215727,1,0,0:0:0:0:
283,325,215810,1,0,0:0:0:0:
262,333,215894,1,0,0:0:0:0:
245,348,215977,6,0,B|265:276|265:276|265:185,1,137.812501314282
225,149,216311,5,0,0:0:0:0:
173,129,216394,1,0,0:0:0:0:
119,144,216478,1,0,0:0:0:0:
91,191,216561,1,0,0:0:0:0:
96,176,216644,6,0,P|112:112|72:48,1,137.812501314282
208,64,216978,2,0,L|408:96,1,157.5
512,144,217311,2,0,L|312:176,1,157.5
264,328,217644,2,0,L|280:152,1,157.5
78,52,217978,2,0,L|94:228,1,157.5
440,72,218311,6,0,L|248:88,1,157.5
92,208,218644,2,0,L|284:224,1,157.5
56,136,218978,6,0,P|16:192|48:272,1,157.5
280,288,219311,2,0,P|320:232|288:152,1,157.5
336,224,219644,6,0,B|415:202|415:238|496:208,1,157.5
290,155,219978,6,0,P|217:137|146:175,1,157.5
80,240,220311,6,0,B|64:208|64:208|80:128|80:128|64:80,1,157.5
336,224,220644,2,0,B|323:262|323:262|339:342|339:342|323:374,1,157.5
334,156,220978,6,0,B|326:124|338:92|338:92|362:95|386:92|386:92|394:120|366:148,1,157.5
282,228,221311,2,0,P|214:228|146:172,1,157.5
216,8,221644,2,0,P|284:8|352:64,1,157.5
384,144,221978,6,0,L|404:308,1,157.5
240,252,222311,2,0,L|260:88,1,157.5
64,320,222644,2,0,L|228:336,1,157.5
160,152,222978,2,0,L|-4:168,1,157.5
256,184,223311,6,0,P|252:96|288:40,1,157.5
256,184,223644,2,0,P|260:272|224:328,1,157.5
223,328,223978,2,0,B|156:304|156:304|56:312,1,157.5
63,153,224311,6,0,L|71:321,1,157.5
80,96,224644,2,0,L|72:264,1,157.5
108,40,224978,2,0,L|72:204,1,157.5,8|0,0:0|0:0,0:0:0:0:
232,52,225311,6,0,L|83:130,1,157.5
290,43,225644,2,0,L|134:106,1,157.5
353,45,225978,2,0,L|188:82,1,157.5,8|0,0:0|0:0,0:0:0:0:
396,160,226311,6,8,L|262:58,1,157.5
428,208,226644,2,8,L|304:93,1,157.5
464,253,226978,2,8,B|472:264|472:264|448:240|448:240|408:252|408:252|424:240|392:208|392:208|388:192|416:208|400:188|360:164,1,210,8|0,0:0|0:0,0:0:0:0:
