osu file format v14

[General]
AudioFilename: audio.mp3
AudioLeadIn: 0
PreviewTime: 5361
Countdown: 0
SampleSet: Normal
StackLeniency: 0.7
Mode: 3
LetterboxInBreaks: 0
SpecialStyle: 0
WidescreenStoryboard: 0

[Editor]
DistanceSpacing: 1.5
BeatDivisor: 4
GridSize: 4
TimelineZoom: 3.299999

[Metadata]
Title:A.N.I.C
TitleUnicode:A.N.I.C
Artist:Sum 41
ArtistUnicode:Sum 41
Creator:puxtu
Version:Rage
Source:
Tags:Anna Nicole Smith is a C*nt ANIC Does this look infected Sum41 punk rock asshole
BeatmapID:1435277
BeatmapSetID:678786

[Difficulty]
HPDrainRate:8
CircleSize:4
OverallDifficulty:9
ApproachRate:5
SliderMultiplier:1.4
SliderTickRate:1

[Events]
//Background and Video events
0,0,"Nanomortis.full.1619382.jpg",0,0
//Break Periods
//Storyboard Layer 0 (Background)
//Storyboard Layer 1 (Fail)
//Storyboard Layer 2 (Pass)
//Storyboard Layer 3 (Foreground)
//Storyboard Sound Samples

[TimingPoints]
186,285.714285714286,4,1,1,50,1,0
4311,300,4,1,1,50,1,0
24711,-100,4,1,1,50,0,1
33711,-100,4,1,1,50,0,0

[HitObjects]
192,192,186,5,0,0:0:0:0:
192,192,471,1,0,0:0:0:0:
320,192,757,1,0,0:0:0:0:
320,192,900,1,0,0:0:0:0:
192,192,1043,1,0,0:0:0:0:
192,192,1186,1,0,0:0:0:0:
320,192,1328,1,2,0:0:0:0:
64,192,1328,1,0,0:0:0:0:
448,192,1328,1,4,0:0:0:0:
192,192,1471,1,2,0:0:0:0:
64,192,1471,1,8,0:0:0:0:
320,192,1614,1,2,0:0:0:0:
192,192,1709,1,2,0:0:0:0:
320,192,1805,1,2,0:0:0:0:
448,192,1805,128,8,2090:0:0:0:0:
192,192,2090,1,0,0:0:0:0:
320,192,2233,1,0,0:0:0:0:
64,192,2328,128,0,2519:0:0:0:0:
448,192,2519,1,0,0:0:0:0:
320,192,4311,1,0,0:0:0:0:
64,192,4311,128,0,4611:0:0:0:0:
320,192,4611,1,0,0:0:0:0:
320,192,4911,1,0,0:0:0:0:
320,192,5211,1,0,0:0:0:0:
64,192,5511,5,2,0:0:0:0:
192,192,5511,1,4,0:0:0:0:
448,192,5511,1,0,0:0:0:0:
320,192,5661,1,2,0:0:0:0:
448,192,5661,1,8,0:0:0:0:
192,192,5811,1,2,0:0:0:0:
64,192,5811,1,0,0:0:0:0:
320,192,5886,1,2,0:0:0:0:
448,192,5961,1,2,0:0:0:0:
64,192,5961,1,8,0:0:0:0:
192,192,6111,1,2,0:0:0:0:
320,192,6111,1,0,0:0:0:0:
448,192,6261,1,8,0:0:0:0:
64,192,6261,1,2,0:0:0:0:
192,192,6411,1,2,0:0:0:0:
320,192,6411,1,0,0:0:0:0:
64,192,6486,1,2,0:0:0:0:
192,192,6561,1,8,0:0:0:0:
448,192,6561,1,2,0:0:0:0:
64,192,6711,1,2,0:0:0:0:
320,192,6711,1,0,0:0:0:0:
192,192,6861,1,2,0:0:0:0:
448,192,6861,1,8,0:0:0:0:
64,192,7011,1,0,0:0:0:0:
320,192,7011,1,2,0:0:0:0:
192,192,7086,1,2,0:0:0:0:
448,192,7161,1,2,0:0:0:0:
64,192,7161,1,8,0:0:0:0:
320,192,7311,1,0,0:0:0:0:
192,192,7311,1,2,0:0:0:0:
448,192,7461,1,8,0:0:0:0:
64,192,7461,1,2,0:0:0:0:
192,192,7611,1,2,0:0:0:0:
320,192,7611,1,0,0:0:0:0:
64,192,7686,1,2,0:0:0:0:
320,192,7761,1,8,0:0:0:0:
448,192,7761,1,2,0:0:0:0:
192,192,7911,1,2,0:0:0:0:
64,192,7911,1,0,0:0:0:0:
320,192,8061,1,2,0:0:0:0:
448,192,8061,1,8,0:0:0:0:
64,192,8211,1,0,0:0:0:0:
192,192,8211,1,2,0:0:0:0:
320,192,8286,1,2,0:0:0:0:
448,192,8361,1,2,0:0:0:0:
192,192,8361,1,8,0:0:0:0:
320,192,8511,1,0,0:0:0:0:
64,192,8511,1,2,0:0:0:0:
448,192,8661,1,8,0:0:0:0:
192,192,8661,1,2,0:0:0:0:
320,192,8811,1,2,0:0:0:0:
64,192,8811,1,0,0:0:0:0:
192,192,8886,1,2,0:0:0:0:
64,192,8961,1,8,0:0:0:0:
448,192,8961,1,2,0:0:0:0:
192,192,9111,1,2,0:0:0:0:
320,192,9111,1,0,0:0:0:0:
64,192,9261,1,2,0:0:0:0:
448,192,9261,1,8,0:0:0:0:
320,192,9411,1,0,0:0:0:0:
192,192,9411,1,2,0:0:0:0:
448,192,9486,1,2,0:0:0:0:
64,192,9561,1,8,0:0:0:0:
192,192,9561,1,2,0:0:0:0:
320,192,9711,1,0,0:0:0:0:
448,192,9711,1,2,0:0:0:0:
192,192,9861,1,2,0:0:0:0:
64,192,9861,1,8,0:0:0:0:
448,192,9936,1,2,0:0:0:0:
320,192,9936,1,8,0:0:0:0:
64,192,10011,1,8,0:0:0:0:
192,192,10011,1,2,0:0:0:0:
320,192,10086,1,8,0:0:0:0:
448,192,10086,1,2,0:0:0:0:
192,192,10161,1,2,0:0:0:0:
64,192,10161,1,8,0:0:0:0:
448,192,10236,1,2,0:0:0:0:
320,192,10236,1,8,0:0:0:0:
192,192,10311,1,2,0:0:0:0:
64,192,10311,1,4,0:0:0:0:
448,192,10311,1,0,0:0:0:0:
320,192,10461,1,2,0:0:0:0:
192,192,10536,1,2,0:0:0:0:
64,192,10611,1,0,0:0:0:0:
448,192,10611,1,2,0:0:0:0:
320,192,10686,1,2,0:0:0:0:
192,192,10761,1,2,0:0:0:0:
448,192,10836,1,2,0:0:0:0:
64,192,10911,1,0,0:0:0:0:
320,192,10911,1,2,0:0:0:0:
192,192,11061,1,2,0:0:0:0:
320,192,11136,1,2,0:0:0:0:
448,192,11211,1,0,0:0:0:0:
64,192,11211,1,2,0:0:0:0:
192,192,11286,1,2,0:0:0:0:
320,192,11361,1,2,0:0:0:0:
64,192,11436,1,2,0:0:0:0:
448,192,11511,1,0,0:0:0:0:
192,192,11511,1,2,0:0:0:0:
320,192,11661,1,2,0:0:0:0:
192,192,11736,1,2,0:0:0:0:
448,192,11811,1,2,0:0:0:0:
64,192,11811,1,0,0:0:0:0:
320,192,11886,1,2,0:0:0:0:
192,192,11961,1,2,0:0:0:0:
448,192,12036,1,2,0:0:0:0:
320,192,12111,1,2,0:0:0:0:
192,192,12111,1,0,0:0:0:0:
64,192,12111,128,4,12411:0:0:0:0:
192,192,12411,1,0,0:0:0:0:
320,192,12411,1,2,0:0:0:0:
448,192,12411,128,4,12711:0:0:0:0:
320,192,12711,1,2,0:0:0:0:
64,192,12711,1,4,0:0:0:0:
192,192,12711,1,0,0:0:0:0:
448,192,12861,1,2,0:0:0:0:
320,192,12936,1,2,0:0:0:0:
64,192,13011,1,0,0:0:0:0:
192,192,13011,1,2,0:0:0:0:
448,192,13086,1,2,0:0:0:0:
320,192,13161,1,2,0:0:0:0:
64,192,13236,1,2,0:0:0:0:
448,192,13311,1,0,0:0:0:0:
192,192,13311,1,2,0:0:0:0:
64,192,13461,1,2,0:0:0:0:
192,192,13536,1,2,0:0:0:0:
320,192,13611,1,0,0:0:0:0:
448,192,13611,1,2,0:0:0:0:
64,192,13686,1,2,0:0:0:0:
192,192,13761,1,2,0:0:0:0:
448,192,13836,1,2,0:0:0:0:
64,192,13911,1,0,0:0:0:0:
320,192,13911,1,2,0:0:0:0:
192,192,13911,1,4,0:0:0:0:
320,192,14061,1,8,0:0:0:0:
448,192,14061,1,2,0:0:0:0:
192,192,14136,1,8,0:0:0:0:
64,192,14136,1,2,0:0:0:0:
448,192,14211,1,2,0:0:0:0:
320,192,14211,1,8,0:0:0:0:
192,192,14286,1,8,0:0:0:0:
64,192,14286,1,2,0:0:0:0:
320,192,14361,1,8,0:0:0:0:
448,192,14361,1,2,0:0:0:0:
64,192,14436,1,2,0:0:0:0:
192,192,14436,1,8,0:0:0:0:
448,192,14511,1,2,0:0:0:0:
64,192,14586,1,2,0:0:0:0:
448,192,14661,1,2,0:0:0:0:
320,192,14661,1,8,0:0:0:0:
192,192,14736,1,8,0:0:0:0:
64,192,14736,1,2,0:0:0:0:
320,192,14811,1,2,0:0:0:0:
192,192,14886,1,2,0:0:0:0:
320,192,14961,1,8,0:0:0:0:
448,192,14961,1,2,0:0:0:0:
64,192,15036,1,2,0:0:0:0:
192,192,15036,1,8,0:0:0:0:
64,192,15111,1,0,0:0:0:0:
320,192,15111,1,4,0:0:0:0:
448,192,15111,1,2,0:0:0:0:
448,192,15261,1,8,0:0:0:0:
192,192,15261,1,2,0:0:0:0:
64,192,15411,1,0,0:0:0:0:
320,192,15411,1,2,0:0:0:0:
192,192,15486,1,2,0:0:0:0:
448,192,15561,1,8,0:0:0:0:
320,192,15561,1,2,0:0:0:0:
64,192,15711,1,0,0:0:0:0:
192,192,15711,1,2,0:0:0:0:
448,192,15861,1,2,0:0:0:0:
192,192,15861,1,8,0:0:0:0:
64,192,16011,1,0,0:0:0:0:
320,192,16011,1,2,0:0:0:0:
192,192,16086,1,2,0:0:0:0:
64,192,16161,1,2,0:0:0:0:
448,192,16161,1,8,0:0:0:0:
192,192,16311,1,0,0:0:0:0:
320,192,16311,1,2,0:0:0:0:
64,192,16461,1,8,0:0:0:0:
448,192,16461,1,2,0:0:0:0:
192,192,16611,1,2,0:0:0:0:
320,192,16611,1,0,0:0:0:0:
448,192,16686,1,2,0:0:0:0:
320,192,16761,1,8,0:0:0:0:
64,192,16761,1,2,0:0:0:0:
448,192,16911,1,2,0:0:0:0:
192,192,16911,1,0,0:0:0:0:
320,192,17061,1,2,0:0:0:0:
64,192,17061,1,8,0:0:0:0:
192,192,17211,1,0,0:0:0:0:
448,192,17211,1,2,0:0:0:0:
320,192,17286,1,2,0:0:0:0:
64,192,17361,1,2,0:0:0:0:
192,192,17361,1,8,0:0:0:0:
448,192,17511,1,0,0:0:0:0:
64,192,17511,1,2,0:0:0:0:
320,192,17661,1,8,0:0:0:0:
192,192,17661,1,2,0:0:0:0:
64,192,17811,1,2,0:0:0:0:
448,192,17811,1,0,0:0:0:0:
192,192,17886,1,2,0:0:0:0:
320,192,17961,1,8,0:0:0:0:
448,192,17961,1,2,0:0:0:0:
64,192,18111,1,2,0:0:0:0:
192,192,18111,1,0,0:0:0:0:
320,192,18261,1,2,0:0:0:0:
448,192,18261,1,8,0:0:0:0:
64,192,18411,1,0,0:0:0:0:
192,192,18411,1,2,0:0:0:0:
320,192,18486,1,2,0:0:0:0:
192,192,18561,1,2,0:0:0:0:
448,192,18561,1,8,0:0:0:0:
64,192,18711,1,0,0:0:0:0:
320,192,18711,1,2,0:0:0:0:
192,192,18861,1,8,0:0:0:0:
448,192,18861,1,2,0:0:0:0:
320,192,19011,1,2,0:0:0:0:
64,192,19011,1,0,0:0:0:0:
192,192,19086,1,2,0:0:0:0:
64,192,19161,1,2,0:0:0:0:
448,192,19161,1,8,0:0:0:0:
192,192,19311,1,2,0:0:0:0:
320,192,19311,1,0,0:0:0:0:
64,192,19461,1,8,0:0:0:0:
192,192,19461,1,2,0:0:0:0:
320,192,19536,1,8,0:0:0:0:
448,192,19536,1,2,0:0:0:0:
192,192,19611,1,2,0:0:0:0:
64,192,19611,1,8,0:0:0:0:
448,192,19761,1,8,0:0:0:0:
320,192,19761,1,2,0:0:0:0:
192,192,19836,1,8,0:0:0:0:
64,192,19836,1,2,0:0:0:0:
448,192,19911,1,4,0:0:0:0:
320,192,19911,1,2,0:0:0:0:
64,192,19911,1,0,0:0:0:0:
192,192,20061,1,2,0:0:0:0:
320,192,20136,1,2,0:0:0:0:
64,192,20211,1,2,0:0:0:0:
448,192,20211,1,0,0:0:0:0:
192,192,20286,1,2,0:0:0:0:
320,192,20361,1,2,0:0:0:0:
64,192,20436,1,2,0:0:0:0:
192,192,20511,1,2,0:0:0:0:
448,192,20511,1,0,0:0:0:0:
320,192,20661,1,2,0:0:0:0:
192,192,20736,1,2,0:0:0:0:
448,192,20811,1,2,0:0:0:0:
64,192,20811,1,0,0:0:0:0:
320,192,20886,1,2,0:0:0:0:
192,192,20961,1,2,0:0:0:0:
448,192,21036,1,2,0:0:0:0:
320,192,21111,1,2,0:0:0:0:
64,192,21111,1,0,0:0:0:0:
192,192,21261,1,2,0:0:0:0:
320,192,21336,1,2,0:0:0:0:
448,192,21411,1,0,0:0:0:0:
64,192,21411,1,2,0:0:0:0:
192,192,21486,1,2,0:0:0:0:
320,192,21561,1,2,0:0:0:0:
64,192,21636,1,2,0:0:0:0:
448,192,21711,128,4,22011:0:0:0:0:
320,192,21711,1,0,0:0:0:0:
192,192,21711,1,2,0:0:0:0:
64,192,22011,128,4,22311:0:0:0:0:
192,192,22011,1,2,0:0:0:0:
320,192,22011,1,0,0:0:0:0:
320,192,22311,1,0,0:0:0:0:
448,192,22311,1,4,0:0:0:0:
192,192,22311,1,2,0:0:0:0:
64,192,22461,1,2,0:0:0:0:
192,192,22536,1,2,0:0:0:0:
320,192,22611,1,2,0:0:0:0:
448,192,22611,1,0,0:0:0:0:
64,192,22686,1,2,0:0:0:0:
192,192,22761,1,2,0:0:0:0:
448,192,22836,1,2,0:0:0:0:
320,192,22911,1,2,0:0:0:0:
64,192,22911,1,0,0:0:0:0:
448,192,23061,1,2,0:0:0:0:
320,192,23136,1,2,0:0:0:0:
64,192,23211,1,2,0:0:0:0:
192,192,23211,1,0,0:0:0:0:
448,192,23286,1,2,0:0:0:0:
320,192,23361,1,2,0:0:0:0:
64,192,23436,1,2,0:0:0:0:
320,192,23511,1,4,0:0:0:0:
192,192,23511,1,2,0:0:0:0:
448,192,23511,1,0,0:0:0:0:
64,192,23661,1,2,0:0:0:0:
192,192,23661,1,8,0:0:0:0:
448,192,23736,1,2,0:0:0:0:
320,192,23736,1,8,0:0:0:0:
192,192,23811,1,8,0:0:0:0:
64,192,23811,1,2,0:0:0:0:
448,192,23886,1,2,0:0:0:0:
320,192,23886,1,8,0:0:0:0:
64,192,23961,1,2,0:0:0:0:
192,192,23961,1,8,0:0:0:0:
320,192,24036,1,8,0:0:0:0:
448,192,24036,1,2,0:0:0:0:
64,192,24111,1,8,3:0:0:0:
192,192,24111,1,2,0:0:0:0:
320,192,24186,1,2,0:0:0:0:
448,192,24261,1,2,0:0:0:0:
192,192,24336,1,2,0:0:0:0:
320,192,24411,1,8,3:0:0:0:
64,192,24411,1,2,0:0:0:0:
192,192,24561,1,8,0:0:0:0:
320,192,24561,1,2,0:0:0:0:
448,192,24561,1,0,0:0:0:0:
192,192,24711,1,2,0:0:0:0:
448,192,24711,1,0,0:0:0:0:
64,192,24711,1,4,0:0:0:0:
320,192,24861,1,2,0:0:0:0:
64,192,24861,1,8,0:0:0:0:
192,192,25011,1,2,0:0:0:0:
448,192,25011,1,0,0:0:0:0:
320,192,25086,1,2,0:0:0:0:
64,192,25161,1,2,0:0:0:0:
448,192,25161,1,8,0:0:0:0:
320,192,25311,1,2,0:0:0:0:
192,192,25311,1,0,0:0:0:0:
64,192,25461,1,8,0:0:0:0:
448,192,25461,1,2,0:0:0:0:
320,192,25611,1,2,0:0:0:0:
192,192,25611,1,0,0:0:0:0:
448,192,25686,1,2,0:0:0:0:
320,192,25761,1,8,0:0:0:0:
64,192,25761,1,2,0:0:0:0:
448,192,25911,1,2,0:0:0:0:
192,192,25911,1,0,0:0:0:0:
320,192,26061,1,2,0:0:0:0:
64,192,26061,1,8,0:0:0:0:
448,192,26211,1,0,0:0:0:0:
192,192,26211,1,2,0:0:0:0:
320,192,26286,1,2,0:0:0:0:
64,192,26361,1,2,0:0:0:0:
448,192,26361,1,8,0:0:0:0:
192,192,26511,1,0,0:0:0:0:
320,192,26511,1,2,0:0:0:0:
64,192,26661,1,8,0:0:0:0:
448,192,26661,1,2,0:0:0:0:
320,192,26811,1,2,0:0:0:0:
192,192,26811,1,0,0:0:0:0:
448,192,26886,1,2,0:0:0:0:
192,192,26961,1,8,0:0:0:0:
64,192,26961,1,2,0:0:0:0:
320,192,27111,1,2,0:0:0:0:
448,192,27111,1,0,0:0:0:0:
192,192,27261,1,2,0:0:0:0:
64,192,27261,1,8,0:0:0:0:
448,192,27411,1,0,0:0:0:0:
320,192,27411,1,2,0:0:0:0:
192,192,27486,1,2,0:0:0:0:
64,192,27561,1,2,0:0:0:0:
320,192,27561,1,8,0:0:0:0:
192,192,27711,1,0,0:0:0:0:
448,192,27711,1,2,0:0:0:0:
64,192,27861,1,8,0:0:0:0:
320,192,27861,1,2,0:0:0:0:
192,192,28011,1,2,0:0:0:0:
448,192,28011,1,0,0:0:0:0:
320,192,28086,1,2,0:0:0:0:
448,192,28161,1,8,0:0:0:0:
64,192,28161,1,2,0:0:0:0:
320,192,28311,1,2,0:0:0:0:
192,192,28311,1,0,0:0:0:0:
448,192,28461,1,2,0:0:0:0:
64,192,28461,1,8,0:0:0:0:
192,192,28611,1,0,0:0:0:0:
320,192,28611,1,2,0:0:0:0:
64,192,28686,1,2,0:0:0:0:
448,192,28761,1,8,0:0:0:0:
320,192,28761,1,2,0:0:0:0:
192,192,28911,1,0,0:0:0:0:
64,192,28911,1,2,0:0:0:0:
320,192,29061,1,2,0:0:0:0:
448,192,29061,1,8,0:0:0:0:
64,192,29136,1,2,0:0:0:0:
192,192,29136,1,8,0:0:0:0:
448,192,29211,1,8,0:0:0:0:
320,192,29211,1,2,0:0:0:0:
192,192,29286,1,8,0:0:0:0:
64,192,29286,1,2,0:0:0:0:
320,192,29361,1,2,0:0:0:0:
448,192,29361,1,8,0:0:0:0:
64,192,29436,1,2,0:0:0:0:
192,192,29436,1,8,0:0:0:0:
320,192,29511,1,2,0:0:0:0:
448,192,29511,1,4,0:0:0:0:
64,192,29511,1,0,0:0:0:0:
64,192,29661,1,8,0:0:0:0:
192,192,29661,1,2,0:0:0:0:
448,192,29811,1,0,0:0:0:0:
320,192,29811,1,2,0:0:0:0:
192,192,29886,1,2,0:0:0:0:
448,192,29961,1,8,0:0:0:0:
64,192,29961,1,2,0:0:0:0:
192,192,30111,1,0,0:0:0:0:
320,192,30111,1,2,0:0:0:0:
448,192,30261,1,2,0:0:0:0:
64,192,30261,1,8,0:0:0:0:
192,192,30411,1,0,0:0:0:0:
320,192,30411,1,2,0:0:0:0:
448,192,30486,1,2,0:0:0:0:
64,192,30561,1,2,0:0:0:0:
320,192,30561,1,8,0:0:0:0:
192,192,30711,1,0,0:0:0:0:
448,192,30711,1,2,0:0:0:0:
64,192,30861,1,8,0:0:0:0:
320,192,30861,1,2,0:0:0:0:
192,192,31011,1,2,0:0:0:0:
448,192,31011,1,0,0:0:0:0:
320,192,31086,1,2,0:0:0:0:
448,192,31161,1,8,0:0:0:0:
64,192,31161,1,2,0:0:0:0:
320,192,31311,1,2,0:0:0:0:
192,192,31311,1,0,0:0:0:0:
448,192,31461,1,2,0:0:0:0:
64,192,31461,1,8,0:0:0:0:
192,192,31611,1,0,0:0:0:0:
320,192,31611,1,2,0:0:0:0:
448,192,31686,1,2,0:0:0:0:
64,192,31761,1,2,0:0:0:0:
192,192,31761,1,8,0:0:0:0:
448,192,31911,1,0,0:0:0:0:
320,192,31911,1,2,0:0:0:0:
64,192,32061,1,8,0:0:0:0:
192,192,32061,1,2,0:0:0:0:
320,192,32211,1,2,0:0:0:0:
448,192,32211,1,0,0:0:0:0:
192,192,32286,1,2,0:0:0:0:
320,192,32361,1,8,0:0:0:0:
64,192,32361,1,2,0:0:0:0:
448,192,32511,1,2,0:0:0:0:
192,192,32511,1,0,0:0:0:0:
320,192,32661,1,2,0:0:0:0:
64,192,32661,1,8,0:0:0:0:
448,192,32811,1,0,0:0:0:0:
192,192,32811,1,2,0:0:0:0:
320,192,32886,1,2,0:0:0:0:
64,192,32961,1,2,0:0:0:0:
448,192,32961,1,8,0:0:0:0:
192,192,33111,1,0,0:0:0:0:
320,192,33111,1,2,0:0:0:0:
64,192,33261,1,8,0:0:0:0:
320,192,33261,1,2,0:0:0:0:
448,192,33261,1,0,0:0:0:0:
320,192,33411,1,2,0:0:0:0:
448,192,33411,1,0,0:0:0:0:
64,192,33411,1,8,0:0:0:0:
64,192,33561,1,8,0:0:0:0:
448,192,33561,1,0,0:0:0:0:
320,192,33561,1,2,0:0:0:0:
320,192,33711,1,2,0:0:0:0:
64,192,33711,1,8,0:0:0:0:
448,192,33711,128,0,34461:0:0:0:0:
192,192,34461,128,0,34911:0:0:0:0:
448,192,34761,128,0,34911:0:0:0:0:
320,192,34911,128,0,35211:0:0:0:0:
64,192,35061,128,0,35211:0:0:0:0:
192,192,35211,128,0,35661:0:0:0:0:
448,192,35436,128,0,35661:0:0:0:0:
64,192,35661,128,0,36861:0:0:0:0:
