osu file format v14

[General]
AudioFilename: audio.mp3
AudioLeadIn: 0
PreviewTime: 14967
Countdown: 0
SampleSet: Soft
StackLeniency: 0.7
Mode: 0
LetterboxInBreaks: 0
WidescreenStoryboard: 1

[Editor]
Bookmarks: 15117,19917,24717
DistanceSpacing: 1.3
BeatDivisor: 4
GridSize: 4
TimelineZoom: 2.300001

[Metadata]
Title:A.N.I.C
TitleUnicode:A.N.I.C
Artist:Sum 41
ArtistUnicode:Sum 41
Creator:CaffeAmericano
Version:Hard
Source:
Tags:Does This Look Infected Deryck Whibley Dave Bakish Jason McCaslin Steve Jocz
BeatmapID:1083729
BeatmapSetID:509625

[Difficulty]
HPDrainRate:5
CircleSize:4
OverallDifficulty:6
ApproachRate:7.5
SliderMultiplier:1.3
SliderTickRate:1

[Events]
//Background and Video events
0,0,"bg.png",0,0
//Break Periods
//Storyboard Layer 0 (Background)
//Storyboard Layer 1 (Fail)
//Storyboard Layer 2 (Pass)
//Storyboard Layer 3 (Foreground)
//Storyboard Sound Samples

[TimingPoints]
717,300,4,2,1,60,1,0
24717,297.029702970297,4,2,1,60,1,0
27093,300,4,2,1,60,1,0
33843,-100,4,2,1,15,0,0

[Colours]
Combo1 : 205,210,2
Combo2 : 0,170,0
Combo3 : 117,117,117
Combo4 : 187,11,37

[HitObjects]
96,136,5367,5,0,0:0:0:0:
176,104,5517,2,0,B|180:152|180:152|164:252,1,130,6|2,0:0|0:0,0:0:0:0:
108,292,5967,1,8,0:0:0:0:
244,272,6117,2,0,L|255:205,1,65,2|8,0:0|0:0,0:0:0:0:
175,103,6417,2,0,P|203:119|235:126,1,65,2|8,0:0|0:0,0:0:0:0:
348,63,6717,6,0,B|352:111|352:111|340:192,1,130,2|2,0:0|0:0,0:0:0:0:
255,207,7167,1,8,0:0:0:0:
392,260,7317,2,0,L|470:246,1,65,2|8,0:0|0:0,0:0:0:0:
484,168,7617,2,0,L|405:154,1,65,2|8,0:0|0:0,0:0:0:0:
348,63,7917,6,0,B|300:71|300:71|196:55,1,130,2|2,0:0|0:0,0:0:0:0:
140,28,8367,1,8,0:0:0:0:
52,124,8517,2,0,L|39:194,1,65,2|8,0:0|0:0,0:0:0:0:
139,248,8817,2,0,L|128:184,1,65,2|8,0:0|0:0,0:0:0:0:
48,324,9117,6,0,B|92:316|92:316|118:334|154:336|191:316,1,130,2|2,0:0|0:0,0:0:0:0:
256,300,9567,1,8,0:0:0:0:
340,172,9717,2,0,P|404:220|404:284,1,130,2|8,0:0|0:0,0:0:0:0:
264,216,10167,1,8,0:0:0:0:
264,216,10242,1,8,0:0:0:0:
264,216,10317,6,0,L|248:128,1,65,6|0,0:0|0:0,0:0:0:0:
171,164,10617,2,0,L|201:79,1,65,2|0,0:0|0:0,0:0:0:0:
257,7,10917,2,0,L|269:71,1,65,2|0,0:0|0:0,0:0:0:0:
350,59,11217,2,0,L|319:143,1,65,2|0,0:0|0:0,0:0:0:0:
352,208,11517,6,0,L|360:238,3,32.5,2|0|0|0,0:0|0:0|0:0|0:0,0:0:0:0:
356,280,11817,2,0,L|361:312,3,32.5,2|0|0|0,0:0|0:0|0:0|0:0,0:0:0:0:
384,348,12117,2,0,P|316:336|236:356,1,130,12|12,0:0|0:0,0:0:0:0:
96,278,12717,6,0,L|170:264,1,65,6|0,0:0|0:0,0:0:0:0:
144,182,13017,2,0,L|219:188,1,65,2|0,0:0|0:0,0:0:0:0:
304,250,13317,2,0,L|239:261,1,65,2|0,0:0|0:0,0:0:0:0:
256,346,13617,2,0,L|191:340,1,65,2|0,0:0|0:0,0:0:0:0:
96,278,13917,5,8,0:0:0:0:
144,182,14067,2,0,L|129:127,5,32.5,8|8|8|8|8|8,0:0|0:0|0:0|0:0|0:0|0:0,0:0:0:0:
104,120,14517,2,0,P|180:80|240:88,1,130,8|8,0:3|0:3,0:0:0:0:
296,124,14967,1,4,2:3:0:0:
395,60,15117,6,0,B|383:136|383:136|395:204,1,130,6|2,0:0|0:0,0:0:0:0:
455,248,15567,1,8,0:0:0:0:
326,268,15717,2,0,L|315:204,1,65,2|8,0:0|0:0,0:0:0:0:
455,248,16017,2,0,L|443:312,1,65,2|8,0:0|0:0,0:0:0:0:
319,376,16317,6,0,B|247:376|247:376|179:356,1,130,2|2,0:0|0:0,0:0:0:0:
135,296,16767,1,8,0:0:0:0:
239,232,16917,2,0,L|227:168,1,65,2|8,0:0|0:0,0:0:0:0:
151,132,17217,2,0,L|139:196,1,65,2|8,0:0|0:0,0:0:0:0:
84,68,17517,6,0,B|140:52|140:52|224:52,1,130,2|2,0:0|0:0,0:0:0:0:
288,92,17967,1,8,0:0:0:0:
416,64,18117,2,0,L|404:0,1,65,2|8,0:0|0:0,0:0:0:0:
288,92,18417,2,0,L|299:156,1,65,2|8,0:0|0:0,0:0:0:0:
450,241,18717,6,0,B|406:233|406:233|380:251|344:253|324:240,1,130,2|2,0:0|0:0,0:0:0:0:
236,240,19167,1,8,0:0:0:0:
105,134,19317,2,0,P|164:115|212:155,1,130,2|8,0:0|0:0,0:0:0:0:
37,198,19767,1,8,0:0:0:0:
37,198,19842,1,8,0:0:0:0:
37,198,19917,6,0,L|16:120,1,65,6|0,0:0|0:0,0:0:0:0:
105,134,20217,2,0,L|125:56,1,65,2|0,0:0|0:0,0:0:0:0:
193,158,20517,2,0,L|213:235,1,65,2|0,0:0|0:0,0:0:0:0:
125,222,20817,2,0,L|104:299,1,65,2|0,0:0|0:0,0:0:0:0:
217,364,21117,6,0,L|227:325,3,32.5,2|0|0|0,0:0|0:0|0:0|0:0,0:0:0:0:
213,292,21417,2,0,L|223:253,3,32.5,2|0|0|0,0:0|0:0|0:0|0:0,0:0:0:0:
209,220,21717,2,0,P|273:198|357:224,1,130,4|4,0:0|0:0,0:0:0:0:
368,368,22317,6,0,L|445:388,1,65,6|0,0:0|0:0,0:0:0:0:
432,300,22617,2,0,L|509:279,1,65,2|0,0:0|0:0,0:0:0:0:
408,212,22917,2,0,L|330:191,1,65,2|0,0:0|0:0,0:0:0:0:
344,280,23217,2,0,L|266:300,1,65,2|0,0:0|0:0,0:0:0:0:
144,252,23517,5,8,0:0:0:0:
220,160,23667,2,0,L|208:117,5,32.5,8|8|8|8|8|8,0:0|0:0|0:0|0:0|0:0|0:0,0:0:0:0:
184,96,24117,2,0,P|272:64|320:68,1,130,8|4,0:3|0:3,0:0:0:0:
432,136,24567,1,8,0:0:0:0:
343,232,24717,6,0,L|332:168,1,65,6|8,0:0|0:0,0:0:0:0:
435,284,25014,2,0,L|424:220,1,65,2|8,0:0|0:0,0:0:0:0:
260,246,25311,2,0,P|294:300|356:316,1,130,2|2,0:0|0:0,0:0:0:0:
356,160,25756,1,8,0:0:0:0:
228,156,25905,6,0,L|153:169,1,65,2|8,0:0|0:0,0:0:0:0:
176,252,26202,2,0,L|100:245,1,65,2|8,0:0|0:0,0:0:0:0:
76,164,26499,2,0,P|87:122|121:94,2,65,2|8|2,0:0|0:0|0:0,0:0:0:0:
180,84,26944,1,8,0:0:0:0:
264,240,27093,6,0,L|243:317,1,65,2|8,0:0|0:0,0:0:0:0:
360,201,27393,2,0,L|344:264,1,65,2|8,0:0|0:0,0:0:0:0:
280,136,27693,2,0,P|328:120|416:140,1,130,2|2,0:0|0:0,0:0:0:0:
496,232,28143,1,8,0:0:0:0:
384,355,28293,6,0,L|320:344,1,65,2|8,0:0|0:0,0:0:0:0:
344,264,28593,2,0,L|279:269,1,65,2|8,0:0|0:0,0:0:0:0:
232,348,28893,1,2,0:0:0:0:
188,264,29043,2,0,L|200:217,5,32.5,8|0|8|8|8|8,0:0|0:0|0:0|0:0|0:0|0:0,0:0:0:0:
220,196,29493,6,0,L|206:117,1,65,6|8,0:0|0:0,0:0:0:0:
324,192,29793,2,0,L|312:256,1,65,2|8,0:0|0:0,0:0:0:0:
200,352,30093,2,0,P|262:336|326:344,1,130,2|2,0:0|0:0,0:0:0:0:
456,292,30543,1,8,0:0:0:0:
492,160,30693,6,0,L|473:90,1,65,2|8,0:0|0:0,0:0:0:0:
396,40,30993,2,0,P|364:32|332:40,1,65,2|8,0:0|0:0,0:0:0:0:
260,104,31293,2,0,L|243:166,2,65,2|8|2,0:0|0:0|0:0,0:0:0:0:
316,208,31743,1,8,0:0:0:0:
126,156,31893,6,0,P|147:131|176:116,1,65,2|8,0:0|0:0,0:0:0:0:
180,240,32193,2,0,L|93:255,1,65,2|8,0:0|0:0,0:0:0:0:
243,166,32493,2,0,B|268:224|268:224|267:306,1,130,2|2,0:0|0:0,0:0:0:0:
356,348,32943,6,0,L|356:272,1,65,8|2,0:0|0:0,0:0:0:0:
424,232,33243,1,8,0:0:0:0:
368,168,33393,1,8,0:0:0:0:
428,108,33543,1,8,0:0:0:0:
372,44,33693,1,2,0:0:0:0:
256,192,33843,12,0,36993,0:0:0:0:
