osu file format v14

[General]
AudioFilename: audio.mp3
AudioLeadIn: 0
PreviewTime: 14967
Countdown: 0
SampleSet: Soft
StackLeniency: 0.7
Mode: 0
LetterboxInBreaks: 0
WidescreenStoryboard: 1

[Editor]
Bookmarks: 6117,15117,19917,24717
DistanceSpacing: 1.1
BeatDivisor: 4
GridSize: 4
TimelineZoom: 2.300001

[Metadata]
Title:A.N.I.C
TitleUnicode:A.N.I.C
Artist:Sum 41
ArtistUnicode:Sum 41
Creator:CaffeAmericano
Version:Expert
Source:
Tags:Does This Look Infected Deryck Whibley Dave Bakish Jason McCaslin Steve Jocz
BeatmapID:1090922
BeatmapSetID:509625

[Difficulty]
HPDrainRate:7
CircleSize:4
OverallDifficulty:8.2
ApproachRate:9.2
SliderMultiplier:1.6
SliderTickRate:1

[Events]
//Background and Video events
0,0,"bg.png",0,0
//Break Periods
//Storyboard Layer 0 (Background)
//Storyboard Layer 1 (Fail)
//Storyboard Layer 2 (Pass)
//Storyboard Layer 3 (Foreground)
//Storyboard Sound Samples

[TimingPoints]
717,300,4,2,1,60,1,0
10317,-125,4,2,1,60,0,0
14517,-100,4,2,1,60,0,0
19917,-125,4,2,1,60,0,0
24117,-100,4,2,1,60,0,0
24717,297.029702970297,4,2,1,60,1,0
27093,300,4,2,1,60,1,0
33768,-100,4,2,1,15,0,0

[Colours]
Combo1 : 205,210,2
Combo2 : 0,170,0
Combo3 : 117,117,117
Combo4 : 187,11,37

[HitObjects]
160,168,4317,6,0,P|132:112|188:140,1,160,0|0,0:0|0:0,0:0:0:0:
200,180,4917,1,0,0:0:0:0:
208,228,5217,1,0,0:0:0:0:
208,228,5367,1,0,0:0:0:0:
320,168,5517,6,0,L|333:89,1,80,6|8,0:0|0:0,0:0:0:0:
188,135,5817,1,2,0:0:0:0:
293,268,5967,1,8,0:0:0:0:
451,131,6117,2,0,L|423:55,1,80,2|8,0:0|0:0,0:0:0:0:
320,168,6417,1,2,0:0:0:0:
477,231,6567,1,8,0:0:0:0:
320,72,6717,6,0,P|239:47|163:79,1,160,2|2,0:0|0:0,0:0:0:0:
96,196,7167,1,8,0:0:0:0:
280,152,7317,2,0,P|295:197|217:180,1,160,2|2,0:0|0:0,0:0:0:0:
171,72,7767,1,0,0:0:0:0:
24,264,7917,6,0,L|37:342,1,80,2|8,0:0|0:0,0:0:0:0:
159,249,8217,1,2,0:0:0:0:
15,160,8367,1,8,0:0:0:0:
164,280,8517,6,0,L|229:325,1,80,2|8,0:0|0:0,0:0:0:0:
248,173,8817,1,2,0:0:0:0:
83,212,8967,1,8,0:0:0:0:
308,248,9117,2,0,L|386:234,1,80,2|0,0:0|0:0,0:0:0:0:
160,108,9417,2,0,L|81:94,1,80,2|8,0:0|0:0,0:0:0:0:
200,260,9717,2,0,L|213:181,1,80,2|8,0:0|0:0,0:0:0:0:
48,284,10017,1,8,0:0:0:0:
70,317,10092,1,8,0:0:0:0:
101,341,10167,1,8,0:0:0:0:
138,355,10242,1,8,0:0:0:0:
178,356,10317,6,0,P|236:332|316:344,1,128,6|2,0:0|0:0,0:0:0:0:
436,280,10767,1,0,0:0:0:0:
436,280,10842,1,0,0:0:0:0:
436,280,10917,2,0,P|383:245|302:243,1,128,2|2,0:0|0:0,0:0:0:0:
144,228,11367,1,0,0:0:0:0:
144,228,11442,1,0,0:0:0:0:
144,228,11517,6,0,P|190:184|269:168,1,128,2|2,0:0|0:0,0:0:0:0:
420,112,11967,1,0,0:0:0:0:
420,112,12042,1,0,0:0:0:0:
420,112,12117,2,0,L|399:226,1,96,12|0,0:0|0:0,0:0:0:0:
436,280,12417,2,0,L|413:365,1,64,12|0,0:0|0:0,0:0:0:0:
264,288,12717,6,0,P|206:264|126:276,1,128,6|2,0:0|0:0,0:0:0:0:
6,212,13167,1,0,0:0:0:0:
6,212,13242,1,0,0:0:0:0:
6,212,13317,2,0,P|59:177|140:175,1,128,2|2,0:0|0:0,0:0:0:0:
298,160,13767,1,0,0:0:0:0:
298,160,13842,1,0,0:0:0:0:
298,160,13917,5,8,0:0:0:0:
273,139,13992,1,8,0:0:0:0:
244,126,14067,1,8,0:0:0:0:
212,126,14142,1,8,0:0:0:0:
181,136,14217,1,8,0:0:0:0:
151,145,14292,1,8,0:0:0:0:
119,143,14367,1,8,0:0:0:0:
91,128,14442,1,8,0:0:0:0:
68,106,14517,6,0,L|79:41,1,40,8|0,0:3|0:0,0:0:0:0:
176,20,14667,2,0,L|187:84,1,40,4|0,0:3|0:0,0:0:0:0:
136,200,14817,2,0,L|147:135,1,40,8|0,0:3|0:0,0:0:0:0:
244,114,14967,2,0,L|255:178,1,40,4|0,2:3|2:0,0:0:0:0:
207,307,15117,6,0,L|282:280,1,80,6|8,0:0|0:0,0:0:0:0:
384,176,15417,1,2,0:0:0:0:
444,344,15567,1,8,0:0:0:0:
304,200,15717,1,2,0:0:0:0:
404,64,15867,1,8,0:0:0:0:
364,260,16017,1,2,0:0:0:0:
196,236,16167,1,8,0:0:0:0:
384,176,16317,6,0,P|447:236|416:328,1,160,2|2,0:0|0:0,0:0:0:0:
282,280,16767,1,8,0:0:0:0:
168,156,16917,2,0,L|182:73,1,80,2|8,0:0|0:0,0:0:0:0:
312,28,17217,2,0,L|326:110,1,80,2|8,0:0|0:0,0:0:0:0:
312,136,17442,1,0,0:0:0:0:
304,168,17517,6,0,L|318:250,1,80,2|8,0:0|0:0,0:0:0:0:
450,193,17817,1,2,0:0:0:0:
353,370,17967,1,8,0:0:0:0:
149,237,18117,1,2,0:0:0:0:
338,270,18267,1,8,0:0:0:0:
101,326,18417,1,2,0:0:0:0:
71,126,18567,1,8,0:0:0:0:
232,304,18717,6,0,L|217:386,1,80,2|0,0:0|0:0,0:0:0:0:
450,193,19017,2,0,L|436:114,1,80,2|8,0:0|0:0,0:0:0:0:
212,180,19317,2,0,P|256:196|300:196,1,80,2|8,0:0|0:0,0:0:0:0:
320,184,19542,1,8,0:0:0:0:
320,184,19617,1,8,0:0:0:0:
172,105,19767,1,8,0:0:0:0:
147,125,19842,1,8,0:0:0:0:
132,153,19917,6,0,P|68:124|0:136,1,128,6|2,0:0|0:0,0:0:0:0:
116,272,20367,1,0,0:0:0:0:
116,272,20442,1,0,0:0:0:0:
116,272,20517,2,0,P|180:242|248:254,1,128,2|2,0:0|0:0,0:0:0:0:
368,108,20967,1,0,0:0:0:0:
368,108,21042,1,0,0:0:0:0:
368,108,21117,6,0,P|304:102|248:131,1,128,2|2,0:0|0:0,0:0:0:0:
356,278,21567,1,0,0:0:0:0:
356,278,21642,1,0,0:0:0:0:
356,278,21717,2,0,L|339:183,1,96,4|0,0:0|0:0,0:0:0:0:
368,108,22017,2,0,L|351:46,1,64,4|0,0:0|0:0,0:0:0:0:
236,255,22317,6,0,P|300:284|368:272,1,128,6|2,0:0|0:0,0:0:0:0:
272,121,22767,1,0,0:0:0:0:
272,121,22842,1,0,0:0:0:0:
272,121,22917,2,0,P|208:151|140:139,1,128,2|2,0:0|0:0,0:0:0:0:
20,285,23367,1,0,0:0:0:0:
20,285,23442,1,0,0:0:0:0:
20,285,23517,5,8,0:0:0:0:
47,261,23592,1,8,0:0:0:0:
79,247,23667,1,8,0:0:0:0:
114,247,23742,1,8,0:0:0:0:
148,258,23817,1,8,0:0:0:0:
181,268,23892,1,8,0:0:0:0:
216,266,23967,1,8,0:0:0:0:
247,249,24042,1,8,0:0:0:0:
276,228,24117,6,0,L|264:164,1,40,8|0,0:3|0:0,0:0:0:0:
152,144,24267,2,0,L|140:207,1,40,0|0,0:0|0:0,0:0:0:0:
256,88,24417,2,0,L|244:24,1,40,4|0,0:3|0:0,0:0:0:0:
132,4,24567,2,0,L|120:67,1,40,8|0,0:0|0:0,0:0:0:0:
40,144,24717,6,0,L|54:226,1,80,6|8,0:0|0:0,0:0:0:0:
192,320,25014,2,0,L|205:241,1,80,2|8,0:0|0:0,0:0:0:0:
28,320,25311,2,0,L|110:306,1,80,2|8,0:0|0:0,0:0:0:0:
260,160,25608,2,0,L|181:146,1,80,2|8,0:0|0:0,0:0:0:0:
288,260,25905,5,2,0:0:0:0:
432,116,26053,1,8,0:0:0:0:
260,160,26202,1,2,0:0:0:0:
468,204,26350,1,8,0:0:0:0:
320,56,26499,2,0,P|264:48|220:52,1,80,2|8,0:0|0:0,0:0:0:0:
104,168,26796,1,2,0:0:0:0:
104,168,26870,1,2,0:0:0:0:
104,168,26944,1,8,0:0:0:0:
100,332,27093,6,0,L|190:316,1,80,2|8,0:0|0:0,0:0:0:0:
293,164,27393,2,0,L|206:149,1,80,2|8,0:0|0:0,0:0:0:0:
293,345,27693,2,8,L|277:254,1,80,2|8,0:0|0:0,0:0:0:0:
117,89,27993,2,0,L|102:175,1,80,2|8,0:0|0:0,0:0:0:0:
208,308,28293,5,2,0:0:0:0:
368,168,28443,1,8,0:0:0:0:
176,224,28593,1,2,0:0:0:0:
424,240,28743,1,8,0:0:0:0:
184,132,28893,1,2,0:0:0:0:
326,273,29043,1,8,0:0:0:0:
302,251,29118,1,0,0:0:0:0:
273,234,29193,1,10,0:0:0:0:
242,224,29268,1,8,0:0:0:0:
209,221,29343,1,8,0:0:0:0:
176,224,29418,1,8,0:0:0:0:
144,235,29493,6,0,P|112:192|112:136,1,80,6|8,0:0|0:0,0:0:0:0:
224,24,29793,2,0,P|256:67|256:123,1,80,2|8,0:0|0:0,0:0:0:0:
29,118,30093,2,0,P|64:86|110:74,1,80,2|8,0:0|0:0,0:0:0:0:
338,141,30393,2,0,P|302:172|256:184,1,80,2|8,0:0|0:0,0:0:0:0:
348,24,30693,5,2,0:0:0:0:
488,168,30843,1,8,0:0:0:0:
260,92,30993,1,2,0:0:0:0:
456,56,31143,1,8,0:0:0:0:
396,240,31293,1,2,0:0:0:0:
352,116,31443,1,8,0:0:0:0:
492,264,31593,1,2,0:0:0:0:
492,264,31668,1,2,0:0:0:0:
492,264,31743,1,8,0:0:0:0:
300,320,31893,6,0,P|244:300|196:300,1,80,2|8,0:0|0:0,0:0:0:0:
60,256,32193,2,0,P|116:236|164:236,1,80,2|8,0:0|0:0,0:0:0:0:
320,204,32493,2,0,P|264:184|216:184,1,80,2|8,0:0|0:0,0:0:0:0:
32,132,32793,2,0,P|88:112|136:112,1,80,2|8,0:0|0:0,0:0:0:0:
260,64,33093,5,2,0:0:0:0:
368,296,33243,1,8,0:0:0:0:
136,234,33393,1,8,0:0:0:0:
408,144,33543,1,8,0:0:0:0:
108,110,33693,1,2,0:0:0:0:
256,192,33768,12,0,36993,0:0:0:0:
